osu file format v14

[General]
AudioFilename: audio.mp3
AudioLeadIn: 0
PreviewTime: 173337
Countdown: 0
SampleSet: Soft
StackLeniency: 0.7
Mode: 3
LetterboxInBreaks: 0
EpilepsyWarning: 1
SpecialStyle: 0
WidescreenStoryboard: 1

[Editor]
DistanceSpacing: 1.2
BeatDivisor: 4
GridSize: 4
TimelineZoom: 1.9

[Metadata]
Title:Uchouten Vivace
TitleUnicode:有頂天ビバーチェ
Artist:yuikonnu
ArtistUnicode:ゆいこんぬ
Creator:Tailsdk
Version:Expert
Source:ポップンリズミン
Tags:gumi last note. vocaloid ゆいこ Yuiko Mikagura School Suite ミカグラ学園組曲 Mikagura Gakuen Kumikyoku Cover Style Japanese QWCE-00288 セツナコード Setsuna trip エグジットチューンズ EXIT TUNES コミックマーケット84 C84 Comiket Ecstatic 虹色ショコラティエ *WHITE-CHOCOLATE* Asherz007 GITADORA Tri-Boost rock pop'n rhythmin SOUND VOLTEX II -infinite infection- sdvx 2
BeatmapID:2110247
BeatmapSetID:1000007

[Difficulty]
HPDrainRate:8
CircleSize:7
OverallDifficulty:8.5
ApproachRate:5
SliderMultiplier:1.4
SliderTickRate:1

[Events]
//Background and Video events
Video,14,"uchouten+vivace.mp4"
0,0,"Uchouten.png",0,0
//Break Periods
//Storyboard Layer 0 (Background)
//Storyboard Layer 1 (Fail)
//Storyboard Layer 2 (Pass)
//Storyboard Layer 3 (Foreground)
//Storyboard Layer 4 (Overlay)
//Storyboard Sound Samples

[TimingPoints]
556,225.563909774436,4,2,1,65,1,0
7774,-100,4,2,1,65,0,1
14540,-100,4,2,1,65,0,0
14992,-100,4,2,1,65,0,1
22210,-100,4,2,1,65,0,0
65518,-100,4,2,1,65,0,1
72736,-100,4,2,1,65,0,0
76345,-100,4,2,1,65,0,1
83563,-100,4,2,1,65,0,0
112435,-100,4,2,1,65,0,1
119653,-100,4,2,1,65,0,0
123262,-100,4,2,1,65,0,1
129578,-100,4,2,1,65,0,0
130480,-100,4,2,1,65,0,1
144916,-100,4,2,1,65,0,0
162962,-100,4,2,1,65,0,1
166571,-100,4,2,1,65,0,0
170180,-100,4,2,1,65,0,1
173563,-100,4,2,1,65,0,0
173789,-100,4,2,1,65,0,1
181007,-100,4,2,1,65,0,0
184616,-100,4,2,1,65,0,1
190931,-100,4,2,1,65,0,0
191834,-100,4,2,1,65,0,1
198601,-100,4,2,1,65,0,0
199052,-100,4,2,1,65,0,1
208977,-100,4,2,1,65,0,0

[HitObjects]
182,192,556,5,0,0:0:0:0:
475,192,556,1,0,0:0:0:0:
182,192,668,1,0,0:0:0:0:
36,192,781,1,0,0:0:0:0:
329,192,781,1,0,0:0:0:0:
109,192,894,1,0,0:0:0:0:
329,192,894,1,0,0:0:0:0:
182,192,1007,1,0,0:0:0:0:
475,192,1007,1,0,0:0:0:0:
109,192,1232,1,0,0:0:0:0:
402,192,1232,1,0,0:0:0:0:
36,192,1345,1,0,0:0:0:0:
402,192,1345,1,0,0:0:0:0:
182,192,1571,1,0,0:0:0:0:
329,192,1571,1,0,0:0:0:0:
182,192,1683,1,0,0:0:0:0:
475,192,1796,1,0,0:0:0:0:
109,192,1909,1,0,0:0:0:0:
402,192,1909,1,0,0:0:0:0:
109,192,2134,1,0,0:0:0:0:
402,192,2134,1,0,0:0:0:0:
36,192,2360,1,0,0:0:0:0:
329,192,2360,1,0,0:0:0:0:
329,192,2473,1,0,0:0:0:0:
182,192,2586,1,0,0:0:0:0:
475,192,2586,1,0,0:0:0:0:
182,192,2698,1,0,0:0:0:0:
402,192,2698,1,0,0:0:0:0:
36,192,2811,1,0,0:0:0:0:
329,192,2811,1,0,0:0:0:0:
109,192,3037,1,0,0:0:0:0:
475,192,3037,1,0,0:0:0:0:
109,192,3149,1,0,0:0:0:0:
402,192,3149,1,0,0:0:0:0:
36,192,3375,1,0,0:0:0:0:
329,192,3375,1,0,0:0:0:0:
329,192,3488,1,0,0:0:0:0:
182,192,3601,1,0,0:0:0:0:
109,192,3713,1,0,0:0:0:0:
402,192,3713,1,0,0:0:0:0:
36,192,3939,1,0,0:0:0:0:
256,192,3939,1,0,0:0:0:0:
182,192,4165,1,0,0:0:0:0:
402,192,4165,1,0,0:0:0:0:
402,192,4277,1,0,0:0:0:0:
36,192,4390,1,0,0:0:0:0:
256,192,4390,1,0,0:0:0:0:
36,192,4503,1,0,0:0:0:0:
329,192,4503,1,0,0:0:0:0:
182,192,4616,1,0,0:0:0:0:
475,192,4616,1,0,0:0:0:0:
109,192,4841,1,0,0:0:0:0:
329,192,4841,1,0,0:0:0:0:
182,192,4954,1,0,0:0:0:0:
329,192,4954,1,0,0:0:0:0:
36,192,5180,1,0,0:0:0:0:
256,192,5180,1,0,0:0:0:0:
36,192,5292,1,0,0:0:0:0:
182,192,5405,1,0,0:0:0:0:
109,192,5518,1,0,0:0:0:0:
402,192,5518,1,0,0:0:0:0:
109,192,5743,1,0,0:0:0:0:
402,192,5743,1,0,0:0:0:0:
109,192,5969,1,0,0:0:0:0:
402,192,5969,1,0,0:0:0:0:
402,192,6082,1,0,0:0:0:0:
36,192,6195,1,0,0:0:0:0:
182,192,6195,1,0,0:0:0:0:
36,192,6307,1,0,0:0:0:0:
182,192,6307,1,0,0:0:0:0:
329,192,6420,1,0,0:0:0:0:
475,192,6420,1,0,0:0:0:0:
256,192,6646,1,0,0:0:0:0:
402,192,6646,1,0,0:0:0:0:
256,192,6759,1,0,0:0:0:0:
402,192,6759,1,0,0:0:0:0:
182,192,6984,1,0,0:0:0:0:
402,192,6984,1,0,0:0:0:0:
109,192,7097,1,8,0:0:0:0:
475,192,7097,1,0,0:0:0:0:
109,192,7210,1,8,0:0:0:0:
36,192,7322,1,2,0:0:0:0:
256,192,7322,1,0,0:0:0:0:
329,192,7322,1,0,0:0:0:0:
402,192,7322,1,0,0:0:0:0:
182,192,7548,1,0,0:0:0:0:
36,192,7774,1,8,0:0:0:0:
329,192,7774,1,4,0:0:0:0:
475,192,7774,1,0,0:0:0:0:
182,192,7886,1,0,0:0:0:0:
329,192,7886,1,0,0:0:0:0:
109,192,7999,1,2,0:0:0:0:
256,192,7999,1,0,0:0:0:0:
475,192,7999,1,0,0:0:0:0:
109,192,8112,1,8,0:0:0:0:
329,192,8112,1,0,0:0:0:0:
36,192,8225,1,0,0:0:0:0:
182,192,8225,1,0,0:0:0:0:
402,192,8225,1,0,0:0:0:0:
256,192,8337,1,8,0:0:0:0:
329,192,8337,1,0,0:0:0:0:
36,192,8450,1,2,0:0:0:0:
109,192,8450,1,0,0:0:0:0:
475,192,8450,1,0,0:0:0:0:
36,192,8563,1,0,0:0:0:0:
109,192,8563,1,0,0:0:0:0:
402,192,8563,1,0,0:0:0:0:
182,192,8676,1,8,0:0:0:0:
329,192,8676,1,0,0:0:0:0:
256,192,8789,1,8,0:0:0:0:
475,192,8789,1,0,0:0:0:0:
36,192,8901,1,2,0:0:0:0:
182,192,8901,1,0,0:0:0:0:
475,192,8901,1,0,0:0:0:0:
36,192,9014,1,8,0:0:0:0:
109,192,9014,1,0,0:0:0:0:
256,192,9127,1,0,0:0:0:0:
402,192,9127,1,0,0:0:0:0:
182,192,9240,1,8,0:0:0:0:
329,192,9240,1,0,0:0:0:0:
109,192,9352,1,2,0:0:0:0:
329,192,9352,1,0,0:0:0:0:
475,192,9352,1,0,0:0:0:0:
256,192,9465,1,0,0:0:0:0:
36,192,9578,1,8,0:0:0:0:
402,192,9578,1,0,0:0:0:0:
36,192,9691,1,0,0:0:0:0:
329,192,9691,1,0,0:0:0:0:
182,192,9804,1,2,0:0:0:0:
256,192,9804,1,0,0:0:0:0:
475,192,9804,1,0,0:0:0:0:
329,192,9916,1,8,0:0:0:0:
475,192,9916,1,0,0:0:0:0:
36,192,10029,1,0,0:0:0:0:
109,192,10029,1,0,0:0:0:0:
182,192,10029,1,0,0:0:0:0:
256,192,10142,1,8,0:0:0:0:
329,192,10142,1,0,0:0:0:0:
36,192,10255,1,2,0:0:0:0:
182,192,10255,1,0,0:0:0:0:
475,192,10255,1,0,0:0:0:0:
36,192,10368,1,0,0:0:0:0:
182,192,10368,1,0,0:0:0:0:
402,192,10368,1,0,0:0:0:0:
329,192,10480,1,8,0:0:0:0:
475,192,10480,1,0,0:0:0:0:
109,192,10593,1,8,0:0:0:0:
256,192,10593,1,0,0:0:0:0:
109,192,10706,1,2,0:0:0:0:
402,192,10706,1,0,0:0:0:0:
475,192,10706,1,0,0:0:0:0:
256,192,10819,1,8,0:0:0:0:
402,192,10819,1,0,0:0:0:0:
36,192,10931,1,0,0:0:0:0:
182,192,10931,1,0,0:0:0:0:
329,192,10931,1,0,0:0:0:0:
109,192,11044,1,8,0:0:0:0:
256,192,11044,1,0,0:0:0:0:
329,192,11157,1,2,0:0:0:0:
402,192,11157,1,0,0:0:0:0:
475,192,11157,1,0,0:0:0:0:
329,192,11270,1,2,0:0:0:0:
402,192,11270,1,0,0:0:0:0:
475,192,11270,1,0,0:0:0:0:
36,192,11383,1,8,0:0:0:0:
109,192,11383,1,4,0:0:0:0:
256,192,11383,1,0,0:0:0:0:
109,192,11495,1,0,0:0:0:0:
329,192,11495,1,0,0:0:0:0:
182,192,11608,1,2,0:0:0:0:
402,192,11608,1,0,0:0:0:0:
475,192,11608,1,0,0:0:0:0:
36,192,11721,1,8,0:0:0:0:
402,192,11721,1,0,0:0:0:0:
109,192,11834,1,0,0:0:0:0:
182,192,11834,1,0,0:0:0:0:
256,192,11834,1,0,0:0:0:0:
329,192,11946,1,8,0:0:0:0:
402,192,11946,1,0,0:0:0:0:
36,192,12059,1,2,0:0:0:0:
109,192,12059,1,0,0:0:0:0:
182,192,12059,1,0,0:0:0:0:
109,192,12172,1,0,0:0:0:0:
182,192,12172,1,0,0:0:0:0:
475,192,12172,1,0,0:0:0:0:
36,192,12285,1,8,0:0:0:0:
329,192,12285,1,0,0:0:0:0:
256,192,12398,1,8,0:0:0:0:
402,192,12398,1,0,0:0:0:0:
36,192,12510,1,2,0:0:0:0:
182,192,12510,1,0,0:0:0:0:
402,192,12510,1,0,0:0:0:0:
36,192,12623,1,8,0:0:0:0:
256,192,12623,1,0,0:0:0:0:
329,192,12736,1,0,0:0:0:0:
402,192,12736,1,0,0:0:0:0:
475,192,12736,1,0,0:0:0:0:
182,192,12849,1,8,0:0:0:0:
256,192,12849,1,0,0:0:0:0:
36,192,12962,1,2,0:0:0:0:
109,192,12962,1,0,0:0:0:0:
402,192,12962,1,0,0:0:0:0:
475,192,13074,1,0,0:0:0:0:
182,192,13187,1,8,0:0:0:0:
329,192,13187,1,4,0:0:0:0:
109,192,13300,1,0,0:0:0:0:
329,192,13300,1,0,0:0:0:0:
36,192,13413,1,2,0:0:0:0:
402,192,13413,1,0,0:0:0:0:
475,192,13413,1,0,0:0:0:0:
36,192,13525,1,8,0:0:0:0:
256,192,13525,1,0,0:0:0:0:
329,192,13638,1,0,0:0:0:0:
402,192,13638,1,0,0:0:0:0:
475,192,13638,1,0,0:0:0:0:
36,192,13751,1,8,0:0:0:0:
182,192,13751,1,0,0:0:0:0:
256,192,13864,1,2,0:0:0:0:
402,192,13864,1,0,0:0:0:0:
475,192,13864,1,0,0:0:0:0:
182,192,13977,1,0,0:0:0:0:
402,192,13977,1,0,0:0:0:0:
475,192,13977,1,0,0:0:0:0:
36,192,14089,1,8,0:0:0:0:
256,192,14089,1,0,0:0:0:0:
36,192,14202,1,8,0:0:0:0:
329,192,14202,1,0,0:0:0:0:
109,192,14315,1,2,0:0:0:0:
402,192,14315,1,0,0:0:0:0:
475,192,14315,1,0,0:0:0:0:
182,192,14428,1,8,0:0:0:0:
402,192,14428,1,0,0:0:0:0:
36,192,14540,1,2,0:0:0:0:
109,192,14540,1,0,0:0:0:0:
256,192,14540,1,0,0:0:0:0:
36,192,14653,1,0,0:0:0:100:tom.wav
109,192,14653,1,0,0:0:0:0:
182,192,14766,1,0,0:0:0:100:tom.wav
329,192,14766,1,0,0:0:0:0:
402,192,14766,1,0,0:0:0:0:
329,192,14879,1,0,0:0:0:100:tom.wav
402,192,14879,1,0,0:0:0:0:
36,192,14992,1,8,0:0:0:0:
109,192,14992,1,4,0:0:0:0:
256,192,14992,1,0,0:0:0:0:
109,192,15104,1,0,0:0:0:0:
329,192,15104,1,0,0:0:0:0:
182,192,15217,1,2,0:0:0:0:
402,192,15217,1,0,0:0:0:0:
475,192,15217,1,0,0:0:0:0:
36,192,15330,1,8,0:0:0:0:
402,192,15330,1,0,0:0:0:0:
109,192,15443,1,0,0:0:0:0:
256,192,15443,1,0,0:0:0:0:
329,192,15443,1,0,0:0:0:0:
36,192,15555,1,8,0:0:0:0:
182,192,15555,1,0,0:0:0:0:
256,192,15668,1,2,0:0:0:0:
329,192,15668,1,0,0:0:0:0:
475,192,15668,1,0,0:0:0:0:
109,192,15781,1,0,0:0:0:0:
329,192,15781,1,0,0:0:0:0:
475,192,15781,1,0,0:0:0:0:
182,192,15894,1,8,0:0:0:0:
256,192,15894,1,0,0:0:0:0:
36,192,16007,1,8,0:0:0:0:
109,192,16007,1,0,0:0:0:0:
109,192,16119,1,2,0:0:0:0:
329,192,16119,1,0,0:0:0:0:
402,192,16119,1,0,0:0:0:0:
36,192,16232,1,8,0:0:0:0:
329,192,16232,1,0,0:0:0:0:
182,192,16345,1,0,0:0:0:0:
256,192,16345,1,0,0:0:0:0:
475,192,16345,1,0,0:0:0:0:
109,192,16458,1,8,0:0:0:0:
329,192,16458,1,0,0:0:0:0:
36,192,16571,1,2,0:0:0:0:
182,192,16571,1,0,0:0:0:0:
402,192,16571,1,0,0:0:0:0:
256,192,16683,1,0,0:0:0:0:
475,192,16683,1,0,0:0:0:0:
109,192,16796,1,8,0:0:0:0:
329,192,16796,1,0,0:0:0:0:
109,192,16909,1,0,0:0:0:0:
475,192,16909,1,0,0:0:0:0:
36,192,17022,1,2,0:0:0:0:
182,192,17022,1,0,0:0:0:0:
329,192,17022,1,0,0:0:0:0:
256,192,17134,1,8,0:0:0:0:
329,192,17134,1,0,0:0:0:0:
36,192,17247,1,0,0:0:0:0:
109,192,17247,1,0,0:0:0:0:
475,192,17247,1,0,0:0:0:0:
182,192,17360,1,8,0:0:0:0:
402,192,17360,1,0,0:0:0:0:
36,192,17473,1,2,0:0:0:0:
256,192,17473,1,0,0:0:0:0:
329,192,17473,1,0,0:0:0:0:
36,192,17586,1,0,0:0:0:0:
475,192,17586,1,0,0:0:0:0:
182,192,17698,1,8,0:0:0:0:
256,192,17698,1,0,0:0:0:0:
109,192,17811,1,8,0:0:0:0:
402,192,17811,1,0,0:0:0:0:
109,192,17924,1,2,0:0:0:0:
329,192,17924,1,0,0:0:0:0:
475,192,17924,1,0,0:0:0:0:
329,192,18037,1,8,0:0:0:0:
36,192,18149,1,0,0:0:0:0:
109,192,18149,1,0,0:0:0:0:
256,192,18149,1,0,0:0:0:0:
402,192,18262,1,8,0:0:0:0:
475,192,18262,1,0,0:0:0:0:
36,192,18375,1,2,0:0:0:0:
109,192,18375,1,0,0:0:0:0:
182,192,18375,1,0,0:0:0:0:
36,192,18488,1,2,0:0:0:0:
109,192,18488,1,0,0:0:0:0:
182,192,18488,1,0,0:0:0:0:
329,192,18601,1,8,0:0:0:0:
402,192,18601,1,0,0:0:0:0:
475,192,18601,1,0,0:0:0:0:
182,192,18713,1,0,0:0:0:0:
329,192,18713,1,0,0:0:0:0:
36,192,18826,1,2,0:0:0:0:
109,192,18826,1,0,0:0:0:0:
402,192,18826,1,0,0:0:0:0:
109,192,18939,1,8,0:0:0:0:
256,192,18939,1,0,0:0:0:0:
182,192,19052,1,0,0:0:0:0:
329,192,19052,1,0,0:0:0:0:
475,192,19052,1,0,0:0:0:0:
36,192,19165,1,8,0:0:0:0:
109,192,19165,1,0,0:0:0:0:
256,192,19277,1,2,0:0:0:0:
402,192,19277,1,0,0:0:0:0:
475,192,19277,1,0,0:0:0:0:
182,192,19390,1,0,0:0:0:0:
256,192,19390,1,0,0:0:0:0:
402,192,19390,1,0,0:0:0:0:
36,192,19503,1,8,0:0:0:0:
109,192,19503,1,0,0:0:0:0:
329,192,19616,1,8,0:0:0:0:
475,192,19616,1,0,0:0:0:0:
109,192,19728,1,2,0:0:0:0:
182,192,19728,1,0,0:0:0:0:
329,192,19728,1,0,0:0:0:0:
109,192,19841,1,8,0:0:0:0:
256,192,19841,1,0,0:0:0:0:
329,192,19954,1,0,0:0:0:0:
402,192,19954,1,0,0:0:0:0:
475,192,19954,1,0,0:0:0:0:
182,192,20067,1,8,0:0:0:0:
36,192,20180,1,2,0:0:0:0:
109,192,20180,1,0,0:0:0:0:
329,192,20180,1,0,0:0:0:0:
182,192,20292,1,0,0:0:0:0:
402,192,20292,1,0,0:0:0:0:
36,192,20405,1,8,0:0:0:0:
256,192,20405,1,4,0:0:0:0:
475,192,20405,1,0,0:0:0:0:
182,192,20518,1,0,0:0:0:0:
475,192,20518,1,0,0:0:0:0:
36,192,20631,1,2,0:0:0:0:
109,192,20631,1,0,0:0:0:0:
329,192,20631,1,0,0:0:0:0:
109,192,20743,1,8,0:0:0:0:
475,192,20743,1,0,0:0:0:0:
182,192,20856,1,8,0:0:0:0:
256,192,20856,1,4,0:0:0:0:
402,192,20856,1,0,0:0:0:0:
36,192,20969,1,0,0:0:0:0:
329,192,20969,1,0,0:0:0:0:
109,192,21082,1,2,0:0:0:0:
182,192,21082,1,0,0:0:0:0:
475,192,21082,1,0,0:0:0:0:
109,192,21195,1,0,0:0:0:0:
182,192,21195,1,0,0:0:0:0:
256,192,21195,1,0,0:0:0:0:
329,192,21307,1,2,0:0:0:0:
402,192,21307,1,4,0:0:0:0:
475,192,21307,1,0,0:0:0:0:
256,192,21420,1,8,0:0:0:0:
402,192,21420,1,0,0:0:0:0:
36,192,21533,1,2,0:0:0:0:
182,192,21533,1,0,0:0:0:0:
329,192,21533,1,0,0:0:0:0:
109,192,21646,1,8,0:0:0:0:
182,192,21646,1,0,0:0:0:0:
256,192,21759,1,2,0:0:0:0:
402,192,21759,1,0,0:0:0:0:
475,192,21759,1,0,0:0:0:0:
256,192,21871,1,2,0:0:0:0:
402,192,21871,1,0,0:0:0:0:
475,192,21871,1,0,0:0:0:0:
36,192,21984,1,2,0:0:0:0:
109,192,21984,1,0,0:0:0:0:
182,192,21984,1,0,0:0:0:0:
36,192,22097,1,2,0:0:0:0:
109,192,22097,1,0,0:0:0:0:
182,192,22097,1,0,0:0:0:0:
329,192,22210,1,8,0:0:0:0:
402,192,22210,1,4,0:0:0:0:
475,192,22210,1,0,0:0:0:0:
329,192,22322,1,0,0:0:0:0:
36,192,22435,1,2,0:0:0:0:
182,192,22435,1,0,0:0:0:0:
402,192,22435,1,0,0:0:0:0:
109,192,22548,1,8,0:0:0:0:
256,192,22548,1,0,0:0:0:0:
475,192,22661,1,0,0:0:0:0:
182,192,22774,1,8,0:0:0:0:
329,192,22774,1,0,0:0:0:0:
109,192,22886,1,2,0:0:0:0:
329,192,22886,1,0,0:0:0:0:
402,192,22886,1,0,0:0:0:0:
182,192,22999,1,0,0:0:0:0:
36,192,23112,1,8,0:0:0:0:
182,192,23112,1,0,0:0:0:0:
256,192,23225,1,8,0:0:0:0:
402,192,23225,1,0,0:0:0:0:
109,192,23337,1,2,0:0:0:0:
329,192,23337,1,0,0:0:0:0:
475,192,23337,1,0,0:0:0:0:
36,192,23450,1,8,0:0:0:0:
329,192,23450,1,0,0:0:0:0:
256,192,23563,1,0,0:0:0:0:
36,192,23676,1,8,0:0:0:0:
182,192,23676,1,0,0:0:0:0:
36,192,23789,1,2,0:0:0:0:
182,192,23789,1,0,0:0:0:0:
402,192,23789,1,0,0:0:0:0:
329,192,23901,1,0,0:0:0:0:
109,192,24014,1,8,0:0:0:0:
256,192,24014,1,0,0:0:0:0:
109,192,24127,1,0,0:0:0:0:
182,192,24240,1,2,0:0:0:0:
329,192,24240,1,0,0:0:0:0:
475,192,24240,1,0,0:0:0:0:
36,192,24352,1,8,0:0:0:0:
256,192,24352,1,0,0:0:0:0:
109,192,24465,1,0,0:0:0:0:
109,192,24578,1,8,0:0:0:0:
402,192,24578,1,0,0:0:0:0:
256,192,24691,1,2,0:0:0:0:
329,192,24691,1,0,0:0:0:0:
475,192,24691,1,0,0:0:0:0:
329,192,24804,1,0,0:0:0:0:
109,192,24916,1,8,0:0:0:0:
182,192,24916,1,0,0:0:0:0:
109,192,25029,1,8,0:0:0:0:
402,192,25029,1,0,0:0:0:0:
36,192,25142,1,2,0:0:0:0:
329,192,25142,1,0,0:0:0:0:
475,192,25142,1,0,0:0:0:0:
182,192,25255,1,8,0:0:0:0:
256,192,25255,1,0,0:0:0:0:
402,192,25368,1,0,0:0:0:0:
36,192,25480,1,8,0:0:0:0:
182,192,25480,1,0,0:0:0:0:
182,192,25593,1,2,0:0:0:0:
402,192,25593,1,0,0:0:0:0:
475,192,25593,1,0,0:0:0:0:
256,192,25706,1,2,0:0:0:0:
402,192,25706,1,0,0:0:0:0:
475,192,25706,1,0,0:0:0:0:
36,192,25819,1,8,0:0:0:0:
109,192,25819,1,4,0:0:0:0:
182,192,25819,1,0,0:0:0:0:
182,192,25931,1,0,0:0:0:0:
256,192,26044,1,2,0:0:0:0:
402,192,26044,1,0,0:0:0:0:
475,192,26044,1,0,0:0:0:0:
36,192,26157,1,8,0:0:0:0:
109,192,26157,1,0,0:0:0:0:
182,192,26270,1,0,0:0:0:0:
329,192,26270,1,0,0:0:0:0:
36,192,26383,1,8,0:0:0:0:
182,192,26383,1,0,0:0:0:0:
329,192,26495,1,2,0:0:0:0:
402,192,26495,1,0,0:0:0:0:
475,192,26495,1,0,0:0:0:0:
256,192,26608,1,0,0:0:0:0:
256,192,26721,1,8,0:0:0:0:
402,192,26721,1,0,0:0:0:0:
36,192,26834,1,8,0:0:0:0:
182,192,26834,1,0,0:0:0:0:
402,192,26834,1,0,0:0:0:0:
109,192,26946,1,2,0:0:0:0:
329,192,26946,1,0,0:0:0:0:
475,192,26946,1,0,0:0:0:0:
109,192,27059,1,8,0:0:0:0:
256,192,27059,1,0,0:0:0:0:
182,192,27172,1,0,0:0:0:0:
329,192,27285,1,8,0:0:0:0:
475,192,27285,1,0,0:0:0:0:
109,192,27398,1,2,0:0:0:0:
329,192,27398,1,0,0:0:0:0:
475,192,27398,1,0,0:0:0:0:
109,192,27510,1,0,0:0:0:0:
256,192,27623,1,8,0:0:0:0:
402,192,27623,1,0,0:0:0:0:
109,192,27736,1,0,0:0:0:0:
182,192,27849,1,2,0:0:0:0:
329,192,27849,1,0,0:0:0:0:
475,192,27849,1,0,0:0:0:0:
36,192,27962,1,8,0:0:0:0:
256,192,27962,1,0,0:0:0:0:
109,192,28074,1,0,0:0:0:0:
109,192,28187,1,8,0:0:0:0:
402,192,28187,1,0,0:0:0:0:
182,192,28300,1,2,0:0:0:0:
329,192,28300,1,0,0:0:0:0:
475,192,28300,1,0,0:0:0:0:
36,192,28413,1,0,0:0:0:0:
329,192,28525,1,8,0:0:0:0:
475,192,28525,1,0,0:0:0:0:
109,192,28638,1,8,0:0:0:0:
329,192,28638,1,0,0:0:0:0:
36,192,28751,1,2,0:0:0:0:
182,192,28751,1,0,0:0:0:0:
256,192,28751,1,0,0:0:0:0:
329,192,28864,1,8,0:0:0:0:
402,192,28864,1,0,0:0:0:0:
36,192,28977,1,2,0:0:0:0:
109,192,28977,1,0,0:0:0:0:
182,192,28977,1,0,0:0:0:0:
36,192,29089,1,0,0:0:0:100:tom.wav
109,192,29089,1,0,0:0:0:0:
329,192,29202,1,0,0:0:0:100:tom.wav
402,192,29202,1,0,0:0:0:0:
475,192,29202,1,0,0:0:0:0:
329,192,29315,1,0,0:0:0:100:tom.wav
402,192,29315,1,0,0:0:0:0:
36,192,29428,1,4,0:0:0:0:
109,192,29428,1,8,0:0:0:0:
182,192,29428,1,0,0:0:0:0:
182,192,29540,1,0,0:0:0:0:
109,192,29653,1,2,0:0:0:0:
329,192,29653,1,0,0:0:0:0:
475,192,29653,1,0,0:0:0:0:
256,192,29766,1,8,0:0:0:0:
402,192,29766,1,0,0:0:0:0:
182,192,29879,1,0,0:0:0:0:
36,192,29992,1,8,0:0:0:0:
182,192,29992,1,0,0:0:0:0:
109,192,30104,1,2,0:0:0:0:
256,192,30104,1,0,0:0:0:0:
475,192,30104,1,0,0:0:0:0:
329,192,30217,1,0,0:0:0:0:
109,192,30330,1,8,0:0:0:0:
329,192,30330,1,0,0:0:0:0:
182,192,30443,1,8,0:0:0:0:
402,192,30443,1,0,0:0:0:0:
36,192,30555,1,2,0:0:0:0:
256,192,30555,1,0,0:0:0:0:
475,192,30555,1,0,0:0:0:0:
36,192,30668,1,8,0:0:0:0:
329,192,30668,1,0,0:0:0:0:
182,192,30781,1,0,0:0:0:0:
329,192,30894,1,8,0:0:0:0:
402,192,30894,1,0,0:0:0:0:
36,192,31007,1,2,0:0:0:0:
329,192,31007,1,0,0:0:0:0:
402,192,31007,1,0,0:0:0:0:
36,192,31119,1,0,0:0:0:0:
182,192,31232,1,8,0:0:0:0:
329,192,31232,1,0,0:0:0:0:
329,192,31345,1,0,0:0:0:0:
36,192,31458,1,2,0:0:0:0:
182,192,31458,1,0,0:0:0:0:
402,192,31458,1,0,0:0:0:0:
109,192,31571,1,8,0:0:0:0:
256,192,31571,1,0,0:0:0:0:
329,192,31683,1,0,0:0:0:0:
109,192,31796,1,8,0:0:0:0:
329,192,31796,1,0,0:0:0:0:
36,192,31909,1,2,0:0:0:0:
256,192,31909,1,0,0:0:0:0:
402,192,31909,1,0,0:0:0:0:
182,192,32022,1,0,0:0:0:0:
182,192,32134,1,8,0:0:0:0:
329,192,32134,1,0,0:0:0:0:
109,192,32247,1,8,0:0:0:0:
329,192,32247,1,0,0:0:0:0:
36,192,32360,1,2,0:0:0:0:
256,192,32360,1,0,0:0:0:0:
402,192,32360,1,0,0:0:0:0:
182,192,32473,1,8,0:0:0:0:
475,192,32473,1,0,0:0:0:0:
109,192,32586,1,0,0:0:0:0:
329,192,32698,1,8,0:0:0:0:
402,192,32698,1,0,0:0:0:0:
36,192,32811,1,2,0:0:0:0:
109,192,32811,1,0,0:0:0:0:
329,192,32811,1,0,0:0:0:0:
36,192,32924,1,2,0:0:0:0:
109,192,32924,1,0,0:0:0:0:
182,192,32924,1,0,0:0:0:0:
256,192,33037,1,8,0:0:0:0:
402,192,33037,1,4,0:0:0:0:
475,192,33037,1,0,0:0:0:0:
109,192,33149,1,0,0:0:0:0:
402,192,33149,1,0,0:0:0:0:
36,192,33262,1,2,0:0:0:0:
182,192,33262,1,0,0:0:0:0:
256,192,33262,1,0,0:0:0:0:
329,192,33375,1,8,0:0:0:0:
475,192,33375,1,0,0:0:0:0:
182,192,33488,1,0,0:0:0:0:
36,192,33601,1,8,0:0:0:0:
182,192,33601,1,0,0:0:0:0:
109,192,33713,1,2,0:0:0:0:
402,192,33713,1,0,0:0:0:0:
475,192,33713,1,0,0:0:0:0:
329,192,33826,1,0,0:0:0:0:
36,192,33939,1,8,0:0:0:0:
182,192,33939,1,0,0:0:0:0:
256,192,34052,1,8,0:0:0:0:
402,192,34052,1,0,0:0:0:0:
109,192,34165,1,2,0:0:0:0:
329,192,34165,1,0,0:0:0:0:
475,192,34165,1,0,0:0:0:0:
36,192,34277,1,8,0:0:0:0:
329,192,34277,1,0,0:0:0:0:
256,192,34390,1,0,0:0:0:0:
182,192,34503,1,8,0:0:0:0:
402,192,34503,1,0,0:0:0:0:
36,192,34616,1,2,0:0:0:0:
182,192,34616,1,0,0:0:0:0:
329,192,34616,1,0,0:0:0:0:
256,192,34728,1,0,0:0:0:0:
109,192,34841,1,8,0:0:0:0:
329,192,34841,1,4,0:0:0:0:
402,192,34841,1,0,0:0:0:0:
182,192,34954,1,0,0:0:0:0:
36,192,35067,1,2,0:0:0:0:
256,192,35067,1,0,0:0:0:0:
475,192,35067,1,0,0:0:0:0:
109,192,35180,1,8,0:0:0:0:
329,192,35180,1,0,0:0:0:0:
182,192,35292,1,8,0:0:0:0:
402,192,35292,1,4,0:0:0:0:
475,192,35292,1,0,0:0:0:0:
256,192,35405,1,0,0:0:0:0:
36,192,35518,1,2,0:0:0:0:
109,192,35518,1,0,0:0:0:0:
402,192,35518,1,0,0:0:0:0:
329,192,35631,1,0,0:0:0:0:
109,192,35743,1,2,0:0:0:0:
256,192,35743,1,4,0:0:0:0:
475,192,35743,1,0,0:0:0:0:
256,192,35856,1,8,0:0:0:0:
36,192,35969,1,2,0:0:0:0:
109,192,35969,1,0,0:0:0:0:
329,192,35969,1,0,0:0:0:0:
109,192,36082,1,8,0:0:0:0:
475,192,36082,1,0,0:0:0:0:
256,192,36195,1,2,0:0:0:0:
329,192,36195,1,0,0:0:0:0:
402,192,36195,1,0,0:0:0:0:
256,192,36307,1,2,0:0:0:0:
329,192,36307,1,0,0:0:0:0:
402,192,36307,1,0,0:0:0:0:
36,192,36420,1,2,0:0:0:0:
109,192,36420,1,0,0:0:0:0:
182,192,36420,1,0,0:0:0:0:
36,192,36533,1,2,0:0:0:0:
109,192,36533,1,0,0:0:0:0:
182,192,36533,1,0,0:0:0:0:
256,192,36646,1,8,0:0:0:0:
402,192,36646,1,4,0:0:0:0:
475,192,36646,1,0,0:0:0:0:
402,192,36759,1,0,0:0:0:0:
109,192,36871,1,2,0:0:0:0:
329,192,36871,1,0,0:0:0:0:
475,192,36871,1,0,0:0:0:0:
36,192,36984,1,8,0:0:0:0:
182,192,36984,1,0,0:0:0:0:
256,192,37097,1,0,0:0:0:0:
402,192,37097,1,0,0:0:0:0:
36,192,37210,1,8,0:0:0:0:
402,192,37210,1,0,0:0:0:0:
109,192,37322,1,2,0:0:0:0:
329,192,37322,1,0,0:0:0:0:
475,192,37322,1,0,0:0:0:0:
182,192,37435,1,0,0:0:0:0:
182,192,37548,1,8,0:0:0:0:
402,192,37548,1,0,0:0:0:0:
109,192,37661,1,8,0:0:0:0:
329,192,37661,1,0,0:0:0:0:
36,192,37774,1,2,0:0:0:0:
256,192,37774,1,0,0:0:0:0:
475,192,37774,1,0,0:0:0:0:
256,192,37886,1,8,0:0:0:0:
402,192,37886,1,0,0:0:0:0:
182,192,37999,1,0,0:0:0:0:
329,192,38112,1,8,0:0:0:0:
402,192,38112,1,0,0:0:0:0:
109,192,38225,1,2,0:0:0:0:
256,192,38225,1,0,0:0:0:0:
402,192,38225,1,0,0:0:0:0:
182,192,38337,1,0,0:0:0:0:
182,192,38450,1,8,0:0:0:0:
329,192,38450,1,0,0:0:0:0:
329,192,38563,1,0,0:0:0:0:
182,192,38676,1,2,0:0:0:0:
402,192,38676,1,0,0:0:0:0:
475,192,38676,1,0,0:0:0:0:
36,192,38789,1,8,0:0:0:0:
256,192,38789,1,0,0:0:0:0:
329,192,38901,1,0,0:0:0:0:
475,192,38901,1,0,0:0:0:0:
182,192,39014,1,8,0:0:0:0:
329,192,39014,1,0,0:0:0:0:
36,192,39127,1,2,0:0:0:0:
256,192,39127,1,0,0:0:0:0:
475,192,39127,1,0,0:0:0:0:
182,192,39240,1,0,0:0:0:0:
182,192,39352,1,8,0:0:0:0:
402,192,39352,1,0,0:0:0:0:
256,192,39465,1,8,0:0:0:0:
402,192,39465,1,0,0:0:0:0:
109,192,39578,1,2,0:0:0:0:
329,192,39578,1,0,0:0:0:0:
475,192,39578,1,0,0:0:0:0:
36,192,39691,1,8,0:0:0:0:
402,192,39691,1,0,0:0:0:0:
182,192,39804,1,0,0:0:0:0:
329,192,39916,1,8,0:0:0:0:
475,192,39916,1,0,0:0:0:0:
36,192,40029,1,2,0:0:0:0:
109,192,40029,1,0,0:0:0:0:
329,192,40029,1,0,0:0:0:0:
36,192,40142,1,2,0:0:0:0:
109,192,40142,1,0,0:0:0:0:
182,192,40142,1,0,0:0:0:0:
329,192,40255,1,8,0:0:0:0:
402,192,40255,1,4,0:0:0:0:
475,192,40255,1,0,0:0:0:0:
402,192,40368,1,0,0:0:0:0:
36,192,40480,1,2,0:0:0:0:
109,192,40480,1,0,0:0:0:0:
256,192,40480,1,0,0:0:0:0:
329,192,40593,1,8,0:0:0:0:
475,192,40593,1,0,0:0:0:0:
36,192,40706,1,0,0:0:0:0:
182,192,40706,1,0,0:0:0:0:
182,192,40819,1,8,0:0:0:0:
402,192,40819,1,0,0:0:0:0:
36,192,40931,1,2,0:0:0:0:
109,192,40931,1,0,0:0:0:0:
329,192,40931,1,0,0:0:0:0:
256,192,41044,1,0,0:0:0:0:
109,192,41157,1,8,0:0:0:0:
402,192,41157,1,0,0:0:0:0:
182,192,41270,1,8,0:0:0:0:
475,192,41270,1,0,0:0:0:0:
36,192,41383,1,2,0:0:0:0:
256,192,41383,1,0,0:0:0:0:
329,192,41383,1,0,0:0:0:0:
256,192,41495,1,8,0:0:0:0:
475,192,41495,1,0,0:0:0:0:
182,192,41608,1,0,0:0:0:0:
109,192,41721,1,8,0:0:0:0:
329,192,41721,1,0,0:0:0:0:
109,192,41834,1,2,0:0:0:0:
329,192,41834,1,0,0:0:0:0:
402,192,41834,1,0,0:0:0:0:
402,192,41946,1,0,0:0:0:0:
182,192,42059,1,8,0:0:0:0:
475,192,42059,1,0,0:0:0:0:
182,192,42172,1,0,0:0:0:0:
36,192,42285,1,2,0:0:0:0:
256,192,42285,1,0,0:0:0:0:
402,192,42285,1,0,0:0:0:0:
109,192,42398,1,8,0:0:0:0:
329,192,42398,1,0,0:0:0:0:
36,192,42510,1,0,0:0:0:0:
256,192,42510,1,0,0:0:0:0:
256,192,42623,1,8,0:0:0:0:
475,192,42623,1,0,0:0:0:0:
36,192,42736,1,2,0:0:0:0:
182,192,42736,1,0,0:0:0:0:
402,192,42736,1,0,0:0:0:0:
329,192,42849,1,0,0:0:0:0:
109,192,42962,1,8,0:0:0:0:
329,192,42962,1,0,0:0:0:0:
182,192,43074,1,8,0:0:0:0:
402,192,43074,1,0,0:0:0:0:
182,192,43187,1,2,0:0:0:0:
329,192,43187,1,0,0:0:0:0:
475,192,43187,1,0,0:0:0:0:
36,192,43300,1,8,0:0:0:0:
109,192,43300,1,0,0:0:0:0:
329,192,43413,1,2,0:0:0:0:
402,192,43413,1,0,0:0:0:0:
475,192,43413,1,0,0:0:0:0:
402,192,43525,1,0,0:0:0:100:tom.wav
475,192,43525,1,0,0:0:0:0:
36,192,43638,1,0,0:0:0:100:tom.wav
109,192,43638,1,0,0:0:0:0:
182,192,43638,1,0,0:0:0:0:
36,192,43751,1,0,0:0:0:100:tom.wav
109,192,43751,1,0,0:0:0:0:
329,192,43864,1,4,0:0:0:0:
402,192,43864,1,8,0:0:0:0:
475,192,43864,1,0,0:0:0:0:
329,192,43977,1,0,0:0:0:0:
36,192,44089,1,2,0:0:0:0:
182,192,44089,1,0,0:0:0:0:
402,192,44089,1,0,0:0:0:0:
109,192,44202,1,8,0:0:0:0:
256,192,44202,1,0,0:0:0:0:
329,192,44315,1,0,0:0:0:0:
475,192,44315,1,0,0:0:0:0:
109,192,44428,1,8,0:0:0:0:
329,192,44428,1,0,0:0:0:0:
36,192,44540,1,2,0:0:0:0:
256,192,44540,1,0,0:0:0:0:
402,192,44540,1,0,0:0:0:0:
182,192,44653,1,0,0:0:0:0:
182,192,44766,1,8,0:0:0:0:
402,192,44766,1,0,0:0:0:0:
36,192,44879,1,8,0:0:0:0:
329,192,44879,1,0,0:0:0:0:
109,192,44992,1,2,0:0:0:0:
256,192,44992,1,0,0:0:0:0:
475,192,44992,1,0,0:0:0:0:
109,192,45104,1,8,0:0:0:0:
402,192,45104,1,0,0:0:0:0:
256,192,45217,1,0,0:0:0:0:
329,192,45330,1,8,0:0:0:0:
475,192,45330,1,0,0:0:0:0:
36,192,45443,1,2,0:0:0:0:
329,192,45443,1,0,0:0:0:0:
475,192,45443,1,0,0:0:0:0:
256,192,45555,1,0,0:0:0:0:
109,192,45668,1,8,0:0:0:0:
402,192,45668,1,0,0:0:0:0:
109,192,45781,1,0,0:0:0:0:
256,192,45894,1,2,0:0:0:0:
402,192,45894,1,0,0:0:0:0:
475,192,45894,1,0,0:0:0:0:
182,192,46007,1,8,0:0:0:0:
329,192,46007,1,0,0:0:0:0:
109,192,46119,1,0,0:0:0:0:
402,192,46119,1,0,0:0:0:0:
109,192,46232,1,8,0:0:0:0:
256,192,46232,1,0,0:0:0:0:
329,192,46345,1,2,0:0:0:0:
402,192,46345,1,0,0:0:0:0:
475,192,46345,1,0,0:0:0:0:
182,192,46458,1,0,0:0:0:0:
182,192,46571,1,8,0:0:0:0:
475,192,46571,1,0,0:0:0:0:
109,192,46683,1,8,0:0:0:0:
475,192,46683,1,0,0:0:0:0:
36,192,46796,1,2,0:0:0:0:
182,192,46796,1,0,0:0:0:0:
329,192,46796,1,0,0:0:0:0:
36,192,46909,1,8,0:0:0:0:
402,192,46909,1,0,0:0:0:0:
329,192,47022,1,0,0:0:0:0:
109,192,47134,1,8,0:0:0:0:
182,192,47134,1,0,0:0:0:0:
109,192,47247,1,2,0:0:0:0:
402,192,47247,1,0,0:0:0:0:
475,192,47247,1,0,0:0:0:0:
256,192,47360,1,2,0:0:0:0:
402,192,47360,1,0,0:0:0:0:
475,192,47360,1,0,0:0:0:0:
36,192,47473,1,8,0:0:0:0:
109,192,47473,1,4,0:0:0:0:
182,192,47473,1,0,0:0:0:0:
182,192,47586,1,0,0:0:0:0:
256,192,47698,1,2,0:0:0:0:
402,192,47698,1,0,0:0:0:0:
475,192,47698,1,0,0:0:0:0:
109,192,47811,1,8,0:0:0:0:
329,192,47811,1,0,0:0:0:0:
182,192,47924,1,0,0:0:0:0:
256,192,47924,1,0,0:0:0:0:
182,192,48037,1,8,0:0:0:0:
475,192,48037,1,0,0:0:0:0:
36,192,48149,1,2,0:0:0:0:
109,192,48149,1,0,0:0:0:0:
329,192,48149,1,0,0:0:0:0:
256,192,48262,1,0,0:0:0:0:
256,192,48375,1,8,0:0:0:0:
402,192,48375,1,0,0:0:0:0:
109,192,48488,1,8,0:0:0:0:
329,192,48488,1,0,0:0:0:0:
182,192,48601,1,2,0:0:0:0:
402,192,48601,1,0,0:0:0:0:
475,192,48601,1,0,0:0:0:0:
36,192,48713,1,8,0:0:0:0:
402,192,48713,1,0,0:0:0:0:
256,192,48826,1,0,0:0:0:0:
36,192,48939,1,8,0:0:0:0:
182,192,48939,1,0,0:0:0:0:
36,192,49052,1,2,0:0:0:0:
182,192,49052,1,0,0:0:0:0:
475,192,49052,1,0,0:0:0:0:
329,192,49165,1,0,0:0:0:0:
36,192,49277,1,8,0:0:0:0:
109,192,49277,1,4,0:0:0:0:
402,192,49277,1,0,0:0:0:0:
329,192,49390,1,0,0:0:0:0:
182,192,49503,1,2,0:0:0:0:
256,192,49503,1,0,0:0:0:0:
475,192,49503,1,0,0:0:0:0:
36,192,49616,1,8,0:0:0:0:
182,192,49616,1,0,0:0:0:0:
329,192,49728,1,4,0:0:0:0:
402,192,49728,1,8,0:0:0:0:
475,192,49728,1,0,0:0:0:0:
256,192,49841,1,0,0:0:0:0:
109,192,49954,1,2,0:0:0:0:
182,192,49954,1,0,0:0:0:0:
402,192,49954,1,0,0:0:0:0:
329,192,50067,1,0,0:0:0:0:
36,192,50180,1,2,0:0:0:0:
109,192,50180,1,4,0:0:0:0:
182,192,50180,1,0,0:0:0:0:
329,192,50292,1,8,0:0:0:0:
402,192,50292,1,0,0:0:0:0:
109,192,50405,1,2,0:0:0:0:
256,192,50405,1,0,0:0:0:0:
475,192,50405,1,0,0:0:0:0:
36,192,50518,1,8,0:0:0:0:
182,192,50518,1,0,0:0:0:0:
329,192,50631,1,2,0:0:0:0:
402,192,50631,1,0,0:0:0:0:
475,192,50631,1,0,0:0:0:0:
329,192,50743,1,2,0:0:0:0:
402,192,50743,1,0,0:0:0:0:
475,192,50743,1,0,0:0:0:0:
36,192,50856,1,2,0:0:0:0:
109,192,50856,1,0,0:0:0:0:
182,192,50856,1,0,0:0:0:0:
36,192,50969,1,2,0:0:0:0:
109,192,50969,1,0,0:0:0:0:
182,192,50969,1,0,0:0:0:0:
256,192,51082,1,8,0:0:0:0:
329,192,51082,1,4,0:0:0:0:
475,192,51082,1,0,0:0:0:0:
329,192,51195,1,0,0:0:0:0:
109,192,51307,1,8,0:0:0:0:
182,192,51307,1,0,0:0:0:0:
182,192,51420,1,8,0:0:0:0:
475,192,51420,1,0,0:0:0:0:
36,192,51533,1,2,0:0:0:0:
256,192,51533,1,0,0:0:0:0:
402,192,51533,1,0,0:0:0:0:
36,192,51646,1,0,0:0:0:0:
402,192,51759,1,8,0:0:0:0:
475,192,51759,1,0,0:0:0:0:
36,192,51871,1,2,0:0:0:0:
182,192,51871,1,0,0:0:0:0:
402,192,51871,1,0,0:0:0:0:
109,192,51984,1,8,0:0:0:0:
256,192,51984,1,0,0:0:0:0:
256,192,52097,1,2,0:0:0:0:
402,192,52097,1,0,0:0:0:0:
475,192,52097,1,0,0:0:0:0:
109,192,52210,1,8,0:0:0:0:
109,192,52322,1,0,0:0:0:0:
36,192,52435,1,2,0:0:0:0:
182,192,52435,1,0,0:0:0:0:
329,192,52435,1,0,0:0:0:0:
475,192,52548,1,0,0:0:0:0:
36,192,52661,1,8,0:0:0:0:
182,192,52661,1,0,0:0:0:0:
256,192,52774,1,2,0:0:0:0:
402,192,52774,1,0,0:0:0:0:
475,192,52774,1,0,0:0:0:0:
36,192,52886,1,8,0:0:0:0:
182,192,52886,1,0,0:0:0:0:
182,192,52999,1,0,0:0:0:0:
329,192,53112,1,8,0:0:0:0:
475,192,53112,1,0,0:0:0:0:
36,192,53225,1,8,0:0:0:0:
329,192,53225,1,0,0:0:0:0:
109,192,53337,1,2,0:0:0:0:
256,192,53337,1,0,0:0:0:0:
402,192,53337,1,0,0:0:0:0:
182,192,53450,1,0,0:0:0:0:
256,192,53563,1,8,0:0:0:0:
402,192,53563,1,0,0:0:0:0:
36,192,53676,1,2,0:0:0:0:
182,192,53676,1,0,0:0:0:0:
329,192,53676,1,0,0:0:0:0:
402,192,53789,1,8,0:0:0:0:
475,192,53789,1,0,0:0:0:0:
36,192,53901,1,2,0:0:0:0:
109,192,53901,1,0,0:0:0:0:
182,192,53901,1,0,0:0:0:0:
36,192,54014,1,8,0:0:0:0:
109,192,54014,1,0,0:0:0:0:
256,192,54127,1,0,0:0:0:0:
36,192,54240,1,2,0:0:0:0:
182,192,54240,1,0,0:0:0:0:
402,192,54240,1,0,0:0:0:0:
329,192,54352,1,0,0:0:0:0:
475,192,54352,1,0,0:0:0:0:
36,192,54465,1,8,0:0:0:0:
109,192,54465,1,0,0:0:0:0:
256,192,54465,1,0,0:0:0:0:
36,192,54578,1,2,0:0:0:0:
109,192,54578,1,0,0:0:0:0:
182,192,54691,1,8,0:0:0:0:
329,192,54691,1,4,0:0:0:0:
475,192,54691,1,0,0:0:0:0:
475,192,54804,1,0,0:0:0:0:
36,192,54916,1,8,0:0:0:0:
329,192,54916,1,0,0:0:0:0:
182,192,55029,1,8,0:0:0:0:
329,192,55029,1,0,0:0:0:0:
109,192,55142,1,2,0:0:0:0:
256,192,55142,1,0,0:0:0:0:
402,192,55142,1,0,0:0:0:0:
109,192,55255,1,0,0:0:0:0:
256,192,55368,1,8,0:0:0:0:
329,192,55368,1,0,0:0:0:0:
256,192,55480,1,2,0:0:0:0:
402,192,55480,1,0,0:0:0:0:
475,192,55480,1,0,0:0:0:0:
36,192,55593,1,8,0:0:0:0:
109,192,55593,1,0,0:0:0:0:
256,192,55706,1,2,0:0:0:0:
402,192,55706,1,0,0:0:0:0:
475,192,55706,1,0,0:0:0:0:
402,192,55819,1,8,0:0:0:0:
182,192,55931,1,0,0:0:0:0:
36,192,56044,1,2,0:0:0:0:
109,192,56044,1,0,0:0:0:0:
329,192,56044,1,0,0:0:0:0:
256,192,56157,1,0,0:0:0:0:
182,192,56270,1,8,0:0:0:0:
402,192,56270,1,0,0:0:0:0:
109,192,56383,1,2,0:0:0:0:
329,192,56383,1,0,0:0:0:0:
475,192,56383,1,0,0:0:0:0:
36,192,56495,1,8,0:0:0:0:
256,192,56495,1,0,0:0:0:0:
36,192,56608,1,0,0:0:0:0:
182,192,56721,1,8,0:0:0:0:
329,192,56721,1,0,0:0:0:0:
182,192,56834,1,8,0:0:0:0:
402,192,56834,1,0,0:0:0:0:
36,192,56946,1,2,0:0:0:0:
256,192,56946,1,0,0:0:0:0:
329,192,56946,1,0,0:0:0:0:
329,192,57059,1,0,0:0:0:0:
256,192,57172,1,8,0:0:0:0:
475,192,57172,1,0,0:0:0:0:
36,192,57285,1,2,0:0:0:0:
256,192,57285,1,0,0:0:0:0:
475,192,57285,1,0,0:0:0:0:
182,192,57398,1,8,0:0:0:0:
402,192,57398,1,0,0:0:0:0:
36,192,57510,1,2,0:0:0:0:
109,192,57510,1,0,0:0:0:0:
329,192,57510,1,0,0:0:0:0:
182,192,57623,1,8,0:0:0:0:
475,192,57623,1,0,0:0:0:0:
182,192,57736,1,8,0:0:0:0:
402,192,57736,1,0,0:0:0:0:
36,192,57849,1,2,0:0:0:0:
109,192,57849,1,0,0:0:0:0:
329,192,57849,1,0,0:0:0:0:
36,192,57962,1,2,0:0:0:0:
109,192,57962,1,0,0:0:0:0:
256,192,58074,1,2,0:0:0:0:
402,192,58074,1,0,0:0:0:0:
475,192,58074,1,0,0:0:0:0:
402,192,58187,1,2,0:0:0:0:
475,192,58187,1,0,0:0:0:0:
36,192,58300,1,8,0:0:0:0:
109,192,58300,1,4,0:0:0:0:
182,192,58300,1,0,0:0:0:0:
182,192,58413,1,0,0:0:0:0:
329,192,58413,1,0,0:0:0:0:
109,192,58525,1,2,0:0:0:0:
256,192,58525,1,0,0:0:0:0:
475,192,58525,1,0,0:0:0:0:
329,192,58638,1,8,0:0:0:0:
475,192,58638,1,0,0:0:0:0:
182,192,58751,1,0,0:0:0:0:
109,192,58864,1,8,0:0:0:0:
256,192,58864,1,0,0:0:0:0:
36,192,58977,1,2,0:0:0:0:
109,192,58977,1,0,0:0:0:0:
402,192,58977,1,0,0:0:0:0:
256,192,59089,1,0,0:0:0:0:
329,192,59089,1,0,0:0:0:0:
182,192,59202,1,8,0:0:0:0:
475,192,59202,1,0,0:0:0:0:
36,192,59315,1,8,0:0:0:0:
256,192,59315,1,0,0:0:0:0:
36,192,59428,1,2,0:0:0:0:
329,192,59428,1,0,0:0:0:0:
402,192,59428,1,0,0:0:0:0:
256,192,59540,1,8,0:0:0:0:
475,192,59540,1,0,0:0:0:0:
36,192,59653,1,0,0:0:0:0:
182,192,59653,1,0,0:0:0:0:
182,192,59766,1,8,0:0:0:0:
329,192,59766,1,0,0:0:0:0:
36,192,59879,1,2,0:0:0:0:
256,192,59879,1,0,0:0:0:0:
402,192,59879,1,0,0:0:0:0:
182,192,59992,1,0,0:0:0:0:
402,192,59992,1,0,0:0:0:0:
36,192,60104,1,8,0:0:0:0:
109,192,60104,1,0,0:0:0:0:
475,192,60104,1,0,0:0:0:0:
109,192,60217,1,0,0:0:0:0:
36,192,60330,1,2,0:0:0:0:
256,192,60330,1,0,0:0:0:0:
402,192,60330,1,0,0:0:0:0:
256,192,60443,1,8,0:0:0:0:
402,192,60443,1,0,0:0:0:0:
182,192,60555,1,0,0:0:0:0:
329,192,60668,1,8,0:0:0:0:
475,192,60668,1,0,0:0:0:0:
36,192,60781,1,2,0:0:0:0:
109,192,60781,1,0,0:0:0:0:
329,192,60781,1,0,0:0:0:0:
109,192,60894,1,0,0:0:0:0:
256,192,60894,1,0,0:0:0:0:
182,192,61007,1,8,0:0:0:0:
402,192,61007,1,0,0:0:0:0:
256,192,61119,1,8,0:0:0:0:
475,192,61119,1,0,0:0:0:0:
36,192,61232,1,2,0:0:0:0:
109,192,61232,1,0,0:0:0:0:
329,192,61232,1,0,0:0:0:0:
329,192,61345,1,8,0:0:0:0:
475,192,61345,1,0,0:0:0:0:
109,192,61458,1,0,0:0:0:0:
182,192,61458,1,0,0:0:0:0:
182,192,61571,1,8,0:0:0:0:
402,192,61571,1,0,0:0:0:0:
36,192,61683,1,2,0:0:0:0:
256,192,61683,1,0,0:0:0:0:
475,192,61683,1,0,0:0:0:0:
256,192,61796,1,2,0:0:0:0:
475,192,61796,1,0,0:0:0:0:
36,192,61909,1,8,0:0:0:0:
109,192,61909,1,4,0:0:0:0:
182,192,61909,1,0,0:0:0:0:
329,192,62022,1,0,0:0:0:0:
402,192,62022,1,0,0:0:0:0:
36,192,62134,1,2,0:0:0:0:
182,192,62134,1,0,0:0:0:0:
329,192,62134,1,0,0:0:0:0:
36,192,62247,1,8,0:0:0:0:
475,192,62247,1,0,0:0:0:0:
182,192,62360,1,0,0:0:0:0:
475,192,62360,1,0,0:0:0:0:
109,192,62473,1,8,0:0:0:0:
256,192,62473,1,0,0:0:0:0:
36,192,62586,1,2,0:0:0:0:
182,192,62586,1,0,0:0:0:0:
402,192,62586,1,0,0:0:0:0:
256,192,62698,1,0,0:0:0:0:
402,192,62698,1,0,0:0:0:0:
182,192,62811,1,8,0:0:0:0:
475,192,62811,1,0,0:0:0:0:
109,192,62924,1,8,0:0:0:0:
329,192,62924,1,0,0:0:0:0:
36,192,63037,1,2,0:0:0:0:
182,192,63037,1,0,0:0:0:0:
329,192,63037,1,0,0:0:0:0:
256,192,63149,1,8,0:0:0:0:
402,192,63149,1,0,0:0:0:0:
36,192,63262,1,2,0:0:0:0:
109,192,63262,1,0,0:0:0:0:
475,192,63262,1,0,0:0:0:0:
36,192,63375,1,0,0:0:0:100:tom.wav
109,192,63375,1,0,0:0:0:0:
402,192,63488,1,0,0:0:0:100:tom.wav
475,192,63488,1,0,0:0:0:0:
402,192,63601,1,0,0:0:0:100:tom.wav
475,192,63601,1,0,0:0:0:0:
36,192,63713,1,4,0:0:0:0:
109,192,63713,1,8,0:0:0:0:
256,192,63713,1,0,0:0:0:0:
329,192,63826,1,0,0:0:0:0:
182,192,63939,1,2,0:0:0:0:
402,192,63939,1,0,0:0:0:0:
475,192,63939,1,0,0:0:0:0:
36,192,64052,1,8,0:0:0:0:
256,192,64052,1,0,0:0:0:0:
109,192,64165,1,8,0:0:0:0:
329,192,64165,1,0,0:0:0:0:
109,192,64277,1,2,0:0:0:0:
329,192,64277,1,0,0:0:0:0:
475,192,64277,1,0,0:0:0:0:
182,192,64390,1,2,0:0:0:0:
256,192,64390,1,0,0:0:0:0:
402,192,64390,1,0,0:0:0:0:
109,192,64503,1,8,0:0:0:0:
329,192,64503,1,4,0:0:0:0:
475,192,64503,1,0,0:0:0:0:
329,192,64728,1,0,0:0:0:100:tom.wav
475,192,64728,1,0,0:0:0:0:
36,192,64841,1,8,0:0:0:0:
182,192,64841,1,0,0:0:0:0:
36,192,64954,1,8,0:0:0:0:
182,192,64954,1,0,0:0:0:0:
256,192,65067,1,2,0:0:0:0:
402,192,65067,1,0,0:0:0:0:
475,192,65067,1,0,0:0:0:0:
402,192,65180,1,2,0:0:0:0:
475,192,65180,1,0,0:0:0:0:
36,192,65292,1,2,0:0:0:0:
109,192,65292,1,0,0:0:0:0:
182,192,65292,1,0,0:0:0:0:
36,192,65405,1,2,0:0:0:0:
109,192,65405,1,0,0:0:0:0:
182,192,65405,1,0,0:0:0:0:
256,192,65518,1,4,0:0:0:0:
402,192,65518,1,8,0:0:0:0:
475,192,65518,1,0,0:0:0:0:
36,192,65631,1,0,0:0:0:0:
109,192,65631,1,0,0:0:0:0:
256,192,65743,1,2,0:0:0:0:
329,192,65743,1,0,0:0:0:0:
402,192,65743,1,0,0:0:0:0:
475,192,65743,1,0,0:0:0:0:
36,192,65856,1,8,0:0:0:0:
109,192,65856,1,0,0:0:0:0:
182,192,65856,1,0,0:0:0:0:
182,192,65969,1,0,0:0:0:0:
329,192,65969,1,0,0:0:0:0:
109,192,66082,1,8,0:0:0:0:
475,192,66082,1,0,0:0:0:0:
182,192,66195,1,2,0:0:0:0:
256,192,66195,1,0,0:0:0:0:
329,192,66195,1,0,0:0:0:0:
402,192,66195,1,0,0:0:0:0:
36,192,66307,1,0,0:0:0:0:
402,192,66307,1,0,0:0:0:0:
109,192,66420,1,8,0:0:0:0:
182,192,66420,1,0,0:0:0:0:
475,192,66420,1,0,0:0:0:0:
109,192,66533,1,8,0:0:0:0:
329,192,66533,1,0,0:0:0:0:
182,192,66646,1,2,0:0:0:0:
256,192,66646,1,0,0:0:0:0:
402,192,66646,1,0,0:0:0:0:
475,192,66646,1,0,0:0:0:0:
36,192,66759,1,8,0:0:0:0:
109,192,66759,1,0,0:0:0:0:
329,192,66759,1,0,0:0:0:0:
256,192,66871,1,0,0:0:0:0:
402,192,66871,1,0,0:0:0:0:
182,192,66984,1,8,0:0:0:0:
329,192,66984,1,0,0:0:0:0:
475,192,66984,1,0,0:0:0:0:
36,192,67097,1,2,0:0:0:0:
182,192,67097,1,0,0:0:0:0:
329,192,67097,1,0,0:0:0:0:
402,192,67097,1,0,0:0:0:0:
109,192,67210,1,0,0:0:0:0:
256,192,67210,1,0,0:0:0:0:
329,192,67322,1,8,0:0:0:0:
402,192,67322,1,0,0:0:0:0:
475,192,67322,1,0,0:0:0:0:
182,192,67435,1,0,0:0:0:0:
402,192,67435,1,0,0:0:0:0:
36,192,67548,1,2,0:0:0:0:
109,192,67548,1,0,0:0:0:0:
256,192,67548,1,0,0:0:0:0:
329,192,67548,1,0,0:0:0:0:
182,192,67661,1,8,0:0:0:0:
402,192,67661,1,0,0:0:0:0:
475,192,67661,1,0,0:0:0:0:
182,192,67774,1,0,0:0:0:0:
256,192,67774,1,0,0:0:0:0:
36,192,67886,1,8,0:0:0:0:
109,192,67886,1,0,0:0:0:0:
256,192,67999,1,2,0:0:0:0:
329,192,67999,1,0,0:0:0:0:
402,192,67999,1,0,0:0:0:0:
475,192,67999,1,0,0:0:0:0:
109,192,68112,1,0,0:0:0:0:
329,192,68112,1,0,0:0:0:0:
36,192,68225,1,8,0:0:0:0:
402,192,68225,1,0,0:0:0:0:
475,192,68225,1,0,0:0:0:0:
36,192,68337,1,8,0:0:0:0:
182,192,68337,1,0,0:0:0:0:
109,192,68450,1,2,0:0:0:0:
256,192,68450,1,0,0:0:0:0:
329,192,68450,1,0,0:0:0:0:
475,192,68450,1,0,0:0:0:0:
36,192,68563,1,8,0:0:0:0:
182,192,68563,1,0,0:0:0:0:
402,192,68563,1,0,0:0:0:0:
256,192,68676,1,0,0:0:0:0:
402,192,68676,1,0,0:0:0:0:
329,192,68789,1,8,0:0:0:0:
475,192,68789,1,0,0:0:0:0:
36,192,68901,1,2,0:0:0:0:
109,192,68901,1,0,0:0:0:0:
182,192,68901,1,0,0:0:0:0:
256,192,68901,1,0,0:0:0:0:
36,192,69014,1,2,0:0:0:0:
109,192,69014,1,0,0:0:0:0:
182,192,69014,1,0,0:0:0:0:
256,192,69127,1,8,0:0:0:0:
329,192,69127,1,4,0:0:0:0:
475,192,69127,1,0,0:0:0:0:
182,192,69240,1,0,0:0:0:0:
329,192,69240,1,0,0:0:0:0:
36,192,69352,1,2,0:0:0:0:
109,192,69352,1,0,0:0:0:0:
402,192,69352,1,0,0:0:0:0:
182,192,69465,1,8,0:0:0:0:
256,192,69465,1,0,0:0:0:0:
329,192,69465,1,0,0:0:0:0:
182,192,69578,1,0,0:0:0:0:
475,192,69578,1,0,0:0:0:0:
36,192,69691,1,8,0:0:0:0:
109,192,69691,1,0,0:0:0:0:
182,192,69804,1,2,0:0:0:0:
256,192,69804,1,0,0:0:0:0:
402,192,69804,1,0,0:0:0:0:
329,192,69916,1,0,0:0:0:0:
475,192,69916,1,0,0:0:0:0:
109,192,70029,1,8,0:0:0:0:
182,192,70029,1,0,0:0:0:0:
256,192,70029,1,0,0:0:0:0:
109,192,70142,1,8,0:0:0:0:
402,192,70142,1,0,0:0:0:0:
182,192,70255,1,2,0:0:0:0:
256,192,70255,1,0,0:0:0:0:
329,192,70255,1,0,0:0:0:0:
475,192,70255,1,0,0:0:0:0:
36,192,70368,1,8,0:0:0:0:
329,192,70368,1,0,0:0:0:0:
256,192,70480,1,0,0:0:0:0:
402,192,70480,1,0,0:0:0:0:
36,192,70593,1,8,0:0:0:0:
109,192,70593,1,0,0:0:0:0:
182,192,70593,1,0,0:0:0:0:
256,192,70706,1,2,0:0:0:0:
329,192,70706,1,0,0:0:0:0:
402,192,70706,1,0,0:0:0:0:
475,192,70706,1,0,0:0:0:0:
36,192,70819,1,0,0:0:0:0:
109,192,70819,1,0,0:0:0:0:
182,192,70931,1,8,0:0:0:0:
329,192,70931,1,0,0:0:0:0:
475,192,70931,1,0,0:0:0:0:
182,192,71044,1,0,0:0:0:0:
402,192,71044,1,0,0:0:0:0:
109,192,71157,1,2,0:0:0:0:
256,192,71157,1,0,0:0:0:0:
329,192,71157,1,0,0:0:0:0:
475,192,71157,1,0,0:0:0:0:
36,192,71270,1,8,0:0:0:0:
182,192,71270,1,0,0:0:0:0:
256,192,71383,1,0,0:0:0:0:
402,192,71383,1,0,0:0:0:0:
475,192,71383,1,0,0:0:0:0:
36,192,71495,1,8,0:0:0:0:
402,192,71495,1,0,0:0:0:0:
109,192,71608,1,2,0:0:0:0:
256,192,71608,1,0,0:0:0:0:
329,192,71608,1,0,0:0:0:0:
475,192,71608,1,0,0:0:0:0:
182,192,71721,1,0,0:0:0:0:
402,192,71721,1,0,0:0:0:0:
36,192,71834,1,8,0:0:0:0:
109,192,71834,1,0,0:0:0:0:
256,192,71834,1,0,0:0:0:0:
109,192,71946,1,8,0:0:0:0:
402,192,71946,1,0,0:0:0:0:
182,192,72059,1,2,0:0:0:0:
256,192,72059,1,0,0:0:0:0:
329,192,72059,1,0,0:0:0:0:
475,192,72059,1,0,0:0:0:0:
36,192,72172,1,8,0:0:0:0:
109,192,72172,1,0,0:0:0:0:
402,192,72172,1,0,0:0:0:0:
182,192,72285,1,2,0:0:0:0:
256,192,72285,1,0,0:0:0:0:
329,192,72285,1,0,0:0:0:0:
475,192,72285,1,0,0:0:0:0:
329,192,72398,1,0,0:0:0:100:tom.wav
475,192,72398,1,0,0:0:0:0:
109,192,72510,1,0,0:0:0:100:tom.wav
182,192,72510,1,0,0:0:0:0:
109,192,72623,1,0,0:0:0:100:tom.wav
182,192,72623,1,0,0:0:0:0:
36,192,72736,1,8,0:0:0:0:
256,192,72736,1,4,0:0:0:0:
402,192,72736,1,0,0:0:0:0:
475,192,72736,1,0,0:0:0:0:
475,192,72849,1,0,0:0:0:0:
36,192,72962,1,8,0:0:0:0:
182,192,72962,1,0,0:0:0:0:
329,192,72962,1,0,0:0:0:0:
402,192,72962,1,0,0:0:0:0:
36,192,73074,1,8,0:0:0:0:
256,192,73074,1,0,0:0:0:0:
109,192,73187,1,2,0:0:0:0:
182,192,73187,1,0,0:0:0:0:
329,192,73187,1,0,0:0:0:0:
475,192,73187,1,0,0:0:0:0:
256,192,73413,1,8,0:0:0:0:
329,192,73413,1,0,0:0:0:0:
36,192,73525,1,2,0:0:0:0:
329,192,73525,1,0,0:0:0:0:
402,192,73525,1,0,0:0:0:0:
109,192,73638,1,8,0:0:0:0:
182,192,73638,1,0,0:0:0:0:
109,192,73751,1,2,0:0:0:0:
256,192,73751,1,0,0:0:0:0:
402,192,73751,1,0,0:0:0:0:
329,192,73864,1,8,0:0:0:0:
475,192,73864,1,0,0:0:0:0:
36,192,73977,1,0,0:0:0:0:
182,192,73977,1,0,0:0:0:0:
256,192,74089,1,2,0:0:0:0:
402,192,74089,1,0,0:0:0:0:
475,192,74089,1,0,0:0:0:0:
329,192,74202,1,0,0:0:0:0:
329,192,74315,1,8,0:0:0:0:
475,192,74315,1,0,0:0:0:0:
36,192,74428,1,2,0:0:0:0:
182,192,74428,1,0,0:0:0:0:
256,192,74428,1,0,0:0:0:0:
36,192,74540,1,8,0:0:0:0:
109,192,74540,1,0,0:0:0:0:
402,192,74540,1,0,0:0:0:0:
475,192,74540,1,0,0:0:0:0:
256,192,74653,1,0,0:0:0:0:
36,192,74766,1,8,0:0:0:0:
109,192,74766,1,0,0:0:0:0:
402,192,74766,1,0,0:0:0:0:
475,192,74766,1,0,0:0:0:0:
182,192,74879,1,8,0:0:0:0:
329,192,74879,1,0,0:0:0:0:
36,192,74992,1,2,0:0:0:0:
109,192,74992,1,0,0:0:0:0:
402,192,74992,1,0,0:0:0:0:
475,192,74992,1,0,0:0:0:0:
36,192,75217,1,8,0:0:0:0:
182,192,75217,1,0,0:0:0:0:
182,192,75330,1,2,0:0:0:0:
329,192,75330,1,0,0:0:0:0:
402,192,75330,1,0,0:0:0:0:
36,192,75443,1,8,0:0:0:0:
256,192,75443,1,0,0:0:0:0:
475,192,75443,1,0,0:0:0:0:
109,192,75555,1,2,0:0:0:0:
475,192,75555,1,0,0:0:0:0:
256,192,75668,1,8,0:0:0:0:
329,192,75668,1,0,0:0:0:0:
109,192,75781,1,8,0:0:0:0:
182,192,75781,1,0,0:0:0:0:
329,192,75894,1,2,0:0:0:0:
402,192,75894,1,0,0:0:0:0:
475,192,75894,1,0,0:0:0:0:
329,192,76007,1,2,0:0:0:0:
402,192,76007,1,0,0:0:0:0:
475,192,76007,1,0,0:0:0:0:
36,192,76119,1,2,0:0:0:0:
109,192,76119,1,0,0:0:0:0:
182,192,76119,1,0,0:0:0:0:
36,192,76232,1,2,0:0:0:0:
109,192,76232,1,0,0:0:0:0:
182,192,76232,1,0,0:0:0:0:
329,192,76345,1,8,0:0:0:0:
402,192,76345,1,4,0:0:0:0:
475,192,76345,1,0,0:0:0:0:
36,192,76458,1,0,0:0:0:0:
256,192,76458,1,0,0:0:0:0:
182,192,76571,1,2,0:0:0:0:
329,192,76571,1,0,0:0:0:0:
402,192,76571,1,0,0:0:0:0:
475,192,76571,1,0,0:0:0:0:
329,192,76683,1,8,0:0:0:0:
402,192,76683,1,0,0:0:0:0:
36,192,76796,1,0,0:0:0:0:
109,192,76796,1,0,0:0:0:0:
182,192,76796,1,0,0:0:0:0:
256,192,76909,1,8,0:0:0:0:
329,192,76909,1,0,0:0:0:0:
36,192,77022,1,2,0:0:0:0:
109,192,77022,1,0,0:0:0:0:
402,192,77022,1,0,0:0:0:0:
475,192,77022,1,0,0:0:0:0:
36,192,77134,1,0,0:0:0:0:
109,192,77134,1,0,0:0:0:0:
256,192,77247,1,8,0:0:0:0:
402,192,77247,1,0,0:0:0:0:
475,192,77247,1,0,0:0:0:0:
402,192,77360,1,8,0:0:0:0:
475,192,77360,1,0,0:0:0:0:
36,192,77473,1,2,0:0:0:0:
109,192,77473,1,0,0:0:0:0:
256,192,77473,1,0,0:0:0:0:
329,192,77473,1,0,0:0:0:0:
182,192,77586,1,8,0:0:0:0:
402,192,77586,1,0,0:0:0:0:
475,192,77586,1,0,0:0:0:0:
36,192,77698,1,0,0:0:0:0:
182,192,77698,1,0,0:0:0:0:
256,192,77811,1,8,0:0:0:0:
329,192,77811,1,0,0:0:0:0:
256,192,77924,1,2,0:0:0:0:
329,192,77924,1,0,0:0:0:0:
402,192,77924,1,0,0:0:0:0:
475,192,77924,1,0,0:0:0:0:
36,192,78037,1,0,0:0:0:0:
109,192,78037,1,0,0:0:0:0:
256,192,78149,1,8,0:0:0:0:
402,192,78149,1,0,0:0:0:0:
475,192,78149,1,0,0:0:0:0:
109,192,78262,1,0,0:0:0:0:
402,192,78262,1,0,0:0:0:0:
36,192,78375,1,2,0:0:0:0:
182,192,78375,1,0,0:0:0:0:
256,192,78375,1,0,0:0:0:0:
475,192,78375,1,0,0:0:0:0:
182,192,78488,1,8,0:0:0:0:
329,192,78488,1,0,0:0:0:0:
109,192,78601,1,0,0:0:0:0:
256,192,78601,1,0,0:0:0:0:
475,192,78601,1,0,0:0:0:0:
329,192,78713,1,8,0:0:0:0:
475,192,78713,1,0,0:0:0:0:
36,192,78826,1,2,0:0:0:0:
109,192,78826,1,0,0:0:0:0:
182,192,78826,1,0,0:0:0:0:
402,192,78826,1,0,0:0:0:0:
256,192,78939,1,0,0:0:0:0:
329,192,78939,1,0,0:0:0:0:
109,192,79052,1,8,0:0:0:0:
402,192,79052,1,0,0:0:0:0:
475,192,79052,1,0,0:0:0:0:
256,192,79165,1,8,0:0:0:0:
402,192,79165,1,0,0:0:0:0:
36,192,79277,1,2,0:0:0:0:
109,192,79277,1,0,0:0:0:0:
182,192,79277,1,0,0:0:0:0:
329,192,79277,1,0,0:0:0:0:
36,192,79390,1,8,0:0:0:0:
109,192,79390,1,0,0:0:0:0:
256,192,79503,1,2,0:0:0:0:
329,192,79503,1,0,0:0:0:0:
402,192,79503,1,0,0:0:0:0:
475,192,79503,1,0,0:0:0:0:
329,192,79616,1,0,0:0:0:100:tom.wav
475,192,79616,1,0,0:0:0:0:
109,192,79728,1,0,0:0:0:100:tom.wav
182,192,79728,1,0,0:0:0:0:
109,192,79841,1,0,0:0:0:100:tom.wav
182,192,79841,1,0,0:0:0:0:
256,192,79954,1,2,0:0:0:0:
329,192,79954,1,4,0:0:0:0:
402,192,79954,1,0,0:0:0:0:
475,192,79954,1,0,0:0:0:0:
182,192,80067,1,8,0:0:0:0:
329,192,80067,1,0,0:0:0:0:
402,192,80180,1,8,0:0:0:0:
475,192,80180,1,0,0:0:0:0:
36,192,80292,1,2,0:0:0:0:
109,192,80292,1,4,0:0:0:0:
182,192,80292,1,0,0:0:0:0:
256,192,80292,1,0,0:0:0:0:
109,192,80405,1,8,0:0:0:0:
402,192,80405,1,0,0:0:0:0:
36,192,80518,1,8,0:0:0:0:
329,192,80518,1,0,0:0:0:0:
182,192,80631,1,2,0:0:0:0:
256,192,80631,1,4,0:0:0:0:
402,192,80631,1,0,0:0:0:0:
475,192,80631,1,0,0:0:0:0:
109,192,80743,1,8,0:0:0:0:
402,192,80743,1,0,0:0:0:0:
475,192,80743,1,0,0:0:0:0:
36,192,80856,1,2,0:0:0:0:
182,192,80856,1,4,0:0:0:0:
256,192,80856,1,0,0:0:0:0:
329,192,80856,1,0,0:0:0:0:
182,192,80969,1,8,0:0:0:0:
402,192,80969,1,0,0:0:0:0:
36,192,81082,1,8,0:0:0:0:
109,192,81082,1,0,0:0:0:0:
256,192,81195,1,2,0:0:0:0:
329,192,81195,1,4,0:0:0:0:
402,192,81195,1,0,0:0:0:0:
475,192,81195,1,0,0:0:0:0:
36,192,81307,1,8,0:0:0:0:
402,192,81307,1,0,0:0:0:0:
109,192,81420,1,8,0:0:0:0:
475,192,81420,1,0,0:0:0:0:
36,192,81533,1,2,0:0:0:0:
182,192,81533,1,4,0:0:0:0:
256,192,81533,1,0,0:0:0:0:
329,192,81533,1,0,0:0:0:0:
36,192,81646,1,8,0:0:0:0:
182,192,81646,1,0,0:0:0:0:
402,192,81646,1,0,0:0:0:0:
109,192,81759,1,2,0:0:0:0:
256,192,81759,1,4,0:0:0:0:
329,192,81759,1,0,0:0:0:0:
475,192,81759,1,0,0:0:0:0:
36,192,81871,1,8,0:0:0:0:
475,192,81871,1,0,0:0:0:0:
256,192,81984,1,8,0:0:0:0:
402,192,81984,1,0,0:0:0:0:
36,192,82097,1,2,0:0:0:0:
109,192,82097,1,4,0:0:0:0:
182,192,82097,1,0,0:0:0:0:
329,192,82097,1,0,0:0:0:0:
182,192,82210,1,8,0:0:0:0:
402,192,82210,1,0,0:0:0:0:
36,192,82322,1,8,0:0:0:0:
256,192,82322,1,0,0:0:0:0:
109,192,82435,1,2,0:0:0:0:
182,192,82435,1,4,0:0:0:0:
402,192,82435,1,0,0:0:0:0:
475,192,82435,1,0,0:0:0:0:
36,192,82548,1,8,0:0:0:0:
256,192,82548,1,0,0:0:0:0:
329,192,82548,1,0,0:0:0:0:
109,192,82661,1,2,0:0:0:0:
182,192,82661,1,4,0:0:0:0:
402,192,82661,1,0,0:0:0:0:
475,192,82661,1,0,0:0:0:0:
36,192,82886,1,8,0:0:0:0:
182,192,82886,1,0,0:0:0:0:
329,192,82886,1,0,0:0:0:0:
36,192,82999,1,2,0:0:0:0:
256,192,82999,1,0,0:0:0:0:
182,192,83112,1,0,0:0:0:100:tom.wav
329,192,83112,1,0,0:0:0:0:
475,192,83112,1,0,0:0:0:0:
109,192,83225,1,0,0:0:0:100:tom.wav
329,192,83225,1,0,0:0:0:0:
475,192,83225,1,0,0:0:0:0:
36,192,83337,1,4,0:0:0:0:
256,192,83337,1,0,0:0:0:100:tom.wav
402,192,83337,1,0,0:0:0:0:
36,192,83450,1,0,0:0:0:0:
182,192,83563,1,4,0:0:0:0:
329,192,83563,1,8,0:0:0:0:
475,192,83563,1,0,0:0:0:0:
256,192,83789,1,0,0:0:0:0:
182,192,84014,1,0,0:0:0:0:
402,192,84240,1,0,0:0:0:0:
329,192,84352,1,0,0:0:0:0:
182,192,84465,1,0,0:0:0:0:
109,192,84634,1,0,0:0:0:0:
329,192,84804,1,0,0:0:0:0:
402,192,84916,1,0,0:0:0:0:
109,192,85029,1,0,0:0:0:0:
329,192,85142,1,0,0:0:0:0:
256,192,85255,1,0,0:0:0:0:
182,192,85368,1,0,0:0:0:0:
109,192,85593,1,0,0:0:0:0:
329,192,85706,1,0,0:0:0:0:
402,192,85819,1,0,0:0:0:0:
182,192,86044,1,0,0:0:0:0:
329,192,86157,1,0,0:0:0:0:
475,192,86270,1,0,0:0:0:0:
182,192,86495,1,0,0:0:0:0:
109,192,86608,1,0,0:0:0:0:
329,192,86721,1,0,0:0:0:0:
402,192,86834,1,0,0:0:0:0:
182,192,86946,1,0,0:0:0:0:
256,192,87059,1,0,0:0:0:0:
329,192,87172,1,0,0:0:0:0:
475,192,87172,1,0,0:0:0:0:
182,192,87398,1,0,0:0:0:0:
36,192,87623,1,0,0:0:0:0:
329,192,87849,1,0,0:0:0:0:
256,192,87962,1,0,0:0:0:0:
182,192,88074,1,0,0:0:0:0:
109,192,88187,1,0,0:0:0:0:
475,192,88300,1,0,0:0:0:0:
182,192,88413,1,0,0:0:0:0:
256,192,88525,1,0,0:0:0:0:
329,192,88638,1,0,0:0:0:0:
109,192,88751,1,0,0:0:0:0:
402,192,88864,1,0,0:0:0:0:
36,192,88977,1,0,0:0:0:0:
182,192,88977,1,0,0:0:0:0:
256,192,89202,1,0,0:0:0:0:
109,192,89428,1,0,0:0:0:0:
329,192,89428,1,0,0:0:0:0:
402,192,89653,1,0,0:0:0:0:
329,192,89766,1,0,0:0:0:0:
36,192,89879,1,2,0:0:0:0:
109,192,89879,1,0,0:0:0:0:
256,192,89879,1,0,0:0:0:0:
109,192,89992,1,0,0:0:0:100:tom.wav
402,192,89992,1,0,0:0:0:0:
329,192,90104,1,0,0:0:0:0:
475,192,90104,1,0,0:0:0:0:
36,192,90217,1,0,0:0:0:100:tom.wav
182,192,90217,1,0,0:0:0:0:
182,192,90330,1,2,0:0:0:0:
329,192,90330,1,0,0:0:0:0:
402,192,90330,1,0,0:0:0:0:
109,192,90443,1,8,0:0:0:0:
329,192,90443,1,0,0:0:0:0:
36,192,90555,1,2,0:0:0:0:
402,192,90555,1,0,0:0:0:0:
475,192,90555,1,0,0:0:0:0:
182,192,90668,1,2,0:0:0:0:
402,192,90668,1,0,0:0:0:0:
36,192,90781,1,4,0:0:0:0:
109,192,90781,1,8,0:0:0:0:
256,192,90781,1,0,0:0:0:0:
109,192,90894,1,0,0:0:0:0:
256,192,91007,1,2,0:0:0:0:
402,192,91007,1,0,0:0:0:0:
475,192,91007,1,0,0:0:0:0:
182,192,91119,1,8,0:0:0:0:
329,192,91119,1,0,0:0:0:0:
109,192,91232,1,0,0:0:0:0:
329,192,91345,1,8,0:0:0:0:
475,192,91345,1,0,0:0:0:0:
109,192,91458,1,2,0:0:0:0:
182,192,91458,1,0,0:0:0:0:
329,192,91458,1,0,0:0:0:0:
256,192,91571,1,0,0:0:0:0:
36,192,91683,1,8,0:0:0:0:
256,192,91683,1,0,0:0:0:0:
109,192,91796,1,8,0:0:0:0:
402,192,91796,1,0,0:0:0:0:
182,192,91909,1,2,0:0:0:0:
329,192,91909,1,0,0:0:0:0:
475,192,91909,1,0,0:0:0:0:
182,192,92022,1,8,0:0:0:0:
256,192,92022,1,0,0:0:0:0:
329,192,92134,1,0,0:0:0:0:
36,192,92247,1,8,0:0:0:0:
182,192,92247,1,0,0:0:0:0:
402,192,92247,1,0,0:0:0:0:
36,192,92360,1,2,0:0:0:0:
182,192,92360,1,0,0:0:0:0:
475,192,92360,1,0,0:0:0:0:
109,192,92473,1,0,0:0:0:0:
256,192,92586,1,8,0:0:0:0:
402,192,92586,1,0,0:0:0:0:
402,192,92698,1,0,0:0:0:0:
109,192,92811,1,2,0:0:0:0:
329,192,92811,1,0,0:0:0:0:
475,192,92811,1,0,0:0:0:0:
36,192,92924,1,8,0:0:0:0:
256,192,92924,1,0,0:0:0:0:
182,192,93037,1,0,0:0:0:0:
36,192,93149,1,8,0:0:0:0:
402,192,93149,1,0,0:0:0:0:
182,192,93262,1,2,0:0:0:0:
256,192,93262,1,0,0:0:0:0:
402,192,93262,1,0,0:0:0:0:
109,192,93375,1,0,0:0:0:0:
109,192,93488,1,8,0:0:0:0:
329,192,93488,1,0,0:0:0:0:
182,192,93601,1,8,0:0:0:0:
329,192,93601,1,0,0:0:0:0:
36,192,93713,1,2,0:0:0:0:
109,192,93713,1,0,0:0:0:0:
256,192,93713,1,0,0:0:0:0:
36,192,93826,1,8,0:0:0:0:
402,192,93826,1,0,0:0:0:0:
182,192,93939,1,0,0:0:0:0:
256,192,94052,1,8,0:0:0:0:
402,192,94052,1,0,0:0:0:0:
36,192,94165,1,2,0:0:0:0:
109,192,94165,1,0,0:0:0:0:
402,192,94165,1,0,0:0:0:0:
36,192,94277,1,2,0:0:0:0:
109,192,94277,1,0,0:0:0:0:
329,192,94277,1,0,0:0:0:0:
256,192,94390,1,8,0:0:0:0:
402,192,94390,1,4,0:0:0:0:
475,192,94390,1,0,0:0:0:0:
256,192,94503,1,0,0:0:0:0:
109,192,94616,1,2,0:0:0:0:
329,192,94616,1,0,0:0:0:0:
475,192,94616,1,0,0:0:0:0:
36,192,94728,1,8,0:0:0:0:
182,192,94728,1,0,0:0:0:0:
256,192,94841,1,0,0:0:0:0:
109,192,94954,1,8,0:0:0:0:
402,192,94954,1,0,0:0:0:0:
256,192,95067,1,2,0:0:0:0:
402,192,95067,1,0,0:0:0:0:
475,192,95067,1,0,0:0:0:0:
182,192,95180,1,0,0:0:0:0:
182,192,95292,1,8,0:0:0:0:
329,192,95292,1,0,0:0:0:0:
36,192,95405,1,8,0:0:0:0:
402,192,95405,1,0,0:0:0:0:
256,192,95518,1,2,0:0:0:0:
329,192,95518,1,0,0:0:0:0:
475,192,95518,1,0,0:0:0:0:
402,192,95631,1,8,0:0:0:0:
475,192,95631,1,0,0:0:0:0:
182,192,95743,1,0,0:0:0:0:
109,192,95856,1,8,0:0:0:0:
329,192,95856,1,0,0:0:0:0:
36,192,95969,1,2,0:0:0:0:
329,192,95969,1,0,0:0:0:0:
402,192,95969,1,0,0:0:0:0:
256,192,96082,1,0,0:0:0:0:
329,192,96195,1,8,0:0:0:0:
402,192,96195,1,4,0:0:0:0:
475,192,96195,1,0,0:0:0:0:
109,192,96307,1,0,0:0:0:0:
182,192,96420,1,2,0:0:0:0:
329,192,96420,1,0,0:0:0:0:
402,192,96420,1,0,0:0:0:0:
36,192,96533,1,8,0:0:0:0:
329,192,96533,1,0,0:0:0:0:
109,192,96646,1,8,0:0:0:0:
182,192,96646,1,4,0:0:0:0:
256,192,96646,1,0,0:0:0:0:
402,192,96759,1,0,0:0:0:0:
109,192,96871,1,2,0:0:0:0:
256,192,96871,1,0,0:0:0:0:
475,192,96871,1,0,0:0:0:0:
329,192,96984,1,0,0:0:0:0:
36,192,97097,1,2,0:0:0:0:
109,192,97097,1,4,0:0:0:0:
402,192,97097,1,0,0:0:0:0:
182,192,97210,1,8,0:0:0:0:
256,192,97210,1,0,0:0:0:0:
329,192,97322,1,2,0:0:0:0:
402,192,97322,1,0,0:0:0:0:
475,192,97322,1,0,0:0:0:0:
109,192,97435,1,8,0:0:0:0:
182,192,97435,1,0,0:0:0:0:
256,192,97548,1,2,0:0:0:0:
402,192,97548,1,0,0:0:0:0:
475,192,97548,1,0,0:0:0:0:
256,192,97661,1,2,0:0:0:0:
402,192,97661,1,0,0:0:0:0:
475,192,97661,1,0,0:0:0:0:
36,192,97774,1,2,0:0:0:0:
109,192,97774,1,0,0:0:0:0:
182,192,97774,1,0,0:0:0:0:
36,192,97886,1,2,0:0:0:0:
109,192,97886,1,0,0:0:0:0:
182,192,97886,1,0,0:0:0:0:
256,192,97999,1,8,0:0:0:0:
402,192,97999,1,4,0:0:0:0:
475,192,97999,1,0,0:0:0:0:
402,192,98112,1,0,0:0:0:0:
109,192,98225,1,8,0:0:0:0:
256,192,98225,1,0,0:0:0:0:
256,192,98337,1,8,0:0:0:0:
402,192,98337,1,0,0:0:0:0:
109,192,98450,1,2,0:0:0:0:
182,192,98450,1,0,0:0:0:0:
475,192,98450,1,0,0:0:0:0:
109,192,98563,1,0,0:0:0:0:
256,192,98676,1,8,0:0:0:0:
475,192,98676,1,0,0:0:0:0:
36,192,98789,1,2,0:0:0:0:
182,192,98789,1,0,0:0:0:0:
475,192,98789,1,0,0:0:0:0:
256,192,98901,1,8,0:0:0:0:
329,192,98901,1,0,0:0:0:0:
109,192,99014,1,2,0:0:0:0:
329,192,99014,1,0,0:0:0:0:
475,192,99014,1,0,0:0:0:0:
182,192,99127,1,8,0:0:0:0:
182,192,99240,1,0,0:0:0:0:
36,192,99352,1,2,0:0:0:0:
109,192,99352,1,0,0:0:0:0:
329,192,99352,1,0,0:0:0:0:
256,192,99465,1,0,0:0:0:0:
182,192,99578,1,8,0:0:0:0:
402,192,99578,1,0,0:0:0:0:
109,192,99691,1,2,0:0:0:0:
329,192,99691,1,0,0:0:0:0:
475,192,99691,1,0,0:0:0:0:
36,192,99804,1,8,0:0:0:0:
256,192,99804,1,0,0:0:0:0:
36,192,99916,1,0,0:0:0:0:
182,192,100029,1,8,0:0:0:0:
329,192,100029,1,0,0:0:0:0:
329,192,100142,1,8,0:0:0:0:
256,192,100255,1,2,0:0:0:0:
402,192,100255,1,0,0:0:0:0:
475,192,100255,1,0,0:0:0:0:
182,192,100368,1,0,0:0:0:0:
109,192,100480,1,8,0:0:0:0:
256,192,100480,1,0,0:0:0:0:
402,192,100480,1,0,0:0:0:0:
36,192,100593,1,2,0:0:0:0:
256,192,100593,1,0,0:0:0:0:
402,192,100593,1,0,0:0:0:0:
182,192,100706,1,8,0:0:0:0:
475,192,100706,1,0,0:0:0:0:
36,192,100819,1,2,0:0:0:0:
109,192,100819,1,0,0:0:0:0:
329,192,100819,1,0,0:0:0:0:
402,192,100931,1,8,0:0:0:0:
475,192,100931,1,0,0:0:0:0:
182,192,101044,1,0,0:0:0:0:
109,192,101157,1,2,0:0:0:0:
256,192,101157,1,0,0:0:0:0:
329,192,101157,1,0,0:0:0:0:
402,192,101270,1,8,0:0:0:0:
475,192,101270,1,0,0:0:0:0:
36,192,101383,1,2,0:0:0:0:
109,192,101383,1,0,0:0:0:0:
182,192,101383,1,0,0:0:0:0:
36,192,101495,1,2,0:0:0:0:
109,192,101495,1,0,0:0:0:0:
182,192,101495,1,0,0:0:0:0:
329,192,101608,1,8,0:0:0:0:
402,192,101608,1,0,0:0:0:0:
475,192,101608,1,0,0:0:0:0:
329,192,101721,1,0,0:0:0:0:
36,192,101834,1,8,0:0:0:0:
182,192,101834,1,0,0:0:0:0:
182,192,101946,1,8,0:0:0:0:
329,192,101946,1,0,0:0:0:0:
256,192,102059,1,2,0:0:0:0:
402,192,102059,1,0,0:0:0:0:
475,192,102059,1,0,0:0:0:0:
402,192,102172,1,0,0:0:0:0:
36,192,102285,1,8,0:0:0:0:
256,192,102285,1,0,0:0:0:0:
109,192,102398,1,2,0:0:0:0:
256,192,102398,1,0,0:0:0:0:
475,192,102398,1,0,0:0:0:0:
182,192,102510,1,8,0:0:0:0:
402,192,102510,1,0,0:0:0:0:
36,192,102623,1,2,0:0:0:0:
109,192,102623,1,0,0:0:0:0:
256,192,102623,1,0,0:0:0:0:
402,192,102736,1,8,0:0:0:0:
475,192,102736,1,0,0:0:0:0:
256,192,102849,1,0,0:0:0:0:
36,192,102962,1,2,0:0:0:0:
182,192,102962,1,0,0:0:0:0:
329,192,102962,1,0,0:0:0:0:
402,192,103074,1,0,0:0:0:0:
109,192,103187,1,8,0:0:0:0:
182,192,103187,1,0,0:0:0:0:
109,192,103300,1,2,0:0:0:0:
329,192,103300,1,0,0:0:0:0:
475,192,103300,1,0,0:0:0:0:
36,192,103413,1,8,0:0:0:0:
256,192,103413,1,0,0:0:0:0:
256,192,103525,1,0,0:0:0:0:
329,192,103638,1,8,0:0:0:0:
402,192,103638,1,0,0:0:0:0:
109,192,103751,1,8,0:0:0:0:
402,192,103751,1,0,0:0:0:0:
36,192,103864,1,2,0:0:0:0:
182,192,103864,1,0,0:0:0:0:
475,192,103864,1,0,0:0:0:0:
256,192,103977,1,0,0:0:0:0:
109,192,104089,1,8,0:0:0:0:
329,192,104089,1,0,0:0:0:0:
182,192,104202,1,2,0:0:0:0:
402,192,104202,1,0,0:0:0:0:
475,192,104202,1,0,0:0:0:0:
36,192,104315,1,8,0:0:0:0:
109,192,104315,1,0,0:0:0:0:
329,192,104428,1,2,0:0:0:0:
402,192,104428,1,0,0:0:0:0:
475,192,104428,1,0,0:0:0:0:
36,192,104540,1,8,0:0:0:0:
182,192,104540,1,0,0:0:0:0:
182,192,104653,1,8,0:0:0:0:
256,192,104653,1,0,0:0:0:0:
329,192,104766,1,2,0:0:0:0:
402,192,104766,1,0,0:0:0:0:
475,192,104766,1,0,0:0:0:0:
329,192,104879,1,2,0:0:0:0:
402,192,104879,1,0,0:0:0:0:
475,192,104879,1,0,0:0:0:0:
36,192,104992,1,2,0:0:0:0:
109,192,104992,1,0,0:0:0:0:
182,192,104992,1,0,0:0:0:0:
36,192,105104,1,2,0:0:0:0:
109,192,105104,1,0,0:0:0:0:
182,192,105104,1,0,0:0:0:0:
256,192,105217,1,8,0:0:0:0:
402,192,105217,1,4,0:0:0:0:
475,192,105217,1,0,0:0:0:0:
402,192,105330,1,0,0:0:0:0:
36,192,105443,1,2,0:0:0:0:
109,192,105443,1,0,0:0:0:0:
256,192,105443,1,0,0:0:0:0:
256,192,105555,1,8,0:0:0:0:
329,192,105555,1,0,0:0:0:0:
109,192,105668,1,0,0:0:0:0:
36,192,105781,1,8,0:0:0:0:
109,192,105781,1,0,0:0:0:0:
256,192,105894,1,2,0:0:0:0:
329,192,105894,1,0,0:0:0:0:
475,192,105894,1,0,0:0:0:0:
475,192,106007,1,0,0:0:0:0:
36,192,106119,1,8,0:0:0:0:
329,192,106119,1,0,0:0:0:0:
109,192,106232,1,8,0:0:0:0:
329,192,106232,1,0,0:0:0:0:
182,192,106345,1,2,0:0:0:0:
402,192,106345,1,0,0:0:0:0:
475,192,106345,1,0,0:0:0:0:
182,192,106458,1,8,0:0:0:0:
256,192,106458,1,0,0:0:0:0:
36,192,106571,1,0,0:0:0:0:
36,192,106683,1,8,0:0:0:0:
475,192,106683,1,0,0:0:0:0:
182,192,106796,1,2,0:0:0:0:
256,192,106796,1,0,0:0:0:0:
329,192,106796,1,0,0:0:0:0:
402,192,106909,1,0,0:0:0:0:
36,192,107022,1,8,0:0:0:0:
256,192,107022,1,4,0:0:0:0:
475,192,107022,1,0,0:0:0:0:
256,192,107134,1,0,0:0:0:0:
182,192,107247,1,2,0:0:0:0:
329,192,107247,1,0,0:0:0:0:
402,192,107247,1,0,0:0:0:0:
182,192,107360,1,8,0:0:0:0:
402,192,107473,1,0,0:0:0:0:
36,192,107586,1,8,0:0:0:0:
256,192,107586,1,0,0:0:0:0:
109,192,107698,1,2,0:0:0:0:
329,192,107698,1,0,0:0:0:0:
475,192,107698,1,0,0:0:0:0:
329,192,107811,1,0,0:0:0:0:
109,192,107924,1,8,0:0:0:0:
402,192,107924,1,0,0:0:0:0:
109,192,108037,1,8,0:0:0:0:
256,192,108037,1,0,0:0:0:0:
36,192,108149,1,2,0:0:0:0:
329,192,108149,1,0,0:0:0:0:
475,192,108149,1,0,0:0:0:0:
109,192,108262,1,8,0:0:0:0:
182,192,108262,1,0,0:0:0:0:
329,192,108375,1,0,0:0:0:0:
256,192,108488,1,8,0:0:0:0:
402,192,108488,1,0,0:0:0:0:
36,192,108601,1,2,0:0:0:0:
109,192,108601,1,0,0:0:0:0:
182,192,108601,1,0,0:0:0:0:
36,192,108713,1,2,0:0:0:0:
109,192,108713,1,0,0:0:0:0:
182,192,108713,1,0,0:0:0:0:
256,192,108826,1,8,0:0:0:0:
402,192,108826,1,4,0:0:0:0:
475,192,108826,1,0,0:0:0:0:
256,192,108939,1,0,0:0:0:0:
36,192,109052,1,2,0:0:0:0:
109,192,109052,1,0,0:0:0:0:
329,192,109052,1,0,0:0:0:0:
329,192,109165,1,8,0:0:0:0:
402,192,109165,1,0,0:0:0:0:
182,192,109277,1,0,0:0:0:0:
182,192,109390,1,8,0:0:0:0:
402,192,109390,1,0,0:0:0:0:
36,192,109503,1,2,0:0:0:0:
109,192,109503,1,0,0:0:0:0:
475,192,109503,1,0,0:0:0:0:
475,192,109616,1,0,0:0:0:0:
109,192,109728,1,8,0:0:0:0:
329,192,109728,1,0,0:0:0:0:
109,192,109841,1,8,0:0:0:0:
329,192,109841,1,0,0:0:0:0:
36,192,109954,1,2,0:0:0:0:
182,192,109954,1,0,0:0:0:0:
402,192,109954,1,0,0:0:0:0:
256,192,110067,1,8,0:0:0:0:
402,192,110067,1,0,0:0:0:0:
36,192,110180,1,2,0:0:0:0:
109,192,110180,1,0,0:0:0:0:
329,192,110180,1,0,0:0:0:0:
36,192,110292,1,0,0:0:0:100:tom.wav
109,192,110292,1,0,0:0:0:0:
402,192,110405,1,0,0:0:0:100:tom.wav
475,192,110405,1,0,0:0:0:0:
402,192,110518,1,0,0:0:0:100:tom.wav
475,192,110518,1,0,0:0:0:0:
36,192,110631,1,8,0:0:0:0:
109,192,110631,1,4,0:0:0:0:
256,192,110631,1,0,0:0:0:0:
402,192,110743,1,0,0:0:0:0:
182,192,110856,1,2,0:0:0:0:
329,192,110856,1,4,0:0:0:0:
475,192,110856,1,0,0:0:0:0:
36,192,110969,1,8,0:0:0:0:
256,192,110969,1,4,0:0:0:0:
109,192,111082,1,8,0:0:0:0:
402,192,111082,1,0,0:0:0:0:
182,192,111195,1,2,0:0:0:0:
329,192,111195,1,0,0:0:0:0:
475,192,111195,1,0,0:0:0:0:
182,192,111307,1,2,0:0:0:0:
329,192,111307,1,0,0:0:0:0:
475,192,111307,1,0,0:0:0:0:
36,192,111420,1,8,0:0:0:0:
109,192,111420,1,4,0:0:0:0:
256,192,111420,1,0,0:0:0:0:
402,192,111420,1,0,0:0:0:0:
329,192,111646,1,0,0:0:0:100:tom.wav
475,192,111646,1,0,0:0:0:0:
36,192,111759,1,8,0:0:0:0:
182,192,111759,1,0,0:0:0:0:
36,192,111871,1,8,0:0:0:0:
182,192,111871,1,0,0:0:0:0:
256,192,111984,1,2,0:0:0:0:
329,192,111984,1,0,0:0:0:0:
475,192,111984,1,0,0:0:0:0:
329,192,112097,1,2,0:0:0:0:
475,192,112097,1,0,0:0:0:0:
36,192,112210,1,2,0:0:0:0:
109,192,112210,1,0,0:0:0:0:
182,192,112210,1,0,0:0:0:0:
36,192,112322,1,2,0:0:0:0:
109,192,112322,1,0,0:0:0:0:
182,192,112322,1,0,0:0:0:0:
256,192,112435,1,4,0:0:0:0:
402,192,112435,1,8,0:0:0:0:
475,192,112435,1,0,0:0:0:0:
36,192,112548,1,0,0:0:0:0:
182,192,112548,1,0,0:0:0:0:
109,192,112661,1,2,0:0:0:0:
256,192,112661,1,0,0:0:0:0:
329,192,112661,1,0,0:0:0:0:
475,192,112661,1,0,0:0:0:0:
182,192,112774,1,8,0:0:0:0:
402,192,112774,1,0,0:0:0:0:
36,192,112886,1,0,0:0:0:0:
402,192,112886,1,0,0:0:0:0:
256,192,112999,1,8,0:0:0:0:
475,192,112999,1,0,0:0:0:0:
36,192,113112,1,2,0:0:0:0:
109,192,113112,1,0,0:0:0:0:
182,192,113112,1,0,0:0:0:0:
329,192,113112,1,0,0:0:0:0:
402,192,113225,1,0,0:0:0:0:
475,192,113225,1,0,0:0:0:0:
36,192,113337,1,8,0:0:0:0:
182,192,113337,1,0,0:0:0:0:
36,192,113450,1,8,0:0:0:0:
402,192,113450,1,0,0:0:0:0:
109,192,113563,1,2,0:0:0:0:
256,192,113563,1,0,0:0:0:0:
329,192,113563,1,0,0:0:0:0:
475,192,113563,1,0,0:0:0:0:
182,192,113676,1,8,0:0:0:0:
402,192,113676,1,0,0:0:0:0:
109,192,113789,1,0,0:0:0:0:
402,192,113789,1,0,0:0:0:0:
256,192,113901,1,8,0:0:0:0:
329,192,113901,1,0,0:0:0:0:
36,192,114014,1,2,0:0:0:0:
109,192,114014,1,0,0:0:0:0:
182,192,114014,1,0,0:0:0:0:
402,192,114014,1,0,0:0:0:0:
182,192,114127,1,0,0:0:0:0:
475,192,114127,1,0,0:0:0:0:
36,192,114240,1,8,0:0:0:0:
109,192,114240,1,0,0:0:0:0:
329,192,114240,1,0,0:0:0:0:
329,192,114352,1,0,0:0:0:0:
475,192,114352,1,0,0:0:0:0:
36,192,114465,1,2,0:0:0:0:
109,192,114465,1,0,0:0:0:0:
182,192,114465,1,0,0:0:0:0:
402,192,114465,1,0,0:0:0:0:
256,192,114578,1,8,0:0:0:0:
475,192,114578,1,0,0:0:0:0:
36,192,114691,1,0,0:0:0:0:
256,192,114691,1,0,0:0:0:0:
329,192,114804,1,8,0:0:0:0:
402,192,114804,1,0,0:0:0:0:
36,192,114916,1,2,0:0:0:0:
109,192,114916,1,0,0:0:0:0:
182,192,114916,1,0,0:0:0:0:
475,192,114916,1,0,0:0:0:0:
36,192,115029,1,0,0:0:0:0:
329,192,115029,1,0,0:0:0:0:
256,192,115142,1,8,0:0:0:0:
402,192,115142,1,0,0:0:0:0:
182,192,115255,1,8,0:0:0:0:
402,192,115255,1,0,0:0:0:0:
36,192,115368,1,2,0:0:0:0:
256,192,115368,1,0,0:0:0:0:
329,192,115368,1,0,0:0:0:0:
475,192,115368,1,0,0:0:0:0:
109,192,115480,1,8,0:0:0:0:
182,192,115480,1,0,0:0:0:0:
109,192,115593,1,0,0:0:0:0:
402,192,115593,1,0,0:0:0:0:
182,192,115706,1,8,0:0:0:0:
329,192,115706,1,0,0:0:0:0:
36,192,115819,1,2,0:0:0:0:
256,192,115819,1,0,0:0:0:0:
402,192,115819,1,0,0:0:0:0:
475,192,115819,1,0,0:0:0:0:
256,192,115931,1,2,0:0:0:0:
402,192,115931,1,0,0:0:0:0:
475,192,115931,1,0,0:0:0:0:
36,192,116044,1,8,0:0:0:0:
182,192,116044,1,4,0:0:0:0:
329,192,116044,1,0,0:0:0:0:
182,192,116157,1,0,0:0:0:0:
475,192,116157,1,0,0:0:0:0:
36,192,116270,1,2,0:0:0:0:
109,192,116270,1,0,0:0:0:0:
256,192,116270,1,0,0:0:0:0:
402,192,116270,1,0,0:0:0:0:
182,192,116383,1,8,0:0:0:0:
329,192,116383,1,0,0:0:0:0:
329,192,116495,1,0,0:0:0:0:
475,192,116495,1,0,0:0:0:0:
182,192,116608,1,8,0:0:0:0:
402,192,116608,1,0,0:0:0:0:
36,192,116721,1,2,0:0:0:0:
109,192,116721,1,0,0:0:0:0:
256,192,116721,1,0,0:0:0:0:
329,192,116721,1,0,0:0:0:0:
109,192,116834,1,0,0:0:0:0:
475,192,116834,1,0,0:0:0:0:
256,192,116946,1,8,0:0:0:0:
329,192,116946,1,0,0:0:0:0:
182,192,117059,1,8,0:0:0:0:
329,192,117059,1,0,0:0:0:0:
36,192,117172,1,2,0:0:0:0:
109,192,117172,1,0,0:0:0:0:
402,192,117172,1,0,0:0:0:0:
475,192,117172,1,0,0:0:0:0:
182,192,117285,1,8,0:0:0:0:
329,192,117285,1,0,0:0:0:0:
182,192,117398,1,0,0:0:0:0:
256,192,117398,1,0,0:0:0:0:
109,192,117510,1,8,0:0:0:0:
402,192,117510,1,0,0:0:0:0:
36,192,117623,1,2,0:0:0:0:
329,192,117623,1,0,0:0:0:0:
475,192,117623,1,0,0:0:0:0:
182,192,117736,1,0,0:0:0:0:
256,192,117736,1,0,0:0:0:0:
109,192,117849,1,8,0:0:0:0:
402,192,117849,1,0,0:0:0:0:
475,192,117849,1,0,0:0:0:0:
36,192,117962,1,0,0:0:0:0:
402,192,117962,1,0,0:0:0:0:
109,192,118074,1,2,0:0:0:0:
182,192,118074,1,0,0:0:0:0:
256,192,118074,1,0,0:0:0:0:
475,192,118074,1,0,0:0:0:0:
36,192,118187,1,8,0:0:0:0:
329,192,118187,1,0,0:0:0:0:
182,192,118300,1,0,0:0:0:0:
402,192,118300,1,0,0:0:0:0:
36,192,118413,1,8,0:0:0:0:
402,192,118413,1,0,0:0:0:0:
109,192,118525,1,2,0:0:0:0:
256,192,118525,1,0,0:0:0:0:
475,192,118525,1,0,0:0:0:0:
182,192,118638,1,0,0:0:0:0:
329,192,118638,1,0,0:0:0:0:
256,192,118751,1,8,0:0:0:0:
402,192,118751,1,0,0:0:0:0:
182,192,118864,1,8,0:0:0:0:
402,192,118864,1,0,0:0:0:0:
36,192,118977,1,2,0:0:0:0:
109,192,118977,1,0,0:0:0:0:
475,192,118977,1,0,0:0:0:0:
182,192,119089,1,8,0:0:0:0:
329,192,119089,1,0,0:0:0:0:
109,192,119202,1,2,0:0:0:0:
256,192,119202,1,0,0:0:0:0:
402,192,119202,1,0,0:0:0:0:
475,192,119202,1,0,0:0:0:0:
402,192,119315,1,0,0:0:0:100:tom.wav
475,192,119315,1,0,0:0:0:0:
36,192,119428,1,0,0:0:0:100:tom.wav
109,192,119428,1,0,0:0:0:0:
36,192,119540,1,0,0:0:0:100:tom.wav
109,192,119540,1,0,0:0:0:0:
182,192,119653,1,8,0:0:0:0:
256,192,119653,1,4,0:0:0:0:
402,192,119653,1,0,0:0:0:0:
475,192,119653,1,0,0:0:0:0:
402,192,119766,1,0,0:0:0:0:
109,192,119879,1,8,0:0:0:0:
182,192,119879,1,0,0:0:0:0:
329,192,119879,1,0,0:0:0:0:
475,192,119879,1,0,0:0:0:0:
109,192,119992,1,8,0:0:0:0:
182,192,119992,1,0,0:0:0:0:
36,192,120104,1,2,0:0:0:0:
256,192,120104,1,0,0:0:0:0:
402,192,120104,1,0,0:0:0:0:
475,192,120104,1,0,0:0:0:0:
36,192,120330,1,8,0:0:0:0:
182,192,120330,1,0,0:0:0:0:
182,192,120443,1,2,0:0:0:0:
402,192,120443,1,0,0:0:0:0:
475,192,120443,1,0,0:0:0:0:
36,192,120555,1,8,0:0:0:0:
329,192,120555,1,0,0:0:0:0:
36,192,120668,1,2,0:0:0:0:
256,192,120668,1,0,0:0:0:0:
475,192,120668,1,0,0:0:0:0:
109,192,120781,1,8,0:0:0:0:
402,192,120781,1,0,0:0:0:0:
182,192,120894,1,0,0:0:0:0:
36,192,121007,1,2,0:0:0:0:
256,192,121007,1,0,0:0:0:0:
402,192,121007,1,0,0:0:0:0:
329,192,121119,1,0,0:0:0:0:
36,192,121232,1,8,0:0:0:0:
329,192,121232,1,0,0:0:0:0:
109,192,121345,1,2,0:0:0:0:
182,192,121345,1,0,0:0:0:0:
475,192,121345,1,0,0:0:0:0:
36,192,121458,1,8,0:0:0:0:
256,192,121458,1,4,0:0:0:0:
329,192,121458,1,0,0:0:0:0:
475,192,121458,1,0,0:0:0:0:
329,192,121571,1,0,0:0:0:0:
36,192,121683,1,8,0:0:0:0:
109,192,121683,1,0,0:0:0:0:
256,192,121683,1,0,0:0:0:0:
475,192,121683,1,0,0:0:0:0:
36,192,121796,1,8,0:0:0:0:
109,192,121796,1,0,0:0:0:0:
182,192,121909,1,2,0:0:0:0:
256,192,121909,1,0,0:0:0:0:
329,192,121909,1,0,0:0:0:0:
475,192,121909,1,0,0:0:0:0:
182,192,122134,1,8,0:0:0:0:
475,192,122134,1,0,0:0:0:0:
182,192,122247,1,2,0:0:0:0:
329,192,122247,1,0,0:0:0:0:
402,192,122247,1,0,0:0:0:0:
36,192,122360,1,8,0:0:0:0:
256,192,122360,1,0,0:0:0:0:
475,192,122360,1,0,0:0:0:0:
109,192,122473,1,2,0:0:0:0:
475,192,122473,1,0,0:0:0:0:
182,192,122586,1,8,0:0:0:0:
329,192,122586,1,0,0:0:0:0:
256,192,122698,1,0,0:0:0:0:
402,192,122698,1,0,0:0:0:0:
36,192,122811,1,2,0:0:0:0:
109,192,122811,1,0,0:0:0:0:
182,192,122811,1,0,0:0:0:0:
36,192,122924,1,2,0:0:0:0:
109,192,122924,1,0,0:0:0:0:
182,192,122924,1,0,0:0:0:0:
256,192,123037,1,2,0:0:0:0:
402,192,123037,1,0,0:0:0:0:
475,192,123037,1,0,0:0:0:0:
256,192,123149,1,2,0:0:0:0:
402,192,123149,1,0,0:0:0:0:
475,192,123149,1,0,0:0:0:0:
36,192,123262,1,8,0:0:0:0:
109,192,123262,1,4,0:0:0:0:
182,192,123262,1,0,0:0:0:0:
329,192,123375,1,0,0:0:0:0:
475,192,123375,1,0,0:0:0:0:
36,192,123488,1,2,0:0:0:0:
109,192,123488,1,0,0:0:0:0:
182,192,123488,1,0,0:0:0:0:
402,192,123488,1,0,0:0:0:0:
109,192,123601,1,8,0:0:0:0:
182,192,123601,1,0,0:0:0:0:
36,192,123713,1,0,0:0:0:0:
329,192,123713,1,0,0:0:0:0:
256,192,123826,1,8,0:0:0:0:
402,192,123826,1,0,0:0:0:0:
36,192,123939,1,2,0:0:0:0:
182,192,123939,1,0,0:0:0:0:
329,192,123939,1,0,0:0:0:0:
475,192,123939,1,0,0:0:0:0:
329,192,124052,1,0,0:0:0:0:
475,192,124052,1,0,0:0:0:0:
109,192,124165,1,8,0:0:0:0:
182,192,124165,1,0,0:0:0:0:
256,192,124165,1,0,0:0:0:0:
109,192,124277,1,8,0:0:0:0:
182,192,124277,1,0,0:0:0:0:
36,192,124390,1,2,0:0:0:0:
256,192,124390,1,0,0:0:0:0:
329,192,124390,1,0,0:0:0:0:
402,192,124390,1,0,0:0:0:0:
109,192,124503,1,8,0:0:0:0:
182,192,124503,1,0,0:0:0:0:
475,192,124503,1,0,0:0:0:0:
256,192,124616,1,0,0:0:0:0:
475,192,124616,1,0,0:0:0:0:
36,192,124728,1,8,0:0:0:0:
329,192,124728,1,0,0:0:0:0:
182,192,124841,1,2,0:0:0:0:
256,192,124841,1,0,0:0:0:0:
402,192,124841,1,0,0:0:0:0:
475,192,124841,1,0,0:0:0:0:
109,192,124954,1,0,0:0:0:0:
402,192,124954,1,0,0:0:0:0:
36,192,125067,1,8,0:0:0:0:
256,192,125067,1,0,0:0:0:0:
329,192,125067,1,0,0:0:0:0:
36,192,125180,1,0,0:0:0:0:
182,192,125180,1,0,0:0:0:0:
109,192,125292,1,2,0:0:0:0:
329,192,125292,1,0,0:0:0:0:
402,192,125292,1,0,0:0:0:0:
475,192,125292,1,0,0:0:0:0:
256,192,125405,1,8,0:0:0:0:
329,192,125405,1,0,0:0:0:0:
109,192,125518,1,0,0:0:0:0:
475,192,125518,1,0,0:0:0:0:
109,192,125631,1,8,0:0:0:0:
256,192,125631,1,0,0:0:0:0:
36,192,125743,1,2,0:0:0:0:
182,192,125743,1,0,0:0:0:0:
329,192,125743,1,0,0:0:0:0:
475,192,125743,1,0,0:0:0:0:
256,192,125856,1,0,0:0:0:0:
402,192,125856,1,0,0:0:0:0:
36,192,125969,1,8,0:0:0:0:
182,192,125969,1,0,0:0:0:0:
36,192,126082,1,8,0:0:0:0:
329,192,126082,1,0,0:0:0:0:
182,192,126195,1,2,0:0:0:0:
256,192,126195,1,0,0:0:0:0:
402,192,126195,1,0,0:0:0:0:
475,192,126195,1,0,0:0:0:0:
109,192,126307,1,8,0:0:0:0:
256,192,126307,1,0,0:0:0:0:
36,192,126420,1,2,0:0:0:0:
402,192,126420,1,0,0:0:0:0:
475,192,126420,1,0,0:0:0:0:
402,192,126533,1,0,0:0:0:100:tom.wav
475,192,126533,1,0,0:0:0:0:
36,192,126646,1,0,0:0:0:100:tom.wav
109,192,126646,1,0,0:0:0:0:
182,192,126646,1,0,0:0:0:0:
256,192,126646,1,0,0:0:0:0:
36,192,126759,1,0,0:0:0:100:tom.wav
109,192,126759,1,0,0:0:0:0:
256,192,126871,1,2,0:0:0:0:
329,192,126871,1,4,0:0:0:0:
402,192,126871,1,0,0:0:0:0:
475,192,126871,1,0,0:0:0:0:
36,192,126984,1,8,0:0:0:0:
329,192,126984,1,0,0:0:0:0:
182,192,127097,1,8,0:0:0:0:
402,192,127097,1,0,0:0:0:0:
36,192,127210,1,2,0:0:0:0:
109,192,127210,1,4,0:0:0:0:
256,192,127210,1,0,0:0:0:0:
475,192,127210,1,0,0:0:0:0:
36,192,127322,1,8,0:0:0:0:
402,192,127322,1,0,0:0:0:0:
256,192,127435,1,8,0:0:0:0:
329,192,127435,1,0,0:0:0:0:
36,192,127548,1,2,0:0:0:0:
182,192,127548,1,4,0:0:0:0:
402,192,127548,1,0,0:0:0:0:
475,192,127548,1,0,0:0:0:0:
256,192,127661,1,8,0:0:0:0:
402,192,127661,1,0,0:0:0:0:
475,192,127661,1,0,0:0:0:0:
36,192,127774,1,2,0:0:0:0:
109,192,127774,1,4,0:0:0:0:
182,192,127774,1,0,0:0:0:0:
329,192,127774,1,0,0:0:0:0:
182,192,127886,1,8,0:0:0:0:
256,192,127886,1,0,0:0:0:0:
36,192,127999,1,8,0:0:0:0:
109,192,127999,1,0,0:0:0:0:
256,192,128112,1,2,0:0:0:0:
329,192,128112,1,4,0:0:0:0:
402,192,128112,1,0,0:0:0:0:
475,192,128112,1,0,0:0:0:0:
182,192,128225,1,8,0:0:0:0:
329,192,128225,1,0,0:0:0:0:
256,192,128337,1,8,0:0:0:0:
475,192,128337,1,0,0:0:0:0:
36,192,128450,1,2,0:0:0:0:
109,192,128450,1,4,0:0:0:0:
182,192,128450,1,0,0:0:0:0:
402,192,128450,1,0,0:0:0:0:
36,192,128563,1,8,0:0:0:0:
182,192,128563,1,0,0:0:0:0:
329,192,128563,1,0,0:0:0:0:
109,192,128676,1,2,0:0:0:0:
256,192,128676,1,4,0:0:0:0:
402,192,128676,1,0,0:0:0:0:
475,192,128676,1,0,0:0:0:0:
36,192,128789,1,8,0:0:0:0:
402,192,128789,1,0,0:0:0:0:
256,192,128901,1,8,0:0:0:0:
475,192,128901,1,0,0:0:0:0:
36,192,129014,1,2,0:0:0:0:
109,192,129014,1,4,0:0:0:0:
182,192,129014,1,0,0:0:0:0:
329,192,129014,1,0,0:0:0:0:
182,192,129127,1,8,0:0:0:0:
402,192,129127,1,0,0:0:0:0:
256,192,129240,1,8,0:0:0:0:
475,192,129240,1,0,0:0:0:0:
36,192,129352,1,2,0:0:0:0:
109,192,129352,1,4,0:0:0:0:
329,192,129352,1,0,0:0:0:0:
402,192,129352,1,0,0:0:0:0:
182,192,129465,1,8,0:0:0:0:
256,192,129465,1,0,0:0:0:0:
475,192,129465,1,0,0:0:0:0:
36,192,129578,1,2,0:0:0:0:
109,192,129578,1,4,0:0:0:0:
329,192,129578,1,0,0:0:0:0:
402,192,129578,1,0,0:0:0:0:
182,192,129691,1,0,0:0:0:0:
256,192,129804,1,8,0:0:0:0:
329,192,129804,1,0,0:0:0:0:
475,192,129804,1,0,0:0:0:0:
329,192,129916,1,2,0:0:0:0:
475,192,129916,1,0,0:0:0:0:
36,192,130029,1,0,0:0:0:100:tom.wav
182,192,130029,1,0,0:0:0:0:
256,192,130029,1,0,0:0:0:0:
36,192,130142,1,0,0:0:0:100:tom.wav
182,192,130142,1,0,0:0:0:0:
329,192,130142,1,0,0:0:0:0:
109,192,130255,1,4,0:0:0:0:
256,192,130255,1,0,0:0:0:100:tom.wav
475,192,130255,1,0,0:0:0:0:
182,192,130480,1,4,0:0:0:0:
329,192,130480,1,8,0:0:0:0:
402,192,130480,1,0,0:0:0:0:
109,192,130593,1,0,0:0:0:0:
329,192,130593,1,0,0:0:0:0:
36,192,130706,1,2,0:0:0:0:
182,192,130706,1,0,0:0:0:0:
402,192,130706,1,0,0:0:0:0:
182,192,130819,1,8,0:0:0:0:
329,192,130819,1,0,0:0:0:0:
256,192,130931,1,0,0:0:0:0:
475,192,130931,1,0,0:0:0:0:
109,192,131044,1,8,0:0:0:0:
475,192,131044,1,0,0:0:0:0:
36,192,131157,1,2,0:0:0:0:
256,192,131157,1,0,0:0:0:0:
402,192,131157,1,0,0:0:0:0:
36,192,131270,1,0,0:0:0:0:
182,192,131270,1,0,0:0:0:0:
256,192,131383,1,8,0:0:0:0:
329,192,131383,1,0,0:0:0:0:
475,192,131383,1,0,0:0:0:0:
36,192,131495,1,8,0:0:0:0:
475,192,131495,1,0,0:0:0:0:
182,192,131608,1,2,0:0:0:0:
329,192,131608,1,0,0:0:0:0:
402,192,131608,1,0,0:0:0:0:
109,192,131721,1,8,0:0:0:0:
475,192,131721,1,0,0:0:0:0:
109,192,131834,1,0,0:0:0:0:
256,192,131834,1,0,0:0:0:0:
182,192,131946,1,8,0:0:0:0:
475,192,131946,1,0,0:0:0:0:
36,192,132059,1,2,0:0:0:0:
329,192,132059,1,0,0:0:0:0:
402,192,132059,1,0,0:0:0:0:
182,192,132172,1,0,0:0:0:0:
329,192,132172,1,0,0:0:0:0:
36,192,132285,1,8,0:0:0:0:
256,192,132285,1,0,0:0:0:0:
475,192,132285,1,0,0:0:0:0:
36,192,132398,1,0,0:0:0:0:
329,192,132398,1,0,0:0:0:0:
109,192,132510,1,2,0:0:0:0:
402,192,132510,1,0,0:0:0:0:
475,192,132510,1,0,0:0:0:0:
182,192,132623,1,8,0:0:0:0:
329,192,132623,1,0,0:0:0:0:
256,192,132736,1,0,0:0:0:0:
475,192,132736,1,0,0:0:0:0:
109,192,132849,1,8,0:0:0:0:
475,192,132849,1,0,0:0:0:0:
36,192,132962,1,2,0:0:0:0:
182,192,132962,1,0,0:0:0:0:
402,192,132962,1,0,0:0:0:0:
256,192,133074,1,0,0:0:0:0:
36,192,133187,1,8,0:0:0:0:
109,192,133187,1,0,0:0:0:0:
182,192,133187,1,0,0:0:0:0:
36,192,133300,1,8,0:0:0:0:
329,192,133300,1,0,0:0:0:0:
256,192,133413,1,2,0:0:0:0:
402,192,133413,1,0,0:0:0:0:
475,192,133413,1,0,0:0:0:0:
109,192,133525,1,8,0:0:0:0:
329,192,133525,1,0,0:0:0:0:
36,192,133638,1,0,0:0:0:0:
182,192,133638,1,0,0:0:0:0:
256,192,133751,1,8,0:0:0:0:
475,192,133751,1,0,0:0:0:0:
36,192,133864,1,2,0:0:0:0:
109,192,133864,1,0,0:0:0:0:
182,192,133864,1,0,0:0:0:0:
36,192,133977,1,2,0:0:0:0:
109,192,133977,1,0,0:0:0:0:
182,192,133977,1,0,0:0:0:0:
256,192,134089,1,8,0:0:0:0:
402,192,134089,1,4,0:0:0:0:
475,192,134089,1,0,0:0:0:0:
36,192,134202,1,0,0:0:0:0:
402,192,134202,1,0,0:0:0:0:
109,192,134315,1,2,0:0:0:0:
329,192,134315,1,0,0:0:0:0:
475,192,134315,1,0,0:0:0:0:
109,192,134428,1,8,0:0:0:0:
256,192,134428,1,0,0:0:0:0:
36,192,134540,1,0,0:0:0:0:
329,192,134540,1,0,0:0:0:0:
329,192,134653,1,8,0:0:0:0:
475,192,134653,1,0,0:0:0:0:
109,192,134766,1,2,0:0:0:0:
182,192,134766,1,0,0:0:0:0:
402,192,134766,1,0,0:0:0:0:
36,192,134879,1,0,0:0:0:0:
182,192,134879,1,0,0:0:0:0:
256,192,134992,1,8,0:0:0:0:
402,192,134992,1,0,0:0:0:0:
475,192,134992,1,0,0:0:0:0:
402,192,135104,1,8,0:0:0:0:
475,192,135104,1,0,0:0:0:0:
36,192,135217,1,2,0:0:0:0:
109,192,135217,1,0,0:0:0:0:
329,192,135217,1,0,0:0:0:0:
36,192,135330,1,8,0:0:0:0:
109,192,135330,1,0,0:0:0:0:
329,192,135443,1,0,0:0:0:0:
475,192,135443,1,0,0:0:0:0:
329,192,135555,1,8,0:0:0:0:
475,192,135555,1,0,0:0:0:0:
36,192,135668,1,2,0:0:0:0:
182,192,135668,1,0,0:0:0:0:
402,192,135668,1,0,0:0:0:0:
36,192,135781,1,0,0:0:0:0:
182,192,135781,1,0,0:0:0:0:
256,192,135894,1,8,0:0:0:0:
329,192,135894,1,0,0:0:0:0:
475,192,135894,1,0,0:0:0:0:
256,192,136007,1,0,0:0:0:0:
329,192,136007,1,0,0:0:0:0:
182,192,136119,1,2,0:0:0:0:
402,192,136119,1,0,0:0:0:0:
475,192,136119,1,0,0:0:0:0:
36,192,136232,1,8,0:0:0:0:
329,192,136232,1,0,0:0:0:0:
182,192,136345,1,0,0:0:0:0:
256,192,136345,1,0,0:0:0:0:
36,192,136458,1,8,0:0:0:0:
329,192,136458,1,0,0:0:0:0:
182,192,136571,1,2,0:0:0:0:
256,192,136571,1,0,0:0:0:0:
402,192,136571,1,0,0:0:0:0:
109,192,136683,1,0,0:0:0:0:
329,192,136683,1,0,0:0:0:0:
109,192,136796,1,8,0:0:0:0:
329,192,136796,1,0,0:0:0:0:
475,192,136796,1,0,0:0:0:0:
182,192,136909,1,8,0:0:0:0:
402,192,136909,1,0,0:0:0:0:
36,192,137022,1,2,0:0:0:0:
109,192,137022,1,0,0:0:0:0:
256,192,137022,1,0,0:0:0:0:
329,192,137134,1,8,0:0:0:0:
475,192,137134,1,0,0:0:0:0:
36,192,137247,1,2,0:0:0:0:
109,192,137247,1,0,0:0:0:0:
182,192,137247,1,0,0:0:0:0:
109,192,137360,1,0,0:0:0:100:tom.wav
182,192,137360,1,0,0:0:0:0:
329,192,137473,1,0,0:0:0:100:tom.wav
402,192,137473,1,0,0:0:0:0:
329,192,137586,1,0,0:0:0:100:tom.wav
402,192,137586,1,0,0:0:0:0:
36,192,137698,1,4,0:0:0:0:
109,192,137698,1,8,0:0:0:0:
182,192,137698,1,0,0:0:0:0:
36,192,137811,1,0,0:0:0:0:
109,192,137811,1,0,0:0:0:0:
256,192,137924,1,2,0:0:0:0:
402,192,137924,1,0,0:0:0:0:
475,192,137924,1,0,0:0:0:0:
182,192,138037,1,8,0:0:0:0:
329,192,138037,1,0,0:0:0:0:
36,192,138149,1,0,0:0:0:0:
109,192,138149,1,0,0:0:0:0:
329,192,138262,1,8,0:0:0:0:
475,192,138262,1,0,0:0:0:0:
36,192,138375,1,2,0:0:0:0:
182,192,138375,1,0,0:0:0:0:
402,192,138375,1,0,0:0:0:0:
109,192,138488,1,0,0:0:0:0:
256,192,138488,1,0,0:0:0:0:
36,192,138601,1,8,0:0:0:0:
402,192,138601,1,0,0:0:0:0:
475,192,138601,1,0,0:0:0:0:
402,192,138713,1,8,0:0:0:0:
475,192,138713,1,0,0:0:0:0:
36,192,138826,1,2,0:0:0:0:
109,192,138826,1,0,0:0:0:0:
256,192,138826,1,0,0:0:0:0:
182,192,138939,1,8,0:0:0:0:
329,192,138939,1,0,0:0:0:0:
109,192,139052,1,0,0:0:0:0:
182,192,139108,1,0,0:0:0:0:
256,192,139165,1,8,0:0:0:0:
402,192,139165,1,0,0:0:0:0:
36,192,139277,1,2,0:0:0:0:
109,192,139277,1,0,0:0:0:0:
329,192,139277,1,0,0:0:0:0:
256,192,139334,1,0,0:0:0:0:
182,192,139390,1,0,0:0:0:0:
109,192,139503,1,8,0:0:0:0:
402,192,139503,1,0,0:0:0:0:
475,192,139503,1,0,0:0:0:0:
402,192,139616,1,0,0:0:0:0:
475,192,139616,1,0,0:0:0:0:
36,192,139728,1,2,0:0:0:0:
109,192,139728,1,0,0:0:0:0:
182,192,139728,1,0,0:0:0:0:
256,192,139841,1,8,0:0:0:0:
475,192,139841,1,0,0:0:0:0:
182,192,139954,1,0,0:0:0:0:
402,192,139954,1,0,0:0:0:0:
109,192,140067,1,8,0:0:0:0:
329,192,140067,1,0,0:0:0:0:
36,192,140180,1,2,0:0:0:0:
256,192,140180,1,0,0:0:0:0:
475,192,140180,1,0,0:0:0:0:
182,192,140292,1,0,0:0:0:0:
402,192,140292,1,0,0:0:0:0:
36,192,140405,1,8,0:0:0:0:
109,192,140405,1,0,0:0:0:0:
329,192,140405,1,0,0:0:0:0:
36,192,140518,1,8,0:0:0:0:
109,192,140518,1,0,0:0:0:0:
256,192,140631,1,2,0:0:0:0:
402,192,140631,1,0,0:0:0:0:
475,192,140631,1,0,0:0:0:0:
256,192,140743,1,8,0:0:0:0:
402,192,140743,1,0,0:0:0:0:
36,192,140856,1,0,0:0:0:0:
329,192,140856,1,0,0:0:0:0:
256,192,140969,1,8,0:0:0:0:
475,192,140969,1,0,0:0:0:0:
36,192,141082,1,2,0:0:0:0:
109,192,141082,1,0,0:0:0:0:
182,192,141082,1,0,0:0:0:0:
36,192,141195,1,2,0:0:0:0:
109,192,141195,1,0,0:0:0:0:
182,192,141195,1,0,0:0:0:0:
256,192,141307,1,8,0:0:0:0:
402,192,141307,1,4,0:0:0:0:
475,192,141307,1,0,0:0:0:0:
36,192,141420,1,0,0:0:0:0:
402,192,141420,1,0,0:0:0:0:
109,192,141533,1,2,0:0:0:0:
256,192,141533,1,0,0:0:0:0:
329,192,141533,1,0,0:0:0:0:
109,192,141646,1,8,0:0:0:0:
402,192,141646,1,0,0:0:0:0:
36,192,141759,1,0,0:0:0:0:
475,192,141759,1,0,0:0:0:0:
256,192,141871,1,8,0:0:0:0:
475,192,141871,1,0,0:0:0:0:
36,192,141984,1,2,0:0:0:0:
182,192,141984,1,0,0:0:0:0:
329,192,141984,1,0,0:0:0:0:
182,192,142097,1,0,0:0:0:0:
402,192,142097,1,0,0:0:0:0:
36,192,142210,1,8,0:0:0:0:
109,192,142210,1,4,0:0:0:0:
256,192,142210,1,0,0:0:0:0:
36,192,142322,1,8,0:0:0:0:
329,192,142322,1,0,0:0:0:0:
256,192,142435,1,2,0:0:0:0:
402,192,142435,1,0,0:0:0:0:
475,192,142435,1,0,0:0:0:0:
109,192,142548,1,8,0:0:0:0:
402,192,142548,1,0,0:0:0:0:
182,192,142661,1,0,0:0:0:0:
329,192,142661,1,0,0:0:0:0:
36,192,142774,1,8,0:0:0:0:
182,192,142774,1,0,0:0:0:0:
109,192,142886,1,2,0:0:0:0:
256,192,142886,1,0,0:0:0:0:
402,192,142886,1,0,0:0:0:0:
402,192,142999,1,0,0:0:0:0:
36,192,143112,1,8,0:0:0:0:
109,192,143112,1,4,0:0:0:0:
182,192,143112,1,0,0:0:0:0:
36,192,143225,1,0,0:0:0:0:
109,192,143225,1,0,0:0:0:0:
256,192,143337,1,2,0:0:0:0:
402,192,143337,1,0,0:0:0:0:
475,192,143337,1,0,0:0:0:0:
402,192,143450,1,8,0:0:0:0:
475,192,143450,1,0,0:0:0:0:
36,192,143563,1,0,0:0:0:0:
182,192,143563,1,0,0:0:0:0:
36,192,143676,1,8,0:0:0:0:
182,192,143676,1,0,0:0:0:0:
256,192,143789,1,2,0:0:0:0:
402,192,143789,1,0,0:0:0:0:
475,192,143789,1,0,0:0:0:0:
256,192,143901,1,0,0:0:0:0:
402,192,143901,1,0,0:0:0:0:
36,192,144014,1,2,0:0:0:0:
109,192,144014,1,0,0:0:0:0:
329,192,144014,1,0,0:0:0:0:
36,192,144127,1,8,0:0:0:0:
109,192,144127,1,0,0:0:0:0:
256,192,144240,1,0,0:0:0:100:tom.wav
402,192,144240,1,0,0:0:0:0:
475,192,144240,1,0,0:0:0:0:
402,192,144352,1,0,0:0:0:100:tom.wav
475,192,144352,1,0,0:0:0:0:
36,192,144465,1,0,0:0:0:100:tom.wav
109,192,144465,1,0,0:0:0:0:
182,192,144465,1,0,0:0:0:0:
109,192,144578,1,0,0:0:0:100:tom.wav
182,192,144578,1,0,0:0:0:0:
256,192,144691,1,0,0:0:0:100:tom.wav
402,192,144691,1,0,0:0:0:0:
475,192,144691,1,0,0:0:0:0:
256,192,144804,1,0,0:0:0:100:tom.wav
402,192,144804,1,0,0:0:0:0:
109,192,144916,1,4,0:0:0:0:
329,192,144916,1,8,0:0:0:0:
475,192,144916,1,0,0:0:0:0:
36,192,145142,1,8,0:0:0:0:
256,192,145142,1,0,0:0:0:0:
36,192,145255,1,8,0:0:0:0:
329,192,145255,1,0,0:0:0:0:
182,192,145368,1,2,0:0:0:0:
402,192,145368,1,0,0:0:0:0:
475,192,145368,1,0,0:0:0:0:
109,192,145593,1,8,0:0:0:0:
256,192,145593,1,0,0:0:0:0:
182,192,145706,1,2,0:0:0:0:
256,192,145706,1,0,0:0:0:0:
402,192,145706,1,0,0:0:0:0:
36,192,145819,1,8,0:0:0:0:
329,192,145819,1,0,0:0:0:0:
109,192,145931,1,2,0:0:0:0:
256,192,145931,1,0,0:0:0:0:
475,192,145931,1,0,0:0:0:0:
36,192,146044,1,8,0:0:0:0:
182,192,146044,1,0,0:0:0:0:
329,192,146044,1,0,0:0:0:0:
402,192,146044,1,0,0:0:0:0:
36,192,146270,1,2,0:0:0:0:
109,192,146270,1,0,0:0:0:0:
256,192,146270,1,0,0:0:0:0:
475,192,146270,1,0,0:0:0:0:
109,192,146495,1,8,0:0:0:0:
182,192,146495,1,0,0:0:0:0:
402,192,146495,1,0,0:0:0:0:
475,192,146495,1,0,0:0:0:0:
36,192,146608,1,2,0:0:0:0:
182,192,146608,1,0,0:0:0:0:
329,192,146608,1,0,0:0:0:0:
256,192,146721,1,8,0:0:0:0:
475,192,146721,1,0,0:0:0:0:
109,192,146946,1,8,0:0:0:0:
329,192,146946,1,0,0:0:0:0:
109,192,147059,1,8,0:0:0:0:
402,192,147059,1,0,0:0:0:0:
36,192,147172,1,2,0:0:0:0:
182,192,147172,1,0,0:0:0:0:
475,192,147172,1,0,0:0:0:0:
109,192,147398,1,8,0:0:0:0:
402,192,147398,1,0,0:0:0:0:
36,192,147510,1,2,0:0:0:0:
182,192,147510,1,0,0:0:0:0:
402,192,147510,1,0,0:0:0:0:
256,192,147623,1,8,0:0:0:0:
475,192,147623,1,0,0:0:0:0:
36,192,147736,1,2,0:0:0:0:
109,192,147736,1,0,0:0:0:0:
329,192,147736,1,0,0:0:0:0:
182,192,147849,1,8,0:0:0:0:
256,192,147849,1,0,0:0:0:0:
402,192,147849,1,0,0:0:0:0:
475,192,147849,1,0,0:0:0:0:
109,192,148074,1,2,0:0:0:0:
256,192,148074,1,0,0:0:0:0:
475,192,148074,1,0,0:0:0:0:
36,192,148300,1,8,0:0:0:0:
182,192,148300,1,0,0:0:0:0:
256,192,148300,1,0,0:0:0:0:
475,192,148300,1,0,0:0:0:0:
182,192,148413,1,2,0:0:0:0:
329,192,148413,1,0,0:0:0:0:
402,192,148413,1,0,0:0:0:0:
36,192,148525,1,8,0:0:0:0:
256,192,148525,1,4,0:0:0:0:
475,192,148525,1,0,0:0:0:0:
109,192,148751,1,8,0:0:0:0:
329,192,148751,1,0,0:0:0:0:
182,192,148864,1,8,0:0:0:0:
329,192,148864,1,0,0:0:0:0:
256,192,148977,1,2,0:0:0:0:
402,192,148977,1,0,0:0:0:0:
475,192,148977,1,0,0:0:0:0:
109,192,149202,1,8,0:0:0:0:
329,192,149202,1,0,0:0:0:0:
109,192,149315,1,2,0:0:0:0:
256,192,149315,1,0,0:0:0:0:
402,192,149315,1,0,0:0:0:0:
182,192,149428,1,8,0:0:0:0:
475,192,149428,1,0,0:0:0:0:
36,192,149540,1,2,0:0:0:0:
109,192,149540,1,0,0:0:0:0:
329,192,149540,1,0,0:0:0:0:
182,192,149653,1,8,0:0:0:0:
256,192,149653,1,0,0:0:0:0:
402,192,149653,1,0,0:0:0:0:
475,192,149653,1,0,0:0:0:0:
109,192,149879,1,2,0:0:0:0:
182,192,149879,1,0,0:0:0:0:
402,192,149879,1,0,0:0:0:0:
475,192,149879,1,0,0:0:0:0:
36,192,150104,1,8,0:0:0:0:
256,192,150104,1,0,0:0:0:0:
329,192,150104,1,0,0:0:0:0:
475,192,150104,1,0,0:0:0:0:
109,192,150217,1,2,0:0:0:0:
182,192,150217,1,0,0:0:0:0:
329,192,150217,1,0,0:0:0:0:
36,192,150330,1,8,0:0:0:0:
402,192,150330,1,0,0:0:0:0:
36,192,150555,1,8,0:0:0:0:
329,192,150555,1,0,0:0:0:0:
36,192,150668,1,8,0:0:0:0:
256,192,150668,1,0,0:0:0:0:
182,192,150781,1,2,0:0:0:0:
402,192,150781,1,0,0:0:0:0:
475,192,150781,1,0,0:0:0:0:
109,192,151007,1,8,0:0:0:0:
329,192,151007,1,0,0:0:0:0:
109,192,151119,1,2,0:0:0:0:
256,192,151119,1,0,0:0:0:0:
475,192,151119,1,0,0:0:0:0:
36,192,151232,1,8,0:0:0:0:
182,192,151232,1,0,0:0:0:0:
329,192,151345,1,2,0:0:0:0:
402,192,151345,1,0,0:0:0:0:
475,192,151345,1,0,0:0:0:0:
402,192,151458,1,8,0:0:0:0:
475,192,151458,1,0,0:0:0:0:
109,192,151571,1,8,0:0:0:0:
256,192,151571,1,0,0:0:0:0:
36,192,151683,1,2,0:0:0:0:
329,192,151683,1,0,0:0:0:0:
402,192,151683,1,0,0:0:0:0:
475,192,151683,1,0,0:0:0:0:
329,192,151796,1,2,0:0:0:0:
402,192,151796,1,0,0:0:0:0:
475,192,151796,1,0,0:0:0:0:
36,192,151909,1,2,0:0:0:0:
109,192,151909,1,0,0:0:0:0:
182,192,151909,1,0,0:0:0:0:
36,192,152022,1,2,0:0:0:0:
109,192,152022,1,0,0:0:0:0:
182,192,152022,1,0,0:0:0:0:
256,192,152134,1,8,0:0:0:0:
402,192,152134,1,4,0:0:0:0:
475,192,152134,1,0,0:0:0:0:
182,192,152247,1,0,0:0:0:0:
36,192,152360,1,2,0:0:0:0:
109,192,152360,1,0,0:0:0:0:
329,192,152360,1,0,0:0:0:0:
182,192,152473,1,8,0:0:0:0:
402,192,152473,1,0,0:0:0:0:
475,192,152586,1,0,0:0:0:0:
182,192,152698,1,8,0:0:0:0:
329,192,152698,1,0,0:0:0:0:
36,192,152811,1,2,0:0:0:0:
109,192,152811,1,0,0:0:0:0:
256,192,152811,1,0,0:0:0:0:
329,192,152924,1,0,0:0:0:0:
182,192,153037,1,8,0:0:0:0:
475,192,153037,1,0,0:0:0:0:
36,192,153149,1,8,0:0:0:0:
182,192,153149,1,0,0:0:0:0:
256,192,153262,1,2,0:0:0:0:
329,192,153262,1,0,0:0:0:0:
402,192,153262,1,0,0:0:0:0:
475,192,153262,1,0,0:0:0:0:
109,192,153375,1,8,0:0:0:0:
329,192,153375,1,0,0:0:0:0:
36,192,153488,1,0,0:0:0:0:
182,192,153488,1,0,0:0:0:0:
256,192,153488,1,0,0:0:0:0:
402,192,153488,1,0,0:0:0:0:
36,192,153601,1,8,0:0:0:0:
475,192,153601,1,0,0:0:0:0:
109,192,153713,1,2,0:0:0:0:
182,192,153713,1,0,0:0:0:0:
256,192,153713,1,0,0:0:0:0:
402,192,153713,1,0,0:0:0:0:
402,192,153826,1,0,0:0:0:0:
36,192,153939,1,8,0:0:0:0:
182,192,153939,1,4,0:0:0:0:
329,192,153939,1,0,0:0:0:0:
256,192,154052,1,0,0:0:0:0:
109,192,154165,1,2,0:0:0:0:
402,192,154165,1,0,0:0:0:0:
475,192,154165,1,0,0:0:0:0:
36,192,154277,1,8,0:0:0:0:
329,192,154277,1,0,0:0:0:0:
256,192,154390,1,0,0:0:0:0:
36,192,154503,1,8,0:0:0:0:
329,192,154503,1,0,0:0:0:0:
109,192,154616,1,2,0:0:0:0:
182,192,154616,1,0,0:0:0:0:
402,192,154616,1,0,0:0:0:0:
475,192,154728,1,0,0:0:0:0:
109,192,154841,1,8,0:0:0:0:
256,192,154841,1,0,0:0:0:0:
109,192,154954,1,8,0:0:0:0:
329,192,154954,1,0,0:0:0:0:
36,192,155067,1,2,0:0:0:0:
182,192,155067,1,0,0:0:0:0:
402,192,155067,1,0,0:0:0:0:
475,192,155067,1,0,0:0:0:0:
256,192,155180,1,8,0:0:0:0:
402,192,155180,1,0,0:0:0:0:
36,192,155292,1,0,0:0:0:0:
109,192,155292,1,0,0:0:0:0:
182,192,155292,1,0,0:0:0:0:
109,192,155405,1,8,0:0:0:0:
402,192,155405,1,0,0:0:0:0:
36,192,155518,1,2,0:0:0:0:
182,192,155518,1,0,0:0:0:0:
329,192,155518,1,0,0:0:0:0:
475,192,155518,1,0,0:0:0:0:
256,192,155631,1,2,0:0:0:0:
329,192,155631,1,0,0:0:0:0:
36,192,155743,1,8,0:0:0:0:
109,192,155743,1,4,0:0:0:0:
182,192,155743,1,0,0:0:0:0:
329,192,155856,1,0,0:0:0:0:
36,192,155969,1,2,0:0:0:0:
256,192,155969,1,0,0:0:0:0:
475,192,155969,1,0,0:0:0:0:
182,192,156082,1,8,0:0:0:0:
402,192,156082,1,0,0:0:0:0:
329,192,156195,1,0,0:0:0:0:
109,192,156307,1,8,0:0:0:0:
256,192,156307,1,0,0:0:0:0:
36,192,156420,1,2,0:0:0:0:
329,192,156420,1,0,0:0:0:0:
475,192,156420,1,0,0:0:0:0:
182,192,156533,1,0,0:0:0:0:
256,192,156646,1,8,0:0:0:0:
402,192,156646,1,0,0:0:0:0:
36,192,156759,1,8,0:0:0:0:
402,192,156759,1,0,0:0:0:0:
109,192,156871,1,2,0:0:0:0:
182,192,156871,1,0,0:0:0:0:
329,192,156871,1,0,0:0:0:0:
475,192,156871,1,0,0:0:0:0:
109,192,156984,1,8,0:0:0:0:
256,192,156984,1,0,0:0:0:0:
36,192,157097,1,2,0:0:0:0:
182,192,157097,1,0,0:0:0:0:
402,192,157097,1,0,0:0:0:0:
475,192,157097,1,0,0:0:0:0:
402,192,157210,1,0,0:0:0:100:tom.wav
475,192,157210,1,0,0:0:0:0:
36,192,157322,1,0,0:0:0:100:tom.wav
109,192,157322,1,0,0:0:0:0:
182,192,157322,1,0,0:0:0:0:
329,192,157322,1,0,0:0:0:0:
36,192,157435,1,0,0:0:0:100:tom.wav
109,192,157435,1,0,0:0:0:0:
329,192,157548,1,8,0:0:0:0:
402,192,157548,1,4,0:0:0:0:
475,192,157548,1,0,0:0:0:0:
256,192,157661,1,0,0:0:0:0:
36,192,157774,1,2,0:0:0:0:
109,192,157774,1,0,0:0:0:0:
182,192,157774,1,0,0:0:0:0:
36,192,157886,1,8,0:0:0:0:
109,192,157886,1,0,0:0:0:0:
402,192,157999,1,8,0:0:0:0:
475,192,157999,1,0,0:0:0:0:
36,192,158112,1,8,0:0:0:0:
109,192,158112,1,0,0:0:0:0:
182,192,158112,1,0,0:0:0:0:
36,192,158225,1,2,0:0:0:0:
109,192,158225,1,0,0:0:0:0:
182,192,158225,1,0,0:0:0:0:
256,192,158337,1,8,0:0:0:0:
329,192,158337,1,4,0:0:0:0:
402,192,158337,1,0,0:0:0:0:
475,192,158337,1,0,0:0:0:0:
109,192,159352,1,4,0:0:0:0:
256,192,159352,1,8,0:0:0:0:
475,192,159352,1,0,0:0:0:0:
109,192,159691,1,0,0:0:0:0:
109,192,160255,1,0,0:0:0:0:
109,192,160593,1,0,0:0:0:0:
36,192,161157,1,0,0:0:0:0:
329,192,161157,1,0,0:0:0:0:
329,192,161383,1,0,0:0:0:0:
182,192,161495,1,0,0:0:0:0:
329,192,161608,1,0,0:0:0:0:
329,192,161834,1,0,0:0:0:0:
182,192,161946,1,0,0:0:0:0:
329,192,162059,1,0,0:0:0:0:
182,192,162398,1,0,0:0:0:0:
256,192,162398,1,0,0:0:0:0:
329,192,162510,1,2,0:0:0:0:
402,192,162510,1,0,0:0:0:0:
475,192,162510,1,0,0:0:0:0:
329,192,162623,1,2,0:0:0:0:
402,192,162623,1,0,0:0:0:0:
475,192,162623,1,0,0:0:0:0:
36,192,162736,1,2,0:0:0:0:
109,192,162736,1,0,0:0:0:0:
182,192,162736,1,0,0:0:0:0:
36,192,162849,1,2,0:0:0:0:
109,192,162849,1,0,0:0:0:0:
182,192,162849,1,0,0:0:0:0:
256,192,162962,1,4,0:0:0:0:
402,192,162962,1,8,0:0:0:0:
475,192,162962,1,0,0:0:0:0:
402,192,163074,1,0,0:0:0:0:
36,192,163187,1,2,0:0:0:0:
109,192,163187,1,0,0:0:0:0:
256,192,163187,1,0,0:0:0:0:
329,192,163187,1,0,0:0:0:0:
182,192,163300,1,8,0:0:0:0:
475,192,163300,1,0,0:0:0:0:
36,192,163413,1,0,0:0:0:0:
182,192,163413,1,0,0:0:0:0:
256,192,163525,1,8,0:0:0:0:
475,192,163525,1,0,0:0:0:0:
36,192,163638,1,2,0:0:0:0:
109,192,163638,1,0,0:0:0:0:
329,192,163638,1,0,0:0:0:0:
402,192,163638,1,0,0:0:0:0:
182,192,163751,1,0,0:0:0:0:
256,192,163751,1,0,0:0:0:0:
36,192,163864,1,8,0:0:0:0:
329,192,163864,1,0,0:0:0:0:
36,192,163977,1,8,0:0:0:0:
402,192,163977,1,0,0:0:0:0:
109,192,164089,1,2,0:0:0:0:
182,192,164089,1,0,0:0:0:0:
256,192,164089,1,0,0:0:0:0:
475,192,164089,1,0,0:0:0:0:
329,192,164202,1,8,0:0:0:0:
475,192,164202,1,0,0:0:0:0:
109,192,164315,1,0,0:0:0:0:
402,192,164315,1,0,0:0:0:0:
182,192,164428,1,8,0:0:0:0:
256,192,164428,1,0,0:0:0:0:
36,192,164540,1,2,0:0:0:0:
329,192,164540,1,0,0:0:0:0:
402,192,164540,1,0,0:0:0:0:
475,192,164540,1,0,0:0:0:0:
109,192,164653,1,0,0:0:0:0:
256,192,164653,1,0,0:0:0:0:
182,192,164766,1,8,0:0:0:0:
402,192,164766,1,0,0:0:0:0:
475,192,164766,1,0,0:0:0:0:
36,192,164879,1,0,0:0:0:0:
402,192,164879,1,0,0:0:0:0:
109,192,164992,1,2,0:0:0:0:
256,192,164992,1,0,0:0:0:0:
329,192,164992,1,0,0:0:0:0:
475,192,164992,1,0,0:0:0:0:
182,192,165104,1,8,0:0:0:0:
402,192,165104,1,0,0:0:0:0:
109,192,165217,1,0,0:0:0:0:
475,192,165217,1,0,0:0:0:0:
109,192,165330,1,8,0:0:0:0:
256,192,165330,1,0,0:0:0:0:
36,192,165443,1,2,0:0:0:0:
182,192,165443,1,0,0:0:0:0:
402,192,165443,1,0,0:0:0:0:
475,192,165443,1,0,0:0:0:0:
256,192,165555,1,0,0:0:0:0:
329,192,165555,1,0,0:0:0:0:
182,192,165668,1,8,0:0:0:0:
475,192,165668,1,0,0:0:0:0:
109,192,165781,1,8,0:0:0:0:
475,192,165781,1,0,0:0:0:0:
182,192,165894,1,2,0:0:0:0:
256,192,165894,1,0,0:0:0:0:
329,192,165894,1,0,0:0:0:0:
402,192,165894,1,0,0:0:0:0:
36,192,166007,1,8,0:0:0:0:
109,192,166007,1,0,0:0:0:0:
256,192,166119,1,2,0:0:0:0:
402,192,166119,1,0,0:0:0:0:
475,192,166119,1,0,0:0:0:0:
402,192,166232,1,0,0:0:0:100:tom.wav
475,192,166232,1,0,0:0:0:0:
36,192,166345,1,0,0:0:0:100:tom.wav
109,192,166345,1,0,0:0:0:0:
36,192,166458,1,0,0:0:0:100:tom.wav
109,192,166458,1,0,0:0:0:0:
256,192,166571,1,4,0:0:0:0:
329,192,166571,1,8,0:0:0:0:
402,192,166571,1,0,0:0:0:0:
475,192,166571,1,0,0:0:0:0:
329,192,166683,1,0,0:0:0:0:
36,192,166796,1,8,0:0:0:0:
109,192,166796,1,0,0:0:0:0:
256,192,166796,1,0,0:0:0:0:
402,192,166796,1,0,0:0:0:0:
36,192,166909,1,8,0:0:0:0:
109,192,166909,1,0,0:0:0:0:
182,192,167022,1,2,0:0:0:0:
329,192,167022,1,0,0:0:0:0:
402,192,167022,1,0,0:0:0:0:
475,192,167022,1,0,0:0:0:0:
182,192,167247,1,8,0:0:0:0:
182,192,167360,1,2,0:0:0:0:
329,192,167360,1,0,0:0:0:0:
475,192,167360,1,0,0:0:0:0:
36,192,167473,1,8,0:0:0:0:
256,192,167473,1,0,0:0:0:0:
36,192,167586,1,2,0:0:0:0:
329,192,167586,1,0,0:0:0:0:
402,192,167586,1,0,0:0:0:0:
182,192,167698,1,8,0:0:0:0:
475,192,167698,1,0,0:0:0:0:
109,192,167811,1,8,0:0:0:0:
329,192,167811,1,0,0:0:0:0:
36,192,167924,1,2,0:0:0:0:
256,192,167924,1,0,0:0:0:0:
402,192,167924,1,0,0:0:0:0:
182,192,168037,1,0,0:0:0:0:
182,192,168149,1,8,0:0:0:0:
475,192,168149,1,0,0:0:0:0:
36,192,168262,1,2,0:0:0:0:
256,192,168262,1,0,0:0:0:0:
402,192,168262,1,0,0:0:0:0:
109,192,168375,1,8,0:0:0:0:
182,192,168375,1,0,0:0:0:0:
329,192,168375,1,0,0:0:0:0:
475,192,168375,1,0,0:0:0:0:
256,192,168488,1,0,0:0:0:0:
36,192,168601,1,8,0:0:0:0:
182,192,168601,1,0,0:0:0:0:
329,192,168601,1,0,0:0:0:0:
402,192,168601,1,0,0:0:0:0:
109,192,168713,1,8,0:0:0:0:
475,192,168713,1,0,0:0:0:0:
36,192,168826,1,2,0:0:0:0:
182,192,168826,1,0,0:0:0:0:
256,192,168826,1,0,0:0:0:0:
329,192,168826,1,0,0:0:0:0:
182,192,169052,1,8,0:0:0:0:
329,192,169052,1,0,0:0:0:0:
182,192,169165,1,2,0:0:0:0:
402,192,169165,1,0,0:0:0:0:
475,192,169165,1,0,0:0:0:0:
36,192,169277,1,8,0:0:0:0:
256,192,169277,1,0,0:0:0:0:
36,192,169390,1,2,0:0:0:0:
182,192,169390,1,0,0:0:0:0:
329,192,169390,1,0,0:0:0:0:
402,192,169503,1,8,0:0:0:0:
475,192,169503,1,0,0:0:0:0:
109,192,169616,1,8,0:0:0:0:
182,192,169616,1,0,0:0:0:0:
329,192,169728,1,2,0:0:0:0:
402,192,169728,1,0,0:0:0:0:
475,192,169728,1,0,0:0:0:0:
329,192,169841,1,2,0:0:0:0:
402,192,169841,1,0,0:0:0:0:
475,192,169841,1,0,0:0:0:0:
36,192,169954,1,2,0:0:0:0:
109,192,169954,1,0,0:0:0:0:
182,192,169954,1,0,0:0:0:0:
36,192,170067,1,2,0:0:0:0:
109,192,170067,1,0,0:0:0:0:
182,192,170067,1,0,0:0:0:0:
256,192,170180,1,8,0:0:0:0:
402,192,170180,1,4,0:0:0:0:
475,192,170180,1,0,0:0:0:0:
182,192,170292,1,0,0:0:0:0:
329,192,170292,1,0,0:0:0:0:
36,192,170405,1,2,0:0:0:0:
109,192,170405,1,0,0:0:0:0:
256,192,170405,1,0,0:0:0:0:
402,192,170405,1,0,0:0:0:0:
36,192,170518,1,8,0:0:0:0:
109,192,170518,1,0,0:0:0:0:
182,192,170631,1,0,0:0:0:0:
256,192,170631,1,0,0:0:0:0:
109,192,170743,1,8,0:0:0:0:
329,192,170743,1,0,0:0:0:0:
36,192,170856,1,2,0:0:0:0:
182,192,170856,1,0,0:0:0:0:
402,192,170856,1,0,0:0:0:0:
475,192,170856,1,0,0:0:0:0:
402,192,170969,1,0,0:0:0:0:
475,192,170969,1,0,0:0:0:0:
36,192,171082,1,8,0:0:0:0:
109,192,171082,1,0,0:0:0:0:
182,192,171082,1,0,0:0:0:0:
36,192,171195,1,8,0:0:0:0:
109,192,171195,1,0,0:0:0:0:
182,192,171307,1,2,0:0:0:0:
256,192,171307,1,0,0:0:0:0:
329,192,171307,1,0,0:0:0:0:
475,192,171307,1,0,0:0:0:0:
36,192,171420,1,8,0:0:0:0:
109,192,171420,1,0,0:0:0:0:
402,192,171420,1,0,0:0:0:0:
256,192,171533,1,0,0:0:0:0:
402,192,171533,1,0,0:0:0:0:
36,192,171646,1,8,0:0:0:0:
182,192,171646,1,0,0:0:0:0:
36,192,171759,1,2,0:0:0:0:
182,192,171759,1,0,0:0:0:0:
329,192,171759,1,0,0:0:0:0:
475,192,171759,1,0,0:0:0:0:
256,192,171871,1,0,0:0:0:0:
402,192,171871,1,0,0:0:0:0:
36,192,171984,1,8,0:0:0:0:
182,192,171984,1,0,0:0:0:0:
329,192,171984,1,0,0:0:0:0:
182,192,172097,1,0,0:0:0:0:
475,192,172097,1,0,0:0:0:0:
36,192,172210,1,2,0:0:0:0:
109,192,172210,1,0,0:0:0:0:
256,192,172210,1,0,0:0:0:0:
402,192,172210,1,0,0:0:0:0:
182,192,172322,1,8,0:0:0:0:
402,192,172322,1,0,0:0:0:0:
109,192,172435,1,0,0:0:0:0:
329,192,172435,1,0,0:0:0:0:
256,192,172548,1,8,0:0:0:0:
475,192,172548,1,0,0:0:0:0:
36,192,172661,1,2,0:0:0:0:
109,192,172661,1,0,0:0:0:0:
329,192,172661,1,0,0:0:0:0:
402,192,172661,1,0,0:0:0:0:
182,192,172774,1,0,0:0:0:0:
256,192,172774,1,0,0:0:0:0:
36,192,172886,1,8,0:0:0:0:
109,192,172886,1,0,0:0:0:0:
109,192,172999,1,8,0:0:0:0:
182,192,173112,1,2,0:0:0:0:
329,192,173112,1,0,0:0:0:0:
402,192,173112,1,0,0:0:0:0:
475,192,173112,1,0,0:0:0:0:
256,192,173225,1,8,0:0:0:0:
329,192,173225,1,0,0:0:0:0:
36,192,173337,1,2,0:0:0:0:
109,192,173337,1,0,0:0:0:0:
182,192,173337,1,0,0:0:0:0:
36,192,173450,1,0,0:0:0:100:tom.wav
109,192,173450,1,0,0:0:0:0:
256,192,173563,1,0,0:0:0:100:tom.wav
329,192,173563,1,0,0:0:0:0:
402,192,173563,1,0,0:0:0:0:
475,192,173563,1,0,0:0:0:0:
402,192,173676,1,0,0:0:0:100:tom.wav
475,192,173676,1,0,0:0:0:0:
36,192,173789,1,8,0:0:0:0:
109,192,173789,1,4,0:0:0:0:
256,192,173789,1,0,0:0:0:0:
182,192,173901,1,0,0:0:0:0:
329,192,173901,1,0,0:0:0:0:
36,192,174014,1,2,0:0:0:0:
256,192,174014,1,0,0:0:0:0:
402,192,174014,1,0,0:0:0:0:
475,192,174014,1,0,0:0:0:0:
109,192,174127,1,8,0:0:0:0:
182,192,174127,1,0,0:0:0:0:
109,192,174240,1,0,0:0:0:0:
256,192,174240,1,0,0:0:0:0:
36,192,174352,1,8,0:0:0:0:
402,192,174352,1,0,0:0:0:0:
109,192,174465,1,2,0:0:0:0:
182,192,174465,1,0,0:0:0:0:
329,192,174465,1,0,0:0:0:0:
475,192,174465,1,0,0:0:0:0:
256,192,174578,1,0,0:0:0:0:
329,192,174578,1,0,0:0:0:0:
36,192,174691,1,8,0:0:0:0:
402,192,174691,1,0,0:0:0:0:
36,192,174804,1,8,0:0:0:0:
329,192,174804,1,0,0:0:0:0:
109,192,174916,1,2,0:0:0:0:
256,192,174916,1,0,0:0:0:0:
402,192,174916,1,0,0:0:0:0:
475,192,174916,1,0,0:0:0:0:
182,192,175029,1,8,0:0:0:0:
329,192,175029,1,0,0:0:0:0:
36,192,175142,1,0,0:0:0:0:
402,192,175142,1,0,0:0:0:0:
182,192,175255,1,8,0:0:0:0:
402,192,175255,1,0,0:0:0:0:
36,192,175368,1,2,0:0:0:0:
109,192,175368,1,0,0:0:0:0:
256,192,175368,1,0,0:0:0:0:
329,192,175368,1,0,0:0:0:0:
256,192,175480,1,0,0:0:0:0:
475,192,175480,1,0,0:0:0:0:
36,192,175593,1,8,0:0:0:0:
109,192,175593,1,0,0:0:0:0:
182,192,175593,1,0,0:0:0:0:
182,192,175706,1,0,0:0:0:0:
402,192,175706,1,0,0:0:0:0:
36,192,175819,1,2,0:0:0:0:
109,192,175819,1,0,0:0:0:0:
256,192,175819,1,0,0:0:0:0:
475,192,175819,1,0,0:0:0:0:
182,192,175931,1,8,0:0:0:0:
329,192,175931,1,0,0:0:0:0:
329,192,176044,1,0,0:0:0:0:
402,192,176044,1,0,0:0:0:0:
36,192,176157,1,8,0:0:0:0:
256,192,176157,1,0,0:0:0:0:
109,192,176270,1,2,0:0:0:0:
182,192,176270,1,0,0:0:0:0:
329,192,176270,1,0,0:0:0:0:
475,192,176270,1,0,0:0:0:0:
109,192,176383,1,0,0:0:0:0:
402,192,176383,1,0,0:0:0:0:
182,192,176495,1,8,0:0:0:0:
329,192,176495,1,0,0:0:0:0:
36,192,176608,1,8,0:0:0:0:
329,192,176608,1,0,0:0:0:0:
182,192,176721,1,2,0:0:0:0:
256,192,176721,1,0,0:0:0:0:
402,192,176721,1,0,0:0:0:0:
475,192,176721,1,0,0:0:0:0:
109,192,176834,1,8,0:0:0:0:
329,192,176834,1,0,0:0:0:0:
109,192,176946,1,0,0:0:0:0:
402,192,176946,1,0,0:0:0:0:
36,192,177059,1,8,0:0:0:0:
256,192,177059,1,0,0:0:0:0:
329,192,177172,1,2,0:0:0:0:
402,192,177172,1,0,0:0:0:0:
475,192,177172,1,0,0:0:0:0:
329,192,177285,1,2,0:0:0:0:
402,192,177285,1,0,0:0:0:0:
475,192,177285,1,0,0:0:0:0:
36,192,177398,1,4,0:0:0:0:
182,192,177398,1,8,0:0:0:0:
256,192,177398,1,0,0:0:0:0:
36,192,177510,1,0,0:0:0:0:
329,192,177510,1,0,0:0:0:0:
109,192,177623,1,2,0:0:0:0:
256,192,177623,1,0,0:0:0:0:
402,192,177623,1,0,0:0:0:0:
475,192,177623,1,0,0:0:0:0:
182,192,177736,1,8,0:0:0:0:
329,192,177736,1,0,0:0:0:0:
36,192,177849,1,0,0:0:0:0:
329,192,177849,1,0,0:0:0:0:
109,192,177962,1,8,0:0:0:0:
256,192,177962,1,0,0:0:0:0:
182,192,178074,1,2,0:0:0:0:
329,192,178074,1,0,0:0:0:0:
402,192,178074,1,0,0:0:0:0:
475,192,178074,1,0,0:0:0:0:
36,192,178187,1,0,0:0:0:0:
109,192,178187,1,0,0:0:0:0:
329,192,178300,1,8,0:0:0:0:
402,192,178300,1,0,0:0:0:0:
182,192,178413,1,8,0:0:0:0:
329,192,178413,1,0,0:0:0:0:
36,192,178525,1,2,0:0:0:0:
109,192,178525,1,0,0:0:0:0:
256,192,178525,1,0,0:0:0:0:
475,192,178525,1,0,0:0:0:0:
182,192,178638,1,8,0:0:0:0:
402,192,178638,1,0,0:0:0:0:
182,192,178751,1,0,0:0:0:0:
329,192,178751,1,0,0:0:0:0:
36,192,178864,1,8,0:0:0:0:
256,192,178864,1,0,0:0:0:0:
109,192,178977,1,2,0:0:0:0:
329,192,178977,1,0,0:0:0:0:
402,192,178977,1,0,0:0:0:0:
475,192,178977,1,0,0:0:0:0:
36,192,179089,1,0,0:0:0:0:
256,192,179089,1,0,0:0:0:0:
182,192,179202,1,8,0:0:0:0:
402,192,179202,1,0,0:0:0:0:
475,192,179202,1,0,0:0:0:0:
182,192,179315,1,0,0:0:0:0:
329,192,179315,1,0,0:0:0:0:
36,192,179428,1,2,0:0:0:0:
256,192,179428,1,0,0:0:0:0:
402,192,179428,1,0,0:0:0:0:
475,192,179428,1,0,0:0:0:0:
182,192,179540,1,8,0:0:0:0:
329,192,179540,1,0,0:0:0:0:
109,192,179653,1,0,0:0:0:0:
256,192,179653,1,0,0:0:0:0:
109,192,179766,1,8,0:0:0:0:
475,192,179766,1,0,0:0:0:0:
36,192,179879,1,2,0:0:0:0:
182,192,179879,1,0,0:0:0:0:
256,192,179879,1,0,0:0:0:0:
402,192,179879,1,0,0:0:0:0:
329,192,179992,1,0,0:0:0:0:
475,192,179992,1,0,0:0:0:0:
36,192,180104,1,8,0:0:0:0:
182,192,180104,1,0,0:0:0:0:
182,192,180217,1,8,0:0:0:0:
329,192,180217,1,0,0:0:0:0:
36,192,180330,1,2,0:0:0:0:
256,192,180330,1,0,0:0:0:0:
402,192,180330,1,0,0:0:0:0:
475,192,180330,1,0,0:0:0:0:
109,192,180443,1,8,0:0:0:0:
182,192,180443,1,0,0:0:0:0:
256,192,180555,1,2,0:0:0:0:
329,192,180555,1,0,0:0:0:0:
402,192,180555,1,0,0:0:0:0:
475,192,180555,1,0,0:0:0:0:
402,192,180668,1,0,0:0:0:100:tom.wav
475,192,180668,1,0,0:0:0:0:
36,192,180781,1,0,0:0:0:100:tom.wav
109,192,180781,1,0,0:0:0:0:
36,192,180894,1,0,0:0:0:100:tom.wav
109,192,180894,1,0,0:0:0:0:
182,192,181007,1,4,0:0:0:0:
329,192,181007,1,8,0:0:0:0:
402,192,181007,1,0,0:0:0:0:
475,192,181007,1,0,0:0:0:0:
329,192,181119,1,0,0:0:0:0:
36,192,181232,1,8,0:0:0:0:
109,192,181232,1,0,0:0:0:0:
256,192,181232,1,0,0:0:0:0:
475,192,181232,1,0,0:0:0:0:
36,192,181345,1,8,0:0:0:0:
109,192,181345,1,0,0:0:0:0:
182,192,181458,1,2,0:0:0:0:
256,192,181458,1,0,0:0:0:0:
329,192,181458,1,0,0:0:0:0:
475,192,181458,1,0,0:0:0:0:
36,192,181683,1,8,0:0:0:0:
329,192,181683,1,0,0:0:0:0:
182,192,181796,1,2,0:0:0:0:
329,192,181796,1,0,0:0:0:0:
475,192,181796,1,0,0:0:0:0:
109,192,181909,1,8,0:0:0:0:
256,192,181909,1,0,0:0:0:0:
109,192,182022,1,2,0:0:0:0:
329,192,182022,1,0,0:0:0:0:
402,192,182022,1,0,0:0:0:0:
36,192,182134,1,8,0:0:0:0:
182,192,182134,1,0,0:0:0:0:
256,192,182247,1,0,0:0:0:0:
475,192,182247,1,0,0:0:0:0:
36,192,182360,1,2,0:0:0:0:
109,192,182360,1,0,0:0:0:0:
329,192,182360,1,0,0:0:0:0:
402,192,182473,1,0,0:0:0:0:
182,192,182586,1,8,0:0:0:0:
402,192,182586,1,0,0:0:0:0:
36,192,182698,1,2,0:0:0:0:
256,192,182698,1,0,0:0:0:0:
36,192,182811,1,8,0:0:0:0:
109,192,182811,1,4,0:0:0:0:
329,192,182811,1,0,0:0:0:0:
475,192,182811,1,0,0:0:0:0:
329,192,182924,1,0,0:0:0:0:
36,192,183037,1,8,0:0:0:0:
182,192,183037,1,0,0:0:0:0:
256,192,183037,1,0,0:0:0:0:
475,192,183037,1,0,0:0:0:0:
36,192,183149,1,8,0:0:0:0:
182,192,183149,1,0,0:0:0:0:
109,192,183262,1,2,0:0:0:0:
256,192,183262,1,0,0:0:0:0:
329,192,183262,1,0,0:0:0:0:
475,192,183262,1,0,0:0:0:0:
109,192,183488,1,8,0:0:0:0:
329,192,183488,1,0,0:0:0:0:
182,192,183601,1,2,0:0:0:0:
329,192,183601,1,0,0:0:0:0:
475,192,183601,1,0,0:0:0:0:
36,192,183713,1,8,0:0:0:0:
256,192,183713,1,0,0:0:0:0:
36,192,183826,1,2,0:0:0:0:
402,192,183826,1,0,0:0:0:0:
475,192,183826,1,0,0:0:0:0:
182,192,183939,1,8,0:0:0:0:
329,192,183939,1,0,0:0:0:0:
109,192,184052,1,0,0:0:0:0:
256,192,184052,1,0,0:0:0:0:
329,192,184165,1,2,0:0:0:0:
402,192,184165,1,0,0:0:0:0:
475,192,184165,1,0,0:0:0:0:
329,192,184277,1,2,0:0:0:0:
402,192,184277,1,0,0:0:0:0:
475,192,184277,1,0,0:0:0:0:
36,192,184390,1,2,0:0:0:0:
109,192,184390,1,0,0:0:0:0:
182,192,184390,1,0,0:0:0:0:
36,192,184503,1,2,0:0:0:0:
109,192,184503,1,0,0:0:0:0:
182,192,184503,1,0,0:0:0:0:
256,192,184616,1,8,0:0:0:0:
402,192,184616,1,4,0:0:0:0:
475,192,184616,1,0,0:0:0:0:
182,192,184728,1,0,0:0:0:0:
329,192,184728,1,0,0:0:0:0:
36,192,184841,1,2,0:0:0:0:
109,192,184841,1,0,0:0:0:0:
256,192,184841,1,0,0:0:0:0:
475,192,184841,1,0,0:0:0:0:
36,192,184954,1,8,0:0:0:0:
109,192,184954,1,0,0:0:0:0:
256,192,185067,1,0,0:0:0:0:
402,192,185067,1,0,0:0:0:0:
36,192,185180,1,8,0:0:0:0:
329,192,185180,1,0,0:0:0:0:
109,192,185292,1,2,0:0:0:0:
182,192,185292,1,0,0:0:0:0:
402,192,185292,1,0,0:0:0:0:
475,192,185292,1,0,0:0:0:0:
402,192,185405,1,0,0:0:0:0:
475,192,185405,1,0,0:0:0:0:
36,192,185518,1,8,0:0:0:0:
109,192,185518,1,0,0:0:0:0:
256,192,185518,1,0,0:0:0:0:
36,192,185631,1,8,0:0:0:0:
109,192,185631,1,0,0:0:0:0:
182,192,185743,1,2,0:0:0:0:
256,192,185743,1,0,0:0:0:0:
329,192,185743,1,0,0:0:0:0:
475,192,185743,1,0,0:0:0:0:
36,192,185856,1,8,0:0:0:0:
109,192,185856,1,0,0:0:0:0:
402,192,185856,1,0,0:0:0:0:
256,192,185969,1,0,0:0:0:0:
402,192,185969,1,0,0:0:0:0:
109,192,186082,1,8,0:0:0:0:
182,192,186082,1,0,0:0:0:0:
109,192,186195,1,2,0:0:0:0:
182,192,186195,1,0,0:0:0:0:
329,192,186195,1,0,0:0:0:0:
402,192,186195,1,0,0:0:0:0:
36,192,186307,1,0,0:0:0:0:
256,192,186307,1,0,0:0:0:0:
109,192,186420,1,8,0:0:0:0:
329,192,186420,1,0,0:0:0:0:
475,192,186420,1,0,0:0:0:0:
256,192,186533,1,0,0:0:0:0:
475,192,186533,1,0,0:0:0:0:
36,192,186646,1,2,0:0:0:0:
182,192,186646,1,0,0:0:0:0:
329,192,186646,1,0,0:0:0:0:
402,192,186646,1,0,0:0:0:0:
36,192,186759,1,8,0:0:0:0:
256,192,186759,1,0,0:0:0:0:
182,192,186871,1,0,0:0:0:0:
475,192,186871,1,0,0:0:0:0:
182,192,186984,1,8,0:0:0:0:
402,192,186984,1,0,0:0:0:0:
36,192,187097,1,2,0:0:0:0:
109,192,187097,1,0,0:0:0:0:
256,192,187097,1,0,0:0:0:0:
329,192,187097,1,0,0:0:0:0:
182,192,187210,1,0,0:0:0:0:
402,192,187210,1,0,0:0:0:0:
329,192,187322,1,8,0:0:0:0:
475,192,187322,1,0,0:0:0:0:
182,192,187435,1,8,0:0:0:0:
329,192,187435,1,0,0:0:0:0:
36,192,187548,1,2,0:0:0:0:
109,192,187548,1,0,0:0:0:0:
256,192,187548,1,0,0:0:0:0:
402,192,187548,1,0,0:0:0:0:
109,192,187661,1,8,0:0:0:0:
475,192,187661,1,0,0:0:0:0:
36,192,187774,1,2,0:0:0:0:
182,192,187774,1,0,0:0:0:0:
329,192,187774,1,0,0:0:0:0:
475,192,187774,1,0,0:0:0:0:
329,192,187886,1,0,0:0:0:100:tom.wav
402,192,187886,1,0,0:0:0:0:
36,192,187999,1,0,0:0:0:100:tom.wav
109,192,187999,1,0,0:0:0:0:
36,192,188112,1,0,0:0:0:100:tom.wav
109,192,188112,1,0,0:0:0:0:
256,192,188225,1,4,0:0:0:0:
329,192,188225,1,2,0:0:0:0:
402,192,188225,1,0,0:0:0:0:
475,192,188225,1,0,0:0:0:0:
182,192,188337,1,8,0:0:0:0:
329,192,188337,1,0,0:0:0:0:
402,192,188450,1,8,0:0:0:0:
475,192,188450,1,0,0:0:0:0:
36,192,188563,1,4,0:0:0:0:
109,192,188563,1,2,0:0:0:0:
182,192,188563,1,0,0:0:0:0:
256,192,188563,1,0,0:0:0:0:
109,192,188676,1,8,0:0:0:0:
329,192,188676,1,0,0:0:0:0:
182,192,188789,1,8,0:0:0:0:
475,192,188789,1,0,0:0:0:0:
36,192,188901,1,4,0:0:0:0:
109,192,188901,1,2,0:0:0:0:
256,192,188901,1,0,0:0:0:0:
402,192,188901,1,0,0:0:0:0:
256,192,189014,1,8,0:0:0:0:
402,192,189014,1,0,0:0:0:0:
475,192,189014,1,0,0:0:0:0:
36,192,189127,1,4,0:0:0:0:
109,192,189127,1,2,0:0:0:0:
182,192,189127,1,0,0:0:0:0:
329,192,189127,1,0,0:0:0:0:
182,192,189240,1,8,0:0:0:0:
402,192,189240,1,0,0:0:0:0:
109,192,189352,1,8,0:0:0:0:
256,192,189352,1,0,0:0:0:0:
36,192,189465,1,4,0:0:0:0:
329,192,189465,1,2,0:0:0:0:
402,192,189465,1,0,0:0:0:0:
475,192,189465,1,0,0:0:0:0:
182,192,189578,1,8,0:0:0:0:
475,192,189578,1,0,0:0:0:0:
256,192,189691,1,8,0:0:0:0:
402,192,189691,1,0,0:0:0:0:
36,192,189804,1,4,0:0:0:0:
109,192,189804,1,2,0:0:0:0:
182,192,189804,1,0,0:0:0:0:
329,192,189804,1,0,0:0:0:0:
36,192,189916,1,8,0:0:0:0:
109,192,189916,1,0,0:0:0:0:
256,192,189916,1,0,0:0:0:0:
182,192,190029,1,4,0:0:0:0:
329,192,190029,1,2,0:0:0:0:
402,192,190029,1,0,0:0:0:0:
475,192,190029,1,0,0:0:0:0:
109,192,190142,1,8,0:0:0:0:
329,192,190142,1,0,0:0:0:0:
182,192,190255,1,8,0:0:0:0:
402,192,190255,1,0,0:0:0:0:
36,192,190368,1,4,0:0:0:0:
109,192,190368,1,2,0:0:0:0:
256,192,190368,1,0,0:0:0:0:
475,192,190368,1,0,0:0:0:0:
109,192,190480,1,8,0:0:0:0:
329,192,190480,1,0,0:0:0:0:
182,192,190593,1,8,0:0:0:0:
402,192,190593,1,0,0:0:0:0:
36,192,190706,1,4,0:0:0:0:
256,192,190706,1,2,0:0:0:0:
329,192,190706,1,0,0:0:0:0:
475,192,190706,1,0,0:0:0:0:
109,192,190819,1,8,0:0:0:0:
182,192,190819,1,0,0:0:0:0:
402,192,190819,1,0,0:0:0:0:
36,192,190931,1,4,0:0:0:0:
256,192,190931,1,2,0:0:0:0:
329,192,190931,1,0,0:0:0:0:
475,192,190931,1,0,0:0:0:0:
36,192,191044,1,0,0:0:0:0:
182,192,191044,1,0,0:0:0:0:
109,192,191157,1,8,0:0:0:0:
256,192,191157,1,0,0:0:0:0:
329,192,191270,1,2,0:0:0:0:
402,192,191270,1,0,0:0:0:0:
475,192,191270,1,0,0:0:0:0:
402,192,191383,1,0,0:0:0:100:tom.wav
475,192,191383,1,0,0:0:0:0:
36,192,191495,1,0,0:0:0:100:tom.wav
109,192,191495,1,0,0:0:0:0:
36,192,191608,1,4,0:0:0:0:
109,192,191608,1,0,0:0:0:100:tom.wav
329,192,191608,1,0,0:0:0:0:
402,192,191608,1,0,0:0:0:0:
36,192,191834,1,4,0:0:0:0:
182,192,191834,1,8,0:0:0:0:
475,192,191834,1,0,0:0:0:0:
182,192,191946,1,0,0:0:0:0:
329,192,191946,1,0,0:0:0:0:
36,192,192059,1,2,0:0:0:0:
256,192,192059,1,0,0:0:0:0:
402,192,192059,1,0,0:0:0:0:
182,192,192172,1,8,0:0:0:0:
402,192,192172,1,0,0:0:0:0:
109,192,192285,1,0,0:0:0:0:
329,192,192285,1,0,0:0:0:0:
475,192,192285,1,0,0:0:0:0:
182,192,192398,1,8,0:0:0:0:
256,192,192398,1,0,0:0:0:0:
36,192,192510,1,2,0:0:0:0:
402,192,192510,1,0,0:0:0:0:
475,192,192510,1,0,0:0:0:0:
109,192,192623,1,0,0:0:0:0:
402,192,192623,1,0,0:0:0:0:
475,192,192623,1,0,0:0:0:0:
182,192,192736,1,8,0:0:0:0:
329,192,192736,1,0,0:0:0:0:
36,192,192849,1,8,0:0:0:0:
256,192,192849,1,0,0:0:0:0:
36,192,192962,1,2,0:0:0:0:
329,192,192962,1,0,0:0:0:0:
475,192,192962,1,0,0:0:0:0:
402,192,193074,1,8,0:0:0:0:
475,192,193074,1,0,0:0:0:0:
109,192,193187,1,0,0:0:0:0:
256,192,193187,1,0,0:0:0:0:
182,192,193300,1,8,0:0:0:0:
329,192,193300,1,0,0:0:0:0:
36,192,193413,1,2,0:0:0:0:
182,192,193413,1,0,0:0:0:0:
402,192,193413,1,0,0:0:0:0:
256,192,193525,1,0,0:0:0:0:
109,192,193638,1,8,0:0:0:0:
475,192,193638,1,0,0:0:0:0:
182,192,193751,1,0,0:0:0:0:
475,192,193751,1,0,0:0:0:0:
36,192,193864,1,2,0:0:0:0:
256,192,193864,1,0,0:0:0:0:
329,192,193864,1,0,0:0:0:0:
36,192,193977,1,8,0:0:0:0:
182,192,193977,1,0,0:0:0:0:
329,192,194089,1,0,0:0:0:0:
402,192,194089,1,0,0:0:0:0:
475,192,194089,1,0,0:0:0:0:
182,192,194202,1,8,0:0:0:0:
256,192,194202,1,0,0:0:0:0:
36,192,194315,1,2,0:0:0:0:
329,192,194315,1,0,0:0:0:0:
475,192,194315,1,0,0:0:0:0:
109,192,194428,1,0,0:0:0:0:
329,192,194428,1,0,0:0:0:0:
475,192,194428,1,0,0:0:0:0:
36,192,194540,1,8,0:0:0:0:
182,192,194540,1,0,0:0:0:0:
256,192,194653,1,8,0:0:0:0:
402,192,194653,1,0,0:0:0:0:
36,192,194766,1,2,0:0:0:0:
109,192,194766,1,0,0:0:0:0:
402,192,194766,1,0,0:0:0:0:
109,192,194879,1,8,0:0:0:0:
256,192,194879,1,0,0:0:0:0:
182,192,194992,1,0,0:0:0:0:
329,192,194992,1,0,0:0:0:0:
475,192,194992,1,0,0:0:0:0:
256,192,195104,1,8,0:0:0:0:
402,192,195104,1,0,0:0:0:0:
36,192,195217,1,2,0:0:0:0:
109,192,195217,1,0,0:0:0:0:
182,192,195217,1,0,0:0:0:0:
36,192,195330,1,2,0:0:0:0:
109,192,195330,1,0,0:0:0:0:
182,192,195330,1,0,0:0:0:0:
256,192,195443,1,8,0:0:0:0:
402,192,195443,1,4,0:0:0:0:
475,192,195443,1,0,0:0:0:0:
182,192,195555,1,0,0:0:0:0:
402,192,195555,1,0,0:0:0:0:
36,192,195668,1,2,0:0:0:0:
109,192,195668,1,0,0:0:0:0:
329,192,195668,1,0,0:0:0:0:
109,192,195781,1,8,0:0:0:0:
475,192,195781,1,0,0:0:0:0:
256,192,195894,1,0,0:0:0:0:
329,192,195894,1,0,0:0:0:0:
402,192,195894,1,0,0:0:0:0:
109,192,196007,1,8,0:0:0:0:
182,192,196007,1,0,0:0:0:0:
329,192,196119,1,2,0:0:0:0:
402,192,196119,1,0,0:0:0:0:
475,192,196119,1,0,0:0:0:0:
36,192,196232,1,0,0:0:0:0:
329,192,196232,1,0,0:0:0:0:
402,192,196232,1,0,0:0:0:0:
182,192,196345,1,8,0:0:0:0:
475,192,196345,1,0,0:0:0:0:
109,192,196458,1,8,0:0:0:0:
256,192,196458,1,0,0:0:0:0:
109,192,196571,1,2,0:0:0:0:
329,192,196571,1,0,0:0:0:0:
475,192,196571,1,0,0:0:0:0:
256,192,196683,1,8,0:0:0:0:
475,192,196683,1,0,0:0:0:0:
36,192,196796,1,0,0:0:0:0:
109,192,196796,1,0,0:0:0:0:
182,192,196796,1,0,0:0:0:0:
256,192,196909,1,8,0:0:0:0:
329,192,196909,1,0,0:0:0:0:
109,192,197022,1,2,0:0:0:0:
402,192,197022,1,0,0:0:0:0:
475,192,197022,1,0,0:0:0:0:
36,192,197134,1,0,0:0:0:0:
182,192,197247,1,4,0:0:0:0:
329,192,197247,1,8,0:0:0:0:
182,192,197360,1,0,0:0:0:0:
402,192,197360,1,0,0:0:0:0:
36,192,197473,1,2,0:0:0:0:
109,192,197473,1,0,0:0:0:0:
475,192,197473,1,0,0:0:0:0:
256,192,197586,1,8,0:0:0:0:
475,192,197586,1,0,0:0:0:0:
36,192,197698,1,0,0:0:0:0:
109,192,197698,1,0,0:0:0:0:
182,192,197698,1,0,0:0:0:0:
329,192,197811,1,8,0:0:0:0:
475,192,197811,1,0,0:0:0:0:
36,192,197924,1,2,0:0:0:0:
109,192,197924,1,0,0:0:0:0:
256,192,197924,1,0,0:0:0:0:
36,192,198037,1,0,0:0:0:0:
109,192,198037,1,0,0:0:0:0:
329,192,198037,1,0,0:0:0:0:
256,192,198149,1,8,0:0:0:0:
475,192,198149,1,0,0:0:0:0:
182,192,198262,1,8,0:0:0:0:
475,192,198262,1,0,0:0:0:0:
36,192,198375,1,2,0:0:0:0:
109,192,198375,1,0,0:0:0:0:
402,192,198375,1,0,0:0:0:0:
109,192,198488,1,8,0:0:0:0:
329,192,198488,1,0,0:0:0:0:
256,192,198601,1,2,0:0:0:0:
402,192,198601,1,0,0:0:0:0:
475,192,198601,1,0,0:0:0:0:
402,192,198713,1,0,0:0:0:100:tom.wav
475,192,198713,1,0,0:0:0:0:
109,192,198826,1,0,0:0:0:100:tom.wav
182,192,198826,1,0,0:0:0:0:
329,192,198826,1,0,0:0:0:0:
109,192,198939,1,0,0:0:0:100:tom.wav
182,192,198939,1,0,0:0:0:0:
256,192,199052,1,4,0:0:0:0:
402,192,199052,1,8,0:0:0:0:
475,192,199052,1,0,0:0:0:0:
182,192,199165,1,0,0:0:0:0:
402,192,199165,1,0,0:0:0:0:
36,192,199277,1,2,0:0:0:0:
109,192,199277,1,0,0:0:0:0:
329,192,199277,1,0,0:0:0:0:
109,192,199390,1,8,0:0:0:0:
475,192,199390,1,0,0:0:0:0:
182,192,199503,1,0,0:0:0:0:
256,192,199503,1,0,0:0:0:0:
402,192,199503,1,0,0:0:0:0:
36,192,199616,1,8,0:0:0:0:
329,192,199616,1,0,0:0:0:0:
109,192,199728,1,2,0:0:0:0:
402,192,199728,1,0,0:0:0:0:
475,192,199728,1,0,0:0:0:0:
256,192,199841,1,0,0:0:0:0:
402,192,199841,1,0,0:0:0:0:
475,192,199841,1,0,0:0:0:0:
36,192,199954,1,8,0:0:0:0:
182,192,199954,1,0,0:0:0:0:
329,192,200067,1,8,0:0:0:0:
402,192,200067,1,0,0:0:0:0:
109,192,200180,1,2,0:0:0:0:
182,192,200180,1,0,0:0:0:0:
402,192,200180,1,0,0:0:0:0:
182,192,200292,1,8,0:0:0:0:
475,192,200292,1,0,0:0:0:0:
36,192,200405,1,0,0:0:0:0:
256,192,200405,1,0,0:0:0:0:
329,192,200405,1,0,0:0:0:0:
182,192,200518,1,8,0:0:0:0:
402,192,200518,1,0,0:0:0:0:
109,192,200631,1,2,0:0:0:0:
329,192,200631,1,0,0:0:0:0:
475,192,200631,1,0,0:0:0:0:
36,192,200743,1,0,0:0:0:0:
256,192,200743,1,0,0:0:0:0:
182,192,200856,1,8,0:0:0:0:
402,192,200856,1,0,0:0:0:0:
36,192,200969,1,0,0:0:0:0:
402,192,200969,1,0,0:0:0:0:
182,192,201082,1,2,0:0:0:0:
329,192,201082,1,0,0:0:0:0:
475,192,201082,1,0,0:0:0:0:
182,192,201195,1,8,0:0:0:0:
256,192,201195,1,0,0:0:0:0:
36,192,201307,1,0,0:0:0:0:
402,192,201307,1,0,0:0:0:0:
475,192,201307,1,0,0:0:0:0:
109,192,201420,1,8,0:0:0:0:
329,192,201420,1,0,0:0:0:0:
182,192,201533,1,2,0:0:0:0:
256,192,201533,1,0,0:0:0:0:
475,192,201533,1,0,0:0:0:0:
36,192,201646,1,0,0:0:0:0:
475,192,201646,1,0,0:0:0:0:
256,192,201759,1,8,0:0:0:0:
329,192,201759,1,0,0:0:0:0:
109,192,201871,1,8,0:0:0:0:
402,192,201871,1,0,0:0:0:0:
36,192,201984,1,2,0:0:0:0:
182,192,201984,1,0,0:0:0:0:
402,192,201984,1,0,0:0:0:0:
182,192,202097,1,8,0:0:0:0:
256,192,202210,1,0,0:0:0:0:
402,192,202210,1,0,0:0:0:0:
475,192,202210,1,0,0:0:0:0:
36,192,202322,1,8,0:0:0:0:
109,192,202322,1,0,0:0:0:0:
329,192,202435,1,2,0:0:0:0:
402,192,202435,1,0,0:0:0:0:
475,192,202435,1,0,0:0:0:0:
329,192,202548,1,2,0:0:0:0:
402,192,202548,1,0,0:0:0:0:
475,192,202548,1,0,0:0:0:0:
36,192,202661,1,8,0:0:0:0:
109,192,202661,1,4,0:0:0:0:
182,192,202661,1,0,0:0:0:0:
182,192,202774,1,0,0:0:0:0:
329,192,202774,1,0,0:0:0:0:
109,192,202886,1,2,0:0:0:0:
402,192,202886,1,0,0:0:0:0:
475,192,202886,1,0,0:0:0:0:
256,192,202999,1,8,0:0:0:0:
402,192,202999,1,0,0:0:0:0:
36,192,203112,1,0,0:0:0:0:
182,192,203112,1,0,0:0:0:0:
329,192,203112,1,0,0:0:0:0:
402,192,203225,1,8,0:0:0:0:
475,192,203225,1,0,0:0:0:0:
36,192,203337,1,2,0:0:0:0:
109,192,203337,1,0,0:0:0:0:
256,192,203337,1,0,0:0:0:0:
109,192,203450,1,0,0:0:0:0:
256,192,203450,1,0,0:0:0:0:
329,192,203450,1,0,0:0:0:0:
402,192,203563,1,8,0:0:0:0:
475,192,203563,1,0,0:0:0:0:
36,192,203676,1,8,0:0:0:0:
182,192,203676,1,0,0:0:0:0:
182,192,203789,1,2,0:0:0:0:
329,192,203789,1,0,0:0:0:0:
402,192,203789,1,0,0:0:0:0:
256,192,203901,1,8,0:0:0:0:
402,192,203901,1,0,0:0:0:0:
36,192,204014,1,0,0:0:0:0:
109,192,204014,1,0,0:0:0:0:
182,192,204014,1,0,0:0:0:0:
329,192,204127,1,8,0:0:0:0:
182,192,204240,1,2,0:0:0:0:
402,192,204240,1,0,0:0:0:0:
475,192,204240,1,0,0:0:0:0:
109,192,204352,1,0,0:0:0:0:
329,192,204352,1,0,0:0:0:0:
36,192,204465,1,4,0:0:0:0:
256,192,204465,1,8,0:0:0:0:
475,192,204465,1,0,0:0:0:0:
36,192,204578,1,0,0:0:0:0:
329,192,204578,1,0,0:0:0:0:
182,192,204691,1,2,0:0:0:0:
402,192,204691,1,0,0:0:0:0:
475,192,204691,1,0,0:0:0:0:
36,192,204804,1,8,0:0:0:0:
402,192,204804,1,0,0:0:0:0:
109,192,204916,1,8,0:0:0:0:
256,192,204916,1,4,0:0:0:0:
329,192,204916,1,0,0:0:0:0:
182,192,205029,1,0,0:0:0:0:
475,192,205029,1,0,0:0:0:0:
36,192,205142,1,2,0:0:0:0:
329,192,205142,1,0,0:0:0:0:
402,192,205142,1,0,0:0:0:0:
256,192,205255,1,0,0:0:0:0:
329,192,205255,1,0,0:0:0:0:
402,192,205255,1,0,0:0:0:0:
36,192,205368,1,2,0:0:0:0:
109,192,205368,1,4,0:0:0:0:
182,192,205368,1,0,0:0:0:0:
109,192,205480,1,8,0:0:0:0:
256,192,205480,1,0,0:0:0:0:
182,192,205593,1,2,0:0:0:0:
329,192,205593,1,0,0:0:0:0:
475,192,205593,1,0,0:0:0:0:
329,192,205706,1,8,0:0:0:0:
402,192,205706,1,0,0:0:0:0:
36,192,205819,1,2,0:0:0:0:
109,192,205819,1,0,0:0:0:0:
256,192,205819,1,0,0:0:0:0:
36,192,205931,1,2,0:0:0:0:
109,192,205931,1,0,0:0:0:0:
256,192,205931,1,0,0:0:0:0:
329,192,206044,1,2,0:0:0:0:
402,192,206044,1,0,0:0:0:0:
475,192,206044,1,0,0:0:0:0:
329,192,206157,1,2,0:0:0:0:
402,192,206157,1,0,0:0:0:0:
475,192,206157,1,0,0:0:0:0:
36,192,206270,1,4,0:0:0:0:
109,192,206270,1,2,0:0:0:0:
182,192,206270,1,0,0:0:0:0:
256,192,206270,1,0,0:0:0:0:
109,192,206383,1,8,0:0:0:0:
182,192,206383,1,0,0:0:0:0:
36,192,206495,1,8,0:0:0:0:
256,192,206495,1,0,0:0:0:0:
182,192,206608,1,2,0:0:0:0:
329,192,206608,1,4,0:0:0:0:
402,192,206608,1,0,0:0:0:0:
475,192,206608,1,0,0:0:0:0:
329,192,206721,1,8,0:0:0:0:
402,192,206721,1,0,0:0:0:0:
256,192,206834,1,8,0:0:0:0:
475,192,206834,1,0,0:0:0:0:
36,192,206946,1,2,0:0:0:0:
109,192,206946,1,4,0:0:0:0:
182,192,206946,1,0,0:0:0:0:
36,192,207059,1,8,0:0:0:0:
109,192,207059,1,0,0:0:0:0:
182,192,207059,1,0,0:0:0:0:
256,192,207172,1,2,0:0:0:0:
329,192,207172,1,4,0:0:0:0:
402,192,207172,1,0,0:0:0:0:
475,192,207172,1,0,0:0:0:0:
329,192,207285,1,8,0:0:0:0:
475,192,207285,1,0,0:0:0:0:
256,192,207398,1,8,0:0:0:0:
402,192,207398,1,0,0:0:0:0:
36,192,207510,1,2,0:0:0:0:
109,192,207510,1,4,0:0:0:0:
182,192,207510,1,0,0:0:0:0:
329,192,207510,1,0,0:0:0:0:
36,192,207623,1,8,0:0:0:0:
182,192,207623,1,0,0:0:0:0:
109,192,207736,1,8,0:0:0:0:
256,192,207736,1,0,0:0:0:0:
329,192,207849,1,2,0:0:0:0:
402,192,207849,1,4,0:0:0:0:
475,192,207849,1,0,0:0:0:0:
329,192,207962,1,8,0:0:0:0:
402,192,207962,1,0,0:0:0:0:
475,192,207962,1,0,0:0:0:0:
36,192,208074,1,2,0:0:0:0:
109,192,208074,1,4,0:0:0:0:
182,192,208074,1,0,0:0:0:0:
256,192,208074,1,0,0:0:0:0:
36,192,208187,1,8,0:0:0:0:
182,192,208187,1,0,0:0:0:0:
109,192,208300,1,8,0:0:0:0:
256,192,208300,1,0,0:0:0:0:
182,192,208413,1,2,0:0:0:0:
329,192,208413,1,4,0:0:0:0:
402,192,208413,1,0,0:0:0:0:
475,192,208413,1,0,0:0:0:0:
329,192,208525,1,8,0:0:0:0:
402,192,208525,1,0,0:0:0:0:
256,192,208638,1,8,0:0:0:0:
475,192,208638,1,0,0:0:0:0:
36,192,208751,1,2,0:0:0:0:
109,192,208751,1,4,0:0:0:0:
182,192,208751,1,0,0:0:0:0:
329,192,208751,1,0,0:0:0:0:
182,192,208864,1,8,0:0:0:0:
329,192,208864,1,0,0:0:0:0:
36,192,208977,1,2,0:0:0:0:
109,192,208977,1,4,0:0:0:0:
256,192,208977,1,0,0:0:0:0:
402,192,208977,1,0,0:0:0:0:
475,192,208977,1,0,0:0:0:0:
