osu file format v14

[General]
AudioFilename: audio.mp3
AudioLeadIn: 0
PreviewTime: 302725
Countdown: 0
SampleSet: Soft
StackLeniency: 0.4
Mode: 0
LetterboxInBreaks: 0
WidescreenStoryboard: 1

[Editor]
DistanceSpacing: 1
BeatDivisor: 4
GridSize: 4
TimelineZoom: 2.539999

[Metadata]
Title:Songs Compilation
TitleUnicode:Songs Compilation
Artist:yuikonnu
ArtistUnicode:ゆいこんぬ
Creator:Eimi Fukada
Version:Strawberrhythm x Chocolate
Source:
Tags:放課後ストライド houkago stride ギガンティックO.T.N Gigantic OTN 愛×愛ホイッスル SymphonicBranch LOVE x LOVE Whistle Ai × 恋空予報 Koizora Yohou 星達のメロディ Hoshitachi no Melody 威風堂々 ifuudoudou 病名恋ワズライ Byoumei Koiwazurai かくしごと Kakushigoto 深海少女 Shinkai Shoujo 妄想スケッチ Mousou Sketch 現実ゲーム Genjitsu Game 有頂天ビバーチェ Uchouten Vivace ゴールデンジャーニー Golden Journey drop 初恋の絵本 Hatsukoi no Ehon ハートの後味 Heart no Atoaji yaleufeu kyuukai giga-p kagamine len rin 鏡音リン レン reol gumi last note denpol-p hatsune miku 初音ミク PolyphonicBranch matsushita 松下 mafumafu IA crossbeats REV. cross×beats capcom meis clauson after school ミカグラ学園組曲 mikagura gakuen kumikyoku school suite vocaloid deep sea girl yuuyup 40mP 40meterP Delusion Sketch if you do pomp and circumstance umetora megpoid megurine luka 梅とら nijiiro chocolatier 虹色ショコラティエ strawberrhythm sengen ストロベリズム宣言 seasonal magic honeyworks gom first love picture book The Heart Aftertaste secret Forecast for My Weather japanese pop rock
BeatmapID:2028695
BeatmapSetID:969677

[Difficulty]
HPDrainRate:5.5
CircleSize:4
OverallDifficulty:9.1
ApproachRate:9.4
SliderMultiplier:1.8
SliderTickRate:1

[Events]
//Background and Video events
0,0,"yuiko step on me pls.jpg",0,0
//Break Periods
2,34408,36608
2,63912,67181
2,85703,87005
2,123787,125405
2,147173,148923
2,180160,182608
2,202272,203605
2,225296,227858
2,254175,257211
2,276561,277565
2,297940,301123
2,332672,333484
2,372205,373417
2,404425,405350
2,448020,449564
//Storyboard Layer 0 (Background)
//Storyboard Layer 1 (Fail)
//Storyboard Layer 2 (Pass)
//Storyboard Layer 3 (Foreground)
//Storyboard Layer 4 (Overlay)
//Storyboard Sound Samples

[TimingPoints]
662.30612244898,266.666666666667,4,2,1,70,1,0
10342,266.666666666667,4,2,1,70,1,0
10475,-133.333333333333,4,2,1,50,0,0
10675,-133.333333333333,4,2,1,5,0,0
10742,266.666666666667,4,2,1,70,1,0
19008,-100,4,2,1,60,0,0
19275,-100,4,2,1,70,0,0
29942,-83.3333333333333,4,2,1,75,0,0
32075,-83.3333333333333,4,2,1,80,0,0
34208,-100,4,2,1,60,0,0
38449,315.789473684211,4,2,2,70,1,0
47922,-83.3333333333333,4,2,2,70,0,0
48554,-100,4,2,2,70,0,0
58027,-66.6666666666667,4,2,2,70,0,0
58659,-133.333333333333,4,2,2,60,0,0
61185,-100,4,2,2,65,0,0
62449,-83.3333333333333,4,2,2,70,0,0
63396,-166.666666666667,4,2,2,50,0,0
63712,-100,4,2,2,70,0,0
68838,333.333333333333,4,2,1,60,1,0
68838,-133.333333333333,4,2,1,60,0,0
69088,-133.333333333333,4,2,1,5,0,0
69171,-100,4,2,1,70,0,0
69421,-100,4,2,1,5,0,0
69504,333.333333333333,4,2,1,70,1,0
74170,-133.333333333333,4,2,1,50,0,0
74420,-133.333333333333,4,2,1,5,0,0
74504,-83.3333333333333,4,2,1,60,0,0
74754,-83.3333333333333,4,2,1,5,0,0
74837,-100,4,2,1,70,0,0
80170,-133.333333333333,4,2,1,50,0,0
82837,-111.111111111111,4,2,1,60,0,0
88815,454.545454545455,4,2,1,60,1,0
89951,-133.333333333333,4,2,1,50,0,0
90292,-133.333333333333,4,2,1,5,0,0
90405,-200,4,2,1,40,0,0
90746,-200,4,2,1,5,0,0
90860,454.545454545455,4,2,3,60,1,0
104950,-83.3333333333333,4,2,3,50,0,0
105405,-100,4,2,3,60,0,0
119950,-100,4,2,3,50,0,0
122223,-100,4,2,3,30,0,0
123132,-100,4,2,3,20,0,0
126723,300,4,2,1,60,1,0
126723,-66.6666666666667,4,2,1,60,0,0
126948,-66.6666666666667,4,2,1,5,0,0
127023,-66.6666666666667,4,2,1,60,0,0
127773,300,4,2,1,70,1,0
127773,-80,4,2,1,70,0,0
129198,-80,4,2,1,5,0,0
129273,-80,4,2,1,70,0,0
129798,-80,4,2,1,5,0,0
129873,-80,4,2,1,70,0,0
132798,-80,4,2,1,5,0,0
132873,-80,4,2,1,70,0,0
133998,-80,4,2,1,5,0,0
134073,-80,4,2,1,70,0,0
134973,-80,4,2,1,60,0,0
135273,-66.6666666666667,4,2,1,70,0,0
135573,-66.6666666666667,4,2,1,60,0,0
135873,-66.6666666666667,4,2,1,70,0,0
136173,-80,4,2,1,60,0,0
136473,-66.6666666666667,4,2,1,60,0,0
136773,-133.333333333333,4,2,1,70,0,0
137073,-100,4,2,1,80,0,0
137373,-80,4,2,1,70,0,0
138798,-80,4,2,1,5,0,0
138873,-80,4,2,1,70,0,0
139398,-80,4,2,1,5,0,0
139473,-80,4,2,1,70,0,0
142173,-200,4,2,1,60,0,0
142398,-200,4,2,1,5,0,0
142473,-83.3333333333333,4,2,1,70,0,0
143373,-200,4,2,1,60,0,0
143598,-200,4,2,1,5,0,0
143673,-76.9230769230769,4,2,1,70,0,0
144573,-71.4285714285714,4,2,1,60,0,0
145773,-66.6666666666667,4,2,1,70,0,0
146373,-66.6666666666667,4,2,1,80,0,0
150291,329.67032967033,4,2,3,50,1,0
150291,-100,4,2,3,50,0,0
150620,-66.6666666666667,4,2,3,60,0,0
150867,-66.6666666666667,4,2,3,5,0,0
150950,329.67032967033,4,2,3,70,1,0
160015,-80,4,2,3,60,0,0
160675,-66.6666666666667,4,2,3,70,0,0
161169,-133.333333333333,4,2,3,50,0,0
161499,-100,4,2,3,70,0,0
171719,-80,4,2,3,50,0,0
172048,-125,4,2,3,60,0,0
179466,-125,4,2,3,40,0,0
179796,-125,4,2,3,30,0,0
184117,437.956204379562,4,2,3,50,1,0
184554,437.956204379562,4,2,3,60,1,0
187838,-133.333333333333,4,2,3,60,0,0
188057,-100,4,2,3,60,0,0
189809,-90.9090909090909,4,2,3,50,0,0
190247,-83.3333333333333,4,2,3,55,0,0
190685,-76.9230769230769,4,2,3,60,0,0
190904,-76.9230769230769,4,2,3,70,0,0
191561,-100,4,2,3,60,0,0
194189,-200,4,2,3,50,0,0
195064,-133.333333333333,4,2,3,45,0,0
196816,-100,4,2,3,50,0,0
197692,-80,4,2,3,60,0,0
198568,-66.6666666666667,4,2,3,60,0,0
202072,-100,4,2,3,60,0,0
205269,344.827586206897,4,2,3,50,1,0
205269,-200,4,2,3,50,0,0
205786,344.827586206897,4,2,3,70,1,0
205786,-80,4,2,3,70,0,0
206044,-80,4,2,3,5,0,0
206130,-80,4,2,3,70,0,0
207251,-80,4,2,3,5,0,0
207337,-80,4,2,3,70,0,0
210441,-133.333333333333,4,2,3,60,0,0
210699,-133.333333333333,4,2,3,5,0,0
210786,-66.6666666666667,4,2,3,65,0,0
211303,-80,4,2,3,70,0,0
212768,-80,4,2,3,5,0,0
212854,-80,4,2,3,70,0,0
213458,-80,4,2,3,5,0,0
213544,-80,4,2,3,70,0,0
215958,-133.333333333333,4,2,3,60,0,0
216217,-133.333333333333,4,2,3,5,0,0
216303,-66.6666666666667,4,2,3,65,0,0
216820,-80,4,2,3,70,0,0
217079,-80,4,2,3,5,0,0
217165,-80,4,2,3,70,0,0
218286,-80,4,2,3,5,0,0
218372,-80,4,2,3,70,0,0
221475,-133.333333333333,4,2,3,60,0,0
221734,-133.333333333333,4,2,3,5,0,0
221820,-66.6666666666667,4,2,3,65,0,0
222337,-80,4,2,3,70,0,0
222596,-80,4,2,3,5,0,0
222682,-80,4,2,3,70,0,0
229284,461.538461538462,4,2,1,40,1,0
229976,461.538461538462,4,2,1,60,1,0
229976,-76.9230769230769,4,2,1,60,0,0
235514,-76.9230769230769,4,2,1,50,0,0
235745,-66.6666666666667,4,2,1,55,0,0
235976,-58.8235294117647,4,2,1,60,0,0
236206,-52.6315789473684,4,2,1,65,0,0
236437,-52.6315789473684,4,2,1,70,0,0
236668,-76.9230769230769,4,2,1,60,0,0
237360,-76.9230769230769,4,2,1,70,0,0
244745,-83.3333333333333,4,2,1,60,0,0
252129,-100,4,2,1,50,0,0
253514,-400,4,2,1,60,0,0
253976,-100,4,2,1,40,0,0
258961,300,4,2,1,50,1,0
258961,-200,4,2,1,50,0,0
259486,-200,4,2,1,5,0,0
259561,300,4,2,1,70,1,0
259561,-83.3333333333333,4,2,1,70,0,0
259786,-83.3333333333333,4,2,1,5,0,0
259861,-83.3333333333333,4,2,1,70,0,0
262186,-83.3333333333333,4,2,1,5,0,0
262261,-83.3333333333333,4,2,1,70,0,0
264586,-83.3333333333333,4,2,1,5,0,0
264661,-83.3333333333333,4,2,1,70,0,0
267811,-71.4285714285714,4,2,1,75,0,0
268261,-62.5,4,2,1,80,0,0
268561,-71.4285714285714,4,2,1,60,0,0
269161,-83.3333333333333,4,2,1,70,0,0
269386,-83.3333333333333,4,2,1,5,0,0
269461,-83.3333333333333,4,2,1,70,0,0
271786,-83.3333333333333,4,2,1,5,0,0
271861,-83.3333333333333,4,2,1,70,0,0
274186,-83.3333333333333,4,2,1,5,0,0
274261,-83.3333333333333,4,2,1,70,0,0
275011,-200,4,2,1,50,0,0
275236,-200,4,2,1,5,0,0
275311,-71.4285714285714,4,2,1,60,0,0
275761,-71.4285714285714,4,2,1,70,0,0
276061,-62.5,4,2,1,75,0,0
279244,225.563909774436,4,2,1,60,1,0
279695,225.563909774436,4,2,1,70,1,0
279695,-100,4,2,1,70,0,0
286913,-125,4,2,1,60,0,0
290522,-111.111111111111,4,2,1,70,0,0
294131,-83.3333333333333,4,2,1,80,0,0
294413,-83.3333333333333,4,2,1,5,0,0
294469,-100,4,2,1,70,0,0
294751,-100,4,2,1,5,0,0
294807,-125,4,2,1,60,0,0
294976,-125,4,2,1,5,0,0
295033,-83.3333333333333,4,2,1,80,0,0
295315,-83.3333333333333,4,2,1,5,0,0
295371,-100,4,2,1,70,0,0
295653,-100,4,2,1,5,0,0
295709,-125,4,2,1,60,0,0
295935,-83.3333333333333,4,2,1,80,0,0
296217,-83.3333333333333,4,2,1,5,0,0
296273,-100,4,2,1,70,0,0
296555,-100,4,2,1,5,0,0
296611,-125,4,2,1,60,0,0
296837,-83.3333333333333,4,2,1,70,0,0
297063,-100,4,2,1,60,0,0
297740,-100,4,2,1,60,0,0
302810,337.078651685393,4,2,4,60,1,0
302810,-76.9230769230769,4,2,4,60,0,0
303484,-71.4285714285714,4,2,4,60,0,0
304158,-66.6666666666667,4,2,4,60,0,0
304832,-83.3333333333333,4,2,4,60,0,0
305506,-76.9230769230769,4,2,4,60,0,0
305843,-90.9090909090909,4,2,4,60,0,0
306180,-83.3333333333333,4,2,4,60,0,0
306517,-76.9230769230769,4,2,4,60,0,0
306854,-71.4285714285714,4,2,4,60,0,0
307529,-83.3333333333333,4,2,4,60,0,0
308203,-76.9230769230769,4,2,4,60,0,0
309214,-71.4285714285714,4,2,4,60,0,0
309467,-71.4285714285714,4,2,4,5,0,0
309551,-83.3333333333333,4,2,4,60,0,0
310562,-90.9090909090909,4,2,4,60,0,0
310815,-90.9090909090909,4,2,4,5,0,0
310899,-76.9230769230769,4,2,4,60,0,0
312248,-58.8235294117647,4,2,4,60,0,0
312753,-71.4285714285714,4,2,4,60,0,0
312922,-58.8235294117647,4,2,4,60,0,0
313259,-100,4,2,4,60,0,0
313596,-76.9230769230769,4,2,4,60,0,0
314270,-71.4285714285714,4,2,4,60,0,0
314944,-66.6666666666667,4,2,4,60,0,0
315618,-83.3333333333333,4,2,4,60,0,0
316292,-76.9230769230769,4,2,4,60,0,0
316629,-90.9090909090909,4,2,4,60,0,0
316967,-83.3333333333333,4,2,4,60,0,0
317303,-76.9230769230769,4,2,4,60,0,0
317640,-71.4285714285714,4,2,4,60,0,0
318315,-83.3333333333333,4,2,4,60,0,0
318989,-76.9230769230769,4,2,4,60,0,0
320001,-100,4,2,4,60,0,0
320338,-125,4,2,4,60,0,0
321012,-83.3333333333333,4,2,4,60,0,0
321686,-71.4285714285714,4,2,4,60,0,0
322697,-100,4,2,4,60,0,0
322950,-100,4,2,4,5,0,0
323034,-76.9230769230769,4,2,4,60,0,0
324383,-100,4,2,4,60,0,0
327079,-90.9090909090909,4,2,4,60,0,0
329776,-100,4,2,4,60,0,0
331124,-100,4,2,4,40,0,0
332472,-90.9090909090909,4,2,4,20,0,0
334595,705.882352941176,4,2,3,50,1,0
335300,705.882352941176,4,2,3,60,1,0
335300,-66.6666666666667,4,2,3,60,0,0
343770,-57.1428571428571,4,2,3,60,0,0
345182,-50,4,2,3,70,0,0
346594,-66.6666666666667,4,2,3,60,0,0
355064,-80,4,2,3,60,0,0
356476,-100,4,2,3,60,0,0
357182,-50,4,2,3,50,0,0
357888,-66.6666666666667,4,2,3,60,0,0
366358,-57.1428571428571,4,2,3,60,0,0
367770,-66.6666666666667,4,2,3,60,0,0
368652,-133.333333333333,4,2,3,60,0,0
369182,-200,4,2,3,60,0,0
370417,-200,4,2,3,5,0,0
370594,-200,4,2,3,40,0,0
372005,-200,4,2,3,30,0,0
375725,375,4,2,1,40,1,0
375725,-142.857142857143,4,2,1,40,0,0
380975,-111.111111111111,4,2,1,50,0,0
381725,-90.9090909090909,4,2,1,60,0,0
386225,-166.666666666667,4,2,1,40,0,0
387725,-76.9230769230769,4,2,1,70,0,0
389506,-76.9230769230769,4,2,1,5,0,0
389600,-76.9230769230769,4,2,1,70,0,0
398225,-71.4285714285714,4,2,1,50,0,0
398975,-71.4285714285714,4,2,1,60,0,0
399725,-66.6666666666667,4,2,1,70,0,0
402725,-100,4,2,1,50,0,0
404225,-100,4,2,1,30,0,0
407243,315.789473684211,4,2,1,50,1,0
407243,-166.666666666667,4,2,1,50,0,0
407479,-166.666666666667,4,2,1,5,0,0
407558,-100,4,2,1,60,0,0
407795,-100,4,2,1,5,0,0
407874,315.789473684211,4,2,1,70,1,0
407874,-83.3333333333333,4,2,1,70,0,0
409374,-83.3333333333333,4,2,1,5,0,0
409452,-83.3333333333333,4,2,1,70,0,0
410637,-83.3333333333333,4,2,1,5,0,0
410715,-83.3333333333333,4,2,1,70,0,0
414426,-83.3333333333333,4,2,1,5,0,0
414504,-83.3333333333333,4,2,1,70,0,0
415058,-83.3333333333333,4,2,1,5,0,0
415136,-83.3333333333333,4,2,1,70,0,0
416716,-100,4,2,1,60,0,0
417979,-83.3333333333333,4,2,1,70,0,0
419479,-83.3333333333333,4,2,1,5,0,0
419557,-83.3333333333333,4,2,1,70,0,0
420742,-83.3333333333333,4,2,1,5,0,0
420820,-83.3333333333333,4,2,1,70,0,0
424610,-83.3333333333333,4,2,1,50,0,0
425558,-125,4,2,1,60,0,0
426189,-83.3333333333333,4,2,1,65,0,0
426821,-100,4,2,1,70,0,0
427137,-83.3333333333333,4,2,1,75,0,0
428084,-76.9230769230769,4,2,1,80,0,0
430610,-71.4285714285714,4,2,1,70,0,0
431874,-71.4285714285714,4,2,1,75,0,0
432505,-71.4285714285714,4,2,1,80,0,0
433137,-100,4,2,1,60,0,0
435663,-200,4,2,1,60,0,0
435900,-200,4,2,1,5,0,0
435979,-125,4,2,1,70,0,0
436926,-100,4,2,1,80,0,0
438189,-83.3333333333333,4,2,1,70,0,0
438426,-83.3333333333333,4,2,1,5,0,0
438504,-83.3333333333333,4,2,1,70,0,0
440952,-83.3333333333333,4,2,1,5,0,0
441030,-83.3333333333333,4,2,1,70,0,0
444505,-100,4,2,1,60,0,0
445137,-200,4,2,1,50,0,0
445374,-200,4,2,1,5,0,0
445452,-500,4,2,1,50,0,0
445531,-500,4,2,1,5,0,0
447347,-500,4,2,1,40,0,0
447426,-500,4,2,1,5,0,0
447821,-500,4,2,1,40,0,0
451284,322.58064516129,4,2,1,60,1,0
451284,-125,4,2,1,60,0,0
453219,-333.333333333333,4,2,1,40,0,0
453784,-333.333333333333,4,2,1,5,0,0
453864,-200,4,2,1,50,0,0
454429,-200,4,2,1,5,0,0
454509,-133.333333333333,4,2,1,60,0,0
455074,-133.333333333333,4,2,1,5,0,0
455154,-100,4,2,1,70,0,0
455800,-83.3333333333333,4,2,1,70,0,0
456042,-83.3333333333333,4,2,1,5,0,0
456122,-200,4,2,1,70,0,0
456364,-200,4,2,1,5,0,0
456445,-83.3333333333333,4,2,1,70,0,0
460316,-76.9230769230769,4,2,1,75,0,0
461606,-83.3333333333333,4,2,1,70,0,0
465477,-76.9230769230769,4,2,1,75,0,0
466122,-66.6666666666667,4,2,1,80,0,0
466364,-66.6666666666667,4,2,1,5,0,0
466445,-58.8235294117647,4,2,1,80,0,0
466687,-55.5555555555556,4,2,1,5,0,0
466767,-100,4,2,1,60,0,0
468058,-83.3333333333333,4,2,1,65,0,0
469348,-71.4285714285714,4,2,1,70,0,0
470638,-62.5,4,2,1,75,0,0
471929,-100,4,2,1,60,0,0
473219,-76.9230769230769,4,2,1,65,0,0
474509,-62.5,4,2,1,70,0,0
475800,-125,4,2,1,75,0,0
477090,-125,4,2,1,40,0,0
477413,-125,4,2,1,50,0,0
478219,-100,4,2,1,60,0,0
482090,-125,4,2,1,60,0,0
482493,-125,4,2,1,5,0,0
482574,-83.3333333333333,4,2,1,50,0,0
482816,-83.3333333333333,4,2,1,5,0,0
482896,-100,4,2,1,55,0,0
483138,-100,4,2,1,5,0,0
483219,-76.9230769230769,4,2,1,60,0,0
483461,-76.9230769230769,4,2,1,5,0,0
483542,-200,4,2,1,40,0,0
486122,-166.666666666667,4,2,1,50,0,0
486767,-125,4,2,1,60,0,0
487171,-125,4,2,1,5,0,0
487251,-83.3333333333333,4,2,1,60,0,0
487574,-83.3333333333333,4,2,1,50,0,0
488058,-83.3333333333333,4,2,1,70,0,0
488542,-666.666666666667,4,2,1,60,0,0
488622,-666.666666666667,4,2,1,5,0,0
493864,-666.666666666667,4,2,1,20,0,0

[Colours]
Combo1 : 192,192,192
Combo2 : 255,128,128
Combo3 : 186,138,103
Combo4 : 128,128,255

[HitObjects]
311,139,10475,6,0,L|412:152,1,101.250003862381,10|0,0:0|0:0,0:0:0:0:
420,180,10742,6,0,L|241:156,1,180,4|8,0:0|0:0,0:0:0:0:
168,80,11142,1,8,0:0:0:0:
69,242,11275,2,0,P|107:219|152:212,1,90
286,334,11542,1,8,0:0:0:0:
286,333,11675,6,0,P|247:311|203:303,1,90
69,242,11942,2,0,P|107:219|152:212,1,90,0|8,0:0|0:0,0:0:0:0:
285,150,12208,2,0,P|240:141|202:119,1,90
68,56,12475,2,0,P|112:48|150:25,1,90,0|8,0:0|0:0,0:0:0:0:
252,28,12742,1,0,0:0:0:0:
152,212,12875,5,4,0:0:0:0:
285,150,13008,1,0,0:0:0:0:
108,136,13142,1,8,0:0:0:0:
108,136,13275,1,8,0:0:0:0:
80,272,13408,2,0,P|144:304|240:244,1,180,0|8,0:0|0:0,0:0:0:0:
384,327,13808,6,0,P|356:292|352:248,1,90
404,144,14075,2,0,L|492:129,1,90,0|8,0:0|0:0,0:0:0:0:
233,257,14342,2,0,L|144:271,1,90
251,71,14608,2,0,P|279:105|285:150,1,90,0|8,0:0|0:0,0:0:0:0:
192,140,14875,1,8,0:0:0:0:
144,271,15008,6,0,L|158:359,1,90,4|0,0:0|0:0,0:0:0:0:
192,140,15275,1,8,0:0:0:0:
64,204,15408,2,0,L|49:292,1,90,8|0,0:0|0:0,0:0:0:0:
64,76,15675,1,0,0:0:0:0:
192,140,15808,2,0,L|206:228,1,90,8|0,0:0|0:0,0:0:0:0:
158,359,16075,5,0,0:0:0:0:
48,292,16208,1,0,0:0:0:0:
206,228,16342,2,0,L|295:239,1,90,8|0,0:0|0:0,0:0:0:0:
384,296,16608,2,0,P|400:252|395:206,1,90
320,136,16875,2,0,P|316:91|332:49,1,90,8|0,0:0|0:0,0:0:0:0:
509,119,17142,6,0,L|420:108,1,90,4|0,0:0|0:0,0:0:0:0:
242,60,17408,1,8,0:0:0:0:
332,49,17542,2,0,L|242:60,1,90,8|0,0:0|0:0,0:0:0:0:
64,108,17808,1,0,0:0:0:0:
153,119,17942,2,0,L|63:107,1,90,8|0,0:0|0:0,0:0:0:0:
212,208,18208,5,0,0:0:0:0:
242,59,18342,1,0,0:0:0:0:
192,216,18475,2,0,L|180:306,1,90,8|0,0:0|0:0,0:0:0:0:
320,148,18742,2,0,L|332:238,1,90,8|0,0:0|0:0,0:0:0:0:
460,364,19008,1,8,0:3:0:0:
422,341,19075,1,8,0:3:0:0:
378,333,19142,1,8,0:3:0:0:
334,341,19208,1,8,0:3:0:0:
296,363,19275,5,4,0:0:0:0:
180,305,19408,1,0,0:0:0:0:
331,237,19542,1,8,0:0:0:0:
331,237,19675,1,8,0:0:0:0:
215,179,19808,2,0,L|36:201,1,180,0|8,0:0|0:0,0:0:0:0:
240,77,20208,6,0,P|280:96|307:131,1,90
307,334,20475,2,0,P|267:315|239:280,1,90,0|8,0:0|0:0,0:0:0:0:
409,102,20742,2,0,P|412:146|395:187,1,90
136,308,21008,2,0,P|133:264|150:223,1,90,0|8,0:0|0:0,0:0:0:0:
238,279,21275,1,0,0:0:0:0:
48,248,21408,5,4,0:0:0:0:
244,172,21542,1,0,0:0:0:0:
76,148,21675,1,8,0:0:0:0:
76,148,21808,1,8,0:0:0:0:
238,279,21942,2,0,L|424:304,1,180,0|8,0:0|0:0,0:0:0:0:
465,130,22342,6,0,P|428:154|412:196,1,90
344,18,22608,2,0,P|384:37|428:31,1,90,0|8,0:0|0:0,0:0:0:0:
192,116,22875,2,0,P|228:91|245:50,1,90
313,228,23142,2,0,P|273:208|229:214,1,90,0|8,0:0|0:0,0:0:0:0:
256,304,23408,1,8,0:0:0:0:
40,228,23542,6,0,L|124:196,1,90,4|0,0:0|0:0,0:0:0:0:
275,148,23808,1,8,0:0:0:0:
192,116,23942,2,0,L|275:148,1,90,8|0,0:0|0:0,0:0:0:0:
426,195,24208,1,8,0:0:0:0:
343,228,24342,2,0,L|426:195,1,90,8|0,0:0|0:0,0:0:0:0:
275,148,24608,5,0,0:0:0:0:
428,88,24742,1,0,0:0:0:0:
264,176,24875,2,0,P|219:169|185:141,1,90,8|0,0:0|0:0,0:0:0:0:
94,59,25142,2,0,P|87:103|59:137,1,90
43,261,25408,2,0,P|77:233|121:226,1,90,8|0,0:0|0:0,0:0:0:0:
293,303,25675,6,0,L|204:296,1,90,4|0,0:0|0:0,0:0:0:0:
315,195,25942,1,8,0:0:0:0:
391,267,26075,2,0,L|480:259,1,90,8|0,0:0|0:0,0:0:0:0:
391,123,26342,1,8,0:0:0:0:
315,195,26475,2,0,L|226:188,1,90,8|0,0:0|0:0,0:0:0:0:
84,176,26742,1,0,0:0:0:0:
84,176,26875,1,0,0:0:0:0:
204,296,27008,5,8,0:0:0:0:
160,104,27142,1,8,0:0:0:0:
100,256,27275,5,8,0:0:0:0:
160,88,27408,1,4,0:3:0:0:
225,187,27542,5,4,0:3:0:0:
160,76,27675,1,4,0:3:0:0:
84,260,27808,5,4,0:0:0:0:
68,264,28075,6,0,B|112:276|112:276|154:263,1,90,8|0,0:0|0:0,0:0:0:0:
334,336,28342,2,0,B|290:348|290:348|248:336,1,90,8|0,0:0|0:0,0:0:0:0:
92,145,28608,2,0,B|136:157|136:157|179:145,1,90,8|0,0:0|0:0,0:0:0:0:
350,220,28875,2,0,B|306:232|306:232|264:220,1,90,8|0,0:0|0:0,0:0:0:0:
460,176,29142,6,0,B|472:220|472:220|459:262,1,90,8|0,0:0|0:0,0:0:0:0:
307,107,29408,2,0,B|295:63|295:63|307:20,1,90,8|0,0:0|0:0,0:0:0:0:
350,220,29675,2,0,B|306:232|306:232|264:220,1,90,8|0,0:0|0:0,0:0:0:0:
512,64,29942,6,0,B|460:48|460:48|408:64,1,107.999996704102,4|0,0:0|0:0,0:0:0:0:
263,323,30208,2,0,B|279:271|279:271|263:219,1,107.999996704102,8|0,0:0|0:0,0:0:0:0:
84,16,30475,2,0,B|68:68|68:68|84:120,1,107.999996704102,8|0,0:0|0:0,0:0:0:0:
263,323,30742,2,0,B|211:307|211:307|159:323,1,107.999996704102,8|0,0:0|0:0,0:0:0:0:
203,107,31008,6,0,B|255:91|255:91|307:107,1,107.999996704102,8|0,0:0|0:0,0:0:0:0:
468,384,31275,2,0,B|452:332|452:332|468:280,1,107.999996704102,8|0,0:0|0:0,0:0:0:0:
500,180,31542,1,8,0:0:0:0:
500,180,31675,1,8,0:0:0:0:
336,296,31808,1,8,0:0:0:0:
336,296,31942,1,8,0:0:0:0:
305,123,32075,5,4,0:0:0:0:
340,324,32208,1,0,0:0:0:0:
149,254,32342,1,0,0:0:0:0:
376,200,32475,5,4,0:0:0:0:
216,364,32608,1,0,0:0:0:0:
154,144,32742,1,0,0:0:0:0:
344,352,32875,5,4,0:0:0:0:
68,272,33008,1,0,0:0:0:0:
376,200,33142,1,4,0:0:0:0:
256,192,34208,5,4,0:0:0:0:
440,172,38449,5,4,0:0:0:0:
236,200,38606,1,0,0:0:0:0:
236,200,38685,1,0,0:0:0:0:
239,203,38764,2,0,L|328:212,1,90,8|0,0:0|0:0,0:0:0:0:
420,324,39080,1,2,0:1:0:0:
420,324,39159,1,0,0:0:0:0:
420,324,39238,2,0,L|428:260,1,45
328,212,39396,2,0,L|323:168,1,45,8|0,0:0|0:0,0:0:0:0:
428,0,39554,1,0,0:0:0:0:
465,90,39712,6,0,B|376:84,1,90,2|0,0:1|0:0,0:0:0:0:
304,16,40027,2,0,B|214:22,1,90,8|0,0:0|0:0,0:0:0:0:
100,20,40343,6,0,P|109:40|111:62,1,45,8|0,0:0|0:0,0:0:0:0:
153,149,40501,2,0,P|150:170|141:191,1,45,8|0,0:0|0:0,0:0:0:0:
33,120,40659,2,0,P|29:143|20:163,1,45,8|0,0:0|0:0,0:0:0:0:
60,249,40817,2,0,P|47:266|29:279,1,45,8|0,0:0|0:0,0:0:0:0:
148,352,40975,6,0,P|188:303|244:330,1,135,2|0,0:1|0:0,0:0:0:0:
316,280,41291,2,0,B|359:293|359:293|402:281,1,90,8|0,0:0|0:0,0:0:0:0:
380,92,41606,1,2,0:1:0:0:
366,134,41685,1,0,0:0:0:0:
352,177,41764,1,0,0:0:0:0:
356,184,41843,1,0,0:0:0:0:
360,192,41922,2,0,L|428:176,1,45,8|0,0:0|0:0,0:0:0:0:
511,122,42080,2,0,L|468:112,1,45
248,36,42238,6,0,L|367:5,1,90,2|0,0:1|0:0,0:0:0:0:
92,80,42554,2,0,L|179:102,1,90,8|8,0:0|0:0,0:0:0:0:
212,112,42791,1,8,0:0:0:0:
212,112,42870,2,0,L|196:168,1,45,8|0,0:0|0:0,0:0:0:0:
291,262,43027,2,0,L|279:219,1,45,8|0,0:0|0:0,0:0:0:0:
253,350,43185,2,0,P|310:376|355:331,1,135,8|0,0:0|0:0,0:0:0:0:
385,255,43501,5,2,0:1:0:0:
278,218,43659,1,0,0:0:0:0:
444,144,43817,1,8,0:0:0:0:
355,330,43975,1,8,0:0:0:0:
355,330,44054,1,8,0:0:0:0:
355,330,44133,1,2,0:1:0:0:
179,249,44291,1,0,0:0:0:0:
360,172,44449,1,8,0:0:0:0:
179,249,44606,1,8,0:0:0:0:
179,249,44685,1,8,0:0:0:0:
179,249,44764,6,0,L|84:236,1,90,2|0,0:1|0:0,0:0:0:0:
52,232,45001,1,0,0:0:0:0:
52,232,45080,2,0,L|48:184,1,45,8|0,0:0|0:0,0:0:0:0:
119,71,45238,2,0,L|116:116,1,45
36,20,45396,1,2,0:1:0:0:
212,100,45554,2,0,L|320:108,1,90,0|8,0:0|0:0,0:0:0:0:
451,163,45870,1,8,0:0:0:0:
451,163,45949,1,8,0:0:0:0:
451,163,46027,6,0,P|444:119|464:80,1,90,2|0,0:1|0:0,0:0:0:0:
496,60,46264,1,0,0:0:0:0:
496,60,46343,1,8,0:0:0:0:
301,106,46501,1,0,0:0:0:0:
496,248,46659,1,2,0:1:0:0:
301,294,46817,1,0,0:0:0:0:
451,163,46975,1,8,0:0:0:0:
292,308,47133,6,0,P|248:316|203:309,1,90,0|2,0:0|0:1,0:0:0:0:
82,172,47449,2,0,P|112:206|128:248,1,90,0|8,0:0|0:0,0:0:0:0:
24,344,47764,1,8,0:0:0:0:
24,344,47843,1,8,0:0:0:0:
23,342,47922,6,0,L|76:331,1,53.9999983520508,8|0,0:0|0:0,0:0:0:0:
180,236,48080,2,0,L|127:247,1,53.9999983520508,8|0,0:0|0:0,0:0:0:0:
12,104,48238,5,8,0:0:0:0:
52,136,48317,1,8,0:0:0:0:
105,144,48396,1,8,0:0:0:0:
155,123,48475,1,8,0:0:0:0:
185,79,48554,5,4,0:0:0:0:
127,246,48712,1,0,0:0:0:0:
127,246,48791,1,0,0:0:0:0:
127,247,48870,2,0,L|224:228,1,90,8|0,0:0|0:0,0:0:0:0:
308,136,49185,1,2,0:1:0:0:
308,136,49264,1,0,0:0:0:0:
307,135,49343,2,0,L|299:180,1,45
224,273,49501,2,0,L|215:229,1,45,8|0,0:0|0:0,0:0:0:0:
184,48,49659,1,0,0:0:0:0:
308,136,49817,6,0,P|350:147|394:137,1,90,2|0,0:1|0:0,0:0:0:0:
478,1,50133,2,0,P|468:45|480:88,1,90,8|0,0:0|0:0,0:0:0:0:
460,208,50449,6,0,P|440:232|432:256,1,45,8|0,0:0|0:0,0:0:0:0:
356,335,50606,2,0,P|358:313|352:292,1,45,8|0,0:0|0:0,0:0:0:0:
337,152,50764,2,0,P|331:182|336:207,1,45,8|0,0:0|0:0,0:0:0:0:
241,300,50922,2,0,P|253:281|260:260,1,45,8|0,0:0|0:0,0:0:0:0:
175,152,51080,6,0,B|108:136|108:136|43:151,1,135,2|0,0:1|0:0,0:0:0:0:
0,228,51396,2,0,L|24:332,1,90,8|0,0:0|0:0,0:0:0:0:
241,300,51712,1,2,0:1:0:0:
206,294,51791,1,0,0:0:0:0:
171,288,51870,1,0,0:0:0:0:
168,296,51949,1,0,0:0:0:0:
164,304,52027,2,0,L|180:372,1,45,8|0,0:0|0:0,0:0:0:0:
288,264,52185,2,0,L|277:307,1,45
437,351,52343,6,0,L|416:264,1,90,2|0,0:1|0:0,0:0:0:0:
373,64,52659,2,0,L|352:152,1,90,8|8,0:0|0:0,0:0:0:0:
343,187,52896,1,8,0:0:0:0:
343,187,52975,2,0,L|275:175,1,45,8|0,0:0|0:0,0:0:0:0:
191,111,53133,2,0,L|235:104,1,45,8|0,0:0|0:0,0:0:0:0:
73,65,53291,2,0,L|103:231,1,135,8|0,0:0|0:0,0:0:0:0:
114,277,53606,5,2,0:1:0:0:
207,206,53764,1,0,0:0:0:0:
268,363,53922,1,8,0:0:0:0:
97,197,54080,1,8,0:0:0:0:
97,197,54159,1,8,0:0:0:0:
97,197,54238,1,2,0:1:0:0:
281,267,54396,1,0,0:0:0:0:
97,197,54554,1,8,0:0:0:0:
180,380,54712,1,8,0:0:0:0:
180,380,54791,1,8,0:0:0:0:
180,380,54870,6,0,L|269:363,1,90,2|0,0:1|0:0,0:0:0:0:
304,356,55106,1,0,0:0:0:0:
304,356,55185,2,0,L|360:344,1,45,8|0,0:0|0:0,0:0:0:0:
464,289,55343,2,0,L|420:280,1,45
244,240,55501,1,2,0:1:0:0:
364,108,55659,2,0,L|348:196,1,90,0|8,0:0|0:0,0:0:0:0:
148,276,55975,1,8,0:0:0:0:
148,276,56054,1,8,0:0:0:0:
148,276,56133,6,0,L|132:188,1,90,2|0,0:1|0:0,0:0:0:0:
128,152,56370,1,0,0:0:0:0:
128,152,56449,1,8,0:0:0:0:
260,52,56606,2,0,L|251:96,1,45
236,176,56764,1,2,0:1:0:0:
148,40,56922,1,0,0:0:0:0:
364,108,57080,1,8,0:0:0:0:
99,230,57238,1,8,0:0:0:0:
99,230,57317,1,8,0:0:0:0:
99,230,57396,6,0,L|144:236,1,45,2|0,0:1|0:0,0:0:0:0:
200,316,57554,2,0,L|244:310,1,45,2|0,0:1|0:0,0:0:0:0:
320,248,57712,2,0,L|364:253,1,45,2|0,0:1|0:0,0:0:0:0:
419,333,57870,2,0,L|464:328,1,45,2|0,0:1|0:0,0:0:0:0:
133,324,58027,6,0,L|199:315,1,67.5000025749208,8|0,0:0|0:0,0:0:0:0:
320,248,58185,2,0,L|387:257,1,67.5000025749208,8|0,0:0|0:0,0:0:0:0:
126,128,58343,2,0,L|192:136,1,67.5000025749208,8|0,0:0|0:0,0:0:0:0:
312,68,58501,2,0,L|379:60,1,67.5000025749208,8|0,0:0|0:0,0:0:0:0:
128,0,58659,5,4,0:0:0:0:
120,20,59291,5,4,0:0:0:0:
120,44,59922,5,4,0:0:0:0:
124,68,60554,5,4,0:0:0:0:
132,96,60870,5,4,0:0:0:0:
132,120,61185,5,4,0:0:0:0:
128,140,61501,5,4,0:0:0:0:
128,152,61817,5,4,0:0:0:0:
220,220,61975,1,4,0:0:0:0:
140,232,62133,1,4,0:0:0:0:
208,140,62291,1,4,0:0:0:0:
64,332,62449,5,4,0:0:0:0:
106,326,62527,1,8,0:0:0:0:
149,321,62606,1,8,0:0:0:0:
192,316,62685,1,8,0:0:0:0:
235,312,62764,1,8,0:0:0:0:
278,307,62843,1,8,0:0:0:0:
320,300,62922,6,0,L|331:362,1,53.9999983520508,8|8,0:0|0:0,0:0:0:0:
411,234,63080,2,0,L|420:180,1,53.9999983520508,4|0,0:0|0:0,0:0:0:0:
423,226,63396,6,0,B|428:204|428:204|428:188|428:188|432:168,1,53.9999983520508,2|2,0:0|0:0,0:0:0:0:
341,106,63712,5,4,0:0:0:0:
100,144,68838,6,0,P|132:107|181:109,1,101.250003862381,4|0,0:0|0:0,0:0:0:0:
192,100,69171,6,0,P|128:89|84:137,1,135,2|0,0:0|0:0,0:0:0:0:
48,228,69504,6,0,L|137:219,1,90,4|8,0:0|0:0,0:0:0:0:
308,272,69837,1,0,0:0:0:0:
144,316,70004,1,8,0:0:0:0:
361,188,70170,2,0,L|272:180,1,90,0|8,0:0|0:0,0:0:0:0:
328,84,70504,1,0,0:0:0:0:
476,200,70670,1,8,0:0:0:0:
308,88,70837,6,0,L|218:96,1,90,0|8,0:0|0:0,0:0:0:0:
16,64,71170,2,0,P|48:108|48:160,1,90,0|8,0:0|0:0,0:0:0:0:
220,268,71504,1,0,0:0:0:0:
120,270,71670,1,8,0:0:0:0:
120,270,71754,1,8,0:0:0:0:
120,270,71837,2,0,P|127:226|156:192,1,90,0|8,0:0|0:0,0:0:0:0:
360,356,72170,6,0,B|268:316|260:400|164:352,1,180,4|0,0:0|0:0,0:0:0:0:
220,268,72670,1,8,0:0:0:0:
40,328,72837,1,0,0:0:0:0:
156,192,73004,1,8,0:0:0:0:
185,361,73170,1,0,0:0:0:0:
354,332,73337,1,8,0:0:0:0:
325,163,73504,5,0,0:0:0:0:
156,192,73670,1,8,0:0:0:0:
156,192,73754,1,8,0:0:0:0:
156,192,73837,1,8,0:0:0:0:
408,252,74004,1,0,0:0:0:0:
185,361,74170,6,0,P|196:312|228:344,1,101.250003862381,2|0,0:0|0:0,0:0:0:0:
320,364,74504,6,0,B|328:308|328:308|304:268|304:268|320:188,1,161.999995056153,4|0,0:0|0:0,0:0:0:0:
332,112,74837,5,4,0:0:0:0:
408,252,75004,1,8,0:0:0:0:
336,96,75170,1,0,0:0:0:0:
504,212,75337,1,8,0:0:0:0:
312,292,75504,5,0,0:0:0:0:
420,152,75670,1,8,0:0:0:0:
316,308,75837,1,0,0:0:0:0:
504,212,76004,1,8,0:0:0:0:
320,324,76170,6,0,L|216:312,1,90,0|8,0:0|0:0,0:0:0:0:
60,344,76504,2,0,P|76:304|64:248,1,90,0|8,0:0|0:0,0:0:0:0:
16,156,76837,1,0,0:0:0:0:
176,212,77003,1,8,0:0:0:0:
176,212,77087,1,8,0:0:0:0:
176,212,77170,2,0,L|265:222,1,90,0|8,0:0|0:0,0:0:0:0:
476,156,77503,6,0,B|424:172|424:172|392:155,1,90
360,140,77753,1,0,0:0:0:0:
328,124,77837,1,8,0:0:0:0:
296,108,77920,1,0,0:0:0:0:
264,92,78003,1,8,0:0:0:0:
232,76,78087,1,0,0:0:0:0:
200,64,78170,6,0,L|212:8,1,45
82,59,78337,2,0,L|91:102,1,45,8|0,0:0|0:0,0:0:0:0:
77,221,78503,2,0,P|115:198|160:200,1,90,0|8,0:0|0:0,0:0:0:0:
384,340,78837,6,0,L|340:328,1,45
268,240,79003,2,0,L|312:228,1,45
480,136,79170,1,8,0:0:0:0:
448,152,79253,1,0,0:0:0:0:
412,156,79337,1,8,0:0:0:0:
376,152,79420,1,0,0:0:0:0:
344,136,79503,6,0,L|336:68,1,45
233,15,79670,2,0,L|228:60,1,45,8|0,0:0|0:0,0:0:0:0:
148,164,79837,2,0,P|108:144|60:152,1,90
20,332,80170,6,0,L|180:320,1,135.000005149842,4|0,0:0|0:0,0:0:0:0:
285,314,80670,2,0,L|420:304,1,135.000005149842
212,204,81337,5,4,0:0:0:0:
420,104,81670,5,4,0:0:0:0:
420,304,82003,5,0,0:0:0:0:
340,204,82170,1,4,0:0:0:0:
340,204,82837,6,0,L|352:108,1,80.9999975280763,4|0,0:0|0:0,0:0:0:0:
212,40,83170,2,0,L|222:120,1,80.9999975280763,8|0,0:0|0:0,0:0:0:0:
226,152,83420,1,8,0:0:0:0:
226,152,83503,1,8,0:0:0:0:
100,96,83670,2,0,P|56:92|8:116,1,80.9999975280763,8|0,0:0|0:0,0:0:0:0:
0,128,83920,1,0,0:0:0:0:
0,128,84003,2,0,L|6:184,1,40.4999987640381,8|0,0:0|0:0,0:0:0:0:
20,296,84170,5,8,0:0:0:0:
224,360,84337,1,8,0:0:0:0:
36,284,84503,2,0,L|116:273,1,80.9999975280763,8|0,0:0|0:0,0:0:0:0:
148,272,84753,1,8,0:0:0:0:
148,272,84837,1,8,0:0:0:0:
304,370,85003,2,0,L|223:359,1,80.9999975280763,8|0,0:0|0:0,0:0:0:0:
280,260,85337,1,8,0:0:0:0:
64,172,85503,5,8,0:0:0:0:
23,59,88815,6,0,P|83:16|89:90,1,180,4|8,0:0|0:0,0:0:0:0:
0,212,89496,1,8,0:0:0:0:
192,176,89724,1,2,0:1:0:0:
192,176,89837,1,2,0:1:0:0:
192,176,89951,6,0,L|180:300,1,101.250003862381,4|0,0:0|0:0,0:0:0:0:
140,356,90405,6,0,B|173:369|173:369|204:362,1,67.5,2|0,0:0|0:0,0:0:0:0:
268,300,90860,6,0,B|380:272|344:372|464:332,1,180,4|8,0:0|0:0,0:0:0:0:
432,200,91541,1,2,0:1:0:0:
420,224,91655,1,2,0:1:0:0:
420,252,91769,1,2,0:0:0:0:
300,384,91996,1,2,0:1:0:0:
504,284,92223,1,8,0:0:0:0:
276,196,92450,6,0,B|164:168|200:268|80:228,1,180,2|2,0:0|0:1,0:0:0:0:
244,280,93132,1,8,0:0:0:0:
112,96,93360,1,2,0:1:0:0:
124,120,93473,1,2,0:1:0:0:
124,148,93587,1,2,0:0:0:0:
244,16,93814,1,2,0:1:0:0:
124,148,94041,2,0,P|82:136|39:148,1,90,10|2,0:0|0:1,0:0:0:0:
20,168,94382,1,2,0:1:0:0:
4,188,94496,6,0,L|20:288,1,90,2|0,0:0|0:0,0:0:0:0:
124,384,94950,1,8,0:0:0:0:
252,300,95178,1,2,0:1:0:0:
280,296,95291,1,2,0:1:0:0:
308,300,95405,1,2,0:0:0:0:
144,192,95632,1,2,0:1:0:0:
280,384,95860,1,8,0:0:0:0:
405,242,96087,6,0,P|321:211|232:212,1,180,2|2,0:0|0:1,0:0:0:0:
8,312,96769,2,0,P|52:314|95:302,1,90,8|2,0:0|0:1,0:0:0:0:
119,288,97110,1,2,0:1:0:0:
135,264,97223,2,0,L|123:152,1,90,2|0,0:0|0:0,0:0:0:0:
265,6,97678,2,0,L|256:96,1,90,10|2,0:0|0:1,0:0:0:0:
424,240,98132,6,0,P|341:223|308:300,1,180,2|8,0:0|0:0,0:0:0:0:
464,372,98814,1,2,0:1:0:0:
468,344,98928,1,2,0:1:0:0:
472,316,99041,1,2,0:0:0:0:
308,384,99269,1,2,0:1:0:0:
476,288,99496,1,8,0:0:0:0:
228,340,99723,5,2,0:1:0:0:
290,215,99950,2,0,P|312:254|307:298,1,90,2|2,0:0|0:1,0:0:0:0:
152,384,100405,1,8,0:0:0:0:
4,296,100632,1,2,0:1:0:0:
32,292,100746,1,2,0:1:0:0:
56,280,100860,1,2,0:0:0:0:
184,188,101087,1,2,0:1:0:0:
152,384,101314,1,8,0:0:0:0:
52,252,101541,1,2,0:1:0:0:
48,224,101655,1,2,0:1:0:0:
44,196,101769,6,0,L|88:189,1,45,2|2,0:0|0:0,0:0:0:0:
276,160,101996,1,2,0:0:0:0:
368,344,102223,1,8,0:0:0:0:
488,224,102450,1,2,0:1:0:0:
464,212,102564,1,2,0:1:0:0:
436,204,102678,1,2,0:0:0:0:
248,344,102905,5,4,0:0:0:0:
488,344,103132,5,4,0:0:0:0:
368,137,103360,6,0,B|272:104|284:208|160:152,1,180,4|2,0:0|0:1,0:0:0:0:
33,53,104041,1,8,0:0:0:0:
68,80,104155,1,8,0:0:0:0:
71,124,104269,1,8,0:0:0:0:
14,256,104496,2,0,P|57:243|99:255,1,90,4|0,0:0|0:0,0:0:0:0:
348,312,104950,5,8,0:0:0:0:
292,364,105064,1,8,0:0:0:0:
216,356,105178,1,8,0:0:0:0:
184,288,105291,1,8,0:0:0:0:
248,226,105405,6,0,P|165:200|98:255,1,180,4|8,0:0|0:0,0:0:0:0:
22,106,106087,1,2,0:1:0:0:
45,118,106200,1,2,0:1:0:0:
71,124,106314,1,2,0:0:0:0:
256,96,106541,1,2,0:1:0:0:
98,254,106769,1,8,0:0:0:0:
148,24,106996,6,0,B|260:0|260:0|321:22,1,180,2|2,0:0|0:1,0:0:0:0:
512,88,107678,1,8,0:0:0:0:
370,195,107905,1,2,0:1:0:0:
374,169,108019,1,2,0:1:0:0:
383,143,108132,1,2,0:0:0:0:
321,22,108360,1,2,0:1:0:0:
480,200,108587,1,10,0:0:0:0:
280,260,108814,1,2,0:1:0:0:
288,288,108928,1,2,0:1:0:0:
295,313,109041,6,0,P|211:341|127:313,1,180,2|8,0:0|0:0,0:0:0:0:
0,212,109723,1,2,0:1:0:0:
26,212,109837,1,2,0:1:0:0:
52,203,109950,2,0,P|64:161|50:119,1,90,2|2,0:0|0:1,0:0:0:0:
0,0,110405,1,8,0:0:0:0:
176,76,110632,6,0,B|288:48|252:148|372:108,1,180,2|2,0:0|0:1,0:0:0:0:
208,160,111314,1,8,0:0:0:0:
328,28,111541,1,2,0:1:0:0:
356,28,111655,1,2,0:1:0:0:
380,36,111769,2,0,P|420:72|432:120,1,90,2|2,0:0|0:1,0:0:0:0:
308,194,112223,2,0,P|319:141|354:106,1,90,10|2,0:0|0:1,0:0:0:0:
460,242,112678,6,0,B|348:214|384:314|264:274,1,180,2|8,0:0|0:0,0:0:0:0:
192,384,113360,1,2,0:1:0:0:
196,356,113473,1,2,0:1:0:0:
192,328,113587,1,2,0:0:0:0:
140,180,113814,1,2,0:1:0:0:
84,356,114041,1,8,0:0:0:0:
168,176,114269,1,2,0:1:0:0:
196,172,114382,1,2,0:1:0:0:
224,168,114496,5,2,0:0:0:0:
460,242,114723,1,8,0:0:0:0:
293,281,114950,1,8,0:0:0:0:
473,85,115178,5,8,0:3:0:0:
468,125,115291,1,8,0:3:0:0:
465,167,115405,1,6,0:0:0:0:
293,281,115632,5,8,0:0:0:0:
290,235,115746,1,8,0:0:0:0:
288,192,115860,1,10,0:0:0:0:
496,356,116087,5,10,0:0:0:0:
448,352,116200,1,10,0:0:0:0:
399,347,116314,6,0,B|296:380|296:380|196:352,1,180,4|2,0:0|0:1,0:0:0:0:
96,384,116996,1,2,0:1:0:0:
96,384,117110,1,2,0:1:0:0:
96,384,117223,2,0,P|120:352|120:276,1,90,8|2,0:0|0:1,0:0:0:0:
192,170,117678,2,0,P|198:214|224:251,1,90,2|8,0:1|0:0,0:0:0:0:
399,347,118132,5,4,0:0:0:0:
336,256,118360,1,0,0:0:0:0:
468,236,118587,5,8,0:0:0:0:
288,356,118814,1,0,0:0:0:0:
288,156,119041,5,8,0:0:0:0:
508,340,119269,1,0,0:0:0:0:
416,116,119496,6,0,L|408:164,1,45,8|0,0:3|0:0,0:0:0:0:
308,280,119723,2,0,L|300:235,1,45,8|0,0:3|0:0,0:0:0:0:
191,99,119950,6,0,P|106:75|21:100,1,180,4|8,0:0|0:0,0:0:0:0:
0,208,120632,1,0,0:0:0:0:
0,208,120746,1,0,0:0:0:0:
0,208,120860,2,0,P|43:198|87:207,1,90
256,260,121314,1,8,0:0:0:0:
44,308,121541,6,0,P|87:317|131:308,1,90
87,207,121996,1,0,0:0:0:0:
256,260,122223,2,0,P|299:250|343:259,1,90,8|0,0:0|0:0,0:0:0:0:
368,272,122564,1,0,0:0:0:0:
368,272,122678,2,0,P|411:281|455:272,1,90
300,160,123132,2,0,P|256:150|212:159,1,90,10|0,0:0|0:0,0:0:0:0:
188,172,123473,1,0,0:0:0:0:
188,172,123587,5,2,0:0:0:0:
454,268,126723,6,0,P|382:312|375:228,1,202.500007724762,4|0,0:0|0:0,0:0:0:0:
472,262,127023,6,0,P|467:295|448:321,1,67.5000025749208,8|0,0:0|0:0,0:0:0:0:
434,170,127173,2,0,P|407:149|374:144,1,67.5000025749208,8|0,0:0|0:0,0:0:0:0:
434,170,127773,6,0,B|312:128|332:261|205:206,1,225,4|8,0:0|0:0,0:0:0:0:
394,259,128223,1,0,0:0:0:0:
296,22,128373,2,0,P|260:63|255:119,1,112.5,2|0,0:1|0:0,0:0:0:0:
289,298,128673,2,0,P|270:245|225:213,1,112.5,8|0,0:0|0:0,0:0:0:0:
23,314,128973,6,0,L|192:304,1,168.75,2|0,0:0|0:0,0:0:0:0:
192,304,129273,1,8,0:0:0:0:
4,176,129423,1,0,0:0:0:0:
101,58,129573,2,0,B|89:110|89:110|117:158|117:158|104:217,1,168.75,2|0,0:1|0:0,0:0:0:0:
104,217,129873,2,0,B|152:188|152:188|244:213,1,112.5,8|0,0:0|0:0,0:0:0:0:
365,36,130173,6,0,L|352:148,1,112.5,2|0,0:1|0:0,0:0:0:0:
193,91,130473,2,0,L|206:202,1,112.5,8|0,0:0|0:0,0:0:0:0:
468,108,130773,6,0,L|454:219,1,112.5,2|0,0:1|0:0,0:0:0:0:
84,160,131073,2,0,L|97:271,1,112.5,8|0,0:0|0:0,0:0:0:0:
440,331,131373,6,0,L|453:219,1,112.5,2|0,0:0|0:0,0:0:0:0:
453,219,131598,1,0,0:0:0:0:
453,219,131673,1,8,0:0:0:0:
368,64,131823,1,0,0:0:0:0:
348,252,131973,1,8,0:0:0:0:
353,207,132048,1,8,0:0:0:0:
358,162,132123,1,8,0:0:0:0:
149,117,132273,5,8,0:0:0:0:
154,162,132348,1,8,0:0:0:0:
159,207,132423,1,8,0:0:0:0:
164,252,132498,1,8,0:0:0:0:
169,297,132573,6,0,P|123:363|44:353,1,168.75,4|0,0:0|0:0,0:0:0:0:
44,353,132873,1,8,0:0:0:0:
256,248,133023,1,0,0:0:0:0:
78,152,133173,2,0,P|63:205|75:260,1,112.5,2|0,0:1|0:0,0:0:0:0:
252,356,133473,2,0,P|267:302|256:248,1,112.5,8|0,0:0|0:0,0:0:0:0:
412,68,133773,6,0,B|380:108|380:108|404:252,1,168.75,2|0,0:0|0:0,0:0:0:0:
400,224,134073,2,0,L|531:200,1,112.5,8|0,0:0|0:0,0:0:0:0:
420,336,134373,1,2,0:1:0:0:
316,152,134523,1,0,0:0:0:0:
255,247,134673,2,0,L|144:227,1,112.5,8|0,0:0|0:0,0:0:0:0:
48,40,134973,5,8,0:3:0:0:
44,73,135048,1,8,0:3:0:0:
40,107,135123,1,8,0:3:0:0:
37,140,135198,1,8,0:3:0:0:
76,128,135273,6,0,L|92:-12,1,135.000005149842,4|0,0:0|0:0,0:0:0:0:
298,200,135573,5,8,0:3:0:0:
302,167,135648,1,8,0:3:0:0:
305,134,135723,1,8,0:3:0:0:
309,100,135798,1,8,0:3:0:0:
270,112,135873,6,0,L|254:252,1,135.000005149842,4|0,0:0|0:0,0:0:0:0:
320,336,136098,1,0,0:0:0:0:
320,336,136173,6,0,P|360:300|428:336,1,112.5,4|8,0:0|0:0,0:0:0:0:
500,244,136398,1,8,0:0:0:0:
500,244,136473,6,0,P|460:196|375:230,1,135.000005149842,4|8,0:0|0:0,0:0:0:0:
324,272,136698,1,8,0:0:0:0:
324,272,136773,5,8,0:3:0:0:
293,284,136848,1,8,0:3:0:0:
260,280,136923,1,8,0:3:0:0:
234,258,136998,1,8,0:3:0:0:
220,228,137073,1,8,0:0:0:0:
192,187,137148,1,8,0:0:0:0:
147,169,137223,1,8,0:0:0:0:
99,179,137298,1,8,0:0:0:0:
72,220,137373,6,0,B|112:264|112:264|140:76,1,225,4|8,0:0|0:0,0:0:0:0:
20,48,137823,1,0,0:0:0:0:
168,196,137973,2,0,L|284:184,1,112.5,2|0,0:1|0:0,0:0:0:0:
160,356,138273,2,0,L|44:344,1,112.5,8|0,0:0|0:0,0:0:0:0:
399,271,138573,6,0,L|232:288,1,168.75,2|0,0:0|0:0,0:0:0:0:
232,288,138873,1,8,0:0:0:0:
416,367,139023,1,0,0:0:0:0:
488,151,139173,2,0,B|481:207|481:207|505:243|505:243|497:311,1,168.75,2|0,0:1|0:0,0:0:0:0:
497,312,139473,2,0,P|451:275|375:279,1,112.5,8|0,0:0|0:0,0:0:0:0:
290,82,139773,6,0,P|326:124|332:180,1,112.5,2|0,0:1|0:0,0:0:0:0:
221,301,140073,2,0,P|185:259|180:204,1,112.5,8|0,0:0|0:0,0:0:0:0:
428,188,140373,6,0,P|408:240|364:272,1,112.5,2|0,0:1|0:0,0:0:0:0:
84,195,140673,2,0,P|103:143|147:111,1,112.5,8|0,0:0|0:0,0:0:0:0:
427,357,140973,6,0,P|407:304|363:272,1,112.5,10|0,0:0|0:0,0:0:0:0:
363,272,141198,1,8,0:0:0:0:
363,272,141273,1,8,0:0:0:0:
184,320,141423,1,0,0:0:0:0:
268,128,141573,1,8,0:0:0:0:
263,172,141648,1,8,0:0:0:0:
259,217,141723,1,8,0:0:0:0:
56,84,141873,5,8,0:0:0:0:
61,128,141948,1,8,0:0:0:0:
65,173,142023,1,8,0:0:0:0:
70,217,142098,1,8,0:0:0:0:
74,262,142173,6,0,B|108:252|108:252|144:264,1,67.5,4|0,0:0|0:0,0:0:0:0:
138,262,142473,6,0,L|148:152,1,107.999996704102,8|0,0:0|0:0,0:0:0:0:
252,0,142773,1,2,0:1:0:0:
56,84,142923,1,0,0:0:0:0:
270,192,143073,2,0,L|260:84,1,107.999996704102,8|0,0:0|0:0,0:0:0:0:
464,160,143373,6,0,L|457:227,1,67.5,4|0,0:0|0:0,0:0:0:0:
457,227,143673,6,0,P|405:246|367:206,1,116.999994644165,8|0,0:0|0:0,0:0:0:0:
208,284,143973,1,2,0:1:0:0:
436,352,144123,1,0,0:0:0:0:
200,268,144273,2,0,P|148:248|110:288,1,116.999994644165,8|0,0:0|0:0,0:0:0:0:
212,68,144573,5,4,0:0:0:0:
320,312,144723,1,0,0:0:0:0:
202,32,144873,1,0,0:0:0:0:
110,288,145023,1,0,0:0:0:0:
366,224,145173,5,8,0:0:0:0:
374,193,145248,1,8,0:0:0:0:
372,162,145323,1,8,0:0:0:0:
360,133,145398,1,8,0:0:0:0:
339,109,145473,1,8,0:0:0:0:
312,93,145548,1,8,0:0:0:0:
282,87,145623,1,8,0:0:0:0:
251,90,145698,1,8,0:0:0:0:
222,104,145773,5,8,0:0:0:0:
195,133,145848,1,8,0:0:0:0:
158,149,145923,1,8,0:0:0:0:
118,149,145998,1,8,0:0:0:0:
81,133,146073,1,8,0:0:0:0:
54,104,146148,1,8,0:0:0:0:
44,64,146223,1,8,0:0:0:0:
56,24,146298,1,8,0:0:0:0:
88,0,146373,5,8,0:0:0:0:
121,42,146448,1,8,0:0:0:0:
132,94,146523,1,8,0:0:0:0:
120,146,146598,1,8,0:0:0:0:
87,188,146673,1,8,0:0:0:0:
75,240,146748,1,8,0:0:0:0:
87,292,146823,2,0,P|119:300|151:291,1,67.5000025749208,8|8,0:0|0:0,0:0:0:0:
280,176,146973,5,4,0:0:0:0:
380,192,150291,5,8,0:0:0:0:
370,143,150373,1,8,0:0:0:0:
412,118,150455,1,8,0:0:0:0:
449,152,150538,1,8,0:0:0:0:
428,196,150620,6,0,B|328:176|336:264|232:240,1,202.500007724762,4|0,0:0|0:0,0:0:0:0:
96,308,150950,6,0,L|80:188,1,90,4|0,0:0|0:0,0:0:0:0:
264,128,151279,1,8,0:0:0:0:
163,38,151444,2,0,L|151:127,1,90
144,384,151774,1,2,0:1:0:0:
0,320,151939,1,8,0:0:0:0:
200,232,152103,6,0,B|244:208|244:208|372:231,1,180,2|2,0:1|0:1,0:0:0:0:
448,296,152598,1,8,0:0:0:0:
483,83,152763,2,0,L|488:172,1,90,2|0,0:0|0:0,0:0:0:0:
276,296,153092,1,2,0:0:0:0:
200,232,153257,2,0,L|110:238,1,90,8|2,0:0|0:1,0:0:0:0:
24,284,153504,1,2,0:1:0:0:
24,284,153587,6,0,B|8:240|8:240|19:198,1,90,2|2,0:1|0:1,0:0:0:0:
152,52,153917,1,8,0:0:0:0:
239,99,154081,2,0,P|168:149|85:124,1,180,2|2,0:1|0:1,0:0:0:0:
18,198,154576,1,8,0:0:0:0:
172,344,154741,6,0,L|376:328,1,180,2|2,0:1|0:1,0:0:0:0:
512,224,155235,1,8,0:0:0:0:
427,172,155400,2,0,P|414:215|419:259,1,90,2|0,0:0|0:0,0:0:0:0:
496,320,155730,1,2,0:0:0:0:
324,236,155895,2,0,P|281:222|236:228,1,90,10|8,0:0|0:0,0:0:0:0:
164,296,156142,1,8,0:0:0:0:
164,296,156224,5,4,0:0:0:0:
196,116,156389,1,2,0:1:0:0:
324,236,156554,1,8,0:0:0:0:
136,316,156719,2,0,P|84:312|40:280,1,90,2|0,0:0|0:0,0:0:0:0:
97,135,157048,2,0,P|118:175|120:220,1,90,2|8,0:0|0:0,0:0:0:0:
212,380,157378,5,2,0:1:0:0:
304,344,157543,1,0,0:0:0:0:
400,368,157708,1,2,0:1:0:0:
228,284,157873,1,8,0:0:0:0:
212,380,158037,1,2,0:1:0:0:
320,248,158202,1,2,0:0:0:0:
320,248,158367,1,2,0:0:0:0:
136,316,158532,2,0,P|84:312|40:280,1,90,8|2,0:0|0:1,0:0:0:0:
120,219,158779,1,2,0:1:0:0:
120,219,158862,6,0,L|144:100,1,90,2|2,0:1|0:1,0:0:0:0:
308,40,159191,1,8,0:0:0:0:
311,139,159356,2,0,P|267:131|232:104,1,90
396,187,159686,2,0,P|431:159|474:151,1,90,2|8,0:1|0:0,0:0:0:0:
203,260,160015,6,0,P|308:245|352:340,1,225,4|2,0:0|0:1,0:0:0:0:
396,188,160510,1,8,0:0:0:0:
256,360,160675,6,0,B|148:424|112:268|-24:368,1,270.000010299683,4|8,0:0|0:0,0:0:0:0:
64,228,161169,6,0,L|52:172,1,33.7500012874604,8|8,0:0|0:0,0:0:0:0:
147,106,161334,2,0,L|140:140,1,33.7500012874604,8|8,0:0|0:0,0:0:0:0:
203,260,161499,6,0,P|232:248|308:260,1,90,4|0,0:0|0:0,0:0:0:0:
508,308,161829,1,8,0:0:0:0:
393,325,161993,2,0,P|396:280|415:240,1,90
388,80,162323,1,2,0:1:0:0:
496,228,162488,1,8,0:0:0:0:
284,184,162653,6,0,B|184:156|204:232|96:192,1,180,2|2,0:1|0:1,0:0:0:0:
148,104,163147,1,8,0:0:0:0:
24,236,163312,2,0,B|12:193|12:193|24:149,1,90,2|0,0:0|0:0,0:0:0:0:
196,308,163642,1,2,0:0:0:0:
109,309,163807,2,0,B|153:321|153:321|195:308,1,90,10|2,0:0|0:1,0:0:0:0:
288,340,164054,1,2,0:1:0:0:
288,340,164136,6,0,L|300:244,1,90,2|2,0:1|0:1,0:0:0:0:
456,68,164466,1,8,0:0:0:0:
341,134,164631,2,0,B|459:171|459:171|511:151,1,180,2|2,0:1|0:1,0:0:0:0:
456,256,165125,1,8,0:0:0:0:
256,184,165290,6,0,P|244:112|332:36,1,180,2|2,0:1|0:1,0:0:0:0:
341,134,165785,1,8,0:0:0:0:
168,36,165950,2,0,P|116:32|56:60,1,90,2|0,0:0|0:0,0:0:0:0:
256,184,166279,1,2,0:0:0:0:
131,128,166444,2,0,P|91:145|59:177,1,90,10|8,0:0|0:0,0:0:0:0:
36,272,166691,1,8,0:0:0:0:
36,272,166774,5,4,0:0:0:0:
232,304,166939,1,2,0:1:0:0:
131,128,167103,1,8,0:0:0:0:
52,284,167268,2,0,P|100:268|156:284,1,90,2|0,0:0|0:0,0:0:0:0:
317,313,167598,2,0,P|269:297|213:313,1,90,2|8,0:0|0:0,0:0:0:0:
104,368,167928,5,2,0:1:0:0:
212,208,168092,1,0,0:0:0:0:
231,303,168257,1,2,0:1:0:0:
43,245,168422,1,8,0:0:0:0:
193,113,168587,5,2,0:0:0:0:
212,208,168752,1,2,0:0:0:0:
231,303,168917,1,2,0:0:0:0:
381,171,169081,2,0,L|500:144,1,90,10|2,0:0|0:1,0:0:0:0:
504,60,169329,1,2,0:1:0:0:
504,60,169411,6,0,L|416:79,1,90,2|2,0:1|0:1,0:0:0:0:
212,208,169741,1,8,0:0:0:0:
312,264,169906,2,0,L|331:352,1,90,2|0,0:1|0:0,0:0:0:0:
212,208,170235,2,0,L|193:120,1,90,2|8,0:1|0:0,0:0:0:0:
13,289,170565,6,0,B|100:268|100:268|176:317,1,180,4|2,0:0|0:1,0:0:0:0:
80,380,171059,1,8,0:0:0:0:
375,236,171224,2,0,B|288:257|288:257|212:208,1,180,4|2,0:0|0:1,0:0:0:0:
36,48,171719,6,0,L|92:56,1,56.25,8|8,0:0|0:0,0:0:0:0:
168,116,171884,2,0,L|223:108,1,56.25,8|8,0:0|0:0,0:0:0:0:
418,42,172048,6,0,L|276:24,1,144,6|10,0:0|0:0,0:0:0:0:
460,132,172543,2,0,P|488:112|512:64,1,72,2|0,0:0|0:0,0:0:0:0:
360,124,172873,2,0,P|363:158|392:203,1,72,2|8,0:0|0:0,0:0:0:0:
488,280,173202,6,0,B|408:252|428:320|316:272,1,144,2|2,0:0|0:0,0:0:0:0:
380,191,173697,1,8,0:0:0:0:
255,250,173862,2,0,P|256:320|303:372,1,144,2|2,0:0|0:0,0:0:0:0:
348,283,174356,1,10,0:0:0:0:
164,216,174521,1,2,0:0:0:0:
164,216,174603,1,2,0:1:0:0:
164,216,174686,5,2,0:0:0:0:
172,304,174851,1,2,0:1:0:0:
236,152,175015,1,10,0:0:0:0:
72,172,175180,2,0,L|0:180,1,72,2|0,0:0|0:0,0:0:0:0:
140,64,175510,2,0,L|68:56,1,72,2|8,0:0|0:0,0:0:0:0:
236,152,175840,6,0,L|379:135,1,144,2|2,0:0|0:0,0:0:0:0:
444,60,176334,1,8,0:0:0:0:
412,228,176499,1,2,0:0:0:0:
412,228,176581,1,2,0:0:0:0:
412,228,176664,1,2,0:0:0:0:
476,152,176829,1,2,0:0:0:0:
348,40,176993,1,8,0:0:0:0:
378,135,177158,1,10,0:0:0:0:
378,135,177241,1,8,0:0:0:0:
378,135,177323,6,0,L|235:118,1,144,6|10,0:0|0:0,0:0:0:0:
152,64,177818,2,0,P|140:92|140:140,1,72,2|0,0:0|0:0,0:0:0:0:
253,258,178147,2,0,P|230:230|200:212,1,72,2|8,0:0|0:0,0:0:0:0:
29,302,178477,6,0,B|52:284|72:284|72:284|108:312|163:303,1,144,2|2,0:0|0:0,0:0:0:0:
248,356,178971,1,8,0:0:0:0:
199,211,179136,2,0,P|230:230|253:258,1,72,2|0,0:0|0:0,0:0:0:0:
392,165,179466,2,0,P|361:183|340:212,1,72,2|10,0:0|0:0,0:0:0:0:
336,312,179796,1,2,0:0:0:0:
336,312,179878,1,2,0:0:0:0:
336,312,179960,5,2,0:0:0:0:
256,224,184117,5,2,0:0:0:0:
140,244,184335,5,2,0:0:0:0:
176,116,184554,5,4,0:0:0:0:
216,328,184772,1,0,0:0:0:0:
172,96,184991,1,8,0:0:0:0:
384,136,185210,2,0,L|376:204,1,45,2|2,0:1|0:1,0:0:0:0:
284,240,185429,2,0,L|272:150,1,90,2|0,0:0|0:0,0:0:0:0:
404,28,185867,1,8,0:0:0:0:
260,144,186086,1,2,0:1:0:0:
244,136,186196,1,2,0:1:0:0:
228,128,186305,6,0,L|138:139,1,90,2|0,0:1|0:0,0:0:0:0:
28,256,186743,1,8,0:0:0:0:
264,292,186962,1,0,0:0:0:0:
44,264,187181,2,0,L|133:275,1,90,2|0,0:1|0:0,0:0:0:0:
353,304,187619,1,8,0:0:0:0:
304,324,187729,1,8,0:0:0:0:
264,292,187838,2,0,L|268:258,1,33.7500012874604,8|0,0:0|0:0,0:0:0:0:
364,151,188057,6,0,P|288:170|291:92,1,180,4|8,0:0|0:0,0:0:0:0:
376,64,188714,1,0,0:0:0:0:
120,0,188933,1,2,0:1:0:0:
256,192,189152,1,0,0:0:0:0:
120,16,189371,1,8,0:0:0:0:
64,248,189590,1,0,0:0:0:0:
188,104,189809,6,0,B|256:88|256:88|304:100,1,99.0000030212403,4|8,0:0|0:3,0:0:0:0:
292,104,190101,1,8,0:3:0:0:
300,112,190174,1,8,0:3:0:0:
310,121,190247,2,0,B|378:137|378:137|442:105,1,107.999996704102,4|4,0:0|0:3,0:0:0:0:
508,60,190575,5,4,0:3:0:0:
496,152,190685,2,0,L|482:268,1,116.999994644165,4|8,0:0|0:0,0:0:0:0:
444,352,191013,5,8,0:0:0:0:
344,384,191123,1,8,0:0:0:0:
328,288,191232,5,8,0:0:0:0:
440,332,191342,1,8,0:0:0:0:
464,228,191451,5,8,0:0:0:0:
324,268,191561,1,4,0:0:0:0:
151,207,191780,5,0,0:0:0:0:
32,324,191999,1,8,0:0:0:0:
116,124,192218,2,0,L|184:112,1,45,2|2,0:1|0:1,0:0:0:0:
240,223,192437,2,0,L|151:207,1,90,2|0,0:0|0:0,0:0:0:0:
312,96,192875,1,8,0:0:0:0:
143,223,193094,1,2,0:1:0:0:
135,239,193203,1,2,0:1:0:0:
127,255,193313,6,0,L|138:345,1,90,2|0,0:1|0:0,0:0:0:0:
312,208,193751,1,8,0:0:0:0:
112,124,193970,1,0,0:0:0:0:
313,314,194189,6,0,L|324:224,1,90,4|8,0:0|0:0,0:0:0:0:
313,314,194845,5,8,0:0:0:0:
318,269,194955,1,8,0:0:0:0:
323,224,195064,6,0,L|390:234,1,67.5000025749208,2|0,0:1|0:0,0:0:0:0:
189,160,195502,2,0,L|104:172,1,67.5000025749208
390,234,195940,1,0,0:0:0:0:
152,320,196159,1,0,0:0:0:0:
256,72,196378,2,0,L|341:84,1,67.5000025749208,10|0,0:0|0:0,0:0:0:0:
436,7,196816,6,0,P|429:29|427:51,1,45,2|0,0:1|0:0,0:0:0:0:
322,81,197035,2,0,P|329:102|328:124,1,45,2|0,0:1|0:0,0:0:0:0:
446,138,197254,2,0,P|450:159|460:180,1,45,2|0,0:1|0:0,0:0:0:0:
312,211,197473,2,0,P|307:233|297:254,1,45,2|0,0:1|0:0,0:0:0:0:
456,340,197692,6,0,P|436:260|380:316,1,168.75,4|0,0:0|0:0,0:0:0:0:
375,379,198130,2,0,L|256:344,1,112.5,8|0,0:0|0:0,0:0:0:0:
116,352,198568,6,0,P|164:309|153:245,1,135.000005149842,4|0,0:0|0:0,0:0:0:0:
88,180,198897,1,8,0:0:0:0:
88,180,199006,2,0,L|107:96,1,67.5000025749208,8|0,0:0|0:0,0:0:0:0:
341,101,199225,6,0,P|298:53|234:64,1,135.000005149842,4|0,0:0|0:0,0:0:0:0:
169,129,199554,1,8,0:0:0:0:
169,129,199663,2,0,L|85:109,1,67.5000025749208,8|0,0:0|0:0,0:0:0:0:
21,275,199882,6,0,L|152:244,1,135.000005149842,4|0,0:0|0:0,0:0:0:0:
244,224,200210,1,8,0:0:0:0:
336,204,200320,1,2,0:1:0:0:
336,204,200539,5,12,0:0:0:0:
336,204,200648,1,8,0:0:0:0:
316,112,200758,5,2,0:1:0:0:
316,112,200867,1,2,0:1:0:0:
224,132,200977,5,8,0:0:0:0:
224,132,201086,1,8,0:0:0:0:
224,132,201196,2,0,L|204:56,1,67.5000025749208,4|0,0:0|0:0,0:0:0:0:
318,269,201415,2,0,L|335:203,1,67.5000025749208,4|0,0:0|0:0,0:0:0:0:
408,92,201634,5,8,0:0:0:0:
316,112,201743,1,8,0:0:0:0:
224,132,201853,1,8,0:0:0:0:
132,152,201962,1,8,0:0:0:0:
40,172,202072,5,4,0:0:0:0:
480,192,205269,5,2,0:0:0:0:
468,164,205441,5,2,0:0:0:0:
428,124,205613,5,2,0:0:0:0:
348,100,205786,6,0,B|268:68|260:136|180:108,1,168.75,4|0,0:0|0:0,0:0:0:0:
105,139,206130,2,0,P|103:84|136:40,1,112.5,8|0,0:0|0:0,0:0:0:0:
60,268,206475,1,2,0:1:0:0:
271,222,206648,2,0,P|226:188|171:192,1,112.5,2|8,0:1|0:0,0:0:0:0:
332,304,206992,6,0,P|372:232|344:152,1,168.75,2|0,0:0|0:0,0:0:0:0:
346,154,207337,1,2,0:1:0:0:
232,316,207510,1,8,0:0:0:0:
448,292,207682,1,0,0:0:0:0:
320,160,207854,5,2,0:1:0:0:
348,384,208027,1,2,0:1:0:0:
192,160,208199,1,8,0:0:0:0:
164,384,208372,1,2,0:1:0:0:
64,292,208544,6,0,L|92:48,2,225,2|8|2,0:0|0:0|0:1,0:0:0:0:
164,384,209406,1,2,0:1:0:0:
348,284,209579,1,8,0:0:0:0:
164,284,209751,1,0,0:0:0:0:
348,384,209923,5,2,0:1:0:0:
208,192,210096,1,2,0:1:0:0:
164,384,210268,1,8,0:0:0:0:
304,192,210441,2,0,L|292:88,1,101.250003862381,2|0,0:0|0:0,0:0:0:0:
292,91,210786,6,0,P|320:96|372:68,1,67.5000025749208,2|0,0:0|0:0,0:0:0:0:
461,0,210958,2,0,P|440:26|436:60,1,67.5000025749208,8|0,0:0|0:0,0:0:0:0:
455,191,211130,2,0,P|442:160|416:140,1,67.5000025749208,8|0,0:0|0:0,0:0:0:0:
204,260,211303,6,0,B|195:199|195:199|218:160|218:160|210:99,1,168.75,4|0,0:0|0:0,0:0:0:0:
149,34,211648,2,0,B|200:12|200:12|256:24,1,112.5,8|0,0:0|0:0,0:0:0:0:
452,24,211992,1,2,0:1:0:0:
362,199,212165,2,0,B|340:148|340:148|352:92,1,112.5,2|8,0:1|0:0,0:0:0:0:
480,276,212510,6,0,B|360:312|360:312|292:288,1,168.75,2|0,0:0|0:0,0:0:0:0:
360,379,212854,2,0,P|364:326|318:297,1,112.5,2|8,0:1|0:0,0:0:0:0:
30,275,213199,6,0,B|150:311|150:311|218:287,1,168.75,2|0,0:0|0:0,0:0:0:0:
190,296,213544,2,0,P|145:325|149:379,1,112.5,2|8,0:1|0:0,0:0:0:0:
30,275,213889,1,2,0:1:0:0:
256,220,214061,6,0,P|356:264|456:219,2,225,2|8|2,0:0|0:0|0:1,0:0:0:0:
144,116,214923,1,2,0:1:0:0:
208,356,215096,1,8,0:0:0:0:
30,275,215268,1,0,0:0:0:0:
256,220,215441,5,2,0:1:0:0:
168,264,215613,1,2,0:1:0:0:
92,200,215786,1,8,0:0:0:0:
304,356,215958,6,0,P|351:372|398:356,1,101.250003862381,2|0,0:0|0:0,0:0:0:0:
398,356,216303,6,0,B|408:324|408:324|398:292,1,67.5000025749208,2|0,0:0|0:0,0:0:0:0:
271,187,216475,2,0,B|295:212|295:212|328:220,1,67.5000025749208,8|0,0:0|0:0,0:0:0:0:
498,127,216648,1,8,0:0:0:0:
498,127,216734,1,8,0:0:0:0:
498,127,216820,6,0,B|480:84|480:84|424:192,1,168.75,4|0,0:0|0:0,0:0:0:0:
356,140,217165,2,0,L|407:40,1,112.5,8|0,0:0|0:0,0:0:0:0:
512,212,217510,1,2,0:1:0:0:
326,219,217682,2,0,L|213:224,1,112.5,2|8,0:1|0:0,0:0:0:0:
68,312,218027,6,0,B|96:231|96:231|56:152,1,168.75,2|0,0:0|0:0,0:0:0:0:
58,156,218372,1,2,0:1:0:0:
256,104,218544,1,8,0:0:0:0:
58,51,218717,1,0,0:0:0:0:
213,224,218889,5,2,0:1:0:0:
0,248,219061,1,2,0:1:0:0:
156,76,219234,1,8,0:0:0:0:
116,304,219406,1,2,0:1:0:0:
64,196,219579,6,0,B|188:148|160:260|316:200,2,225,2|8|2,0:0|0:0|0:1,0:0:0:0:
116,304,220441,1,2,0:1:0:0:
236,100,220613,1,8,0:0:0:0:
256,304,220786,1,0,0:0:0:0:
136,100,220958,5,2,0:1:0:0:
400,192,221130,1,2,0:1:0:0:
132,336,221303,1,8,0:0:0:0:
276,100,221475,2,0,L|265:200,1,101.250003862381,2|0,0:0|0:0,0:0:0:0:
265,200,221820,6,0,P|228:184|184:204,1,67.5000025749208,2|0,0:0|0:0,0:0:0:0:
90,284,221992,2,0,P|118:266|132:236,1,67.5000025749208,8|0,0:0|0:0,0:0:0:0:
107,92,222165,2,0,P|108:125|128:152,1,67.5000025749208,8|0,0:0|0:0,0:0:0:0:
308,280,222337,6,0,B|347:246|347:246|359:130,1,168.75,4|0,0:0|0:0,0:0:0:0:
312,56,222682,2,0,P|364:44|428:76,1,112.5,8|0,0:0|0:0,0:0:0:0:
512,236,223027,1,2,0:1:0:0:
212,192,223199,1,8,0:0:0:0:
424,24,223372,1,8,0:0:0:0:
380,336,223544,1,8,0:0:0:0:
80,176,223717,5,4,0:0:0:0:
512,236,225096,5,4,0:0:0:0:
364,148,229284,5,2,0:0:0:0:
368,192,229399,1,2,0:0:0:0:
372,236,229514,1,2,0:0:0:0:
340,124,229745,5,2,0:0:0:0:
347,195,229860,1,2,0:0:0:0:
353,265,229976,2,0,L|428:256,1,58.4999973220826,6|0,0:0|0:0,0:0:0:0:
217,358,230206,2,0,L|276:352,1,58.4999973220826
312,160,230437,2,0,L|387:151,1,58.4999973220826,8|0,0:0|0:0,0:0:0:0:
176,252,230668,2,0,L|235:246,1,58.4999973220826
456,228,230899,1,2,0:1:0:0:
280,60,231129,5,0,0:0:0:0:
276,76,231245,1,0,0:0:0:0:
212,128,231360,1,8,0:0:0:0:
216,144,231476,1,0,0:0:0:0:
280,196,231591,1,0,0:0:0:0:
188,228,231706,1,0,0:0:0:0:
120,164,231822,6,0,L|40:148,1,58.4999973220826,2|0,0:0|0:0,0:0:0:0:
68,268,232052,2,0,L|10:279,1,58.4999973220826
228,92,232283,2,0,L|308:76,1,58.4999973220826,8|0,0:0|0:0,0:0:0:0:
280,196,232514,2,0,L|337:207,1,58.4999973220826
124,52,232745,1,2,0:1:0:0:
416,164,232976,6,0,P|426:221|400:272,1,116.999994644165,0|8,0:0|0:0,0:0:0:0:
308,296,233322,1,0,0:0:0:0:
337,207,233437,1,0,0:0:0:0:
135,345,233668,6,0,L|192:356,1,58.4999973220826,2|0,0:0|0:0,0:0:0:0:
79,195,233899,2,0,L|68:252,1,58.4999973220826
240,280,234129,2,0,L|297:291,1,58.4999973220826,8|0,0:0|0:0,0:0:0:0:
184,130,234360,2,0,L|173:187,1,58.4999973220826
276,376,234591,1,2,0:1:0:0:
328,130,234822,5,0,0:0:0:0:
348,224,234937,1,0,0:0:0:0:
424,164,235052,1,8,0:0:0:0:
404,70,235168,5,0,0:0:0:0:
328,130,235283,1,0,0:0:0:0:
384,75,235399,1,0,0:0:0:0:
312,44,235514,6,0,L|228:52,1,58.4999973220826,2|0,0:0|0:0,0:0:0:0:
92,105,235745,6,0,L|160:112,1,67.5000025749208
352,175,235976,6,0,L|276:184,1,76.5000014591217,8|0,0:0|0:0,0:0:0:0:
43,289,236206,6,0,L|128:300,1,85.4999977169037
400,332,236437,1,2,0:1:0:0:
280,167,236668,5,0,0:0:0:0:
276,183,236783,1,0,0:0:0:0:
192,216,236899,1,8,0:0:0:0:
196,232,237014,1,0,0:0:0:0:
128,300,237129,1,0,0:0:0:0:
104,208,237245,1,0,0:0:0:0:
80,116,237360,5,4,0:0:0:0:
256,356,237591,1,0,0:0:0:0:
304,60,237822,5,4,0:0:0:0:
128,300,238052,1,0,0:0:0:0:
408,208,238283,1,4,0:0:0:0:
120,60,238514,5,0,0:0:0:0:
212,84,238629,1,0,0:0:0:0:
304,60,238745,1,4,0:0:0:0:
396,36,238860,1,0,0:0:0:0:
488,60,238976,1,0,0:0:0:0:
420,128,239091,1,0,0:0:0:0:
396,36,239206,5,4,0:0:0:0:
468,312,239437,1,0,0:0:0:0:
304,60,239668,5,4,0:0:0:0:
232,336,239899,1,0,0:0:0:0:
120,60,240129,1,4,0:0:0:0:
344,260,240360,5,0,0:0:0:0:
248,240,240476,1,0,0:0:0:0:
152,260,240591,1,4,0:0:0:0:
56,240,240706,1,0,0:0:0:0:
88,332,240822,1,0,0:0:0:0:
152,260,240937,1,0,0:0:0:0:
120,168,241052,5,4,0:0:0:0:
428,228,241283,1,0,0:0:0:0:
88,76,241514,5,4,0:0:0:0:
396,16,241745,1,0,0:0:0:0:
152,260,241976,1,4,0:0:0:0:
396,368,242206,5,0,0:0:0:0:
416,272,242322,1,0,0:0:0:0:
436,176,242437,1,4,0:0:0:0:
342,206,242552,1,0,0:0:0:0:
249,237,242668,1,0,0:0:0:0:
156,206,242783,1,0,0:0:0:0:
224,140,242899,5,4,0:0:0:0:
284,368,243129,1,0,0:0:0:0:
316,108,243360,5,4,0:0:0:0:
172,368,243591,1,0,0:0:0:0:
240,40,243822,5,4,0:0:0:0:
396,368,244052,1,0,0:0:0:0:
336,12,244283,5,4,0:0:0:0:
60,368,244514,1,0,0:0:0:0:
368,192,244745,6,0,L|496:216,1,107.999996704102,4|0,0:0|0:0,0:0:0:0:
346,46,245206,2,0,L|356:100,1,53.9999983520508,8|0,0:0|0:0,0:0:0:0:
284,156,245437,2,0,L|274:209,1,53.9999983520508
192,68,245668,2,0,L|201:121,1,53.9999983520508,2|0,0:1|0:0,0:0:0:0:
130,178,245899,2,0,L|120:231,1,53.9999983520508
100,344,246129,1,8,0:0:0:0:
16,184,246360,1,0,0:0:0:0:
212,330,246591,6,0,L|232:224,1,107.999996704102,2|0,0:0|0:0,0:0:0:0:
352,132,247052,1,8,0:0:0:0:
200,40,247283,1,0,0:0:0:0:
320,216,247514,2,0,P|376:220|428:180,1,107.999996704102,2|0,0:1|0:0,0:0:0:0:
436,172,247860,1,0,0:0:0:0:
436,172,247976,2,0,L|424:112,1,53.9999983520508,8|0,0:0|0:0,0:0:0:0:
354,27,248206,2,0,L|344:80,1,53.9999983520508
312,268,248437,5,2,0:0:0:0:
312,268,248668,2,0,P|280:248|256:244,1,53.9999983520508
281,380,248899,2,0,P|270:355|251:336,1,53.9999983520508,8|0,0:0|0:0,0:0:0:0:
55,230,249129,2,0,P|81:232|107:226,1,53.9999983520508
136,312,249360,2,0,P|169:294|184:275,1,53.9999983520508,2|0,0:1|0:0,0:0:0:0:
256,92,249591,1,0,0:0:0:0:
76,140,249822,1,8,0:0:0:0:
264,244,250052,1,0,0:0:0:0:
264,244,250168,1,0,0:0:0:0:
264,244,250283,6,0,L|388:236,1,107.999996704102,2|0,0:0|0:0,0:0:0:0:
440,296,250629,1,0,0:0:0:0:
440,296,250745,2,0,P|460:256|436:176,1,107.999996704102,8|0,0:0|0:0,0:0:0:0:
496,68,251206,6,0,L|388:74,1,107.999996704102,2|0,0:0|0:0,0:0:0:0:
320,16,251552,1,0,0:0:0:0:
320,16,251668,2,0,P|300:56|324:136,1,107.999996704102,8|0,0:0|0:0,0:0:0:0:
384,164,252014,1,0,0:0:0:0:
384,164,252129,6,0,L|456:176,1,45,2|2,0:0|0:0,0:0:0:0:
324,232,252360,2,0,L|279:239,1,45,2|2,0:0|0:0,0:0:0:0:
408,260,252591,2,0,L|480:272,1,45,2|2,0:0|0:0,0:0:0:0:
348,328,252822,2,0,L|303:335,1,45,2|2,0:0|0:0,0:0:0:0:
180,248,253052,5,2,0:0:0:0:
178,259,253110,1,2,0:0:0:0:
176,270,253168,1,2,0:0:0:0:
174,281,253226,1,2,0:0:0:0:
172,292,253283,2,0,L|136:284,1,22.5,2|2,0:0|0:0,0:0:0:0:
170,303,253399,2,0,L|134:295,1,22.5,2|2,0:0|0:0,0:0:0:0:
168,312,253514,6,0,L|123:305,1,45,2|0,0:1|0:0,0:0:0:0:
12,272,258961,6,0,B|72:264|72:264|108:292|108:292|172:284,1,157.5
216,343,259561,6,0,P|241:269|192:209,1,161.999995056153,4|0,0:0|0:0,0:0:0:0:
192,209,259861,2,0,L|298:194,1,107.999996704102,8|0,0:0|0:0,0:0:0:0:
399,18,260161,2,0,L|384:124,1,107.999996704102,2|2,0:1|0:1,0:0:0:0:
360,288,260461,1,8,0:0:0:0:
283,86,260611,6,0,L|298:192,1,107.999996704102,2|0,0:1|0:0,0:0:0:0:
320,360,260911,1,2,0:1:0:0:
109,303,261061,2,0,L|215:288,1,107.999996704102,8|0,0:0|0:0,0:0:0:0:
452,256,261361,1,2,0:1:0:0:
324,384,261511,1,2,0:1:0:0:
298,192,261661,1,8,0:0:0:0:
440,372,261811,1,0,0:0:0:0:
364,120,261961,6,0,P|268:100|204:168,1,161.999995056153,2|0,0:1|0:0,0:0:0:0:
220,134,262261,2,0,P|241:85|221:36,1,107.999996704102,8|0,0:0|0:0,0:0:0:0:
10,138,262561,1,2,0:1:0:0:
96,28,262711,1,2,0:1:0:0:
160,240,262861,1,8,0:0:0:0:
10,138,263011,6,0,B|89:148|89:148|145:124|145:124|237:136,1,215.999993408203,2|2,0:1|0:1,0:0:0:0:
145,347,263461,2,0,L|159:239,1,107.999996704102,8|0,0:0|0:0,0:0:0:0:
72,48,263761,1,2,0:1:0:0:
219,133,263911,1,2,0:1:0:0:
45,252,264061,2,0,L|59:144,1,107.999996704102,8|2,0:0|0:1,0:0:0:0:
72,48,264286,1,8,0:0:0:0:
72,48,264361,6,0,B|188:20|188:20|232:56,1,161.999995056153
221,47,264661,2,0,L|353:15,1,107.999996704102,8|0,0:0|0:0,0:0:0:0:
168,168,264961,2,0,L|272:193,1,107.999996704102,2|2,0:1|0:1,0:0:0:0:
448,236,265261,1,8,0:0:0:0:
406,57,265411,6,0,P|374:98|375:151,1,107.999996704102,2|0,0:1|0:0,0:0:0:0:
448,332,265711,1,2,0:1:0:0:
255,303,265861,2,0,P|202:302|161:335,1,107.999996704102,8|0,0:0|0:0,0:0:0:0:
375,151,266161,1,2,0:1:0:0:
448,332,266311,1,2,0:1:0:0:
273,193,266461,1,8,0:0:0:0:
480,108,266611,1,2,0:1:0:0:
360,264,266761,5,4,0:0:0:0:
375,151,266911,1,0,0:0:0:0:
448,332,267061,1,0,0:0:0:0:
256,192,267211,5,4,0:0:0:0:
492,96,267361,1,0,0:0:0:0:
356,280,267511,1,0,0:0:0:0:
388,24,267661,5,8,0:0:0:0:
464,220,267811,2,0,B|336:180|348:364|188:272,1,251.999992309571,4|0,0:0|0:0,0:0:0:0:
39,171,268261,2,0,P|98:139|140:192,1,144,4|0,0:0|0:0,0:0:0:0:
231,356,268561,5,8,0:0:0:0:
238,293,268636,1,8,0:0:0:0:
245,230,268711,1,8,0:0:0:0:
253,168,268786,1,8,0:0:0:0:
260,105,268861,1,8,0:0:0:0:
268,120,268936,1,0,0:0:0:0:
276,136,269011,1,0,0:0:0:0:
284,152,269086,1,0,0:0:0:0:
292,168,269161,6,0,B|367:192|367:192|446:165,1,161.999995056153,4|0,0:0|0:0,0:0:0:0:
445,165,269461,2,0,L|432:296,1,107.999996704102,8|0,0:0|0:0,0:0:0:0:
315,383,269761,2,0,L|304:276,1,107.999996704102,2|2,0:1|0:1,0:0:0:0:
280,44,270061,1,8,0:0:0:0:
176,280,270211,6,0,L|187:173,1,107.999996704102,2|0,0:1|0:0,0:0:0:0:
288,24,270511,1,2,0:1:0:0:
49,41,270661,2,0,L|156:52,1,107.999996704102,8|0,0:0|0:0,0:0:0:0:
392,68,270961,1,2,0:1:0:0:
187,172,271111,1,2,0:1:0:0:
296,4,271261,1,8,0:0:0:0:
344,224,271411,1,2,0:1:0:0:
504,32,271561,6,0,L|468:208,1,161.999995056153
471,190,271861,2,0,P|421:174|370:190,1,107.999996704102,8|0,0:0|0:0,0:0:0:0:
264,364,272161,1,2,0:1:0:0:
369,190,272311,1,2,0:1:0:0:
184,264,272461,1,8,0:0:0:0:
280,124,272611,6,0,B|264:204|264:204|288:252|288:252|268:340,1,215.999993408203,2|2,0:1|0:1,0:0:0:0:
79,236,273061,2,0,L|184:264,1,107.999996704102,8|0,0:0|0:0,0:0:0:0:
370,190,273361,1,2,0:1:0:0:
270,330,273511,1,2,0:1:0:0:
172,136,273661,2,0,L|276:163,1,107.999996704102,8|2,0:0|0:1,0:0:0:0:
370,190,273886,1,8,0:0:0:0:
370,190,273961,6,0,P|396:104|340:56,1,161.999995056153
350,59,274261,2,0,L|245:31,1,107.999996704102,8|0,0:0|0:0,0:0:0:0:
16,148,274561,1,2,0:1:0:0:
140,0,274711,1,2,0:1:0:0:
256,232,274861,1,8,0:0:0:0:
148,156,275011,6,0,L|168:92,1,67.5,4|0,0:0|0:0,0:0:0:0:
168,91,275311,5,8,0:0:0:0:
256,320,275461,1,8,0:0:0:0:
344,91,275611,1,8,0:0:0:0:
176,264,275761,5,8,0:0:0:0:
226,227,275836,1,8,0:0:0:0:
288,229,275911,1,8,0:0:0:0:
336,267,275986,1,8,0:0:0:0:
352,327,276061,6,0,P|388:341|436:336,1,72,8|8,0:0|0:0,0:0:0:0:
176,264,276211,2,0,P|141:244|115:205,1,72,8|8,0:0|0:0,0:0:0:0:
328,132,276361,5,4,0:0:0:0:
88,296,279244,5,8,0:0:0:0:
64,212,279356,1,8,0:0:0:0:
176,148,279469,1,8,0:0:0:0:
152,232,279582,1,8,0:0:0:0:
212,296,279695,6,0,P|304:272|356:352,1,180,4|8,0:0|0:0,0:0:0:0:
440,276,280033,2,0,L|450:186,1,90
408,16,280258,1,0,0:0:0:0:
329,78,280371,2,0,L|340:168,1,90,8|0,0:0|0:0,0:0:0:0:
151,231,280597,2,0,B|132:140|132:140|152:56,1,180,2|8,0:1|0:0,0:0:0:0:
236,112,280935,2,0,L|247:202,1,90,0|0,0:1|0:0,0:0:0:0:
320,328,281161,1,0,0:0:0:0:
224,300,281273,1,8,0:0:0:0:
344,232,281386,1,0,0:0:0:0:
416,352,281499,6,0,L|437:173,1,180,2|8,0:0|0:0,0:0:0:0:
469,36,281837,2,0,P|443:72|400:80,1,90
225,201,282063,1,0,0:0:0:0:
235,111,282176,2,0,P|278:119|305:155,1,90,8|0,0:0|0:0,0:0:0:0:
188,372,282401,2,0,B|208:260|104:288|128:180,1,180,2|8,0:1|0:0,0:0:0:0:
148,128,282740,5,0,0:0:0:0:
52,148,282852,1,0,0:0:0:0:
140,92,282965,1,0,0:0:0:0:
28,164,283078,1,8,0:0:0:0:
124,212,283191,1,8,0:0:0:0:
132,56,283304,6,0,P|64:16|12:112,1,180,4|8,0:0|0:0,0:0:0:0:
220,100,283642,2,0,P|252:76|300:80,1,90
476,148,283867,1,0,0:0:0:0:
434,238,283980,2,0,P|394:219|376:178,1,90,8|0,0:0|0:0,0:0:0:0:
256,344,284206,2,0,B|340:364|340:364|429:337,1,180,2|8,0:1|0:0,0:0:0:0:
280,236,284544,2,0,L|180:252,1,90
16,276,284770,1,0,0:0:0:0:
112,328,284882,1,8,0:0:0:0:
32,168,284995,1,0,0:0:0:0:
191,250,285108,6,0,L|205:161,1,90,2|0,0:0|0:0,0:0:0:0:
47,79,285334,2,0,L|32:167,1,90,8|0,0:0|0:0,0:0:0:0:
232,66,285559,6,0,L|144:52,1,90,2|0,0:0|0:0,0:0:0:0:
7,265,285785,2,0,L|96:280,1,90,8|0,0:0|0:0,0:0:0:0:
284,308,286010,6,0,L|313:130,1,180,2|8,0:0|0:0,0:0:0:0:
408,48,286349,1,8,0:0:0:0:
440,204,286461,1,8,0:0:0:0:
492,112,286574,1,4,0:3:0:0:
352,152,286687,1,4,0:3:0:0:
320,44,286800,1,4,0:3:0:0:
228,80,286913,6,0,L|156:70,1,72,4|0,0:0|0:0,0:0:0:0:
224,88,287138,2,0,L|152:78,1,72
220,96,287364,2,0,L|148:86,1,72,8|0,0:0|0:0,0:0:0:0:
60,68,287589,5,0,0:0:0:0:
60,68,287702,1,0,0:0:0:0:
128,184,287815,1,8,0:0:0:0:
60,256,287928,1,8,0:0:0:0:
60,256,288153,6,0,P|128:284|208:240,1,144,2|0,0:0|0:0,0:0:0:0:
276,288,288491,2,0,P|280:252|271:217,1,72,8|8,0:0|0:0,0:0:0:0:
180,88,288717,6,0,L|192:160,1,72,4|0,0:0|0:0,0:0:0:0:
188,80,288943,2,0,L|200:152,1,72
196,72,289168,2,0,L|208:144,1,72,8|0,0:0|0:0,0:0:0:0:
224,232,289394,5,0,0:0:0:0:
224,232,289507,1,0,0:0:0:0:
304,120,289619,1,8,0:0:0:0:
384,180,289732,2,0,P|460:188|476:120,1,144,8|0,0:0|0:0,0:0:0:0:
396,80,290070,5,8,0:0:0:0:
304,120,290183,1,8,0:0:0:0:
388,268,290296,1,8,0:0:0:0:
300,220,290409,1,8,0:0:0:0:
392,356,290522,6,0,L|496:340,1,80.9999975280763,4|0,0:0|0:0,0:0:0:0:
468,255,290747,2,0,L|388:268,1,80.9999975280763,8|0,0:0|0:0,0:0:0:0:
219,232,290973,6,0,L|300:220,1,80.9999975280763
296,131,291198,2,0,L|215:143,1,80.9999975280763,8|0,0:0|0:0,0:0:0:0:
72,260,291424,6,0,P|108:198|60:128,1,161.999995056153,2|8,0:1|0:0,0:0:0:0:
224,13,291762,2,0,P|178:75|215:142,1,161.999995056153
411,53,292101,2,0,L|332:36,1,80.9999975280763,8|0,0:0|0:0,0:0:0:0:
308,244,292326,6,0,P|333:172|408:175,1,161.999995056153,2|8,0:0|0:0,0:0:0:0:
480,360,292664,1,0,0:0:0:0:
396,328,292777,2,0,B|304:312|312:408|212:360,1,161.999995056153,0|8,0:0|0:0,0:0:0:0:
24,244,293116,5,0,0:0:0:0:
109,215,293228,2,0,L|99:295,1,80.9999975280763,2|0,0:0|0:0,0:0:0:0:
291,200,293454,1,8,0:0:0:0:
206,171,293567,2,0,L|215:251,1,80.9999975280763,2|8,0:0|0:0,0:0:0:0:
352,308,293792,1,8,0:3:0:0:
246,372,293905,1,8,0:3:0:0:
291,200,294018,1,4,0:3:0:0:
480,283,294131,6,0,B|334:233|352:391|240:371,1,269.999991760254,12|0,0:0|0:0,0:0:0:0:
24,352,294469,6,0,P|35:252|133:273,1,225,12|0,0:0|0:0,0:0:0:0:
285,169,294807,6,0,P|248:207|244:260,1,108,12|0,0:0|0:0,0:0:0:0:
448,360,295033,6,0,B|436:432|320:332|524:316|428:164,1,269.999991760254,12|0,0:0|0:0,0:0:0:0:
240,52,295371,6,0,B|320:44|320:44|368:76|368:76|454:66,1,225,12|0,0:0|0:0,0:0:0:0:
285,169,295710,5,12,0:0:0:0:
285,169,295822,1,8,0:0:0:0:
476,84,295935,6,0,B|364:96|364:96|316:64|316:64|172:80,1,269.999991760254,12|0,0:0|0:0,0:0:0:0:
48,176,296273,6,0,P|1:95|94:93,1,225,12|0,0:0|0:0,0:0:0:0:
176,248,296612,6,0,L|168:176,1,72,12|0,0:0|0:0,0:0:0:0:
297,61,296837,6,0,L|285:169,1,107.999996704102,12|0,0:0|0:0,0:0:0:0:
352,308,297063,5,8,0:3:0:0:
260,280,297176,1,4,0:3:0:0:
196,348,297288,1,8,0:3:0:0:
288,324,297401,5,4,0:3:0:0:
224,256,297514,1,4,0:3:0:0:
132,280,297627,1,4,0:3:0:0:
104,368,297740,5,4,0:0:0:0:
88,36,302810,6,0,L|104:180,1,116.999994644165,4|0,0:0|0:0,0:0:0:0:
208,104,303062,2,0,L|195:220,1,116.999994644165,2|0,0:0|0:0,0:0:0:0:
100,252,303315,2,0,L|106:310,1,58.4999973220826,2|0,1:2|0:0,0:0:0:0:
200,380,303484,6,0,P|264:332|312:360,1,125.999996154785,2|0,0:0|0:0,0:0:0:0:
383,291,303736,2,0,P|423:335|482:325,1,125.999996154785,2|0,0:0|0:0,0:0:0:0:
487,235,303989,2,0,P|458:223|428:216,1,62.9999980773926,2|0,1:2|0:0,0:0:0:0:
328,128,304158,6,0,P|396:116|468:112,1,135.000005149842,2|0,0:0|0:0,0:0:0:0:
384,24,304411,2,0,P|316:19|250:7,1,135.000005149842,2|0,0:0|0:0,0:0:0:0:
164,108,304663,2,0,P|198:109|232:104,1,67.5000025749208,2|0,1:2|0:0,0:0:0:0:
308,244,304832,6,0,B|204:200|192:296|96:248,1,215.999993408203,2|8,0:0|0:0,0:0:0:0:
256,332,305338,1,2,0:0:0:0:
24,316,305506,6,0,P|0:228|72:156,1,175.499991966248,2|0,1:2|0:0,0:0:0:0:
203,95,305843,2,0,P|131:104|68:68,1,148.50000453186,10|0,0:0|0:0,0:0:0:0:
264,16,306180,2,0,P|336:7|348:88,1,161.999995056153,2|0,0:0|0:0,0:0:0:0:
266,232,306517,2,0,P|261:203|252:176,1,58.4999973220826,10|0,0:0|0:0,0:0:0:0:
353,80,306686,2,0,P|343:108|339:137,1,58.4999973220826,2|0,0:0|0:0,0:0:0:0:
369,298,306854,6,0,P|398:218|476:252,2,188.999994232178,2|2|2,1:2|0:0|1:2,0:0:0:0:
220,356,307529,2,0,P|248:280|204:140,1,215.999993408203,2|8,0:0|0:0,0:0:0:0:
180,56,308034,1,0,0:0:0:0:
10,185,308203,6,0,B|70:188|106:128|106:128|146:168|214:153,1,233.999989288331,2|8,1:2|0:0,0:0:0:0:
333,288,308708,2,0,B|264:272|224:312|224:312|188:252|128:256,1,233.999989288331,2|0,1:2|1:0,0:0:0:0:
180,56,309214,2,0,B|208:16|208:16|240:64|210:168,1,188.999994232178,10|0,0:0|0:0,0:0:0:0:
290,211,309551,6,0,P|315:106|304:0,1,215.999993408203,2|8,1:2|0:0,0:0:0:0:
501,225,310057,2,0,P|396:199|290:211,1,215.999993408203,2|0,1:2|1:0,0:0:0:0:
52,312,310562,2,0,B|28:348|28:348|132:328,1,148.50000453186,10|0,0:0|0:0,0:0:0:0:
216,373,310899,6,0,B|263:279|147:247|213:151,1,233.999989288331,2|8,1:2|0:0,0:0:0:0:
12,60,311405,2,0,B|20:-16|160:-4|108:136|80:152|44:168,1,233.999989288331,2|2,1:2|1:2,0:0:0:0:
212,36,311911,1,8,0:0:0:0:
212,36,312248,6,0,B|309:29|309:29|393:81|393:81|513:73,1,306.000005836487,2|8,1:2|0:0,0:0:0:0:
276,226,312753,2,0,L|280:164,1,62.9999980773926,2|0,0:0|0:0,0:0:0:0:
502,318,312922,2,0,B|393:311|393:311|309:363|309:363|212:356,1,306.000005836487,2|8,0:0|0:0,0:0:0:0:
14,48,313596,6,0,L|20:164,1,116.999994644165,4|0,0:0|0:0,0:0:0:0:
116,196,313849,2,0,L|122:80,1,116.999994644165,2|0,0:0|0:0,0:0:0:0:
216,44,314102,2,0,L|218:102,1,58.4999973220826,2|0,1:2|0:0,0:0:0:0:
228,220,314270,6,0,P|288:232|340:176,1,125.999996154785,2|0,0:0|0:0,0:0:0:0:
478,330,314523,2,0,P|431:291|372:304,1,125.999996154785,2|0,0:0|0:0,0:0:0:0:
312,384,314776,2,0,L|244:356,1,62.9999980773926,2|0,1:2|0:0,0:0:0:0:
19,331,314944,6,0,P|84:310|151:307,1,135.000005149842,2|0,0:0|0:0,0:0:0:0:
228,220,315197,2,0,P|160:216|96:196,1,135.000005149842,2|0,0:0|0:0,0:0:0:0:
0,120,315450,2,0,P|33:117|65:107,1,67.5000025749208,2|0,1:2|0:0,0:0:0:0:
234,12,315618,6,0,B|278:116|182:128|230:224,1,215.999993408203,2|8,0:0|0:0,0:0:0:0:
144,64,316124,1,2,0:0:0:0:
316,172,316293,6,0,P|400:184|444:96,1,175.499991966248,2|0,1:2|0:0,0:0:0:0:
407,19,316630,2,0,P|335:28|277:73,1,148.50000453186,10|0,0:0|0:0,0:0:0:0:
53,108,316967,6,0,P|133:115|200:160,1,161.999995056153,2|0,0:0|0:0,0:0:0:0:
160,251,317304,2,0,P|78:270|26:205,1,175.499991966248,10|0,0:0|0:0,0:0:0:0:
200,160,317641,6,0,B|276:112|276:112|380:152,2,188.999994232178,2|2|2,1:2|0:0|0:0,0:0:0:0:
408,332,318315,2,0,B|376:216|480:232|468:132,1,215.999993408203,2|8,0:0|0:0,0:0:0:0:
408,56,318821,1,0,0:0:0:0:
288,204,318989,6,0,B|260:160|200:160|200:160|152:216|60:188,1,233.999989288331,2|8,1:2|0:0,0:0:0:0:
180,30,319495,2,0,B|145:37|128:62|128:62|216:50|296:84,1,233.999989288331,2|2,1:2|1:2,0:0:0:0:
512,192,320001,2,0,L|504:88,1,90,10|0,0:0|0:0,0:0:0:0:
380,188,320338,6,0,L|368:331,1,144,2|8,1:2|0:0,0:0:0:0:
484,304,320843,1,0,1:0:0:0:
264,252,321012,2,0,B|148:220|160:352|56:320,1,215.999993408203,2|10,0:0|0:0,0:0:0:0:
236,348,321517,1,0,0:0:0:0:
76,224,321686,6,0,B|40:112|92:36|92:36|116:64|108:112,1,251.999992309571,4|8,0:0|0:0,0:0:0:0:
192,148,322192,2,0,P|208:87|198:25,2,125.999996154785,0|0|0,1:0|0:0|1:0,0:0:0:0:
136,328,322697,2,0,L|-12:312,1,135,10|0,0:0|0:0,0:0:0:0:
100,215,323034,6,0,P|192:168|233:264,1,233.999989288331,6|8,0:0|0:0,0:0:0:0:
136,328,323540,1,2,0:0:0:0:
336,384,323708,1,8,0:0:0:0:
340,360,323793,1,8,0:0:0:0:
344,336,323877,1,8,0:0:0:0:
256,164,324045,1,8,0:0:0:0:
464,280,324214,1,8,0:0:0:0:
458,246,324298,1,8,0:0:0:0:
452,213,324383,6,0,P|376:188|260:168,1,180,4|8,1:2|0:0,0:0:0:0:
81,120,324888,1,0,1:0:0:0:
256,77,325057,2,0,P|167:92|81:120,1,180,2|8,0:0|0:0,0:0:0:0:
81,120,325731,6,0,P|169:135|255:163,1,180,2|8,1:2|0:0,0:0:0:0:
424,244,326236,2,0,P|405:323|325:308,1,180,0|0,1:0|1:0,0:0:0:0:
368,140,326742,2,0,L|456:123,1,90,8|0,0:0|0:0,0:0:0:0:
325,308,327079,6,0,L|121:268,1,198.000006042481,2|8,1:2|0:0,0:0:0:0:
8,96,327585,2,0,P|96:83|104:172,1,198.000006042481,0|0,1:0|1:0,0:0:0:0:
184,203,328090,2,0,P|201:157|200:108,1,99.0000030212403,8|0,0:0|0:0,0:0:0:0:
352,24,328427,6,0,P|307:110|326:206,1,198.000006042481,2|8,1:2|0:0,0:0:0:0:
502,98,328933,2,0,P|414:85|406:173,1,198.000006042481,0|0,1:0|1:0,0:0:0:0:
504,200,329439,1,8,0:0:0:0:
504,200,329776,6,0,P|488:296|484:384,1,180,2|8,1:2|0:0,0:0:0:0:
328,332,330281,2,0,P|323:242|307:153,1,180,0|0,1:0|1:0,0:0:0:0:
276,60,330787,1,8,0:0:0:0:
276,60,331124,6,0,B|200:40|204:136|104:120,1,180,2|8,1:2|0:0,0:0:0:0:
80,276,331630,2,0,B|100:200|4:204|20:104,1,180,0|0,1:0|1:0,0:0:0:0:
72,32,332135,1,8,0:0:0:0:
276,60,332472,5,2,0:0:0:0:
316,92,334595,5,8,0:3:0:0:
472,128,334771,1,8,0:3:0:0:
380,172,334947,1,4,0:3:0:0:
408,48,335124,1,4,0:3:0:0:
464,228,335300,6,0,P|416:268|328:260,1,135.000005149842,4|0,0:0|0:0,0:0:0:0:
120,340,335829,2,0,P|86:335|52:336,1,67.5000025749208,2|8,0:1|0:0,0:0:0:0:
218,154,336182,2,0,P|230:220|228:288,1,135.000005149842,0|8,0:0|0:0,0:0:0:0:
108,112,336711,1,2,0:1:0:0:
1,238,336888,2,0,L|136:228,1,135.000005149842,8|0,0:0|0:0,0:0:0:0:
352,325,337417,2,0,B|291:335|304:280|227:286,1,135.000005149842,10|0,0:0|0:0,0:0:0:0:
128,209,337947,1,8,0:0:0:0:
312,100,338123,6,0,P|308:132|305:167,1,67.5000025749208,2|0,0:0|0:0,0:0:0:0:
352,325,338476,1,2,0:1:0:0:
196,216,338652,2,0,L|128:209,1,67.5000025749208,2|8,0:1|0:0,0:0:0:0:
388,228,339005,2,0,P|460:216|472:152,1,135.000005149842,0|8,0:0|0:0,0:0:0:0:
424,56,339535,1,2,0:1:0:0:
484,264,339711,1,8,0:0:0:0:
292,192,339888,2,0,L|224:198,1,67.5000025749208
132,124,340152,5,8,0:0:0:0:
136,112,340241,1,0,0:0:0:0:
328,80,340417,1,8,0:0:0:0:
264,292,340594,5,2,0:1:0:0:
36,208,340770,1,8,0:0:0:0:
136,314,340947,6,0,P|130:213|135:112,1,202.500007724762,2|0,0:0|0:0,0:0:0:0:
84,24,341652,1,8,0:0:0:0:
328,80,341829,1,0,0:0:0:0:
240,136,342005,1,0,0:0:0:0:
220,0,342182,1,8,0:0:0:0:
428,68,342358,6,0,P|464:76|524:76,1,67.5000025749208,2|8,0:1|0:0,0:0:0:0:
376,276,342711,1,2,0:1:0:0:
376,276,343064,2,0,P|444:252|528:264,1,135.000005149842,8|2,0:0|0:1,0:0:0:0:
456,344,343594,1,8,0:0:0:0:
299,200,343770,6,0,P|307:161|304:122,1,78.7500007510185,2|0,0:0|0:0,0:0:0:0:
218,290,344123,2,0,L|140:284,1,78.7500007510185
299,200,344476,1,8,0:0:0:0:
456,344,344652,2,0,P|381:324|317:366,1,157.500001502037,2|8,0:1|0:0,0:0:0:0:
456,240,345182,5,0,0:0:0:0:
200,176,345358,1,8,0:0:0:0:
317,366,345535,5,4,0:0:0:0:
408,172,345711,1,2,0:1:0:0:
404,152,345800,1,2,0:1:0:0:
400,132,345888,5,8,0:0:0:0:
256,24,346064,1,8,0:0:0:0:
304,232,346241,5,8,0:0:0:0:
468,56,346417,1,8,0:0:0:0:
280,127,346594,6,0,P|214:128|168:81,1,135.000005149842,4|0,0:0|0:0,0:0:0:0:
16,207,347123,2,0,P|48:199|82:196,1,67.5000025749208,2|8,0:1|0:0,0:0:0:0:
256,340,347476,2,0,L|121:328,1,135.000005149842,0|8,0:0|0:0,0:0:0:0:
288,196,348005,1,2,0:1:0:0:
359,352,348182,2,0,P|404:308|369:257,1,135.000005149842,8|0,0:0|0:0,0:0:0:0:
302,61,348711,2,0,L|288:196,1,135.000005149842,10|0,0:0|0:0,0:0:0:0:
388,116,349241,1,8,0:0:0:0:
196,120,349417,6,0,P|156:116|104:108,1,67.5000025749208,2|0,0:0|0:0,0:0:0:0:
328,56,349770,1,2,0:1:0:0:
284,228,349947,2,0,P|250:231|216:235,1,67.5000025749208,2|8,0:1|0:0,0:0:0:0:
442,308,350300,2,0,B|460:244|460:244|446:177,1,135.000005149842,0|8,0:0|0:0,0:0:0:0:
420,64,350829,1,2,0:1:0:0:
216,116,351005,1,8,0:0:0:0:
316,224,351182,2,0,L|308:136,1,67.5000025749208,2|0,0:1|0:0,0:0:0:0:
220,100,351447,5,0,0:0:0:0:
216,116,351535,1,8,0:0:0:0:
446,177,351711,1,8,0:0:0:0:
272,288,351888,5,2,0:1:0:0:
328,56,352064,1,8,0:0:0:0:
472,304,352241,6,0,P|422:260|357:270,1,135.000005149842,2|0,0:0|0:0,0:0:0:0:
144,217,352770,2,0,P|176:224|210:224,1,67.5000025749208,2|8,0:1|0:0,0:0:0:0:
392,368,353123,2,0,P|358:368|325:375,1,67.5000025749208
212,344,353476,1,8,0:0:0:0:
436,232,353652,1,2,0:0:0:0:
328,152,353829,5,8,0:0:0:0:
492,316,354005,1,2,0:1:0:0:
492,316,354358,2,0,L|485:181,1,135.000005149842,8|2,0:0|0:1,0:0:0:0:
364,16,354888,1,8,0:0:0:0:
484,80,355064,6,0,B|424:72|432:120|372:116,1,112.5,2|0,0:0|0:0,0:0:0:0:
192,60,355594,1,2,0:1:0:0:
263,206,355770,2,0,P|267:179|267:151,1,56.25,8|0,0:0|0:0,0:0:0:0:
96,24,356123,2,0,L|91:79,1,56.25,2|8,0:1|0:0,0:0:0:0:
160,264,356476,5,0,0:0:0:0:
20,176,356652,1,8,0:0:0:0:
266,150,356829,5,4,0:0:0:0:
44,292,357005,1,0,0:0:0:0:
40,276,357094,1,0,0:0:0:0:
36,260,357182,5,8,0:0:0:0:
96,24,357358,1,8,0:3:0:0:
260,252,357535,5,4,0:3:0:0:
20,176,357711,1,4,0:3:0:0:
168,124,357888,6,0,B|232:108|232:108|308:128,1,135.000005149842,4|0,0:0|0:0,0:0:0:0:
504,0,358417,2,0,L|512:68,1,67.5000025749208,0|8,0:0|0:0,0:0:0:0:
403,289,358770,2,0,P|410:222|420:156,1,135.000005149842,0|8,0:0|0:0,0:0:0:0:
444,384,359300,1,0,0:0:0:0:
304,312,359476,2,0,P|251:272|186:282,1,135.000005149842,8|0,0:0|0:0,0:0:0:0:
97,381,360005,2,0,P|89:313|79:247,1,135.000005149842,10|0,0:0|0:0,0:0:0:0:
8,176,360535,1,8,0:0:0:0:
117,21,360711,6,0,L|112:88,1,67.5000025749208,2|0,0:0|0:0,0:0:0:0:
172,204,361064,1,2,0:1:0:0:
3,109,361241,2,0,L|8:176,1,67.5000025749208,2|8,0:1|0:0,0:0:0:0:
128,336,361594,2,0,P|64:288|0:320,1,135.000005149842,0|8,0:0|0:0,0:0:0:0:
172,204,362123,1,2,0:0:0:0:
52,384,362300,1,8,0:0:0:0:
219,295,362476,2,0,P|252:287|285:294,1,67.5000025749208,2|0,0:1|0:0,0:0:0:0:
380,328,362741,5,8,0:0:0:0:
376,348,362829,1,8,0:0:0:0:
172,204,363005,1,8,0:0:0:0:
352,96,363182,5,2,0:1:0:0:
285,294,363358,1,8,0:0:0:0:
468,234,363535,6,0,B|364:210|380:318|268:290,1,202.500007724762,2|2,0:0|0:1,0:0:0:0:
168,268,364241,1,8,0:0:0:0:
360,160,364417,1,0,0:0:0:0:
168,48,364594,1,2,0:1:0:0:
240,144,364770,1,8,0:0:0:0:
389,6,364947,6,0,P|370:33|368:67,1,67.5000025749208,2|8,0:0|0:0,0:0:0:0:
288,261,365300,1,2,0:1:0:0:
288,261,365652,2,0,P|282:195|240:144,1,135.000005149842,8|2,0:0|0:1,0:0:0:0:
188,236,366182,1,8,0:0:0:0:
416,184,366358,6,0,P|454:189|494:189,1,78.7500007510185,2|0,0:0|0:0,0:0:0:0:
416,384,366711,2,0,P|454:378|494:378,1,78.7500007510185,2|0,0:1|0:0,0:0:0:0:
352,284,367064,2,0,B|280:272|288:356|196:336,1,157.500001502037,12|2,0:0|0:1,0:0:0:0:
112,316,367594,1,8,0:0:0:0:
256,184,367770,5,2,0:0:0:0:
236,20,367947,1,8,0:0:0:0:
124,156,368123,5,0,0:0:0:0:
408,88,368300,1,2,0:1:0:0:
404,104,368388,1,2,0:1:0:0:
400,120,368476,1,8,0:0:0:0:
236,20,368652,6,0,L|168:27,1,67.5000025749208,2|0,0:0|0:0,0:0:0:0:
34,118,369182,6,0,P|86:86|122:158,1,157.5,2|0,0:0|0:0,0:0:0:0:
44,220,370594,6,0,P|100:256|168:244,1,135,2|0,0:0|0:0,0:0:0:0:
256,192,372005,5,2,0:0:0:0:
448,88,375725,6,0,L|440:16,1,62.9999980773926
376,164,376100,1,2,0:0:0:0:
376,164,376475,5,0,0:0:0:0:
448,88,376662,1,0,0:0:0:0:
468,216,376850,5,2,0:0:0:0:
380,140,377037,1,0,0:0:0:0:
256,192,377225,6,0,L|116:208,1,125.999996154785,0|2,0:0|0:0,0:0:0:0:
140,200,377787,1,0,0:0:0:0:
198,346,377975,2,0,P|204:315|204:284,1,62.9999980773926
142,129,378350,2,0,P|147:159|148:191,1,62.9999980773926,2|0,0:0|0:0,0:0:0:0:
88,8,378725,5,0,0:0:0:0:
172,28,378912,1,0,0:0:0:0:
256,48,379100,1,2,0:0:0:0:
142,129,379287,1,0,0:0:0:0:
377,102,379475,5,0,0:0:0:0:
296,216,379662,1,0,0:0:0:0:
276,132,379850,1,2,0:0:0:0:
256,48,380037,1,0,0:0:0:0:
377,102,380225,6,0,P|436:88|484:128,1,125.999996154785,0|2,0:0|0:0,0:0:0:0:
412,188,380787,1,0,0:0:0:0:
480,292,380975,5,4,0:3:0:0:
316,232,381162,5,4,0:3:0:0:
312,216,381256,1,4,0:3:0:0:
228,316,381443,5,4,0:3:0:0:
224,332,381537,1,4,0:3:0:0:
140,232,381725,6,0,L|148:120,1,99.0000030212403,4|0,0:0|0:0,0:0:0:0:
20,12,382100,2,0,L|27:110,1,99.0000030212403,2|0,0:0|0:0,0:0:0:0:
36,272,382475,1,2,0:1:0:0:
147,133,382662,1,0,0:0:0:0:
40,92,382850,1,2,0:0:0:0:
140,232,383037,5,2,0:0:0:0:
148,240,383131,1,2,0:0:0:0:
156,248,383225,2,0,B|260:236|240:328|336:316,1,198.000006042481,2|2,0:0|0:0,0:0:0:0:
432,352,383787,1,0,0:0:0:0:
328,212,383975,2,0,P|327:162|313:115,1,99.0000030212403,2|0,0:1|0:0,0:0:0:0:
476,24,384350,2,0,P|462:71|462:120,1,99.0000030212403,2|0,0:0|0:0,0:0:0:0:
356,0,384725,5,2,0:1:0:0:
313,115,384912,1,0,0:0:0:0:
148,204,385100,5,2,0:0:0:0:
108,44,385287,1,0,0:0:0:0:
220,132,385475,5,2,0:1:0:0:
233,24,385662,1,0,0:0:0:0:
64,140,385850,5,2,0:0:0:0:
148,204,386037,1,0,0:0:0:0:
92,264,386225,6,0,P|108:324|108:380,1,107.999996704102,2|2,0:0|0:0,0:0:0:0:
256,140,386975,6,0,L|272:12,1,107.999996704102,2|2,0:0|0:0,0:0:0:0:
450,307,387725,6,0,P|407:270|352:280,1,116.999994644165,4|8,0:0|0:0,0:0:0:0:
171,375,388100,2,0,P|228:368|288:364,1,116.999994644165,0|8,0:0|0:0,0:0:0:0:
440,168,388475,5,0,0:0:0:0:
220,252,388662,1,8,0:0:0:0:
256,36,388850,5,0,0:0:0:0:
351,280,389037,1,8,0:0:0:0:
184,164,389225,6,0,P|112:160|100:264,1,175.499991966248
64,332,389600,2,0,P|114:351|147:308,1,116.999994644165,0|8,0:0|0:0,0:0:0:0:
16,92,389975,1,2,0:1:0:0:
12,120,390068,1,2,0:1:0:0:
8,148,390162,1,8,0:0:0:0:
192,220,390350,1,2,0:1:0:0:
188,192,390443,1,2,0:1:0:0:
184,164,390537,1,8,0:0:0:0:
64,332,390725,5,0,0:0:0:0:
352,368,390912,1,8,0:0:0:0:
280,120,391100,5,0,0:0:0:0:
204,384,391287,1,8,0:0:0:0:
88,224,391475,5,0,0:0:0:0:
376,196,391662,1,8,0:0:0:0:
184,44,391850,5,0,0:0:0:0:
292,292,392037,1,8,0:0:0:0:
356,76,392225,6,0,P|420:68|492:60,1,116.999994644165,0|8,0:0|0:0,0:0:0:0:
292,292,392600,1,2,0:1:0:0:
264,288,392693,1,2,0:1:0:0:
236,284,392787,1,8,0:0:0:0:
35,130,392975,2,0,P|93:136|151:144,1,116.999994644165,4|8,0:0|0:0,0:0:0:0:
75,368,393350,2,0,P|100:317|80:264,1,116.999994644165,4|8,0:0|0:0,0:0:0:0:
256,48,393725,5,4,0:0:0:0:
196,308,393912,1,8,0:0:0:0:
428,192,394100,5,0,0:0:0:0:
151,144,394287,1,8,0:0:0:0:
324,360,394475,5,0,0:0:0:0:
372,83,394662,1,8,0:0:0:0:
196,308,394850,5,0,0:0:0:0:
473,356,395037,1,8,0:0:0:0:
300,128,395225,6,0,L|310:244,1,116.999994644165,0|8,0:0|0:0,0:0:0:0:
176,60,395600,2,0,P|116:40|68:60,1,116.999994644165,0|8,0:0|0:0,0:0:0:0:
300,128,395975,1,2,0:1:0:0:
328,124,396068,1,2,0:1:0:0:
356,120,396162,1,8,0:0:0:0:
124,208,396350,1,2,0:1:0:0:
96,204,396443,1,2,0:1:0:0:
68,200,396537,1,8,0:0:0:0:
176,60,396725,5,0,0:0:0:0:
268,300,396912,1,8,0:0:0:0:
384,116,397100,5,0,0:0:0:0:
124,208,397287,1,8,0:0:0:0:
388,280,397475,5,0,0:0:0:0:
296,32,397662,1,8,0:0:0:0:
228,204,397850,5,0,0:0:0:0:
492,60,398037,1,8,0:0:0:0:
216,100,398225,5,8,0:0:0:0:
472,216,398412,1,8,0:0:0:0:
260,384,398600,5,8,0:0:0:0:
368,104,398787,1,8,0:0:0:0:
420,376,398975,5,8,0:0:0:0:
116,240,399162,1,8,0:0:0:0:
208,36,399350,5,8,0:0:0:0:
260,384,399537,1,8,0:0:0:0:
388,192,399725,6,0,P|460:180|504:240,1,135.000005149842,4|8,0:0|0:0,0:0:0:0:
260,384,400100,2,0,L|240:250,1,135.000005149842,0|8,0:0|0:0,0:0:0:0:
208,36,400475,1,0,0:0:0:0:
388,192,400662,1,8,0:0:0:0:
168,152,400850,2,0,P|100:140|40:176,1,135.000005149842,0|8,0:0|0:0,0:0:0:0:
260,384,401225,6,0,L|393:364,1,135.000005149842,0|8,0:0|0:0,0:0:0:0:
240,250,401600,1,0,0:0:0:0:
104,384,401787,1,8,0:0:0:0:
44,170,401975,5,2,0:1:0:0:
48,148,402068,1,2,0:1:0:0:
52,124,402162,1,8,0:0:0:0:
316,64,402350,1,2,0:1:0:0:
312,42,402443,1,2,0:1:0:0:
308,18,402537,1,8,0:0:0:0:
200,172,402725,5,8,0:0:0:0:
352,272,402912,1,2,0:1:0:0:
376,276,403006,1,2,0:1:0:0:
398,280,403100,1,8,0:0:0:0:
392,172,403287,1,8,0:0:0:0:
256,348,403475,5,2,0:1:0:0:
96,172,403662,1,8,0:0:0:0:
216,96,403850,5,2,0:1:0:0:
132,344,404037,1,8,0:0:0:0:
236,224,404225,5,2,0:0:0:0:
364,52,407243,6,0,L|380:152,1,80.9999975280763,4|0,0:3|0:0,0:0:0:0:
358,211,407558,6,0,P|423:205|456:149,1,135,2|0,0:0|0:0,0:0:0:0:
468,332,407874,6,0,L|255:295,1,215.999993408203,4|8,0:0|0:0,0:0:0:0:
64,352,408347,1,0,0:0:0:0:
111,174,408505,2,0,P|141:218|144:272,1,107.999996704102,2|0,0:1|0:0,0:0:0:0:
36,108,408821,2,0,P|80:78|133:75,1,107.999996704102,8|0,0:0|0:0,0:0:0:0:
363,74,409137,6,0,P|291:53|255:119,1,161.999995056153,2|0,0:0|0:0,0:0:0:0:
324,192,409452,2,0,P|379:184|452:180,1,107.999996704102,8|0,0:0|0:0,0:0:0:0:
196,280,409768,2,0,P|140:272|68:268,1,107.999996704102,2|0,0:1|0:0,0:0:0:0:
255,119,410084,2,0,P|248:65|244:12,1,107.999996704102,8|0,0:0|0:0,0:0:0:0:
12,124,410400,6,0,P|76:100|96:188,1,161.999995056153,2|0,0:0|0:0,0:0:0:0:
88,268,410716,2,0,P|142:264|196:256,1,107.999996704102,8|0,0:0|0:0,0:0:0:0:
376,184,411031,1,2,0:1:0:0:
256,352,411189,1,0,0:0:0:0:
264,164,411347,2,0,P|268:110|276:56,1,107.999996704102,8|0,0:0|0:0,0:0:0:0:
488,164,411663,5,2,0:0:0:0:
304,288,411821,1,0,0:0:0:0:
480,328,411979,1,8,0:0:0:0:
376,100,412137,1,0,0:0:0:0:
204,299,412295,2,0,P|252:276|304:288,1,107.999996704102,2|0,0:1|0:0,0:0:0:0:
128,176,412610,2,0,P|80:153|28:164,1,107.999996704102,8|0,0:0|0:0,0:0:0:0:
178,45,412926,6,0,B|306:29|251:128|386:97,1,215.999993408203,2|8,0:0|0:0,0:0:0:0:
344,4,413400,1,0,0:0:0:0:
479,148,413558,2,0,P|452:193|449:247,1,107.999996704102,2|0,0:1|0:0,0:0:0:0:
304,360,413874,2,0,P|301:306|273:260,1,107.999996704102,8|0,0:0|0:0,0:0:0:0:
54,337,414189,6,0,B|100:360|100:360|208:336,1,161.999995056153,2|0,0:0|0:0,0:0:0:0:
273,260,414505,2,0,L|167:235,1,107.999996704102,8|0,0:0|0:0,0:0:0:0:
54,47,414821,2,0,B|100:24|100:24|208:48,1,161.999995056153,2|0,0:1|0:0,0:0:0:0:
273,124,415137,2,0,L|378:99,1,107.999996704102,8|0,0:0|0:0,0:0:0:0:
300,0,415452,5,2,0:0:0:0:
273,260,415610,1,0,0:0:0:0:
436,168,415768,1,8,0:0:0:0:
176,141,415926,1,0,0:0:0:0:
336,336,416084,5,2,0:1:0:0:
264,88,416242,1,0,0:0:0:0:
136,308,416400,1,8,0:0:0:0:
392,256,416558,1,0,0:0:0:0:
88,196,416716,1,10,0:0:0:0:
220,364,416874,5,8,0:0:0:0:
228,324,416952,1,8,0:0:0:0:
236,284,417031,1,10,0:0:0:0:
72,116,417189,5,8,0:0:0:0:
80,156,417268,1,8,0:0:0:0:
88,196,417347,1,10,0:0:0:0:
256,32,417505,5,8,0:0:0:0:
216,24,417584,1,8,0:0:0:0:
176,16,417663,2,0,L|188:92,1,45,10|8,0:0|0:0,0:0:0:0:
340,88,417821,2,0,L|332:132,1,45,8|8,0:0|0:0,0:0:0:0:
260,200,417979,6,0,B|140:180|180:300|64:276,1,215.999993408203,6|8,0:0|0:0,0:0:0:0:
228,324,418452,1,0,0:0:0:0:
88,196,418610,2,0,P|76:136|36:108,1,107.999996704102,2|0,0:1|0:0,0:0:0:0:
236,8,418926,2,0,P|194:41|184:93,1,107.999996704102,8|0,0:0|0:0,0:0:0:0:
376,260,419242,6,0,P|387:175|396:84,1,161.999995056153,2|0,0:0|0:0,0:0:0:0:
484,56,419558,2,0,P|488:109|495:163,1,107.999996704102,8|0,0:0|0:0,0:0:0:0:
280,220,419874,2,0,P|287:166|291:112,1,107.999996704102,2|0,0:1|0:0,0:0:0:0:
183,324,420189,2,0,P|237:330|291:335,1,107.999996704102,8|0,0:0|0:0,0:0:0:0:
83,375,420505,6,0,P|52:306|102:248,1,161.999995056153,2|0,0:0|0:0,0:0:0:0:
184,192,420821,2,0,L|172:80,1,107.999996704102,8|0,0:0|0:0,0:0:0:0:
60,152,421137,1,2,0:1:0:0:
160,0,421295,1,0,0:0:0:0:
284,128,421452,2,0,L|391:116,1,107.999996704102,8|0,0:0|0:0,0:0:0:0:
512,284,421768,5,2,0:0:0:0:
276,224,421926,1,0,0:0:0:0:
391,116,422084,1,8,0:0:0:0:
412,368,422242,1,0,0:0:0:0:
176,272,422400,2,0,P|184:218|186:164,1,107.999996704102,2|0,0:1|0:0,0:0:0:0:
381,8,422716,2,0,P|383:61|390:115,1,107.999996704102,8|0,0:0|0:0,0:0:0:0:
460,260,423031,6,0,B|332:244|388:344|248:328,1,215.999993408203,2|8,0:0|0:0,0:0:0:0:
276,224,423505,1,0,0:0:0:0:
148,383,423663,2,0,P|164:333|149:282,1,107.999996704102,2|0,0:1|0:0,0:0:0:0:
4,138,423979,2,0,P|40:178|92:192,1,107.999996704102,8|0,0:0|0:0,0:0:0:0:
287,139,424295,2,0,P|235:148|199:187,1,107.999996704102,2|0,0:0|0:0,0:0:0:0:
352,372,424610,5,8,0:0:0:0:
400,152,424768,1,0,0:0:0:0:
464,336,424926,5,0,0:0:0:0:
336,228,425084,1,0,0:0:0:0:
240,336,425242,5,8,0:0:0:0:
432,244,425400,1,0,0:0:0:0:
200,188,425558,6,0,P|138:236|64:208,1,144,4|8,0:0|0:0,0:0:0:0:
12,120,425952,5,8,0:0:0:0:
48,124,426031,1,8,0:0:0:0:
84,128,426110,1,8,0:0:0:0:
120,132,426189,2,0,L|132:0,1,107.999996704102,4|0,0:0|0:0,0:0:0:0:
392,100,426505,5,8,0:0:0:0:
355,62,426584,1,8,0:0:0:0:
302,60,426663,1,8,0:0:0:0:
262,94,426742,1,8,0:0:0:0:
256,146,426821,2,0,P|350:132|402:192,1,180,4|8,0:0|0:0,0:0:0:0:
432,308,427216,5,8,0:0:0:0:
384,280,427295,1,8,0:0:0:0:
332,284,427374,1,8,0:0:0:0:
308,332,427452,1,8,0:0:0:0:
260,356,427531,1,8,0:0:0:0:
208,352,427610,1,8,0:0:0:0:
164,324,427689,1,8,0:0:0:0:
140,276,427768,1,8,0:0:0:0:
160,228,427847,1,8,0:0:0:0:
156,176,427926,1,8,0:0:0:0:
120,136,428005,1,8,0:0:0:0:
68,124,428084,6,0,B|200:92|152:224|308:184,1,233.999989288331,4|8,0:0|0:0,0:0:0:0:
468,128,428479,5,0,0:0:0:0:
471,135,428558,2,0,B|435:79|435:79|406:244,1,233.999989288331,12|0,0:0|0:0,0:0:0:0:
468,364,428952,5,8,0:0:0:0:
424,332,429031,1,12,0:0:0:0:
372,328,429110,1,8,0:0:0:0:
328,360,429189,1,8,0:0:0:0:
276,372,429268,1,8,0:0:0:0:
228,356,429347,2,0,L|220:272,1,58.4999973220826,12|0,0:0|0:0,0:0:0:0:
208,184,429505,5,8,0:0:0:0:
164,216,429584,1,8,0:0:0:0:
112,224,429663,1,8,0:0:0:0:
60,216,429742,1,8,0:0:0:0:
20,184,429821,2,0,L|28:100,1,58.4999973220826,12|0,0:0|0:0,0:0:0:0:
100,40,429979,5,8,0:0:0:0:
148,8,430058,1,8,0:0:0:0:
208,12,430137,1,8,0:0:0:0:
256,44,430216,1,8,0:3:0:0:
268,100,430295,1,4,0:3:0:0:
304,144,430374,1,4,0:3:0:0:
360,160,430452,1,4,0:3:0:0:
416,148,430531,1,4,0:3:0:0:
452,104,430610,1,4,0:0:0:0:
324,296,430768,5,8,0:0:0:0:
320,264,430847,1,8,0:0:0:0:
316,232,430926,1,8,0:0:0:0:
276,36,431084,5,8,0:0:0:0:
272,68,431163,1,8,0:0:0:0:
268,100,431242,1,8,0:0:0:0:
140,168,431400,5,8,0:0:0:0:
163,158,431479,1,8,0:0:0:0:
187,159,431558,1,8,0:0:0:0:
210,170,431637,1,8,0:0:0:0:
226,190,431716,1,8,0:0:0:0:
232,215,431795,1,8,0:0:0:0:
260,292,431874,5,8,0:0:0:0:
268,256,431952,1,8,0:0:0:0:
280,220,432031,1,8,0:0:0:0:
300,188,432110,1,8,0:0:0:0:
328,164,432189,1,8,0:0:0:0:
364,148,432268,1,8,0:0:0:0:
400,144,432347,1,8,0:3:0:0:
436,152,432426,1,8,0:3:0:0:
456,232,432505,5,4,0:3:0:0:
416,280,432584,1,4,0:3:0:0:
356,296,432663,1,4,0:3:0:0:
296,280,432742,1,4,0:3:0:0:
256,232,432821,1,4,0:3:0:0:
216,184,432900,1,8,0:3:0:0:
156,168,432979,1,4,0:3:0:0:
96,184,433058,1,4,0:3:0:0:
52,272,433137,5,4,0:0:0:0:
156,168,433452,5,2,0:0:0:0:
412,120,434084,5,2,0:0:0:0:
256,324,434716,5,2,0:0:0:0:
148,48,435347,5,2,0:0:0:0:
296,152,435663,6,0,L|304:84,1,67.5,4|0,0:0|0:0,0:0:0:0:
380,48,435979,5,8,0:0:0:0:
168,160,436137,1,8,0:0:0:0:
388,244,436295,5,8,0:0:0:0:
148,48,436452,1,8,0:0:0:0:
196,304,436610,5,8,0:0:0:0:
312,8,436768,1,8,0:0:0:0:
468,208,436926,6,0,P|424:164|332:176,1,135,4|0,0:0|0:0,0:0:0:0:
316,236,437242,5,8,0:3:0:0:
292,232,437321,1,8,0:3:0:0:
268,228,437400,1,8,0:3:0:0:
244,224,437479,1,8,0:3:0:0:
184,280,437558,5,4,0:3:0:0:
160,232,437637,1,4,0:3:0:0:
172,180,437716,1,4,0:3:0:0:
212,144,437795,1,4,0:3:0:0:
236,96,437874,1,4,0:3:0:0:
224,44,437952,1,4,0:3:0:0:
184,8,438031,1,4,0:3:0:0:
132,0,438110,1,0,0:0:0:0:
80,20,438189,6,0,P|92:108|92:208,1,161.999995056153,4|0,0:0|0:0,0:0:0:0:
176,232,438505,2,0,P|184:178|195:125,1,107.999996704102,4|0,0:0|0:0,0:0:0:0:
416,72,438821,1,0,0:0:0:0:
320,160,438979,1,0,0:0:0:0:
468,272,439137,2,0,P|460:218|449:165,1,107.999996704102,8|0,0:0|0:0,0:0:0:0:
260,328,439452,6,0,P|312:338|366:346,1,107.999996704102,2|0,0:0|0:0,0:0:0:0:
69,250,439768,2,0,P|123:242|176:232,1,107.999996704102,8|0,0:0|0:0,0:0:0:0:
442,132,440084,2,0,P|388:140|335:152,1,107.999996704102,2|0,0:1|0:0,0:0:0:0:
145,37,440400,2,0,P|198:44|251:55,1,107.999996704102,8|0,0:0|0:0,0:0:0:0:
457,312,440716,6,0,P|377:298|300:276,1,161.999995056153,2|0,0:0|0:0,0:0:0:0:
236,203,441031,2,0,P|206:248|207:301,1,107.999996704102,8|0,0:0|0:0,0:0:0:0:
52,108,441347,1,2,0:1:0:0:
112,272,441505,1,0,0:0:0:0:
168,108,441663,2,0,P|168:54|138:10,1,107.999996704102,8|0,0:0|0:0,0:0:0:0:
275,108,441979,5,2,0:0:0:0:
52,200,442137,1,0,0:0:0:0:
138,10,442295,1,8,0:0:0:0:
376,72,442452,1,0,0:0:0:0:
175,214,442610,2,0,P|176:160|167:107,1,107.999996704102,2|0,0:1|0:0,0:0:0:0:
384,16,442926,2,0,P|375:69|376:123,1,107.999996704102,8|0,0:0|0:0,0:0:0:0:
468,256,443242,6,0,B|336:232|388:344|256:328,1,215.999993408203,2|8,0:0|0:0,0:0:0:0:
440,352,443716,1,0,0:0:0:0:
280,232,443874,2,0,B|228:220|228:220|156:248,1,107.999996704102,2|0,0:1|0:0,0:0:0:0:
20,352,444189,2,0,B|72:364|72:364|122:344,1,107.999996704102,8|0,0:0|0:0,0:0:0:0:
71,154,444505,6,0,L|64:244,1,90,2|0,0:0|0:0,0:0:0:0:
235,309,444821,2,0,L|228:220,1,90
216,68,445137,6,0,P|192:48|176:76,1,67.5,2|0,0:0|0:0,0:0:0:0:
268,140,445452,6,0,B|376:108|360:212|468:192|468:192|440:200|424:224,1,270,2|0,0:0|0:0,0:0:0:0:
136,268,451284,6,0,B|132:120|16:228|-24:36|64:8|124:40|124:40|176:-8|276:40|220:148|175:161,1,576,4|0,0:0|0:0,0:0:0:0:
296,24,453219,6,0,P|307:74|301:120,1,94.4999971160889
376,184,453864,6,0,P|424:144|516:168,1,157.5,4|0,0:0|0:0,0:0:0:0:
480,272,454509,6,0,B|328:252|404:368|256:356,1,236.250009012223,4|0,0:0|0:0,0:0:0:0:
253,185,455154,6,0,P|286:213|284:257,1,90,4|8,0:0|0:0,0:0:0:0:
64,172,455396,5,8,0:0:0:0:
56,160,455477,2,0,L|68:52,1,90,4|8,0:3|0:3,0:0:0:0:
164,40,455719,5,8,0:3:0:0:
171,51,455800,2,0,L|147:259,1,161.999995056153,4|0,0:0|0:0,0:0:0:0:
103,300,456122,6,0,P|133:315|166:310,1,67.5,4|0,0:0|0:0,0:0:0:0:
248,248,456445,6,0,B|320:238|320:238|377:274|377:274|476:260,1,215.999993408203,4|8,0:0|0:0,0:0:0:0:
296,340,456929,1,0,0:0:0:0:
400,172,457090,2,0,P|404:112|372:72,1,107.999996704102,2|0,0:0|0:0,0:0:0:0:
181,166,457413,2,0,L|288:152,1,107.999996704102,8|0,0:0|0:0,0:0:0:0:
88,8,457735,6,0,B|98:83|98:83|62:140|62:140|72:212,1,215.999993408203,2|8,0:1|0:0,0:0:0:0:
0,384,458219,1,0,0:0:0:0:
205,337,458380,2,0,P|152:326|98:323,1,107.999996704102,2|0,0:0|0:0,0:0:0:0:
304,224,458703,2,0,L|292:104,1,107.999996704102,8|0,0:0|0:0,0:0:0:0:
496,272,459025,6,0,B|356:244|412:364|280:332,1,215.999993408203,4|8,0:0|0:0,0:0:0:0:
88,192,459509,5,0,0:0:0:0:
304,224,459671,1,2,0:0:0:0:
156,44,459832,1,0,0:0:0:0:
184,280,459993,1,8,0:0:0:0:
300,80,460154,1,2,0:1:0:0:
300,80,460235,1,2,0:1:0:0:
300,80,460316,5,4,0:0:0:0:
12,176,460477,1,0,0:0:0:0:
252,332,460638,5,10,0:0:0:0:
156,44,460800,1,8,0:3:0:0:
156,44,460880,1,8,0:3:0:0:
156,44,460961,2,0,L|148:128,1,58.4999973220826,8|0,0:3|0:0,0:0:0:0:
49,247,461122,5,4,0:3:0:0:
107,243,461203,1,4,0:3:0:0:
162,261,461284,1,4,0:3:0:0:
203,302,461364,1,4,0:3:0:0:
252,332,461445,1,4,0:3:0:0:
311,336,461525,1,4,0:3:0:0:
356,296,461606,6,0,L|345:188,1,107.999996704102,4|0,0:0|0:0,0:0:0:0:
508,55,461929,2,0,B|464:87|464:87|412:76,1,107.999996704102,8|0,0:0|0:0,0:0:0:0:
229,0,462251,2,0,L|240:108,1,107.999996704102,2|0,0:0|0:0,0:0:0:0:
76,240,462574,2,0,B|120:208|120:208|172:219,1,107.999996704102,8|0,0:0|0:0,0:0:0:0:
352,336,462896,6,0,B|277:322|277:322|220:358|220:358|144:344,1,215.999993408203,2|8,0:1|0:0,0:0:0:0:
352,192,463380,1,0,0:0:0:0:
151,115,463542,2,0,P|171:165|172:218,1,107.999996704102,2|0,0:0|0:0,0:0:0:0:
350,383,463864,2,0,P|351:329|372:280,1,107.999996704102,8|0,0:0|0:0,0:0:0:0:
480,124,464187,5,4,0:0:0:0:
272,248,464348,1,0,0:0:0:0:
268,24,464509,5,8,0:0:0:0:
380,188,464671,1,0,0:0:0:0:
160,96,464832,5,4,0:0:0:0:
400,24,464993,1,0,0:0:0:0:
480,252,465154,5,8,0:0:0:0:
212,176,465316,1,0,0:0:0:0:
352,384,465477,6,0,L|367:267,1,116.999994644165,4|8,0:0|0:0,0:0:0:0:
188,52,465719,5,8,0:0:0:0:
195,65,465800,2,0,P|218:118|211:176,1,116.999994644165,8|8,0:0|0:3,0:0:0:0:
8,284,466042,5,4,0:3:0:0:
20,272,466122,2,0,B|148:248|88:368|240:328,1,202.500007724762,4|0,0:0|0:0,0:0:0:0:
399,175,466445,6,0,P|370:267|302:199,1,229.500004377365,4|0,0:0|0:0,0:0:0:0:
328,104,466767,5,4,0:0:0:0:
328,104,467090,5,8,0:0:0:0:
301,200,467251,1,8,0:0:0:0:
232,129,467413,1,8,0:0:0:0:
259,33,467574,1,8,0:0:0:0:
355,8,467735,1,8,0:0:0:0:
424,79,467896,1,8,0:0:0:0:
301,200,468058,5,8,0:0:0:0:
259,33,468219,1,8,0:0:0:0:
120,224,468380,1,8,0:0:0:0:
162,57,468541,1,8,0:0:0:0:
301,200,468703,5,8,0:0:0:0:
88,128,468864,1,8,0:0:0:0:
216,256,469025,1,8,0:0:0:0:
3,328,469186,1,8,0:0:0:0:
88,128,469348,5,8,0:0:0:0:
172,376,469509,1,8,0:0:0:0:
332,96,469671,5,8,0:0:0:0:
260,340,469832,1,8,0:0:0:0:
88,128,469993,5,8,0:0:0:0:
344,236,470154,1,8,0:0:0:0:
324,0,470316,5,8,0:0:0:0:
56,116,470477,1,8,0:0:0:0:
260,340,470638,5,8,0:0:0:0:
324,0,470800,1,8,0:0:0:0:
392,356,470961,5,8,0:0:0:0:
328,16,471123,1,8,0:0:0:0:
496,260,471284,5,8,0:0:0:0:
140,192,471446,1,8,0:0:0:0:
488,124,471607,5,8,0:0:0:0:
124,196,471767,1,8,0:0:0:0:
392,356,471929,5,4,0:0:0:0:
392,356,472251,5,8,0:0:0:0:
316,292,472413,1,8,0:0:0:0:
392,228,472574,1,8,0:0:0:0:
316,164,472735,1,8,0:0:0:0:
392,100,472896,1,8,0:0:0:0:
316,36,473058,1,8,0:0:0:0:
468,164,473219,5,8,0:0:0:0:
240,100,473380,1,8,0:0:0:0:
392,228,473542,1,8,0:0:0:0:
164,292,473703,1,8,0:0:0:0:
316,100,473864,5,8,0:0:0:0:
256,360,474025,1,8,0:0:0:0:
308,68,474187,1,8,0:0:0:0:
368,328,474348,1,8,0:0:0:0:
164,100,474509,5,8,0:0:0:0:
500,192,474671,1,8,0:0:0:0:
256,360,474832,5,8,0:0:0:0:
164,12,474994,1,8,0:0:0:0:
352,384,475154,5,8,0:0:0:0:
448,20,475316,1,8,0:0:0:0:
116,116,475477,5,8,0:0:0:0:
500,192,475639,1,8,0:0:0:0:
256,360,475800,5,4,0:3:0:0:
256,4,477090,6,0,L|264:80,1,72,2|0,0:0|0:0,0:0:0:0:
240,156,477332,1,8,0:0:0:0:
240,156,477413,2,0,P|275:160|308:146,1,72,8|8,0:0|0:3,0:0:0:0:
332,128,477654,1,8,0:3:0:0:
360,116,477735,1,8,0:3:0:0:
388,116,477816,1,8,0:3:0:0:
416,124,477896,1,8,0:3:0:0:
440,140,477977,1,8,0:3:0:0:
460,160,478058,1,8,0:3:0:0:
472,188,478138,1,8,0:3:0:0:
420,252,478219,5,4,0:0:0:0:
420,252,478542,1,0,0:0:0:0:
360,148,478703,2,0,L|380:332,1,180,8|2,0:0|0:1,0:0:0:0:
256,252,479187,1,2,0:1:0:0:
76,324,479348,1,8,0:0:0:0:
168,359,479509,6,0,P|171:315|160:272,1,90,4|0,0:0|0:0,0:0:0:0:
32,116,479832,2,0,L|52:220,1,90,2|8,0:0|0:0,0:0:0:0:
216,40,480154,2,0,B|172:48|172:48|129:31,1,90,2|0,0:0|0:0,0:0:0:0:
342,129,480477,2,0,P|344:84|348:40,1,90,2|8,0:0|0:0,0:0:0:0:
444,236,480800,6,0,B|348:220|384:316|264:300,1,180,4|2,0:0|0:1,0:0:0:0:
85,332,481284,2,0,P|128:333|156:368,1,90,8|0,0:0|0:0,0:0:0:0:
223,188,481606,2,0,P|189:214|146:204,1,90,0|8,0:0|0:0,0:0:0:0:
60,240,481848,1,8,0:0:0:0:
60,240,481929,2,0,L|52:176,1,45,8|0,0:0|0:0,0:0:0:0:
160,92,482090,6,0,P|127:20|64:66,1,180,4|0,0:0|0:0,0:0:0:0:
146,204,482574,6,0,L|332:168,1,161.999995056153,4|0,0:0|0:0,0:0:0:0:
412,220,482896,6,0,B|421:152|421:152|387:94,1,135,4|0,0:0|0:0,0:0:0:0:
328,272,483219,6,0,P|384:316|496:272,1,175.499991966248,4|0,0:0|0:0,0:0:0:0:
412,220,483542,5,2,0:0:0:0:
408,232,484832,5,2,0:0:0:0:
412,220,485961,5,2,0:1:0:0:
408,232,486042,1,2,0:1:0:0:
404,244,486122,2,0,L|224:208,1,161.999995056153,4|0,0:0|0:0,0:0:0:0:
68,188,486767,6,0,P|61:265|138:251,1,180,4|0,0:0|0:0,0:0:0:0:
162,159,487251,5,4,0:0:0:0:
162,159,487574,5,8,0:0:0:0:
256,384,487735,1,8,0:0:0:0:
328,80,487896,1,8,0:0:0:0:
166,345,488058,5,4,0:0:0:0:
96,24,488219,1,4,0:0:0:0:
96,24,488542,6,0,B|216:8|188:132|328:80|328:80|292:128|312:192|312:192|320:148|352:128,1,445.499986404419,4|0,0:0|0:0,0:0:0:0:
