osu file format v14

[General]
AudioFilename: yuikonnu-compilation-final.mp3
AudioLeadIn: 0
PreviewTime: 5562
Countdown: 0
SampleSet: Soft
StackLeniency: 0.7
Mode: 0
LetterboxInBreaks: 1
WidescreenStoryboard: 1

[Editor]
Bookmarks: 44177,73446,98367,137540,180620,207473
DistanceSpacing: 0.3
BeatDivisor: 4
GridSize: 4
TimelineZoom: 2.2

[Metadata]
Title:Song Compilation
TitleUnicode:Song Compilation
Artist:yuikonnu
ArtistUnicode:ゆいこんぬ
Creator:walaowey
Version:Timing new MP3
Source:
Tags:
BeatmapID:3114303
BeatmapSetID:387631

[Difficulty]
HPDrainRate:5
CircleSize:4
OverallDifficulty:8
ApproachRate:9
SliderMultiplier:2
SliderTickRate:1

[Events]
//Background and Video events
0,0,"BG.jpg",0,0
//Break Periods
2,4463,43597
2,50528,71238
2,77831,87782
2,88582,100812
2,104237,138396
2,144843,180056
2,183442,205478
2,206278,256723
2,257523,290603
2,291403,322697
2,325756,357287
2,362982,367392
2,368192,383972
2,391088,421841
2,424220,467972
2,471298,538240
2,540117,565746
2,567783,598858
2,599658,663642
2,664942,716276
//Storyboard Layer 0 (Background)
//Storyboard Layer 1 (Fail)
//Storyboard Layer 2 (Pass)
//Storyboard Layer 3 (Foreground)
//Storyboard Layer 4 (Overlay)
//Storyboard Sound Samples

[TimingPoints]
2328,483.870967741935,4,2,1,60,1,0
44197,437.956204379562,4,1,0,60,1,0
71838,413.793103448276,4,2,1,60,1,0
96912,375,4,1,0,100,1,0
137585,352.941176470588,4,1,0,100,1,0
180656,344.827586206897,4,1,0,100,1,0
204715,340.909090909091,4,1,0,100,1,0
254657,333.333333333333,4,2,1,70,1,0
287203,333.333333333333,4,2,1,60,1,0
319427,322.58064516129,4,1,0,100,1,0
352835,315.789473684211,4,1,0,60,1,0
382046,315.789473684211,4,1,0,100,1,0
420547,315.789473684211,4,2,1,65,1,0
466046,315.789473684211,4,1,0,100,1,0
504782,315.789473684211,4,1,0,100,1,0
533917,307.692307692308,4,2,1,60,1,0
563872,309.278350515464,4,2,1,75,1,0
594658,300,4,1,0,100,1,0
621428,300,4,1,0,100,1,0
662242,250,4,1,0,100,1,0
710448,267.857142857143,4,1,0,100,1,0
749928,266.666666666667,4,2,1,60,1,0
778684,225.563909774436,4,2,1,70,1,0
805456,206.896551724138,4,2,1,50,1,0

[Colours]
Combo1 : 255,145,34
Combo2 : 255,121,121
Combo3 : 255,111,198
Combo4 : 100,255,100

[HitObjects]
265,207,2328,5,0,0:0:0:0:
215,200,2569,1,0,0:0:0:0:
272,149,2811,1,0,0:0:0:0:
295,202,4263,1,0,0:0:0:0:
301,184,44197,5,0,0:0:0:0:
290,180,45072,1,0,0:0:0:0:
299,235,45948,1,0,0:0:0:0:
286,210,46824,1,0,0:0:0:0:
286,210,47700,1,0,0:0:0:0:
226,143,49671,1,0,0:0:0:0:
226,143,49780,1,0,0:0:0:0:
246,159,49890,1,0,0:0:0:0:
246,159,49999,1,0,0:0:0:0:
246,159,50109,1,0,0:0:0:0:
246,159,50328,1,0,0:0:0:0:
230,261,71838,5,0,0:0:0:0:
230,261,72251,1,0,0:0:0:0:
210,270,73493,1,0,0:0:0:0:
198,273,75148,1,0,0:0:0:0:
198,273,75975,1,0,0:0:0:0:
198,273,76389,1,0,0:0:0:0:
198,273,76803,1,0,0:0:0:0:
242,208,77217,1,0,0:0:0:0:
242,208,77631,1,0,0:0:0:0:
265,229,88382,5,0,0:0:0:0:
189,255,101412,5,0,0:0:0:0:
189,255,101599,1,0,0:0:0:0:
189,255,101787,1,0,0:0:0:0:
189,255,101974,1,0,0:0:0:0:
189,255,102162,1,0,0:0:0:0:
189,255,102349,1,0,0:0:0:0:
189,255,102537,1,0,0:0:0:0:
189,255,102724,1,0,0:0:0:0:
189,255,102912,1,0,0:0:0:0:
189,255,103287,1,0,0:0:0:0:
189,255,103662,1,0,0:0:0:0:
189,255,104037,1,0,0:0:0:0:
209,276,138996,5,0,0:0:0:0:
188,158,140408,1,0,0:0:0:0:
188,158,141820,1,0,0:0:0:0:
258,151,142173,1,0,0:0:0:0:
258,151,142349,1,0,0:0:0:0:
258,151,142702,1,0,0:0:0:0:
258,151,143055,1,0,0:0:0:0:
258,151,143232,1,0,0:0:0:0:
252,150,143585,1,0,0:0:0:0:
252,150,143761,1,0,0:0:0:0:
190,181,144467,1,0,0:0:0:0:
258,151,144643,1,0,0:0:0:0:
241,297,180656,5,0,0:0:0:0:
305,227,181000,1,0,0:0:0:0:
268,248,181345,1,0,0:0:0:0:
268,248,181518,1,0,0:0:0:0:
268,248,181862,1,0,0:0:0:0:
259,239,182207,1,0,0:0:0:0:
259,239,182380,1,0,0:0:0:0:
259,239,182552,1,0,0:0:0:0:
259,239,182724,1,0,0:0:0:0:
259,239,182897,1,0,0:0:0:0:
251,234,183069,1,0,0:0:0:0:
251,234,183242,1,0,0:0:0:0:
235,233,206078,5,0,0:0:0:0:
222,259,257323,5,0,0:0:0:0:
231,201,291203,5,0,0:0:0:0:
208,186,323297,5,0,0:0:0:0:
181,175,324427,1,0,0:0:0:0:
181,175,324749,1,0,0:0:0:0:
181,175,325072,1,0,0:0:0:0:
297,153,325556,1,0,0:0:0:0:
254,287,357887,5,0,0:0:0:0:
254,287,358045,1,0,0:0:0:0:
254,287,358361,1,0,0:0:0:0:
258,151,358677,1,0,0:0:0:0:
163,108,358992,1,0,0:0:0:0:
250,120,360413,1,0,0:0:0:0:
214,148,362782,1,0,0:0:0:0:
142,264,367992,5,0,0:0:0:0:
246,216,384572,5,0,0:0:0:0:
224,225,387098,1,0,0:0:0:0:
327,180,387730,1,0,0:0:0:0:
215,221,388203,1,0,0:0:0:0:
215,221,388519,1,0,0:0:0:0:
215,221,388677,1,0,0:0:0:0:
215,221,389467,1,0,0:0:0:0:
209,220,389782,1,0,0:0:0:0:
209,220,389940,1,0,0:0:0:0:
190,216,390888,1,0,0:0:0:0:
246,220,422441,6,0,L|264:194,12,25
183,91,423073,1,0,0:0:0:0:
118,180,423389,1,0,0:0:0:0:
185,278,423704,1,0,0:0:0:0:
185,278,423862,1,0,0:0:0:0:
185,278,424020,1,0,0:0:0:0:
210,238,468572,5,0,0:0:0:0:
320,164,468888,1,0,0:0:0:0:
320,164,469046,1,0,0:0:0:0:
320,164,469361,1,0,0:0:0:0:
341,267,469677,1,0,0:0:0:0:
341,267,469993,1,0,0:0:0:0:
341,267,470151,1,0,0:0:0:0:
163,205,471098,1,0,0:0:0:0:
186,214,538840,5,0,0:0:0:0:
186,214,539147,1,0,0:0:0:0:
186,214,539301,1,0,0:0:0:0:
186,214,539609,1,0,0:0:0:0:
186,214,539917,1,0,0:0:0:0:
220,227,566346,5,0,0:0:0:0:
220,227,566500,1,0,0:0:0:0:
220,227,566655,1,0,0:0:0:0:
220,227,566810,1,0,0:0:0:0:
220,227,567119,1,0,0:0:0:0:
220,227,567274,1,0,0:0:0:0:
220,227,567428,1,0,0:0:0:0:
220,227,567583,1,0,0:0:0:0:
279,284,599458,5,0,0:0:0:0:
215,239,664242,5,0,0:0:0:0:
290,175,664492,1,0,0:0:0:0:
290,175,664617,1,0,0:0:0:0:
290,175,664742,1,0,0:0:0:0:
231,197,716876,5,0,0:0:0:0:
