osu file format v14

[General]
AudioFilename: audio.mp3
AudioLeadIn: 0
PreviewTime: 43151
Countdown: 1
SampleSet: None
StackLeniency: 0.7
Mode: 0
LetterboxInBreaks: 0
WidescreenStoryboard: 0

[Editor]
Bookmarks: 15560,43151,61108,78626,92640,110159,138188,171473
DistanceSpacing: 0.5
BeatDivisor: 4
GridSize: 32
TimelineZoom: 2.1

[Metadata]
Title:Shinkai Shoujo
TitleUnicode:深海少女
Artist:yuikonnu
ArtistUnicode:ゆいこんぬ
Creator:Epixyl
Version:Insane
Source:
Tags:
BeatmapID:1865216
BeatmapSetID:892266

[Difficulty]
HPDrainRate:6
CircleSize:4
OverallDifficulty:8
ApproachRate:9.3
SliderMultiplier:1
SliderTickRate:1

[Events]
//Background and Video events
0,0,"A_blank_black_picture.jpg",0,0
//Break Periods
2,61308,63619
2,153954,160408
//Storyboard Layer 0 (Background)
//Storyboard Layer 1 (Fail)
//Storyboard Layer 2 (Pass)
//Storyboard Layer 3 (Foreground)
//Storyboard Sound Samples

[TimingPoints]
1546,437.956204379562,4,2,0,100,1,0
1546,-100,4,2,0,40,0,0
14903,-50,4,2,0,80,0,0
15560,-66.6666666666667,4,2,0,80,0,0
43589,-50,4,3,0,100,0,1
54100,-57.1428571428571,4,3,0,100,0,1
57604,-83.3333333333333,4,3,0,100,0,0
64173,-83.3333333333333,4,2,0,60,0,0
76436,-83.3333333333333,4,2,0,80,0,0
78626,-100,4,2,0,70,0,0
88699,-100,4,2,0,80,0,0
92640,-50,4,3,0,100,0,1
106655,-66.6666666666667,4,3,0,100,0,0
109721,-66.6666666666667,4,3,0,100,0,0
120670,-66.6666666666667,4,3,0,20,0,0
121108,-66.6666666666667,4,3,0,40,0,0
121545,-66.6666666666667,4,3,0,60,0,0
121983,-66.6666666666667,4,3,0,80,0,0
122421,-66.6666666666667,4,3,0,100,0,0
126801,-66.6666666666667,4,2,0,50,0,0
130743,-66.6666666666667,4,2,0,100,0,0
138188,-100,4,2,0,30,0,0
144976,-100,4,2,0,40,0,0
160962,-100,4,2,0,60,0,0
163370,-66.6666666666667,4,2,0,80,0,0
167969,-66.6666666666667,4,3,0,20,0,0
168407,-66.6666666666667,4,3,0,40,0,0
168845,-66.6666666666667,4,3,0,60,0,0
169283,-66.6666666666667,4,3,0,80,0,0
169721,-50,4,3,0,100,0,0
171473,-45.4545454545455,4,3,0,100,0,1
185487,-66.6666666666667,4,3,0,100,0,0

[HitObjects]
73,68,1108,5,0,0:0:0:0:
98,138,1327,1,0,0:0:0:0:
157,183,1546,2,0,L|211:181,1,50
269,140,1983,2,0,L|318:141,1,50
393,155,2421,2,0,P|429:187|440:235,1,100
318,249,3078,1,0,0:0:0:0:
316,249,3297,2,0,P|281:283|277:331,1,100
414,336,3954,1,0,0:0:0:0:
413,335,4173,2,0,P|413:360|406:384,1,50
93,288,4830,5,0,0:0:0:0:
132,224,5049,1,0,0:0:0:0:
132,224,5268,1,0,0:0:0:0:
132,224,5487,2,0,L|181:218,1,50
309,190,5925,5,0,0:0:0:0:
309,190,6144,1,0,0:0:0:0:
309,190,6363,2,0,L|253:184,1,50
184,174,6801,5,0,0:0:0:0:
198,246,7019,1,0,0:0:0:0:
254,293,7238,1,0,0:0:0:0:
327,295,7457,1,0,0:0:0:0:
385,250,7676,1,0,0:0:0:0:
402,178,7895,1,0,0:0:0:0:
370,112,8114,1,0,0:0:0:0:
304,80,8333,1,0,0:0:0:0:
228,72,8553,6,0,P|204:74|181:84,1,50
131,157,8991,2,0,P|156:159|179:169,1,50
227,243,9429,6,0,P|180:256|153:297,1,100
233,326,10086,1,0,0:0:0:0:
78,267,10305,2,0,P|57:254|44:234,1,50
144,215,10743,2,0,P|164:202|177:181,1,50
87,141,11181,2,0,P|52:108|51:59,1,100
359,182,11837,5,0,0:0:0:0:
359,182,11947,1,0,0:0:0:0:
359,182,12056,2,0,L|416:185,1,50
279,262,12713,5,0,0:0:0:0:
279,262,12823,1,0,0:0:0:0:
279,262,12932,2,0,L|336:265,1,50
376,344,13370,2,0,L|319:347,1,50
70,358,13808,2,0,P|92:268|186:263,1,200
144,328,14903,5,0,0:0:0:0:
172,79,15122,1,0,0:0:0:0:
217,284,15341,1,0,0:0:0:0:
370,231,15560,5,0,0:0:0:0:
194,180,15779,1,0,0:0:0:0:
235,352,15998,5,0,0:0:0:0:
290,172,16217,1,0,0:0:0:0:
102,206,16436,2,0,P|98:168|108:133,1,75.0000028610231
294,99,16874,2,0,P|301:136|289:171,1,75.0000028610231
142,231,17312,5,0,0:0:0:0:
318,180,17531,1,0,0:0:0:0:
277,352,17750,5,0,0:0:0:0:
222,172,17969,1,0,0:0:0:0:
409,206,18188,2,0,P|413:168|403:133,1,75.0000028610231
223,90,18626,1,0,0:0:0:0:
106,240,18845,1,0,0:0:0:0:
309,268,19064,6,0,P|318:233|312:196,1,75.0000028610231
121,129,19502,1,0,0:0:0:0:
243,226,19721,1,0,0:0:0:0:
227,66,19940,6,0,P|202:38|168:21,1,75.0000028610231
170,22,20268,1,0,0:0:0:0:
170,22,20378,1,0,0:0:0:0:
87,207,20597,1,0,0:0:0:0:
87,207,20706,1,0,0:0:0:0:
87,207,20816,1,0,0:0:0:0:
228,67,21035,5,0,0:0:0:0:
269,69,21144,1,0,0:0:0:0:
305,89,21254,1,0,0:0:0:0:
328,123,21363,1,0,0:0:0:0:
335,164,21473,1,0,0:0:0:0:
129,133,21691,5,0,0:0:0:0:
159,332,21910,1,0,0:0:0:0:
251,154,22129,2,0,P|253:191|275:222,1,75.0000028610231
444,279,22567,5,0,0:0:0:0:
444,279,22677,1,0,0:0:0:0:
444,279,22786,1,0,0:0:0:0:
405,68,23005,1,0,0:0:0:0:
283,306,23224,2,0,P|230:292|198:247,1,112.500004291535
198,247,23662,1,0,0:0:0:0:
206,93,23881,1,0,0:0:0:0:
194,361,24100,1,0,0:0:0:0:
112,79,24319,6,0,L|109:184,1,75.0000028610231
106,314,24757,1,0,0:0:0:0:
188,110,24976,2,0,P|227:69|280:50,1,112.500004291535
280,51,25414,1,0,0:0:0:0:
267,270,25633,1,0,0:0:0:0:
276,310,25743,1,0,0:0:0:0:
303,341,25852,1,0,0:0:0:0:
339,361,25962,1,0,0:0:0:0:
380,364,26071,6,0,P|416:355|445:333,1,75.0000028610231
150,340,26509,1,0,0:0:0:0:
373,283,26728,1,0,0:0:0:0:
373,283,26837,1,0,0:0:0:0:
373,283,26947,1,0,0:0:0:0:
94,262,27166,1,0,0:0:0:0:
133,55,27385,5,0,0:0:0:0:
153,93,27494,1,0,0:0:0:0:
188,120,27604,1,0,0:0:0:0:
230,129,27713,1,0,0:0:0:0:
272,118,27823,5,0,0:0:0:0:
8,207,28042,1,0,0:0:0:0:
225,43,28261,1,0,0:0:0:0:
229,342,28480,1,0,0:0:0:0:
440,130,28699,1,0,0:0:0:0:
440,130,28808,1,0,0:0:0:0:
440,130,28918,1,0,0:0:0:0:
297,371,29137,1,0,0:0:0:0:
262,149,29356,1,0,0:0:0:0:
117,262,29575,6,0,P|99:280|77:292,2,50.0000019073487
194,104,30013,2,0,P|219:78|255:69,1,75.0000028610231
220,304,30451,2,0,P|192:330|156:337,1,75.0000028610231
260,148,30889,1,0,0:0:0:0:
125,145,31108,1,0,0:0:0:0:
225,223,31327,6,0,P|262:231|298:222,1,75.0000028610231
179,69,31764,1,0,0:0:0:0:
179,69,31874,1,0,0:0:0:0:
178,68,31983,2,0,P|126:50|73:65,1,112.500004291535
73,65,32421,1,0,0:0:0:0:
92,350,32640,1,0,0:0:0:0:
124,145,32859,1,0,0:0:0:0:
138,288,33078,5,0,0:0:0:0:
73,65,33297,1,0,0:0:0:0:
246,239,33516,1,0,0:0:0:0:
289,11,33735,1,0,0:0:0:0:
138,174,33954,2,0,P|108:198|73:211,1,75.0000028610231
191,25,34392,1,0,0:0:0:0:
217,281,34611,1,0,0:0:0:0:
428,120,34830,5,0,0:0:0:0:
190,24,35049,2,0,P|153:25|118:37,1,75.0000028610231
33,253,35487,1,0,0:0:0:0:
53,289,35597,1,0,0:0:0:0:
87,314,35706,1,0,0:0:0:0:
127,319,35816,1,0,0:0:0:0:
166,309,35925,1,0,0:0:0:0:
328,68,36144,5,0,0:0:0:0:
368,57,36254,1,0,0:0:0:0:
410,60,36363,1,0,0:0:0:0:
446,80,36473,1,0,0:0:0:0:
476,109,36582,2,0,B|479:168|479:168|443:189|443:189|449:255|424:311,1,225.000008583069
286,272,37458,2,0,B|235:235|235:235|203:245|189:267|189:267|156:223|97:225,1,225.000008583069
50,370,38334,6,0,P|83:355|103:324,1,75.0000028610231
90,149,38772,1,0,0:0:0:0:
191,356,38991,1,0,0:0:0:0:
191,356,39100,1,0,0:0:0:0:
191,356,39210,1,0,0:0:0:0:
314,167,39429,1,0,0:0:0:0:
90,149,39648,1,0,0:0:0:0:
85,191,39757,1,0,0:0:0:0:
94,233,39867,1,0,0:0:0:0:
126,262,39976,1,0,0:0:0:0:
167,274,40086,1,0,0:0:0:0:
206,88,40305,5,0,0:0:0:0:
245,56,40414,1,0,0:0:0:0:
295,51,40524,1,0,0:0:0:0:
341,69,40633,1,0,0:0:0:0:
377,103,40743,2,0,P|365:137|333:157,1,75.0000028610231
296,24,41181,5,0,0:0:0:0:
349,29,41290,1,0,0:0:0:0:
396,55,41400,1,0,0:0:0:0:
422,102,41509,1,0,0:0:0:0:
421,156,41618,1,0,0:0:0:0:
206,88,41837,1,0,0:0:0:0:
394,291,42056,5,0,0:0:0:0:
441,257,42166,1,0,0:0:0:0:
477,211,42275,1,0,0:0:0:0:
494,155,42385,1,0,0:0:0:0:
493,101,42494,1,0,0:0:0:0:
476,47,42604,1,0,0:0:0:0:
446,0,42713,1,0,0:0:0:0:
45,32,43151,5,0,0:0:0:0:
68,279,43370,1,0,0:0:0:0:
101,84,43589,2,0,P|149:71|197:82,1,100
370,311,44027,2,0,P|321:323|273:312,1,100
148,149,44465,1,0,0:0:0:0:
273,312,44684,1,0,0:0:0:0:
344,127,44903,1,0,0:0:0:0:
156,338,45122,5,0,0:0:0:0:
156,338,45232,1,0,0:0:0:0:
156,338,45341,2,0,P|107:350|59:339,1,100
265,120,45779,2,0,P|313:107|361:118,1,100
109,266,46217,1,0,0:0:0:0:
315,188,46436,1,0,0:0:0:0:
149,68,46655,1,0,0:0:0:0:
149,68,46764,1,0,0:0:0:0:
149,68,46874,1,0,0:0:0:0:
109,265,47093,6,0,P|119:217|113:168,1,100
46,30,47531,1,0,0:0:0:0:
300,73,47750,1,0,0:0:0:0:
46,30,47969,6,0,P|95:38|144:33,1,100
309,0,48407,1,0,0:0:0:0:
208,239,48626,1,0,0:0:0:0:
309,0,48845,5,0,0:0:0:0:
470,205,49064,1,0,0:0:0:0:
470,205,49173,1,0,0:0:0:0:
470,205,49283,1,0,0:0:0:0:
208,239,49502,1,0,0:0:0:0:
208,239,49611,1,0,0:0:0:0:
208,239,49721,1,0,0:0:0:0:
299,58,49940,5,0,0:0:0:0:
344,78,50049,1,0,0:0:0:0:
383,110,50159,1,0,0:0:0:0:
410,152,50268,1,0,0:0:0:0:
417,201,50378,1,0,0:0:0:0:
411,250,50487,1,0,0:0:0:0:
395,297,50597,6,0,P|444:310|492:300,1,100
242,163,51035,2,0,P|194:149|146:163,1,100
440,231,51473,1,0,0:0:0:0:
195,232,51691,1,0,0:0:0:0:
307,33,51910,1,0,0:0:0:0:
278,264,52129,5,0,0:0:0:0:
278,264,52239,1,0,0:0:0:0:
278,264,52348,1,0,0:0:0:0:
293,65,52567,1,0,0:0:0:0:
158,298,52786,1,0,0:0:0:0:
134,107,53005,1,0,0:0:0:0:
255,356,53224,2,0,P|304:356|348:333,1,100
433,113,53662,1,0,0:0:0:0:
170,96,53881,5,0,0:0:0:0:
170,96,53991,1,0,0:0:0:0:
170,96,54100,1,0,0:0:0:0:
170,96,54538,2,0,L|272:102,1,87.500000834465
403,110,54976,1,0,0:0:0:0:
133,92,55195,1,0,0:0:0:0:
153,373,55414,2,0,L|146:280,1,87.500000834465
133,92,55852,5,0,0:0:0:0:
382,135,56071,1,0,0:0:0:0:
95,163,56290,5,0,0:0:0:0:
328,65,56509,1,0,0:0:0:0:
140,11,56728,5,0,0:0:0:0:
218,323,56947,1,0,0:0:0:0:
233,46,57166,5,0,0:0:0:0:
110,356,57385,1,0,0:0:0:0:
101,24,57604,5,0,0:0:0:0:
101,24,58042,5,0,0:0:0:0:
399,56,58261,1,0,0:0:0:0:
221,309,58480,1,0,0:0:0:0:
221,309,58589,1,0,0:0:0:0:
221,309,58699,1,0,0:0:0:0:
412,35,58918,1,0,0:0:0:0:
474,266,59137,5,0,0:0:0:0:
474,266,59246,1,0,0:0:0:0:
474,266,59356,1,0,0:0:0:0:
248,218,59575,1,0,0:0:0:0:
433,134,59794,1,0,0:0:0:0:
433,134,59903,1,0,0:0:0:0:
433,134,60013,1,0,0:0:0:0:
292,91,60232,5,0,0:0:0:0:
250,237,60451,1,0,0:0:0:0:
135,124,60670,1,0,0:0:0:0:
107,156,60779,1,0,0:0:0:0:
92,196,60889,1,0,0:0:0:0:
89,238,60998,1,0,0:0:0:0:
96,280,61108,1,0,0:0:0:0:
57,54,64173,5,0,0:0:0:0:
287,57,64392,1,0,0:0:0:0:
112,111,64611,2,0,P|137:96|166:90,1,59.9999981689454
366,171,65049,1,0,0:0:0:0:
112,220,65268,2,0,P|137:235|166:241,1,59.9999981689454
328,97,65706,1,0,0:0:0:0:
293,342,65925,1,0,0:0:0:0:
255,135,66144,1,0,0:0:0:0:
298,356,66363,6,0,P|323:371|353:376,1,59.9999981689454
512,256,66801,1,0,0:0:0:0:
292,172,67020,2,0,P|317:156|347:151,1,59.9999981689454
510,231,67458,1,0,0:0:0:0:
460,17,67677,1,0,0:0:0:0:
430,262,67896,1,0,0:0:0:0:
430,262,68115,6,0,P|417:218|394:180,1,89.9999972534181
371,155,68553,1,0,0:0:0:0:
138,177,68772,2,0,P|144:147|165:118,1,59.9999981689454
313,41,69210,1,0,0:0:0:0:
348,250,69429,1,0,0:0:0:0:
205,86,69648,5,0,0:0:0:0:
205,86,69757,1,0,0:0:0:0:
205,86,69867,1,0,0:0:0:0:
454,142,70086,1,0,0:0:0:0:
454,142,70195,1,0,0:0:0:0:
458,146,70305,1,0,0:0:0:0:
285,320,70524,1,0,0:0:0:0:
285,320,70633,1,0,0:0:0:0:
284,320,70743,2,0,P|275:337|259:348,2,39.9999987792969
322,226,71181,6,0,P|340:203|365:187,1,59.9999981689454
512,190,71618,1,0,0:0:0:0:
512,190,71728,1,0,0:0:0:0:
512,190,71837,1,0,0:0:0:0:
345,70,72056,1,0,0:0:0:0:
182,190,72275,2,0,P|152:186|128:169,1,59.9999981689454
100,41,72713,1,0,0:0:0:0:
122,335,72932,1,0,0:0:0:0:
187,112,73151,1,0,0:0:0:0:
219,288,73370,5,0,0:0:0:0:
283,185,73589,1,0,0:0:0:0:
352,308,73808,1,0,0:0:0:0:
416,161,74027,1,0,0:0:0:0:
493,323,74246,5,0,0:0:0:0:
435,93,74465,1,0,0:0:0:0:
222,141,74684,1,0,0:0:0:0:
176,165,74794,1,0,0:0:0:0:
152,211,74903,1,0,0:0:0:0:
157,264,75013,1,0,0:0:0:0:
190,303,75122,6,0,P|233:317|265:310,1,59.9999981689454
453,122,75560,1,0,0:0:0:0:
479,338,75779,1,0,0:0:0:0:
479,338,75889,1,0,0:0:0:0:
479,338,75998,1,0,0:0:0:0:
332,109,76217,1,0,0:0:0:0:
85,164,76436,5,0,0:0:0:0:
66,206,76545,1,0,0:0:0:0:
67,254,76655,1,0,0:0:0:0:
92,294,76764,1,0,0:0:0:0:
135,313,76874,1,0,0:0:0:0:
242,63,77093,1,0,0:0:0:0:
269,320,77312,1,0,0:0:0:0:
382,61,77531,1,0,0:0:0:0:
78,180,77750,5,0,0:0:0:0:
78,180,77859,1,0,0:0:0:0:
78,180,77969,1,0,0:0:0:0:
300,14,78188,1,0,0:0:0:0:
341,296,78407,1,0,0:0:0:0:
307,57,78626,6,0,P|278:33|241:27,2,75
326,98,79392,1,0,0:0:0:0:
340,132,79502,2,0,L|363:184,1,50
436,367,79940,1,0,0:0:0:0:
143,274,80159,2,0,P|167:265|192:263,1,50
385,335,80597,2,0,P|423:332|456:316,2,75
386,336,81691,1,0,0:0:0:0:
235,135,81910,1,0,0:0:0:0:
127,262,82129,6,0,P|96:241|78:208,2,75
398,244,83005,1,0,0:0:0:0:
398,244,83443,1,0,0:0:0:0:
500,43,83662,1,0,0:0:0:0:
285,226,83881,5,0,0:0:0:0:
253,9,84100,1,0,0:0:0:0:
74,138,84319,1,0,0:0:0:0:
72,162,84428,1,0,0:0:0:0:
74,187,84537,1,0,0:0:0:0:
81,211,84647,1,0,0:0:0:0:
88,235,84756,1,0,0:0:0:0:
92,260,84866,1,0,0:0:0:0:
91,285,84975,1,0,0:0:0:0:
183,170,85195,5,0,0:0:0:0:
221,139,85305,1,0,0:0:0:0:
268,126,85414,1,0,0:0:0:0:
316,136,85524,1,0,0:0:0:0:
357,162,85633,2,0,P|375:178|386:200,1,50
173,231,86071,2,0,P|150:238|125:236,1,50
207,43,86509,2,0,P|211:19|226:0,1,50
357,162,86947,1,0,0:0:0:0:
202,59,87166,1,0,0:0:0:0:
185,239,87385,6,0,L|180:304,1,50
112,337,87713,2,0,L|107:272,1,50
110,213,88042,1,0,0:0:0:0:
110,213,88151,1,0,0:0:0:0:
110,213,88261,1,0,0:0:0:0:
112,337,88480,1,0,0:0:0:0:
108,158,88699,5,0,0:0:0:0:
125,110,88808,1,0,0:0:0:0:
164,73,88918,1,0,0:0:0:0:
215,59,89027,1,0,0:0:0:0:
269,68,89137,1,0,0:0:0:0:
240,315,89356,1,0,0:0:0:0:
240,315,89465,1,0,0:0:0:0:
240,315,89575,1,0,0:0:0:0:
269,68,89794,5,0,0:0:0:0:
386,309,90013,1,0,0:0:0:0:
118,292,90232,1,0,0:0:0:0:
118,292,90341,1,0,0:0:0:0:
118,292,90451,1,0,0:0:0:0:
159,25,90670,5,0,0:0:0:0:
118,292,90889,1,0,0:0:0:0:
269,68,91108,1,0,0:0:0:0:
316,37,91217,1,0,0:0:0:0:
371,24,91327,1,0,0:0:0:0:
426,36,91436,1,0,0:0:0:0:
476,61,91545,1,0,0:0:0:0:
300,213,91764,5,0,0:0:0:0:
238,223,91874,1,0,0:0:0:0:
178,206,91983,1,0,0:0:0:0:
138,158,92093,1,0,0:0:0:0:
134,96,92202,1,0,0:0:0:0:
430,81,92421,1,0,0:0:0:0:
430,81,92531,1,0,0:0:0:0:
430,81,92640,6,0,P|382:68|334:79,1,100
111,325,93078,2,0,P|160:337|208:326,1,100
381,150,93516,1,0,0:0:0:0:
207,326,93735,1,0,0:0:0:0:
146,97,93954,1,0,0:0:0:0:
334,274,94173,5,0,0:0:0:0:
334,274,94283,1,0,0:0:0:0:
334,274,94392,2,0,P|383:286|431:275,1,100
195,64,94830,2,0,P|147:51|99:62,1,100
168,288,95268,1,0,0:0:0:0:
382,200,95487,1,0,0:0:0:0:
203,71,95706,1,0,0:0:0:0:
203,71,95815,1,0,0:0:0:0:
203,71,95925,1,0,0:0:0:0:
403,214,96144,6,0,P|445:238|495:245,1,100
343,105,96582,1,0,0:0:0:0:
294,304,96801,1,0,0:0:0:0:
343,105,97020,6,0,P|302:143|285:196,1,100
470,101,97458,1,0,0:0:0:0:
314,0,97677,1,0,0:0:0:0:
488,111,97896,5,0,0:0:0:0:
214,147,98115,1,0,0:0:0:0:
214,147,98224,1,0,0:0:0:0:
214,147,98334,1,0,0:0:0:0:
386,343,98553,1,0,0:0:0:0:
386,343,98662,1,0,0:0:0:0:
386,343,98772,1,0,0:0:0:0:
342,73,98991,5,0,0:0:0:0:
288,37,99100,1,0,0:0:0:0:
225,20,99210,1,0,0:0:0:0:
161,29,99319,1,0,0:0:0:0:
108,67,99429,1,0,0:0:0:0:
88,128,99538,1,0,0:0:0:0:
98,192,99648,6,0,P|117:244|159:280,1,100
314,115,100086,2,0,P|356:79|410:69,1,100
149,65,100524,1,0,0:0:0:0:
188,307,100742,1,0,0:0:0:0:
395,152,100961,1,0,0:0:0:0:
136,199,101180,5,0,0:0:0:0:
136,199,101290,1,0,0:0:0:0:
136,199,101399,1,0,0:0:0:0:
219,0,101618,1,0,0:0:0:0:
245,253,101837,1,0,0:0:0:0:
145,44,102056,1,0,0:0:0:0:
127,299,102275,2,0,P|156:346|199:370,1,100
430,324,102713,1,0,0:0:0:0:
368,104,102932,5,0,0:0:0:0:
368,104,103042,1,0,0:0:0:0:
368,103,103151,2,0,P|391:80|405:50,2,66.6666666666667
143,159,103589,2,0,P|119:135|105:105,2,66.6666666666667
387,204,104027,2,0,P|419:195|446:177,2,66.6666666666667
131,262,104465,2,0,P|98:253|71:235,2,66.6666666666667
410,287,104903,5,0,0:0:0:0:
296,33,105122,1,0,0:0:0:0:
253,331,105341,1,0,0:0:0:0:
446,101,105560,1,0,0:0:0:0:
129,130,105779,1,0,0:0:0:0:
447,294,105998,1,0,0:0:0:0:
93,269,106217,1,0,0:0:0:0:
365,32,106436,1,0,0:0:0:0:
275,345,106655,5,0,0:0:0:0:
26,131,106874,1,0,0:0:0:0:
59,86,106983,1,0,0:0:0:0:
103,51,107092,1,0,0:0:0:0:
154,27,107202,1,0,0:0:0:0:
209,17,107311,1,0,0:0:0:0:
275,345,107531,5,0,0:0:0:0:
275,345,107640,1,0,0:0:0:0:
275,345,107750,1,0,0:0:0:0:
365,32,107969,1,0,0:0:0:0:
453,271,108188,1,0,0:0:0:0:
453,271,108297,1,0,0:0:0:0:
453,271,108407,5,0,0:0:0:0:
365,32,108626,1,0,0:0:0:0:
313,53,108735,1,0,0:0:0:0:
268,88,108845,1,0,0:0:0:0:
233,132,108954,1,0,0:0:0:0:
211,183,109063,1,0,0:0:0:0:
453,271,109283,1,0,0:0:0:0:
197,347,109502,1,0,0:0:0:0:
84,111,109721,1,0,0:0:0:0:
84,111,109940,1,0,0:0:0:0:
335,126,110159,5,0,0:0:0:0:
241,287,110378,1,0,0:0:0:0:
241,287,110487,1,0,0:0:0:0:
241,287,110597,1,0,0:0:0:0:
199,65,110816,1,0,0:0:0:0:
199,64,110925,2,0,P|216:32|244:7,1,75.0000028610231
244,7,111254,1,0,0:0:0:0:
227,206,111473,1,0,0:0:0:0:
227,206,111582,1,0,0:0:0:0:
227,206,111691,1,0,0:0:0:0:
410,111,111910,5,0,0:0:0:0:
455,322,112129,1,0,0:0:0:0:
455,322,112239,1,0,0:0:0:0:
455,322,112348,1,0,0:0:0:0:
243,244,112567,2,0,B|204:252|207:238|158:244,1,75.0000028610231
168,242,112896,1,0,0:0:0:0:
168,242,113005,1,0,0:0:0:0:
312,90,113224,5,0,0:0:0:0:
347,101,113333,1,0,0:0:0:0:
377,124,113442,1,0,0:0:0:0:
398,155,113552,1,0,0:0:0:0:
408,191,113661,1,0,0:0:0:0:
227,122,113881,5,0,0:0:0:0:
227,122,113991,1,0,0:0:0:0:
227,122,114100,1,0,0:0:0:0:
117,269,114319,1,0,0:0:0:0:
57,116,114538,1,0,0:0:0:0:
57,116,114648,1,0,0:0:0:0:
57,116,114757,1,0,0:0:0:0:
233,247,114976,1,0,0:0:0:0:
233,247,115086,1,0,0:0:0:0:
233,247,115195,1,0,0:0:0:0:
345,68,115414,6,0,P|280:74|254:95,1,75.0000028610231
273,78,115743,1,0,0:0:0:0:
273,78,115852,1,0,0:0:0:0:
233,247,116071,1,0,0:0:0:0:
406,205,116290,1,0,0:0:0:0:
406,205,116400,1,0,0:0:0:0:
406,205,116509,1,0,0:0:0:0:
241,355,116728,5,0,0:0:0:0:
203,354,116837,1,0,0:0:0:0:
169,340,116946,1,0,0:0:0:0:
142,314,117056,1,0,0:0:0:0:
126,280,117166,2,0,L|117:229,1,37.5000014305115
197,231,117385,2,0,L|200:171,1,37.5000014305115
277,210,117604,1,0,0:0:0:0:
457,176,117823,6,0,L|467:117,1,37.5000014305115
385,128,118042,2,0,L|390:67,1,37.5000014305115
310,95,118261,2,0,L|306:37,1,37.5000014305115
230,83,118480,1,0,0:0:0:0:
255,300,118699,5,0,0:0:0:0:
255,300,118808,1,0,0:0:0:0:
255,300,118918,1,0,0:0:0:0:
110,140,119137,1,0,0:0:0:0:
110,140,119246,1,0,0:0:0:0:
110,140,119356,1,0,0:0:0:0:
321,96,119575,1,0,0:0:0:0:
118,265,119794,2,0,P|137:296|168:315,1,75.0000028610231
434,333,120232,2,0,P|414:301|380:285,1,75.0000028610231
168,315,120670,5,0,0:0:0:0:
120,192,120889,1,0,0:0:0:0:
285,283,121108,1,0,0:0:0:0:
333,126,121327,1,0,0:0:0:0:
179,237,121545,1,0,0:0:0:0:
116,67,121764,1,0,0:0:0:0:
315,197,121983,1,0,0:0:0:0:
368,5,122202,1,0,0:0:0:0:
103,26,122421,1,0,0:0:0:0:
257,236,122640,5,0,0:0:0:0:
257,236,122750,2,0,P|293:245|329:237,1,75.0000028610231
290,161,123078,2,0,P|315:134|327:98,1,75.0000028610231
245,87,123407,2,0,P|234:51|209:23,1,75.0000028610231
175,7,123735,1,0,0:0:0:0:
137,5,123844,1,0,0:0:0:0:
103,20,123953,1,0,0:0:0:0:
78,48,124063,1,0,0:0:0:0:
68,84,124172,1,0,0:0:0:0:
256,192,124283,12,0,126801,0:0:0:0:
35,178,127239,5,0,0:0:0:0:
42,197,127348,1,0,0:0:0:0:
50,217,127457,1,0,0:0:0:0:
57,236,127567,1,0,0:0:0:0:
64,255,127676,1,0,0:0:0:0:
56,25,127896,2,0,P|124:22|160:33,1,75.0000028610231
295,192,128334,1,0,0:0:0:0:
295,192,128772,5,0,0:0:0:0:
261,2,128991,1,0,0:0:0:0:
184,175,129210,1,0,0:0:0:0:
344,69,129429,1,0,0:0:0:0:
344,69,129648,1,0,0:0:0:0:
371,285,129867,2,0,P|334:290|297:287,1,75.0000028610231
105,151,130305,1,0,0:0:0:0:
105,151,130743,5,0,0:0:0:0:
144,157,130852,1,0,0:0:0:0:
182,175,130961,1,0,0:0:0:0:
213,203,131071,1,0,0:0:0:0:
236,238,131181,2,0,P|262:269|302:291,1,75.0000028610231
396,73,131618,2,0,P|370:42|330:20,1,75.0000028610231
107,95,132056,2,0,P|104:134|116:178,1,75.0000028610231
319,297,132494,1,0,0:0:0:0:
327,79,132713,1,0,0:0:0:0:
327,79,132823,1,0,0:0:0:0:
326,79,132932,6,0,P|341:41|370:11,1,75.0000028610231
468,229,133370,2,0,P|452:266|424:296,1,75.0000028610231
209,196,133808,1,0,0:0:0:0:
274,377,134027,1,0,0:0:0:0:
339,163,134246,1,0,0:0:0:0:
339,163,134356,1,0,0:0:0:0:
339,163,134465,1,0,0:0:0:0:
91,145,134684,6,0,P|55:123|37:87,1,75.0000028610231
362,30,135122,2,0,P|399:10|439:12,1,75.0000028610231
326,322,135560,1,0,0:0:0:0:
109,123,135779,1,0,0:0:0:0:
149,116,135888,1,0,0:0:0:0:
190,115,135997,1,0,0:0:0:0:
231,120,136107,1,0,0:0:0:0:
271,127,136216,1,0,0:0:0:0:
313,129,136326,1,0,0:0:0:0:
354,127,136435,1,0,0:0:0:0:
492,82,136655,5,0,0:0:0:0:
473,59,136764,2,0,P|445:35|410:25,1,75.0000028610231
377,50,137093,2,0,P|340:42|304:51,1,75.0000028610231
300,144,137458,2,0,P|320:129|343:121,2,50.0000019073487
259,218,137896,2,0,L|314:224,1,50.0000019073487
384,233,138188,5,0,0:0:0:0:
441,187,138406,1,0,0:0:0:0:
458,116,138625,1,0,0:0:0:0:
427,49,138844,1,0,0:0:0:0:
360,17,139063,1,0,0:0:0:0:
289,34,139282,1,0,0:0:0:0:
243,92,139501,1,0,0:0:0:0:
244,165,139720,1,0,0:0:0:0:
277,230,139940,5,0,0:0:0:0:
298,298,140158,1,0,0:0:0:0:
249,350,140377,1,0,0:0:0:0:
179,332,140596,1,0,0:0:0:0:
161,263,140815,1,0,0:0:0:0:
161,263,141254,5,0,0:0:0:0:
189,196,141473,1,0,0:0:0:0:
177,125,141691,2,0,L|125:86,2,50
248,142,142348,2,0,P|296:140|349:114,1,100
383,58,143005,1,0,0:0:0:0:
437,9,143224,1,0,0:0:0:0:
511,5,143443,1,0,0:0:0:0:
56,116,144757,6,0,L|28:124,2,16.6666666666667
129,99,144976,1,0,0:0:0:0:
201,110,145195,1,0,0:0:0:0:
255,159,145414,1,0,0:0:0:0:
289,223,145633,1,0,0:0:0:0:
344,270,145852,1,0,0:0:0:0:
417,267,146071,2,0,P|463:242|484:193,1,100
484,128,146728,1,0,0:0:0:0:
453,62,146947,5,0,0:0:0:0:
394,18,147166,1,0,0:0:0:0:
321,17,147385,1,0,0:0:0:0:
260,57,147604,1,0,0:0:0:0:
228,122,147823,2,0,P|220:170|242:234,1,100
232,218,148699,5,0,0:0:0:0:
197,154,148918,1,0,0:0:0:0:
132,122,149137,1,0,0:0:0:0:
60,135,149356,2,0,P|23:178|25:235,1,100
49,286,150013,1,0,0:0:0:0:
112,322,150232,6,0,B|176:322|176:322|176:162|304:194|368:226|272:322|464:322,1,450
312,121,160962,5,0,0:0:0:0:
264,105,161400,1,0,0:0:0:0:
214,105,161837,1,0,0:0:0:0:
166,121,162275,1,0,0:0:0:0:
128,304,162713,1,0,0:0:0:0:
171,328,163151,1,0,0:0:0:0:
417,318,163370,1,0,0:0:0:0:
417,318,163480,1,0,0:0:0:0:
417,318,163589,1,0,0:0:0:0:
417,318,164027,5,0,0:0:0:0:
306,196,164246,1,0,0:0:0:0:
259,341,164465,6,0,P|225:336|206:323,2,50.0000019073487
394,230,164903,2,0,P|428:225|447:212,2,50.0000019073487
240,170,165341,2,0,P|206:165|187:152,2,50.0000019073487
359,76,165779,2,0,P|393:71|412:58,2,50.0000019073487
213,28,166217,5,0,0:0:0:0:
125,196,166436,1,0,0:0:0:0:
40,46,166655,1,0,0:0:0:0:
222,132,166874,1,0,0:0:0:0:
310,43,167093,1,0,0:0:0:0:
418,192,167312,1,0,0:0:0:0:
480,26,167531,1,0,0:0:0:0:
324,131,167750,1,0,0:0:0:0:
104,119,167969,5,0,0:0:0:0:
84,202,168188,1,0,0:0:0:0:
282,125,168407,1,0,0:0:0:0:
335,243,168626,1,0,0:0:0:0:
118,73,168845,1,0,0:0:0:0:
82,274,169064,1,0,0:0:0:0:
327,49,169283,1,0,0:0:0:0:
404,330,169502,1,0,0:0:0:0:
108,65,169721,5,0,0:0:0:0:
127,301,169940,1,0,0:0:0:0:
127,301,170049,2,0,P|177:301|216:263,1,100
235,147,170378,1,0,0:0:0:0:
251,100,170487,1,0,0:0:0:0:
285,77,170597,1,0,0:0:0:0:
353,55,170816,5,0,0:0:0:0:
422,64,170925,1,0,0:0:0:0:
474,106,171035,1,0,0:0:0:0:
507,166,171144,1,0,0:0:0:0:
512,236,171254,1,0,0:0:0:0:
477,304,171363,1,0,0:0:0:0:
421,343,171473,6,0,P|373:356|325:345,1,100
142,73,171911,2,0,P|191:61|239:72,1,100
364,235,172349,1,0,0:0:0:0:
356,46,172568,1,0,0:0:0:0:
194,146,172787,1,0,0:0:0:0:
356,46,173006,5,0,0:0:0:0:
356,46,173116,1,0,0:0:0:0:
356,46,173225,2,0,P|405:34|453:45,1,100
197,262,173663,6,0,P|149:275|101:264,1,100
423,115,174101,1,0,0:0:0:0:
147,196,174320,1,0,0:0:0:0:
349,377,174539,1,0,0:0:0:0:
349,377,174648,1,0,0:0:0:0:
349,377,174758,1,0,0:0:0:0:
423,115,174977,6,0,P|412:170|424:229,1,100
466,354,175415,1,0,0:0:0:0:
216,279,175634,1,0,0:0:0:0:
466,354,175853,6,0,P|413:345|349:358,1,100
179,384,176291,5,0,0:0:0:0:
296,107,176510,1,0,0:0:0:0:
299,384,176729,5,0,0:0:0:0:
0,308,176948,1,0,0:0:0:0:
0,308,177057,1,0,0:0:0:0:
0,308,177167,1,0,0:0:0:0:
218,90,177386,1,0,0:0:0:0:
218,90,177495,1,0,0:0:0:0:
218,90,177605,1,0,0:0:0:0:
389,283,177824,5,0,0:0:0:0:
345,310,177933,1,0,0:0:0:0:
292,314,178043,1,0,0:0:0:0:
242,296,178152,1,0,0:0:0:0:
200,259,178262,1,0,0:0:0:0:
172,217,178371,1,0,0:0:0:0:
133,180,178481,6,0,P|85:168|30:183,1,100
270,221,178919,2,0,P|318:234|373:221,1,100
66,193,179357,1,0,0:0:0:0:
321,155,179575,1,0,0:0:0:0:
253,384,179794,1,0,0:0:0:0:
242,90,180013,5,0,0:0:0:0:
242,90,180123,1,0,0:0:0:0:
242,90,180232,1,0,0:0:0:0:
207,338,180451,1,0,0:0:0:0:
388,112,180670,1,0,0:0:0:0:
405,363,180889,1,0,0:0:0:0:
123,353,181108,2,0,P|63:337|27:304,1,100
82,60,181546,5,0,0:0:0:0:
138,251,181765,5,0,0:0:0:0:
138,251,181875,1,0,0:0:0:0:
138,251,181984,2,0,L|123:335,2,66.6666666666667
363,164,182422,2,0,L|382:235,2,66.6666666666667
118,177,182860,2,0,L|73:229,2,66.6666666666667
401,175,183298,2,0,L|428:242,2,66.6666666666667
372,64,183736,5,0,0:0:0:0:
211,336,183955,1,0,0:0:0:0:
143,53,184174,1,0,0:0:0:0:
398,285,184393,1,0,0:0:0:0:
405,81,184612,1,0,0:0:0:0:
134,290,184831,1,0,0:0:0:0:
170,88,185050,1,0,0:0:0:0:
374,297,185269,1,0,0:0:0:0:
387,65,185488,5,0,0:0:0:0:
274,333,185706,1,0,0:0:0:0:
274,333,185816,1,0,0:0:0:0:
274,333,185925,1,0,0:0:0:0:
265,79,186144,1,0,0:0:0:0:
102,294,186363,1,0,0:0:0:0:
102,294,186473,1,0,0:0:0:0:
102,294,186582,1,0,0:0:0:0:
140,75,186801,1,0,0:0:0:0:
341,228,187020,1,0,0:0:0:0:
341,228,187129,1,0,0:0:0:0:
341,228,187239,5,0,0:0:0:0:
297,60,187458,1,0,0:0:0:0:
248,75,187567,1,0,0:0:0:0:
205,99,187677,1,0,0:0:0:0:
183,128,187786,1,0,0:0:0:0:
161,172,187896,1,0,0:0:0:0:
450,143,188115,5,0,0:0:0:0:
458,179,188224,1,0,0:0:0:0:
455,227,188334,1,0,0:0:0:0:
444,265,188443,1,0,0:0:0:0:
421,300,188553,1,0,0:0:0:0:
377,339,188662,1,0,0:0:0:0:
349,353,188772,1,0,0:0:0:0:
296,355,188881,1,0,0:0:0:0:
249,340,188991,6,0,P|202:317|180:294,1,75.0000028610231
181,62,189429,1,0,0:0:0:0:
111,330,189648,1,0,0:0:0:0:
111,330,189757,2,0,P|167:340|204:329,1,75.0000028610231
184,336,190086,1,0,0:0:0:0:
267,139,190305,1,0,0:0:0:0:
365,315,190524,1,0,0:0:0:0:
365,315,190633,1,0,0:0:0:0:
365,315,190743,5,0,0:0:0:0:
372,99,190962,1,0,0:0:0:0:
182,279,191181,1,0,0:0:0:0:
257,60,191400,1,0,0:0:0:0:
91,254,191618,2,0,P|91:213|133:180,1,75.0000028610231
325,152,192056,5,0,0:0:0:0:
363,172,192166,1,0,0:0:0:0:
389,202,192275,1,0,0:0:0:0:
399,237,192385,1,0,0:0:0:0:
395,279,192494,2,0,P|331:304|301:304,1,75.0000028610231
97,242,192932,1,0,0:0:0:0:
305,224,193151,1,0,0:0:0:0:
90,320,193370,5,0,0:0:0:0:
122,101,193589,1,0,0:0:0:0:
218,132,193808,1,0,0:0:0:0:
297,63,194027,1,0,0:0:0:0:
414,105,194246,5,0,0:0:0:0:
400,286,194465,2,0,L|432:275,2,25.0000009536744
302,317,194684,1,0,0:0:0:0:
110,223,194903,2,0,L|74:206,2,25.0000009536744
189,263,195122,1,0,0:0:0:0:
208,83,195341,2,0,L|174:95,2,25.0000009536744
257,71,195560,1,0,0:0:0:0:
307,77,195670,1,0,0:0:0:0:
337,93,195779,1,0,0:0:0:0:
369,125,195889,1,0,0:0:0:0:
388,163,195998,6,0,P|402:210|393:241,1,75.0000028610231
186,349,196436,1,0,0:0:0:0:
118,164,196655,1,0,0:0:0:0:
247,286,196874,1,0,0:0:0:0:
287,103,197093,1,0,0:0:0:0:
168,240,197312,1,0,0:0:0:0:
120,52,197531,1,0,0:0:0:0:
120,52,197640,1,0,0:0:0:0:
120,52,197750,5,0,0:0:0:0:
306,26,197969,1,0,0:0:0:0:
187,132,198188,1,0,0:0:0:0:
377,174,198407,1,0,0:0:0:0:
115,236,198626,1,0,0:0:0:0:
363,218,198845,1,0,0:0:0:0:
349,256,198954,1,0,0:0:0:0:
320,280,199064,1,0,0:0:0:0:
281,295,199173,1,0,0:0:0:0:
241,297,199283,1,0,0:0:0:0:
119,117,199502,6,0,P|87:103|75:75,2,50.0000019073487
285,153,199940,2,0,P|317:139|329:111,2,50.0000019073487
132,224,200378,2,0,P|100:210|88:182,2,50.0000019073487
293,262,200816,2,0,P|325:248|337:220,2,50.0000019073487
137,315,201254,5,0,0:0:0:0:
186,46,201473,1,0,0:0:0:0:
85,257,201691,1,0,0:0:0:0:
40,0,201910,1,0,0:0:0:0:
158,229,202129,2,0,P|215:242|270:231,2,112.500004291535
49,167,203005,5,0,0:0:0:0:
279,68,203224,1,0,0:0:0:0:
279,68,203334,2,0,P|325:68|369:82,1,75.0000028610231
316,149,203662,2,0,P|364:159|409:229,1,112.500004291535
410,286,204100,1,0,0:0:0:0:
450,79,204319,1,0,0:0:0:0:
320,243,204538,1,0,0:0:0:0:
320,243,204648,1,0,0:0:0:0:
320,243,204757,5,0,0:0:0:0:
245,55,204976,1,0,0:0:0:0:
226,299,205195,1,0,0:0:0:0:
183,290,205305,1,0,0:0:0:0:
151,270,205414,1,0,0:0:0:0:
121,239,205524,1,0,0:0:0:0:
106,203,205633,1,0,0:0:0:0:
139,84,205852,1,0,0:0:0:0:
285,257,206071,2,0,P|338:255|380:185,1,112.500004291535
376,213,206509,5,0,0:0:0:0:
157,46,206728,1,0,0:0:0:0:
184,337,206947,1,0,0:0:0:0:
296,42,207166,1,0,0:0:0:0:
85,248,207385,1,0,0:0:0:0:
85,248,207494,1,0,0:0:0:0:
85,248,207604,1,0,0:0:0:0:
395,197,207823,1,0,0:0:0:0:
108,74,208042,1,0,0:0:0:0:
108,74,208151,1,0,0:0:0:0:
108,74,208261,5,0,0:0:0:0:
348,341,208480,1,0,0:0:0:0:
354,74,208699,1,0,0:0:0:0:
89,308,208918,1,0,0:0:0:0:
238,52,209137,1,0,0:0:0:0:
383,329,209356,1,0,0:0:0:0:
93,134,209575,1,0,0:0:0:0:
441,81,209794,1,0,0:0:0:0:
