osu file format v14

[General]
AudioFilename: mp3.mp3
AudioLeadIn: 0
PreviewTime: 132273
Countdown: 0
SampleSet: Soft
StackLeniency: 0.3
Mode: 0
LetterboxInBreaks: 0
WidescreenStoryboard: 0

[Editor]
DistanceSpacing: 1
BeatDivisor: 2
GridSize: 16
TimelineZoom: 1.7

[Metadata]
Title:Otsukimi Recital
TitleUnicode:オツキミリサイタル
Artist:yuikonnu
ArtistUnicode:ゆいこんぬ
Creator:Momochikun
Version:Easy
Source:
Tags:vocaloid IA kagerou days mekakucity actors insert song full size jin amamiya hibiya kisaragi momo nichiyouki nich95 pkhg
BeatmapID:691882
BeatmapSetID:307046

[Difficulty]
HPDrainRate:2
CircleSize:3
OverallDifficulty:2
ApproachRate:3
SliderMultiplier:0.85
SliderTickRate:1

[Events]
//Background and Video events
0,0,"BG.png",0,0
//Break Periods
2,91395,99294
2,152472,160833
//Storyboard Layer 0 (Background)
//Storyboard Layer 1 (Fail)
//Storyboard Layer 2 (Pass)
//Storyboard Layer 3 (Foreground)
//Storyboard Sound Samples

[TimingPoints]
19504,307.692307692308,4,2,1,50,1,0
19504,-100,4,2,1,50,0,0
29350,-100,4,2,1,70,0,1
29427,-100,4,2,1,70,0,0
29580,-100,4,2,1,15,0,0
29657,-100,4,2,1,80,0,0
29734,-100,4,2,1,70,0,0
36657,-100,4,2,1,30,0,0
38273,-100,4,2,1,40,0,0
38734,-100,4,2,1,50,0,0
39196,-100,4,2,1,60,0,0
46580,-100,4,2,1,70,0,0
58888,-100,4,2,1,60,0,0
66273,-100,4,2,1,70,0,0
71504,-100,4,2,1,85,0,1
81042,-100,4,2,1,70,0,0
81350,-100,4,2,1,85,0,1
91196,-100,4,2,1,60,0,0
100734,-100,4,2,1,60,0,0
108119,-100,4,2,1,70,0,0
120427,-100,4,2,1,60,0,0
127811,-100,4,2,1,70,0,0
133042,-100,4,2,1,85,0,1
142580,-100,4,2,1,70,0,0
142888,-100,4,2,1,85,0,1
152273,-100,4,2,1,65,0,0
162273,-100,4,2,1,75,0,1
162350,-100,4,2,1,75,0,0
171504,-100,4,2,1,55,0,0
172734,-100,4,2,1,75,0,0
173196,-100,4,2,1,90,0,1
174273,-100,4,2,1,80,0,0
174580,-100,4,2,1,90,0,1
176427,-100,4,2,1,80,0,0
177350,-100,4,2,1,90,0,1
181965,-100,4,2,1,80,0,0
182273,-100,4,2,1,90,0,1
194119,-100,4,2,1,90,0,0
194888,-100,4,2,1,80,0,1
194965,-100,4,2,1,80,0,0
214273,-100,4,2,1,80,0,1
214350,-100,4,2,1,80,0,0

[Colours]
Combo1 : 128,255,128
Combo2 : 255,255,128
Combo3 : 128,255,255
Combo4 : 255,185,185

[HitObjects]
416,331,19503,5,4,0:0:0:0:
339,294,19811,2,0,B|282:274|282:274|236:301|148:266,1,170,4|2,0:0|0:0,0:0:0:0:
76,137,21042,2,0,B|133:157|133:157|179:130|267:165,1,170,2|2,0:0|0:0,0:0:0:0:
407,180,22273,1,2,0:0:0:0:
344,123,22580,6,0,P|328:70|341:-3,2,127.5,0|12|2,0:0|0:0|0:0,0:0:0:0:
404,282,24119,1,2,0:0:0:0:
322,304,24427,1,4,0:0:0:0:
240,326,24734,2,0,P|128:312|64:299,1,170,4|2,0:0|0:0,0:0:0:0:
17,139,25965,6,0,P|129:153|193:166,1,170,2|2,0:0|0:0,0:0:0:0:
262,199,26888,1,0,0:0:0:0:
320,137,27196,2,0,P|332:95|325:40,1,85,2|0,0:0|0:0,0:0:0:0:
249,24,27811,1,2,0:0:0:0:
164,36,28119,1,8,0:0:0:0:
384,275,29350,6,0,L|295:292,1,85,4|12,0:0|0:0,0:0:0:0:
220,262,29965,2,0,P|190:220|197:135,2,127.5,2|2|8,0:0|0:0|0:0,0:0:0:0:
228,346,31196,1,0,0:0:0:0:
351,376,31657,6,0,L|456:360,1,85,4|2,0:0|0:0,0:0:0:0:
404,283,32273,2,0,L|488:270,1,85,4|2,0:0|0:0,0:0:0:0:
451,147,33042,2,0,P|395:125|327:125,1,127.5,0|0,0:0|0:0,0:0:0:0:
250,159,33811,1,8,0:0:0:0:
166,142,34119,6,0,L|137:12,1,127.5,4|12,0:0|0:0,0:0:0:0:
55,36,34888,2,0,L|82:160,2,127.5,2|2|8,0:0|0:0|0:0,0:0:0:0:
138,17,36119,1,2,0:0:0:0:
256,192,36580,12,0,37965,0:0:0:0:
318,329,39196,6,0,P|367:332|411:301,1,85,4|8,0:0|0:0,0:0:0:0:
422,234,39811,2,0,P|373:231|329:262,1,85,0|8,0:0|0:0,0:0:0:0:
258,261,40427,2,0,B|222:270|222:270|107:247,2,127.5,2|8|8,0:0|0:0|0:0,0:0:0:0:
290,182,41657,5,2,0:0:0:0:
206,165,41965,2,0,L|97:143,2,85,8|0|8,0:0|0:0|0:0,0:0:0:0:
290,182,42888,2,0,P|308:130|299:55,1,127.5,2|8,0:0|0:0,0:0:0:0:
380,30,43657,6,0,P|442:21|503:40,1,127.5,2|2,0:0|0:0,0:0:0:0:
464,116,44427,2,0,P|445:176|453:239,1,127.5,8|2,0:0|0:0,0:0:0:0:
415,315,45196,2,0,P|365:315|325:290,1,85,0|2,0:0|0:0,0:0:0:0:
247,283,45811,2,0,L|94:303,1,127.5,8|4,0:0|1:2,0:0:0:0:
70,230,46580,6,0,B|65:196|41:147|41:147|41:113|50:72,2,127.5,4|4|4,0:0|0:0|0:0,0:0:0:0:
197,241,47965,2,0,P|250:244|319:195,1,127.5,4|8,0:0|0:0,0:0:0:0:
371,145,48734,2,0,L|356:57,1,85,8|4,0:0|0:0,0:0:0:0:
440,74,49350,6,0,B|464:202|464:202|454:259,1,170,8|8,0:0|0:0,0:0:0:0:
406,309,50273,2,0,P|366:324|317:329,1,85,0|8,0:0|0:0,0:0:0:0:
245,296,50888,1,0,0:0:0:0:
292,132,51504,6,0,P|294:85|269:44,1,85,4|8,0:0|0:0,0:0:0:0:
211,106,52119,2,0,L|86:134,2,127.5,2|2|8,0:0|0:0|0:0,0:0:0:0:
292,132,53350,2,0,L|392:109,1,85,2|8,0:0|0:0,0:0:0:0:
459,122,53965,5,4,0:0:0:0:
445,206,54273,1,8,0:0:0:0:
370,245,54580,2,0,L|236:276,1,127.5,2|2,0:0|0:0,0:0:0:0:
162,255,55350,2,0,P|143:217|142:157,1,85,2|0,0:0|0:0,0:0:0:0:
187,105,55965,1,8,0:0:0:0:
269,123,56273,6,0,P|324:124|397:74,1,127.5,4|8,0:0|0:0,0:0:0:0:
448,31,57042,2,0,L|426:179,1,127.5,8|8,0:0|0:0,0:0:0:0:
412,240,57811,1,4,0:0:0:0:
338,282,58119,2,0,B|290:293|290:293|255:275|181:284,1,127.5,4|12,0:0|0:0,0:0:0:0:
135,314,58888,5,6,0:0:0:0:
17,190,59504,2,0,P|4:142|15:76,1,85,0|12,0:0|0:0,0:0:0:0:
69,50,60119,2,0,L|247:75,1,170,2|0,0:0|0:0,0:0:0:0:
321,88,61042,1,8,0:0:0:0:
390,137,61350,6,0,P|411:186|405:286,1,127.5,2|8,0:0|0:0,0:0:0:0:
356,323,62119,1,2,0:0:0:0:
273,301,62427,2,0,L|171:287,2,85,6|6|4,0:0|0:0|0:0,0:0:0:0:
258,217,63350,6,0,L|117:197,1,127.5,2|4,0:0|0:0,0:0:0:0:
60,153,64119,2,0,P|52:83|136:12,1,170,8|12,0:0|0:0,0:0:0:0:
185,67,65042,2,0,L|311:84,1,127.5,2|8,0:0|0:0,0:0:0:0:
409,165,65965,1,12,0:0:0:0:
349,225,66273,6,0,P|290:227|234:170,2,127.5,4|0|8,0:0|0:0|0:0,0:0:0:0:
409,165,67504,2,0,P|407:106|464:50,2,127.5,0|0|8,0:0|0:0|0:0,0:0:0:0:
456,234,68734,5,4,0:0:0:0:
411,306,69042,2,0,B|324:324|324:324|271:315,1,127.5,8|2,0:0|0:0,0:0:0:0:
220,266,69811,2,0,P|165:231|85:239,1,127.5,4|8,0:0|0:0,0:0:0:0:
40,175,70580,2,0,L|25:85,1,85,8|8,0:0|0:0,0:0:0:0:
99,48,71196,5,4,1:0:0:0:
160,107,71504,2,0,P|213:109|298:66,1,127.5,12|2,0:0|0:0,0:0:0:0:
346,26,72273,2,0,L|322:157,1,127.5,2|8,0:0|0:0,0:0:0:0:
395,196,73042,2,0,L|372:319,1,85,2|8,0:0|0:0,0:0:0:0:
361,362,73657,5,4,0:0:0:0:
280,335,73965,1,8,0:0:0:0:
198,309,74273,2,0,P|140:293|50:289,2,127.5,0|4|8,0:0|0:0|0:0,0:0:0:0:
242,236,75504,2,0,P|252:175|257:148,1,85,2|8,0:0|0:0,0:0:0:0:
340,137,76119,6,0,P|332:178|325:220,1,85,4|12,0:0|0:0,0:0:0:0:
405,249,76734,2,0,P|415:186|426:123,1,127.5,2|4,0:0|0:0,0:0:0:0:
396,43,77504,1,2,0:0:0:0:
312,54,77811,2,0,P|249:42|195:35,1,85,4|2,0:0|0:0,0:0:0:0:
145,59,78427,6,0,P|156:121|166:184,1,127.5,4|8,0:0|0:0,0:0:0:0:
197,263,79196,2,0,P|148:264|83:200,2,127.5,2|4|12,0:0|0:0|0:0,0:0:0:0:
272,224,80427,1,8,0:0:0:0:
327,287,80734,6,0,L|414:273,1,85,8|4,0:0|1:0,0:0:0:0:
495,259,81350,1,12,0:0:0:0:
442,192,81657,2,0,P|419:134|432:61,2,127.5,2|4|8,0:0|0:0|0:0,0:0:0:0:
495,259,82888,2,0,P|509:309|512:348,1,85,8|8,0:0|0:0,0:0:0:0:
432,374,83504,5,4,0:0:0:0:
348,360,83811,1,8,0:0:0:0:
264,346,84119,2,0,L|135:362,2,127.5,2|4|8,0:0|0:0|0:0,0:0:0:0:
317,280,85350,2,0,P|332:240|330:197,2,85,0|8|4,0:0|0:0|0:0,0:0:0:0:
248,229,86273,5,12,0:0:0:0:
259,144,86580,2,0,P|314:114|388:127,1,127.5,2|4,0:0|0:0,0:0:0:0:
317,280,87657,2,0,P|262:310|188:297,1,127.5,4|12,0:0|0:0,0:0:0:0:
116,281,88427,5,6,0:0:0:0:
139,112,89042,1,0,0:0:0:0:
300,163,89657,2,0,P|368:153|479:138,1,170,4|2,0:0|0:0,0:0:0:0:
397,245,90734,2,0,P|362:295|356:377,1,127.5,4|12,0:0|0:0,0:0:0:0:
216,336,100734,6,0,P|149:336|90:350,2,127.5,4|0|0,0:0|0:0|0:0,0:0:0:0:
385,350,102273,1,0,0:0:0:0:
431,189,102888,1,0,0:0:0:0:
357,145,103196,6,0,P|337:96|325:60,1,85,0|0,0:0|0:0,0:0:0:0:
159,36,104119,1,0,0:0:0:0:
180,118,104427,2,0,P|160:167|148:203,1,85,0|0,0:0|0:0,0:0:0:0:
202,359,105350,1,0,0:0:0:0:
275,316,105657,6,0,P|334:302|408:292,2,127.5,0|0|0,0:0|0:0|0:0,0:0:0:0:
202,359,106888,1,0,0:0:0:0:
142,298,107196,2,0,P|125:236|154:132,1,170,0|0,0:0|1:0,0:0:0:0:
238,131,108119,6,0,B|277:118|317:126|317:126|345:109|367:84,2,127.5,4|4|4,0:0|0:0|0:0,0:0:0:0:
112,106,109504,1,4,0:0:0:0:
144,315,110273,1,0,0:0:0:0:
210,262,110580,6,0,P|294:259|376:281,1,170,4|2,0:0|0:0,0:0:0:0:
457,253,111504,1,8,0:0:0:0:
428,173,111811,2,0,P|344:176|262:154,1,170,0|2,0:0|0:0,0:0:0:0:
200,94,112734,1,8,0:0:0:0:
119,122,113042,6,0,L|133:209,1,85,4|8,0:0|0:0,0:0:0:0:
168,283,113657,2,0,P|124:294|56:224,2,127.5,2|2|8,0:0|0:0|0:0,0:0:0:0:
243,243,114888,2,0,P|290:243|330:255,1,85,2|8,0:0|0:0,0:0:0:0:
386,320,115504,5,4,0:0:0:0:
466,170,116119,2,0,L|451:23,1,127.5,2|2,0:0|0:0,0:0:0:0:
372,16,116888,1,2,0:0:0:0:
331,90,117196,2,0,P|279:89|167:53,1,170,2|4,0:0|0:0,0:0:0:0:
94,96,118119,6,0,P|93:148|57:260,1,170,8|8,0:0|0:0,0:0:0:0:
5,326,119042,1,8,0:0:0:0:
86,350,119350,1,4,0:0:0:0:
168,330,119657,2,0,L|301:305,1,127.5,4|8,0:0|0:0,0:0:0:0:
376,285,120427,5,4,0:0:0:0:
261,159,121042,2,0,P|249:117|254:63,1,85,0|12,0:0|0:0,0:0:0:0:
319,25,121657,1,2,0:0:0:0:
437,146,122273,2,0,P|449:188|444:242,1,85,0|8,0:0|0:0,0:0:0:0:
386,288,122888,6,0,B|343:274|343:274|250:292,1,127.5,2|8,0:0|0:0,0:0:0:0:
189,333,123657,1,2,0:0:0:0:
115,289,123965,2,0,L|126:190,1,85,4|4,0:0|0:0,0:0:0:0:
208,218,124580,2,0,L|187:70,1,127.5,4|8,0:0|0:0,0:0:0:0:
248,29,125350,6,0,P|317:28|412:63,1,170,4|0,0:0|0:0,0:0:0:0:
435,143,126273,1,12,0:0:0:0:
359,181,126580,2,0,B|317:277|317:277|337:309|322:354,1,170,2|0,0:0|0:0,0:0:0:0:
243,362,127504,1,12,0:0:0:0:
166,324,127811,6,0,L|32:304,2,127.5,4|0|8,0:0|0:0|0:0,0:0:0:0:
155,239,129042,2,0,L|21:219,2,127.5,0|0|8,0:0|0:0|0:0,0:0:0:0:
237,220,130273,6,0,P|255:177|251:131,1,85,4|8,0:0|0:0,0:0:0:0:
299,66,130888,2,0,P|227:60|171:112,1,127.5,2|4,0:0|0:0,0:0:0:0:
118,144,131657,2,0,L|140:290,1,127.5,8|8,0:0|0:0,0:0:0:0:
203,323,132427,5,8,0:0:0:0:
280,288,132734,2,0,P|330:290|377:303,1,85,4|12,1:0|0:0,0:0:0:0:
423,237,133350,2,0,P|408:188|414:112,2,127.5,2|4|8,0:0|0:0|0:0,0:0:0:0:
488,291,134580,2,0,P|503:337|503:377,2,85,2|8|4,0:0|0:0|0:0,0:0:0:0:
407,318,135504,5,8,0:0:0:0:
327,288,135811,2,0,L|166:263,2,127.5,2|4|8,0:0|0:0|0:0,0:0:0:0:
389,229,137042,2,0,P|387:186|373:146,1,85,2|8,0:0|0:0,0:0:0:0:
322,78,137657,5,4,0:0:0:0:
261,138,137965,2,0,P|209:141|113:113,1,127.5,12|2,0:0|0:0,0:0:0:0:
56,153,138734,2,0,P|31:222|48:326,1,170,4|4,0:0|0:0,0:0:0:0:
120,352,139657,1,2,0:0:0:0:
177,288,139965,6,0,B|218:266|218:266|264:285|336:271,1,127.5,4|8,0:0|0:0,0:0:0:0:
380,257,140734,2,0,P|400:207|394:133,1,127.5,2|4,0:0|0:0,0:0:0:0:
337,71,141504,2,0,L|202:86,1,127.5,8|8,0:0|0:0,0:0:0:0:
146,141,142273,2,0,L|58:130,1,85,8|4,0:0|1:0,0:0:0:0:
21,205,142888,5,12,0:0:0:0:
96,244,143196,2,0,P|119:287|130:366,2,127.5,2|4|8,0:0|0:0|0:0,0:0:0:0:
173,209,144427,2,0,P|203:243|222:281,1,85,8|8,0:0|0:0,0:0:0:0:
300,308,145042,6,0,P|377:313|441:239,1,170,4|2,0:0|0:0,0:0:0:0:
461,124,146119,2,0,L|305:151,1,127.5,4|8,0:0|0:0,0:0:0:0:
256,177,146888,2,0,L|163:169,1,85,2|8,0:0|0:0,0:0:0:0:
129,95,147504,5,4,0:0:0:0:
205,58,147811,1,12,0:0:0:0:
286,34,148119,2,0,P|360:35|435:52,1,127.5,2|4,0:0|0:0,0:0:0:0:
491,195,149196,2,0,P|427:195|364:183,1,127.5,4|8,0:0|0:0,0:0:0:0:
286,146,149965,6,0,P|261:194|258:228,1,85,4|8,0:0|0:0,0:0:0:0:
218,299,150580,2,0,B|160:313|103:285|103:285|69:296|63:329,1,170,0|4,0:0|0:0,0:0:0:0:
0,262,151504,1,8,0:0:0:0:
56,199,151811,2,0,B|70:115|70:115|47:64,1,127.5,8|4,0:0|0:0,0:0:0:0:
438,68,162273,6,0,P|419:114|411:151,1,85,4|8,0:0|0:0,0:0:0:0:
349,206,162888,2,0,P|280:198|172:153,1,170,2|0,0:0|0:0,0:0:0:0:
152,84,163811,1,8,0:0:0:0:
79,129,164119,6,0,P|47:192|48:247,2,127.5,2|6|8,0:0|0:0|0:0,0:0:0:0:
152,84,165350,2,0,P|208:87|271:45,1,127.5,0|6,0:0|0:0,0:0:0:0:
385,97,166273,6,0,P|382:153|424:216,1,127.5,12|2,0:0|0:0,0:0:0:0:
493,253,167042,2,0,P|437:250|374:292,1,127.5,4|12,0:0|0:0,0:0:0:0:
295,308,167811,6,0,P|186:284|168:278,2,127.5,2|4|8,0:0|0:0|0:0,0:0:0:0:
287,223,169042,2,0,P|178:199|160:193,2,127.5,2|4|8,0:0|0:0|0:0,0:0:0:0:
355,172,170273,6,0,P|371:116|345:43,1,127.5,8|4,0:0|0:0,0:0:0:0:
226,23,171196,1,12,0:0:0:0:
176,91,171504,2,0,L|67:71,1,85,8|8,0:0|0:0,0:0:0:0:
106,159,172119,6,0,L|189:174,1,85,2|0,0:0|0:0,0:0:0:0:
260,222,172734,2,0,P|320:234|388:182,1,127.5,4|4,1:0|0:0,0:0:0:0:
446,96,173657,1,12,0:0:0:0:
501,160,173965,1,8,0:0:0:0:
505,244,174273,1,8,0:0:0:0:
437,295,174580,6,0,P|424:335|409:375,1,85,4|8,1:0|0:0,0:0:0:0:
326,353,175196,2,0,P|346:291|366:231,1,127.5,10|4,0:0|0:0,0:0:0:0:
238,226,176119,1,12,0:0:0:0:
167,273,176427,2,0,P|125:264|92:222,1,85,8|2,0:0|0:0,0:0:0:0:
141,162,177042,6,0,P|138:119|122:80,1,85,4|12,1:0|0:0,0:0:0:0:
69,14,177657,2,0,L|216:43,1,127.5,2|4,0:0|0:0,0:0:0:0:
277,57,178427,1,2,0:0:0:0:
323,127,178734,2,0,P|383:148|437:150,1,85,4|2,0:0|0:0,0:0:0:0:
372,229,179350,6,0,P|316:246|230:296,1,127.5,4|8,0:0|0:0,0:0:0:0:
177,313,180119,2,0,P|121:296|35:246,2,127.5,2|4|12,0:0|0:0|0:0,0:0:0:0:
195,230,181350,1,8,0:0:0:0:
214,147,181657,1,8,0:0:0:0:
235,64,181965,6,0,L|295:50|325:43,1,85,4|12,1:0|0:0,0:0:0:0:
402,54,182580,2,0,P|432:90|434:176,1,127.5,2|4,0:0|0:0,0:0:0:0:
340,251,183504,2,0,L|317:256|257:270,1,85,12|8,0:0|0:0,0:0:0:0:
174,289,184119,1,8,0:0:0:0:
113,348,184427,6,0,P|91:312|93:265,1,85,4|8,0:0|0:0,0:0:0:0:
114,188,185042,2,0,P|125:123|94:57,2,127.5,2|4|8,0:0|0:0|0:0,0:0:0:0:
196,206,186273,2,0,P|246:193|279:184,1,85,0|8,0:0|0:0,0:0:0:0:
241,107,186888,6,0,L|282:96|323:85,1,85,4|12,0:0|0:0,0:0:0:0:
406,68,187504,2,0,B|435:163|435:163|433:204,1,127.5,2|4,0:0|0:0,0:0:0:0:
389,263,188273,1,2,0:0:0:0:
318,309,188580,2,0,B|260:317|251:297|181:310,1,127.5,4|12,0:0|0:0,0:0:0:0:
109,333,189350,6,0,P|66:265|97:158,1,170,4|2,0:0|0:0,0:0:0:0:
194,54,190580,2,0,P|237:122|206:229,1,170,4|2,0:0|0:0,0:0:0:0:
296,250,191504,1,8,0:0:0:0:
354,188,191811,6,0,B|392:161|392:161|451:191|515:159,1,170,4|2,0:0|0:0,0:0:0:0:
462,324,193042,2,0,B|424:351|424:351|365:321|301:353,1,170,4|2,0:0|0:0,0:0:0:0:
222,330,193965,1,4,1:3:0:0:
68,257,194580,5,4,1:0:0:0:
115,187,194888,2,0,P|100:134|86:63,2,127.5,4|4|8,0:0|0:0|0:0,0:0:0:0:
194,216,196119,2,0,P|251:200|323:186,1,127.5,2|4,0:0|0:0,0:0:0:0:
398,214,196888,5,2,0:0:0:0:
463,160,197196,2,0,L|448:71,1,85,4|2,0:0|0:0,0:0:0:0:
370,43,197811,2,0,P|297:46|240:93,1,127.5,4|8,0:0|0:0,0:0:0:0:
185,127,198580,6,0,P|117:129|72:95,2,127.5,8|4|12,0:0|1:0|0:0,0:0:0:0:
245,187,199811,2,0,L|225:318,2,127.5,10|4|8,0:0|0:0|0:0,0:0:0:0:
312,135,201042,6,0,P|362:98|425:102,1,127.5,2|4,0:0|0:0,0:0:0:0:
479,167,201811,1,2,0:0:0:0:
417,225,202119,2,0,P|396:269|386:305,1,85,0|2,0:0|0:0,0:0:0:0:
309,341,202734,6,0,P|237:320|153:313,1,127.5,4|12,0:0|0:0,0:0:0:0:
102,293,203504,2,0,P|83:252|88:206,1,85,2|8,0:0|0:0,0:0:0:0:
128,139,204119,2,0,L|111:45,1,85,0|12,0:0|0:0,0:0:0:0:
195,34,204734,2,0,P|246:55|342:49,1,127.5,2|4,0:0|0:0,0:0:0:0:
421,129,205657,5,8,0:0:0:0:
355,183,205965,2,0,P|295:160|232:161,1,127.5,2|4,0:0|0:0,0:0:0:0:
166,214,206734,2,0,P|117:216|78:201,1,85,2|0,0:0|0:0,0:0:0:0:
26,141,207350,1,2,0:0:0:0:
0,222,207657,6,0,L|38:366,1,127.5,4|8,0:0|0:0,0:0:0:0:
116,365,208427,2,0,L|205:348,1,85,8|8,0:0|0:0,0:0:0:0:
266,296,209042,2,0,L|355:279,1,85,0|12,0:0|0:0,0:0:0:0:
418,230,209657,6,0,P|429:167|404:108,2,127.5,2|4|12,0:0|0:0|0:0,0:0:0:0:
335,210,210888,2,0,P|311:151|322:89,1,127.5,2|4,0:0|0:0,0:0:0:0:
242,61,211657,2,0,L|140:80,1,85,0|0,0:0|0:0,0:0:0:0:
92,131,212273,6,0,L|64:262,1,127.5,0|12,0:0|0:0,0:0:0:0:
124,316,213042,1,8,0:0:0:0:
205,340,213350,2,0,L|345:309,1,127.5,10|6,0:0|0:0,0:0:0:0:
403,208,214273,1,4,0:0:0:0:
