osu file format v14

[General]
AudioFilename: audio.mp3
AudioLeadIn: 0
PreviewTime: 70668
Countdown: 0
SampleSet: Soft
StackLeniency: 0.5
Mode: 0
LetterboxInBreaks: 0
WidescreenStoryboard: 1

[Editor]
DistanceSpacing: 1.4
BeatDivisor: 4
GridSize: 16
TimelineZoom: 2.799999

[Metadata]
Title:Otsukimi Recital
TitleUnicode:オツキミリサイタル
Artist:yuikonnu
ArtistUnicode:yuikonnu
Creator:Dudamesh
Version:Kimchi's Hyper
Source:
Tags:Kimchi Sandwich
BeatmapID:2301521
BeatmapSetID:1097077

[Difficulty]
HPDrainRate:5
CircleSize:4
OverallDifficulty:7
ApproachRate:8
SliderMultiplier:1.4
SliderTickRate:1

[Events]
//Background and Video events
0,0,"36896766_p0.jpg",0,0
//Break Periods
//Storyboard Layer 0 (Background)
//Storyboard Layer 1 (Fail)
//Storyboard Layer 2 (Pass)
//Storyboard Layer 3 (Foreground)
//Storyboard Layer 4 (Overlay)
//Storyboard Sound Samples

[TimingPoints]
209,545.454545454546,4,2,0,70,1,0
18284,307.692307692308,4,2,0,70,1,0
19514,-125,4,2,0,70,0,0
29360,-100,4,2,0,70,0,0
38591,-200,4,2,0,70,0,0
39207,-125,4,2,0,70,0,0
47053,-111.111111111111,4,2,0,70,0,0
47514,-100,4,2,0,70,0,0
47976,-90.9090909090909,4,2,0,70,0,0
48437,-100,4,2,0,70,0,0
58591,-125,4,2,0,70,0,0
71207,-100,4,2,0,70,0,0
109207,-90.9090909090909,4,2,0,70,0,0

[Colours]
Combo1 : 128,255,255
Combo2 : 255,145,91
Combo3 : 255,230,140
Combo4 : 130,200,244

[HitObjects]
376,367,19361,5,0,0:0:0:0:
376,367,19438,1,0,0:0:0:0:
376,367,19515,2,0,P|431:361|493:348,2,112
230,320,20438,5,0,0:0:0:0:
230,320,20592,2,0,P|172:302|125:322,1,112
179,380,21054,2,0,P|237:398|284:378,1,112
232,236,21669,5,0,0:0:0:0:
232,236,21823,2,0,P|278:190|313:149,1,112
385,130,22284,2,0,P|401:193|419:243,1,112
493,380,22900,5,0,0:0:0:0:
493,380,23054,1,0,0:0:0:0:
498,223,23361,1,0,0:0:0:0:
359,298,23669,1,0,0:0:0:0:
233,203,23977,2,0,P|205:208|177:210,1,56
110,252,24284,1,0,0:0:0:0:
110,252,24361,1,0,0:0:0:0:
110,252,24438,6,0,P|55:246|-7:233,2,112
171,110,25361,5,0,0:0:0:0:
171,110,25515,2,0,P|230:96|260:55,1,112
185,33,25977,2,0,P|125:46|95:87,1,112
223,186,26592,5,0,0:0:0:0:
223,186,26746,2,0,P|282:158|328:132,1,112
403,139,27208,2,0,P|397:204|396:257,1,112
295,372,27823,1,0,0:0:0:0:
141,344,28131,5,0,0:0:0:0:
138,348,28208,1,0,0:0:0:0:
135,352,28284,1,0,0:0:0:0:
132,356,28361,1,0,0:0:0:0:
129,360,28438,2,0,L|101:362,3,28
69,365,28746,1,0,0:0:0:0:
81,288,28900,1,0,0:0:0:0:
3,296,29054,6,0,L|0:336,3,28
5,264,29361,2,0,L|-2:174,1,70
2,93,29669,6,0,P|59:125|110:108,1,105
119,110,29977,2,0,P|167:97|205:106,1,70
166,189,30284,1,0,0:0:0:0:
252,161,30438,6,0,P|274:85|226:20,1,140
334,3,30900,2,0,P|389:7|443:14,1,105
462,18,31208,2,0,L|468:97,1,70
385,138,31515,1,0,0:0:0:0:
432,233,31669,6,0,P|376:181|305:193,1,140
225,172,32131,1,0,0:0:0:0:
273,268,32284,6,0,P|217:216|146:228,1,140
67,209,32746,1,0,0:0:0:0:
115,305,32900,6,0,P|59:253|-11:265,1,140
35,342,33361,1,0,0:0:0:0:
147,384,33515,2,0,P|175:364|198:320,1,70
218,246,33823,2,0,L|222:190,2,35
300,285,34131,6,0,P|365:322|432:373,1,140
406,253,34592,2,0,P|405:178|416:94,1,140
495,74,35054,1,0,0:0:0:0:
444,0,35208,1,0,0:0:0:0:
363,36,35361,6,0,P|302:41|214:-14,1,140
139,0,35823,2,0,P|158:48|156:100,1,105
151,129,36131,1,0,0:0:0:0:
130,218,36284,1,0,0:0:0:0:
61,158,36438,1,0,0:0:0:0:
42,247,36592,1,0,0:0:0:0:
256,192,36746,12,0,37669,0:0:0:0:
406,374,37977,5,0,0:0:0:0:
406,374,38284,1,0,0:0:0:0:
406,374,38592,2,0,L|409:334,1,35
417,266,38900,1,0,0:0:0:0:
417,266,39208,6,0,P|433:215|492:172,1,112
476,177,39823,2,0,L|470:115,1,56
460,42,40131,1,0,0:0:0:0:
460,42,40438,6,0,P|425:47|395:42,1,56
326,37,40746,1,0,0:0:0:0:
229,29,40900,2,0,P|241:87|286:126,1,112
353,143,41361,1,0,0:0:0:0:
353,143,41669,6,0,P|356:202|366:273,1,112
362,254,42284,2,0,L|306:258,1,56
403,321,42592,1,0,0:0:0:0:
403,321,42900,6,0,L|458:325,1,56
359,384,43208,1,0,0:0:0:0:
264,343,43361,2,0,P|307:319|335:249,1,112
315,187,43823,1,0,0:0:0:0:
315,187,44131,6,0,P|256:167|210:147,1,112
210,147,44746,2,0,L|203:75,1,56
136,177,45054,1,0,0:0:0:0:
136,177,45361,6,0,L|129:248,1,56
66,130,45669,1,0,0:0:0:0:
52,228,45823,2,0,L|45:299,1,56
122,359,46131,2,0,L|66:363,2,56
197,315,46592,6,0,P|260:316|270:275,1,112
195,225,47054,2,0,P|131:223|119:281,1,125.999996154785
203,343,47515,2,0,P|264:344|282:277,1,140
181,195,47977,2,0,P|110:194|94:269,1,154.000004699707
192,285,48438,5,0,0:0:0:0:
264,232,48592,1,0,0:0:0:0:
255,142,48746,1,0,0:0:0:0:
174,105,48900,1,0,0:0:0:0:
250,55,49054,6,0,P|338:41|387:14,1,140
170,20,49669,2,0,P|133:26|99:54,1,70
61,124,49977,1,0,0:0:0:0:
60,215,50131,1,0,0:0:0:0:
146,257,50284,6,0,P|177:273|217:302,2,70
86,315,50746,1,0,0:0:0:0:
86,315,50823,1,0,0:0:0:0:
86,315,50900,2,0,P|86:349|81:384,1,70
0,328,51208,2,0,P|0:293|4:258,1,70
72,189,51515,6,0,P|50:158|18:128,1,70
60,40,51823,2,0,P|82:71|114:101,1,70
165,202,52131,2,0,P|170:157|250:121,1,140
264,30,52592,1,0,0:0:0:0:
264,30,52900,6,0,P|225:26|193:17,2,70
357,53,53361,1,0,0:0:0:0:
444,14,53515,2,0,P|482:10|514:1,2,70
426,104,53977,6,0,P|416:175|399:265,1,140
332,298,54438,1,0,0:0:0:0:
397,362,54592,2,0,L|484:369,1,70
439,275,54900,1,0,0:0:0:0:
439,275,55054,6,0,P|433:205|360:156,1,140
351,248,55515,1,0,0:0:0:0:
286,184,55669,2,0,P|292:114|365:65,1,140
438,51,56131,1,0,0:0:0:0:
406,144,56284,1,0,0:0:0:0:
263,20,56592,6,0,P|236:44|211:84,1,70
128,45,56900,2,0,P|116:79|114:126,1,70
25,136,57208,2,0,P|32:171|54:213,1,70
5,283,57515,1,0,0:0:0:0:
245,384,57823,1,0,0:0:0:0:
485,283,58131,2,0,P|464:219|385:194,1,140
330,227,58592,6,0,P|324:197|324:166,1,56
266,92,58900,2,0,P|322:96|377:95,1,112
424,32,59361,2,0,P|454:30|498:31,2,56
456,110,59823,2,0,L|460:165,1,56
400,217,60131,6,0,L|395:272,2,56
471,284,60592,2,0,P|438:336|375:347,1,112
317,311,61054,2,0,L|323:239,1,56
240,315,61361,2,0,L|245:378,2,56
167,358,61823,6,0,P|112:372|54:358,1,112
22,296,62284,1,0,0:0:0:0:
38,189,62438,2,0,P|59:215|68:261,1,56
130,194,62746,2,0,P|140:227|135:273,1,56
215,207,63054,6,0,P|202:157|203:97,1,112
158,32,63515,1,0,0:0:0:0:
79,37,63669,1,0,0:0:0:0:
19,91,63823,6,0,P|68:116|122:105,1,112
130,190,64284,2,0,L|124:253,2,56
204,227,64746,2,0,L|267:221,1,56
306,285,65054,6,0,L|369:290,2,56
340,209,65515,2,0,L|333:141,1,56
329,75,65823,1,0,0:0:0:0:
400,108,65977,1,0,0:0:0:0:
395,29,66131,1,0,0:0:0:0:
395,29,66208,1,0,0:0:0:0:
395,29,66284,6,0,P|460:56|479:109,1,112
454,165,66746,1,0,0:0:0:0:
506,223,66900,2,0,L|511:286,2,56
430,261,67361,6,0,P|381:307|341:350,1,112
260,322,67823,2,0,P|280:302|299:282,1,56
305,208,68131,2,0,L|361:213,2,56
333,132,68592,1,0,0:0:0:0:
235,174,68746,6,0,L|123:183,1,112
62,257,69208,2,0,L|133:263,1,56
151,332,69515,2,0,L|222:325,1,56
289,384,69823,6,0,P|286:334|285:261,1,112
269,133,70284,1,0,0:0:0:0:
233,215,70438,1,0,0:0:0:0:
322,204,70592,1,0,0:0:0:0:
371,278,70746,1,0,0:0:0:0:
371,278,70823,1,0,0:0:0:0:
371,278,70900,2,0,L|375:330,2,28
456,336,71208,6,0,L|443:192,1,140
390,116,71669,2,0,P|425:110|471:100,1,70
469,11,71977,2,0,P|434:17|388:27,1,70
285,0,72284,6,0,P|310:78|267:121,1,140
257,205,72746,2,0,L|177:211,1,70
109,260,73054,1,0,0:0:0:0:
109,260,73208,1,0,0:0:0:0:
194,297,73361,2,0,L|273:290,1,70
187,381,73669,5,0,0:0:0:0:
187,381,73823,2,0,P|148:368|121:337,2,70
278,372,74284,1,0,0:0:0:0:
351,319,74438,2,0,P|348:279|338:239,1,70
387,150,74746,6,0,P|352:157|318:160,1,70
249,220,75054,2,0,P|251:259|261:299,2,70
168,270,75515,2,0,L|83:262,1,70
15,205,75823,1,0,0:0:0:0:
15,205,76131,6,0,P|71:149|43:68,1,140
13,17,76592,2,0,L|92:10,1,70
148,74,76900,1,0,0:0:0:0:
215,134,77054,1,0,0:0:0:0:
237,45,77208,6,0,P|300:100|300:168,1,140
249,224,77669,1,0,0:0:0:0:
339,237,77823,2,0,P|290:305|223:312,1,140
147,284,78284,1,0,0:0:0:0:
95,209,78438,6,0,P|57:264|79:348,1,140
147,284,78900,2,0,P|183:241|208:191,1,105
209,174,79208,2,0,P|211:134|215:88,1,70
214,13,79515,1,0,0:0:0:0:
136,66,79669,6,0,L|-19:52,1,140
21,144,80131,1,0,0:0:0:0:
43,232,80284,1,0,0:0:0:0:
109,169,80438,1,0,0:0:0:0:
139,265,80592,1,0,0:0:0:0:
139,265,80669,1,0,0:0:0:0:
139,265,80746,2,0,L|134:311,2,35
215,353,81054,6,0,L|227:209,1,140
187,127,81515,2,0,P|229:127|275:123,1,70
301,42,81823,2,0,P|259:42|213:46,1,70
339,117,82131,6,0,P|383:61|371:-4,1,140
462,10,82592,2,0,P|465:46|460:84,1,70
425,164,82900,1,0,0:0:0:0:
385,246,83054,1,0,0:0:0:0:
475,241,83208,2,0,L|483:336,1,70
394,341,83515,5,0,0:0:0:0:
394,341,83669,2,0,L|324:334,2,70
385,246,84131,1,0,0:0:0:0:
319,184,84284,2,0,P|298:221|295:254,1,70
181,323,84592,6,0,P|223:322|253:308,1,70
198,234,84900,2,0,L|205:152,2,70
111,261,85361,2,0,L|41:267,1,70
70,180,85669,1,0,0:0:0:0:
70,180,85977,6,0,P|52:103|-11:62,1,140
75,8,86438,2,0,L|159:0,1,70
235,17,86746,1,0,0:0:0:0:
315,59,86900,1,0,0:0:0:0:
239,110,87054,6,0,P|222:180|273:247,1,140
313,165,87515,1,0,0:0:0:0:
370,235,87669,2,0,P|403:175|385:109,1,140
422,25,88131,1,0,0:0:0:0:
480,94,88284,1,0,0:0:0:0:
492,183,88438,6,0,P|483:223|465:262,1,70
509,333,88746,2,0,P|456:335|404:340,1,105
376,340,89054,2,0,P|341:337|306:335,2,70
376,253,89515,1,0,0:0:0:0:
271,256,89669,6,0,P|294:230|304:197,1,70
297,106,89977,1,0,0:0:0:0:
218,186,90131,1,0,0:0:0:0:
218,186,90208,1,0,0:0:0:0:
218,186,90284,2,0,P|195:212|185:245,1,70
217,335,90592,1,0,0:0:0:0:
217,335,90746,1,0,0:0:0:0:
9,370,91054,5,0,0:0:0:0:
9,370,91208,2,0,P|22:323|54:238,1,140
101,159,91669,1,0,0:0:0:0:
10,169,91823,1,0,0:0:0:0:
47,85,91977,6,0,P|120:70|179:112,1,140
241,56,92438,2,0,P|293:73|343:68,1,105
365,87,92746,2,0,P|403:118|433:157,1,70
452,217,93054,1,0,0:0:0:0:
359,303,93208,6,0,P|374:250|317:164,1,140
257,126,93669,1,0,0:0:0:0:
284,250,93823,6,0,P|246:210|143:216,1,140
81,250,94284,1,0,0:0:0:0:
202,290,94438,6,0,P|148:302|102:394,1,140
215,378,94900,1,0,0:0:0:0:
290,295,95054,1,0,0:0:0:0:
337,384,95208,1,0,0:0:0:0:
337,384,95284,1,0,0:0:0:0:
337,384,95361,2,0,L|377:380,2,35
377,295,95669,6,0,P|405:244|481:223,1,140
488,125,96131,2,0,P|429:126|373:70,1,140
459,39,96592,1,0,0:0:0:0:
459,39,96746,1,0,0:0:0:0:
333,0,96900,6,0,P|264:18|187:20,1,140
109,90,97361,2,0,P|160:99|212:100,1,105
242,101,97669,2,0,P|244:138|247:180,1,70
216,257,97977,1,0,0:0:0:0:
156,188,98131,6,0,P|125:252|157:327,1,140
77,374,98592,1,0,0:0:0:0:
33,296,98746,2,0,P|31:234|64:151,1,140
19,79,99208,1,0,0:0:0:0:
128,106,99361,6,0,P|158:95|196:72,1,70
262,132,99669,2,0,P|286:111|315:76,1,70
396,110,99977,2,0,P|412:82|427:40,1,70
451,31,100208,1,0,0:0:0:0:
478,19,100284,2,0,L|533:14,4,35
435,191,100900,5,0,0:0:0:0:
435,191,100977,1,0,0:0:0:0:
435,191,101054,2,0,P|451:258|487:335,1,140
412,384,101515,1,0,0:0:0:0:
321,377,101669,1,0,0:0:0:0:
369,300,101823,6,0,P|307:286|236:341,1,140
252,212,102284,2,0,P|251:161|239:99,1,105
234,81,102592,2,0,P|221:39|211:-4,1,70
133,22,102900,5,0,0:0:0:0:
26,72,103054,2,0,P|77:52|168:101,1,140
86,142,103515,5,0,0:0:0:0:
192,192,103669,2,0,P|140:172|49:221,1,140
132,262,104131,5,0,0:0:0:0:
26,312,104284,2,0,P|77:292|168:341,1,140
252,360,104746,1,0,0:0:0:0:
357,348,104900,2,0,P|376:315|403:281,1,70
448,213,105208,2,0,P|410:212|366:206,1,70
305,263,105515,6,0,P|289:195|338:128,1,140
251,79,105977,2,0,P|200:126|117:117,1,140
82,50,106438,1,0,0:0:0:0:
82,50,106592,1,0,0:0:0:0:
47,162,106746,6,0,P|29:235|8:303,1,140
53,377,107208,1,0,0:0:0:0:
113,311,107361,1,0,0:0:0:0:
113,311,107438,1,0,0:0:0:0:
113,311,107515,1,0,0:0:0:0:
183,368,107669,6,0,P|220:381|275:376,2,70
114,198,108284,2,0,P|151:211|206:206,2,70
214,45,108900,1,0,0:0:0:0:
347,140,109208,6,0,L|353:219,1,77.0000023498536
308,283,109515,1,0,0:0:0:0:
229,294,109669,1,0,0:0:0:0:
165,245,109823,1,0,0:0:0:0:
154,165,109977,1,0,0:0:0:0:
203,101,110131,1,0,0:0:0:0:
283,91,110284,1,0,0:0:0:0:
347,140,110438,1,0,0:0:0:0:
256,192,110900,5,0,0:0:0:0:
