osu file format v14

[General]
AudioFilename: audio.mp3
AudioLeadIn: 0
PreviewTime: 63283
Countdown: 1
SampleSet: Normal
StackLeniency: 0.7
Mode: 2
LetterboxInBreaks: 0
WidescreenStoryboard: 0

[Editor]
Bookmarks: 118767
DistanceSpacing: 0.8
BeatDivisor: 4
GridSize: 32
TimelineZoom: 1

[Metadata]
Title:Natsu no Owari, Koi no Hajimari
TitleUnicode:Natsu no Owari, Koi no Hajimari
Artist:yuikonnu
ArtistUnicode:yuikonnu
Creator:FrostZeo
Version:Echoes of Fireworks
Source:
Tags:yuiko
BeatmapID:1929025
BeatmapSetID:923697

[Difficulty]
HPDrainRate:5
CircleSize:4
OverallDifficulty:9.5
ApproachRate:9.5
SliderMultiplier:1.7
SliderTickRate:2

[Events]
//Background and Video events
0,0,"BG.jpg",0,0
//Break Periods
//Storyboard Layer 0 (Background)
//Storyboard Layer 1 (Fail)
//Storyboard Layer 2 (Pass)
//Storyboard Layer 3 (Foreground)
//Storyboard Sound Samples

[TimingPoints]
1348,322.58064516129,4,1,0,100,1,0

[HitObjects]
119,264,1186,5,0,0:0:0:0:
220,239,1348,1,0,0:0:0:0:
316,205,1509,1,0,0:0:0:0:
183,138,1670,1,0,0:0:0:0:
279,100,1831,1,0,0:0:0:0:
381,66,1993,1,0,0:0:0:0:
452,204,2154,6,8,L|339:205,1,85
276,204,2477,2,2,L|163:203,1,85
85,173,2799,2,2,L|164:83,1,85
396,214,3122,2,2,L|346:117,1,85
86,278,3444,5,0,0:0:0:0:
178,278,3606,1,0,0:0:0:0:
266,280,3767,1,0,0:0:0:0:
430,174,3928,1,0,0:0:0:0:
345,175,4089,1,0,0:0:0:0:
260,175,4251,1,0,0:0:0:0:
178,177,4412,2,4,L|72:177,2,85
260,175,4896,1,0,0:0:0:0:
364,71,5057,6,8,L|365:246,1,170
367,314,5541,1,0,0:0:0:0:
55,179,5702,2,8,L|234:179,1,170
309,180,6186,1,0,0:0:0:0:
397,180,6347,1,0,0:0:0:0:
149,95,6509,1,0,0:0:0:0:
62,94,6670,1,0,0:0:0:0:
396,266,6831,5,8,0:0:0:0:
426,190,6993,1,8,0:0:0:0:
102,273,7154,1,8,0:0:0:0:
59,201,7315,1,8,0:0:0:0:
426,190,7477,2,2,L|337:190,1,85
74,189,7799,2,2,L|165:190,1,85
434,187,8122,1,0,0:0:0:0:
126,76,8283,2,2,P|111:200|171:236,1,170
364,186,8767,6,2,L|278:186,2,85
116,187,9251,2,2,L|218:187,1,85
468,188,9573,2,2,L|283:188,1,170
343,104,10057,1,0,0:0:0:0:
59,186,10218,2,4,L|253:186,1,170
312,186,10702,1,0,0:0:0:0:
76,188,10864,5,0,0:0:0:0:
52,242,10944,1,0,0:0:0:0:
76,290,11025,1,0,0:0:0:0:
314,287,11186,1,0,0:0:0:0:
74,64,11347,2,2,P|74:214|88:231,1,170
159,226,11831,5,0,0:0:0:0:
241,226,11993,1,0,0:0:0:0:
97,91,12154,1,0,0:0:0:0:
147,90,12235,1,0,0:0:0:0:
197,91,12315,1,0,0:0:0:0:
450,94,12477,2,2,L|353:94,1,85
455,197,12799,1,0,0:0:0:0:
405,197,12880,1,0,0:0:0:0:
357,198,12960,1,0,0:0:0:0:
49,183,13122,6,2,L|149:183,1,85
403,123,13444,1,0,0:0:0:0:
429,178,13525,1,0,0:0:0:0:
403,226,13606,1,0,0:0:0:0:
82,182,13767,2,2,L|199:182,1,85
427,121,14089,1,0,0:0:0:0:
451,173,14170,1,0,0:0:0:0:
429,226,14251,1,0,0:0:0:0:
184,182,14412,6,2,L|96:182,1,85
362,177,14735,2,2,L|468:177,1,85
176,92,15057,1,0,0:0:0:0:
92,92,15218,1,0,0:0:0:0:
339,249,15380,2,2,L|427:249,2,85
248,248,15864,2,2,L|157:248,2,85
339,249,16347,1,0,0:0:0:0:
428,249,16509,1,0,0:0:0:0:
427,71,16670,5,0,0:0:0:0:
368,133,16831,1,0,0:0:0:0:
306,195,16993,1,0,0:0:0:0:
70,64,17154,1,0,0:0:0:0:
128,131,17315,1,0,0:0:0:0:
197,195,17477,1,0,0:0:0:0:
451,193,17638,5,0,0:0:0:0:
227,193,17799,1,0,0:0:0:0:
451,193,17960,1,0,0:0:0:0:
227,193,18122,1,0,0:0:0:0:
451,193,18283,1,0,0:0:0:0:
227,193,18444,1,0,0:0:0:0:
451,193,18606,1,0,0:0:0:0:
390,245,18767,1,0,0:0:0:0:
331,299,18928,1,0,0:0:0:0:
65,80,19089,6,2,L|164:80,1,85
385,44,19412,2,2,L|385:215,1,170
301,304,19896,1,0,0:0:0:0:
45,151,20057,2,2,L|215:151,1,170
466,153,20541,1,4,0:0:0:0:
256,192,20702,12,0,21670,0:0:0:0:
305,209,21993,5,0,0:0:0:0:
366,149,22154,1,0,0:0:0:0:
122,209,22315,1,0,0:0:0:0:
59,171,22477,1,0,0:0:0:0:
427,209,22638,1,0,0:0:0:0:
333,209,22799,1,0,0:0:0:0:
240,212,22960,1,0,0:0:0:0:
137,128,23122,2,2,L|137:223,1,85
389,299,23444,2,2,L|274:299,1,85
212,211,23767,2,2,L|317:211,1,85
377,209,24089,2,2,L|476:209,1,85
212,210,24412,6,2,L|125:210,2,85
299,210,24896,2,2,L|392:210,2,85
204,210,25380,1,0,0:0:0:0:
117,210,25541,1,0,0:0:0:0:
204,210,25702,1,0,0:0:0:0:
368,274,25864,2,0,L|427:274,1,42.5
167,284,26025,2,0,L|109:285,1,42.5
368,274,26187,2,2,L|398:223,1,42.5
125,187,26347,2,2,L|308:187,1,170
118,187,26831,2,2,L|79:147,1,42.5
339,189,26993,2,0,L|374:155,1,42.5
152,66,27154,6,2,L|79:137,1,85
368,66,27477,2,2,L|441:141,1,85
54,187,27799,2,2,L|154:186,1,85
448,181,28122,1,0,0:0:0:0:
364,181,28283,1,0,0:0:0:0:
72,180,28444,2,2,L|72:119,1,42.5
260,183,28606,2,2,L|260:116,1,42.5
439,183,28767,2,2,L|439:127,1,42.5
72,180,28928,2,2,L|71:362,1,170
346,189,29412,6,2,L|433:189,2,85
123,188,29896,2,2,L|25:188,2,85
447,184,30380,1,0,0:0:0:0:
359,185,30541,1,0,0:0:0:0:
271,185,30702,1,0,0:0:0:0:
184,186,30864,1,0,0:0:0:0:
452,312,31025,2,2,L|452:136,1,170
133,174,31509,1,0,0:0:0:0:
478,311,31670,2,2,L|293:311,1,170
254,134,32154,1,0,0:0:0:0:
29,305,32315,2,2,L|29:124,1,170
286,181,32799,2,2,L|170:180,1,85
459,45,33122,2,2,L|461:251,1,170
201,180,33606,2,2,L|292:180,1,85
46,42,33928,2,4,L|48:248,1,170
277,172,34573,6,2,L|379:172,2,85
185,171,35057,2,2,L|92:171,2,85
463,171,35541,2,2,L|463:81,1,85
121,168,35864,2,2,L|121:77,1,85
464,248,36186,2,2,L|284:249,1,170
347,162,36670,1,0,0:0:0:0:
45,165,36831,2,0,L|226:165,1,170
175,242,37315,1,0,0:0:0:0:
470,242,37477,2,2,L|270:241,1,170
347,158,37960,5,0,0:0:0:0:
103,158,38122,1,0,0:0:0:0:
49,88,38283,1,0,0:0:0:0:
438,230,38444,1,0,0:0:0:0:
381,158,38605,1,0,0:0:0:0:
132,157,38767,1,0,0:0:0:0:
468,156,38928,2,2,L|468:329,1,170
50,157,39412,1,0,0:0:0:0:
141,157,39573,1,0,0:0:0:0:
462,157,39735,1,0,0:0:0:0:
374,158,39896,1,0,0:0:0:0:
52,274,40057,5,0,0:0:0:0:
174,273,40218,1,0,0:0:0:0:
52,274,40380,1,0,0:0:0:0:
174,273,40541,1,0,0:0:0:0:
455,270,40702,1,0,0:0:0:0:
332,270,40864,1,0,0:0:0:0:
455,270,41025,1,0,0:0:0:0:
332,270,41186,1,0,0:0:0:0:
191,77,41831,6,2,L|387:78,1,170
360,77,42315,1,0,0:0:0:0:
441,169,42477,2,2,L|378:169,1,42.5
147,160,42638,1,0,0:0:0:0:
149,262,42960,6,2,L|55:262,2,85
386,262,43444,2,2,L|474:262,2,85
149,262,43928,2,2,L|45:262,2,85
421,261,44412,1,0,0:0:0:0:
167,260,44573,2,2,L|167:207,1,42.5
386,266,44735,2,0,L|386:217,1,42.5
167,217,44896,2,2,L|128:171,1,42.5
386,219,45057,2,2,L|420:179,1,42.5
85,196,45218,6,2,L|212:62,1,170
460,198,45702,2,2,L|408:198,1,42.5
125,199,45864,2,2,L|252:65,1,170
125,199,46347,2,2,L|198:199,1,42.5
460,198,46509,2,2,L|335:58,1,170
460,198,46993,2,2,L|381:198,1,42.5
106,193,47154,2,2,L|276:193,1,170
425,194,47638,2,0,L|373:193,1,42.5
105,193,47799,1,0,0:0:0:0:
141,190,48122,5,0,0:0:0:0:
251,191,48283,1,0,0:0:0:0:
366,191,48444,1,0,0:0:0:0:
251,191,48606,1,0,0:0:0:0:
124,192,48767,1,0,0:0:0:0:
366,191,48928,1,0,0:0:0:0:
110,192,49089,2,0,L|109:146,1,42.5
377,193,49251,2,0,L|376:146,1,42.5
105,193,49412,2,2,L|149:141,1,42.5
382,197,49573,2,2,L|351:158,1,42.5
73,188,49735,2,2,L|74:131,1,42.5
259,190,49897,2,2,L|259:122,1,42.5
440,192,50058,2,2,L|440:131,1,42.5
35,44,50218,6,2,L|34:245,1,170
256,343,50702,1,0,0:0:0:0:
477,41,50864,2,2,L|478:249,1,170
169,333,51347,2,2,L|83:333,1,85
358,257,51670,2,2,L|433:184,1,85
168,258,51993,2,2,L|53:257,1,85
356,127,52315,1,0,0:0:0:0:
391,84,52396,1,0,0:0:0:0:
165,184,52477,1,0,0:0:0:0:
123,148,52557,1,0,0:0:0:0:
405,149,52638,1,0,0:0:0:0:
447,109,52718,1,0,0:0:0:0:
172,107,52799,1,0,0:0:0:0:
218,63,52880,1,0,0:0:0:0:
455,214,52960,6,2,L|284:215,1,170
330,135,53444,1,0,0:0:0:0:
47,216,53606,2,2,L|226:215,1,170
162,135,54089,1,0,0:0:0:0:
436,298,54251,2,2,L|436:207,1,85
74,304,54573,2,2,L|74:206,1,85
435,298,54896,2,2,L|239:298,1,170
313,214,55380,1,0,0:0:0:0:
48,210,55541,2,2,L|137:210,1,85
369,207,55864,1,0,0:0:0:0:
114,208,56025,1,0,0:0:0:0:
369,207,56186,2,2,L|369:152,1,42.5
75,208,56347,2,2,L|75:144,1,42.5
228,211,56509,2,2,L|229:150,1,42.5
388,93,56670,2,2,P|388:242|363:275,1,170
252,306,57154,5,0,0:0:0:0:
155,306,57315,1,0,0:0:0:0:
389,218,57477,2,2,L|440:169,1,42.5
253,166,57638,2,2,L|217:130,1,42.5
393,291,57799,2,2,L|339:233,1,42.5
168,277,57960,2,2,L|211:239,1,42.5
395,246,58122,1,0,0:0:0:0:
406,247,58444,5,0,0:0:0:0:
284,246,58606,1,0,0:0:0:0:
401,137,58767,1,0,0:0:0:0:
283,135,58928,1,0,0:0:0:0:
50,242,59089,1,0,0:0:0:0:
163,244,59251,1,0,0:0:0:0:
50,133,59412,1,0,0:0:0:0:
165,131,59573,1,0,0:0:0:0:
433,232,59735,2,2,L|433:139,1,85
92,233,60057,2,2,L|92:129,1,85
432,231,60380,5,0,0:0:0:0:
433,147,60541,1,0,0:0:0:0:
92,233,60702,1,0,0:0:0:0:
92,148,60864,1,0,0:0:0:0:
432,231,61025,1,0,0:0:0:0:
340,231,61186,1,0,0:0:0:0:
433,147,61347,1,0,0:0:0:0:
337,145,61509,1,0,0:0:0:0:
92,233,61670,1,0,0:0:0:0:
82,85,61831,2,2,P|194:87|200:95,1,127.5
410,187,62154,2,2,P|302:186|280:166,1,127.5
81,186,62477,1,4,0:0:0:0:
81,186,63283,5,0,0:0:0:0:
148,186,63444,1,0,0:0:0:0:
216,186,63606,1,0,0:0:0:0:
283,186,63767,1,0,0:0:0:0:
145,100,63928,1,0,0:0:0:0:
212,100,64089,1,0,0:0:0:0:
455,94,64251,1,0,0:0:0:0:
387,94,64412,1,0,0:0:0:0:
139,181,64573,2,2,L|229:181,1,85
461,178,64896,2,2,L|368:177,1,85
139,274,65218,2,2,L|83:195,1,85
382,277,65541,2,2,L|437:193,1,85
134,169,65864,6,2,P|215:78|251:76,1,127.5
420,217,66186,2,2,P|332:292|311:286,1,127.5
183,84,66509,2,2,P|183:178|200:201,1,127.5
420,217,66831,1,0,0:0:0:0:
420,217,66993,2,2,L|419:154,1,42.5
419,174,67154,1,0,0:0:0:0:
177,268,67315,2,2,L|125:269,1,42.5
348,270,67477,2,2,L|399:271,1,42.5
131,158,67638,2,2,L|63:158,1,42.5
313,158,67799,2,2,L|364:158,1,42.5
131,158,67960,1,0,0:0:0:0:
447,158,68122,6,2,L|392:158,1,42.5
222,154,68283,1,0,0:0:0:0:
68,269,68444,2,2,P|208:269|226:246,1,170
466,146,68928,2,2,P|334:146|311:165,1,170
62,223,69412,2,2,L|149:224,2,85
366,222,69896,2,2,L|265:222,2,85
127,82,70380,2,2,L|32:82,1,85
299,158,70702,2,2,L|383:157,1,85
125,248,71025,1,0,0:0:0:0:
123,171,71186,1,0,0:0:0:0:
356,47,71347,1,0,0:0:0:0:
356,125,71509,1,0,0:0:0:0:
123,171,71670,1,0,0:0:0:0:
40,169,71831,1,0,0:0:0:0:
356,125,71993,1,0,0:0:0:0:
439,125,72154,1,0,0:0:0:0:
123,171,72315,6,2,L|123:71,1,85
360,245,72638,2,2,L|399:210,1,42.5
249,199,72799,2,2,L|288:158,1,42.5
95,197,72960,1,0,0:0:0:0:
172,198,73122,2,2,L|257:197,2,85
462,194,73606,2,2,L|417:114,1,85
138,202,73928,2,2,L|183:124,1,85
429,202,74251,2,2,L|482:124,1,85
138,202,74573,2,2,L|78:114,1,85
138,202,74896,2,2,L|244:203,1,85
305,205,75218,1,0,0:0:0:0:
392,206,75380,1,0,0:0:0:0:
136,113,75541,5,0,0:0:0:0:
227,114,75702,1,0,0:0:0:0:
469,207,75864,1,0,0:0:0:0:
383,208,76025,1,0,0:0:0:0:
99,148,76186,2,2,L|99:282,1,127.5
433,220,76509,2,2,P|358:220|306:189,1,127.5
103,64,76831,2,2,P|171:64|228:110,1,127.5
370,179,77154,1,0,0:0:0:0:
118,182,77315,2,0,L|32:182,1,85
370,179,77638,2,0,L|428:178,2,42.5
119,182,77960,2,0,L|68:181,2,42.5
375,250,78283,2,0,L|374:189,1,42.5
105,254,78444,2,0,L|105:189,1,42.5
375,251,78606,2,0,L|375:193,1,42.5
196,88,78767,1,0,0:0:0:0:
197,294,79089,6,2,L|112:293,2,85
302,293,79573,2,2,L|388:293,2,85
45,129,80057,2,2,L|150:129,2,85
420,126,80541,1,0,0:0:0:0:
420,126,80622,1,0,0:0:0:0:
420,126,80702,1,0,0:0:0:0:
166,258,80864,1,0,0:0:0:0:
400,260,81025,2,2,L|400:166,1,85
166,258,81347,2,2,L|165:142,1,85
400,258,81670,1,0,0:0:0:0:
473,260,81831,1,0,0:0:0:0:
169,260,81993,1,0,0:0:0:0:
94,260,82154,1,0,0:0:0:0:
364,260,82315,2,2,L|339:217,1,42.5
135,256,82477,2,2,L|171:213,1,42.5
363,261,82638,1,4,0:0:0:0:
363,261,84411,6,2,L|420:261,1,42.5
218,266,84573,2,2,L|217:150,1,85
455,152,84896,2,2,L|405:152,1,42.5
194,155,85057,2,2,L|259:155,1,42.5
388,151,85218,2,2,L|476:151,2,85
295,153,85702,1,0,0:0:0:0:
213,153,85864,1,0,0:0:0:0:
132,155,86025,1,0,0:0:0:0:
213,293,86186,1,0,0:0:0:0:
266,220,86347,1,0,0:0:0:0:
213,153,86509,1,0,0:0:0:0:
338,136,86670,6,2,L|424:135,2,85
91,277,87154,1,0,0:0:0:0:
172,229,87315,1,0,0:0:0:0:
88,179,87477,1,0,0:0:0:0:
172,133,87638,1,0,0:0:0:0:
408,294,87799,2,2,P|345:148|328:134,1,170
84,286,88283,1,0,0:0:0:0:
356,290,88444,1,0,0:0:0:0:
434,287,88606,1,0,0:0:0:0:
146,200,88767,1,0,0:0:0:0:
68,200,88928,1,0,0:0:0:0:
384,67,89089,6,2,P|383:198|361:229,1,170
68,200,89573,1,0,0:0:0:0:
68,200,89654,1,0,0:0:0:0:
68,200,89735,1,0,0:0:0:0:
363,200,89896,1,0,0:0:0:0:
125,198,90057,2,2,L|66:198,3,42.5
351,285,90380,2,2,P|313:96|312:95,1,170
272,47,90864,1,0,0:0:0:0:
210,104,91025,1,0,0:0:0:0:
150,161,91186,1,0,0:0:0:0:
217,216,91347,1,0,0:0:0:0:
277,277,91509,1,0,0:0:0:0:
36,160,91670,6,2,L|146:160,1,85
401,162,91993,1,0,0:0:0:0:
319,163,92154,1,0,0:0:0:0:
62,263,92315,2,2,L|61:157,1,85
323,269,92638,2,2,L|323:162,1,85
59,71,92960,2,2,L|268:72,1,170
186,151,93444,1,0,0:0:0:0:
446,225,93606,2,2,L|276:225,1,170
314,304,94089,1,0,0:0:0:0:
59,70,94251,2,2,L|59:245,1,170
389,239,94681,5,0,0:0:0:0:
440,171,94788,5,0,0:0:0:0:
387,104,94896,5,0,0:0:0:0:
295,105,95003,1,0,0:0:0:0:
246,172,95111,1,0,0:0:0:0:
300,239,95218,1,0,0:0:0:0:
389,239,95326,1,0,0:0:0:0:
440,171,95433,5,0,0:0:0:0:
138,237,95541,2,2,L|86:168,1,85
331,238,95863,2,2,L|383:153,1,85
124,236,96186,1,0,0:0:0:0:
365,238,96347,1,0,0:0:0:0:
124,236,96509,1,0,0:0:0:0:
365,238,96670,1,0,0:0:0:0:
124,236,96831,2,2,L|124:137,1,85
365,238,97154,6,2,L|452:238,2,85
130,236,97638,2,2,L|40:235,2,85
359,238,98121,1,0,0:0:0:0:
428,237,98282,1,0,0:0:0:0:
103,238,98443,1,0,0:0:0:0:
39,237,98605,1,0,0:0:0:0:
359,238,98767,2,2,L|444:237,3,85
126,117,99412,2,2,L|71:117,2,42.5
332,166,99654,2,2,L|358:209,1,42.5
126,118,99815,2,2,L|96:174,1,42.5
331,167,99977,2,2,L|380:167,2,42.5
70,116,100218,2,2,L|243:116,1,170
328,244,100702,6,2,L|418:244,2,85
75,161,101186,1,0,0:0:0:0:
175,162,101347,1,0,0:0:0:0:
75,161,101509,1,0,0:0:0:0:
175,162,101670,1,0,0:0:0:0:
451,159,101831,1,0,0:0:0:0:
358,159,101993,1,0,0:0:0:0:
451,159,102154,1,0,0:0:0:0:
358,159,102315,1,0,0:0:0:0:
75,248,102477,1,0,0:0:0:0:
159,249,102638,1,0,0:0:0:0:
451,159,102799,1,0,0:0:0:0:
358,159,102960,1,0,0:0:0:0:
69,85,103122,5,0,0:0:0:0:
69,85,103202,1,0,0:0:0:0:
69,85,103283,2,2,L|260:85,1,170
194,165,103767,1,0,0:0:0:0:
436,242,103928,2,2,L|245:242,1,170
306,162,104412,1,0,0:0:0:0:
63,74,104573,2,2,L|217:182,1,170
34,159,105057,2,2,L|192:269,1,170
405,253,105541,6,2,L|455:253,3,42.5
175,253,105864,2,2,L|175:168,1,85
432,254,106186,2,2,L|432:149,1,85
174,168,106509,1,0,0:0:0:0:
106,168,106670,1,0,0:0:0:0:
39,168,106831,1,0,0:0:0:0:
357,169,106993,2,2,L|446:168,2,85
39,168,107477,1,0,0:0:0:0:
106,168,107638,1,0,0:0:0:0:
173,169,107799,1,0,0:0:0:0:
444,168,107960,2,2,L|356:168,2,85
179,238,108444,2,2,L|178:169,1,42.5
366,244,108606,2,2,L|365:177,1,42.5
179,237,108767,2,2,L|92:237,1,85
366,244,109089,6,2,L|366:181,1,42.5
135,238,109251,2,2,L|135:182,1,42.5
366,244,109412,2,2,L|366:184,1,42.5
135,239,109573,2,2,L|135:182,1,42.5
321,243,109735,2,2,L|445:243,1,85
135,157,110057,2,2,L|40:157,1,85
390,240,110380,2,2,L|488:240,1,85
155,274,110702,2,2,L|177:224,1,42.5
388,240,110864,2,2,L|359:197,1,42.5
91,184,111025,5,0,0:0:0:0:
183,138,111186,1,0,0:0:0:0:
271,92,111347,1,0,0:0:0:0:
358,50,111509,1,0,0:0:0:0:
91,184,111670,1,0,0:0:0:0:
186,187,111831,1,0,0:0:0:0:
461,204,111993,2,2,L|371:204,1,85
146,202,112315,2,2,L|43:202,2,85
224,204,112799,2,2,L|317:204,2,85
136,206,113283,1,0,0:0:0:0:
52,207,113444,1,0,0:0:0:0:
136,206,113606,6,2,L|136:148,1,42.5
370,217,113767,2,2,L|370:155,1,42.5
136,206,113929,2,2,L|136:149,1,42.5
341,205,114089,2,2,L|482:205,1,127.5
137,205,114412,2,2,L|288:205,1,127.5
52,207,114735,1,4,0:0:0:0:
52,207,118767,5,0,0:0:0:0:
131,209,118928,1,0,0:0:0:0:
207,209,119089,1,0,0:0:0:0:
436,129,119251,1,0,0:0:0:0:
358,128,119412,1,0,0:0:0:0:
130,131,119573,2,2,L|36:131,2,85
379,248,120057,2,2,L|379:158,1,85
131,251,120380,2,2,L|131:153,1,85
380,248,120702,2,2,L|491:248,1,85
130,250,121025,2,2,L|31:250,1,85
435,125,121347,6,2,L|237:126,1,170
310,44,121831,1,0,0:0:0:0:
51,218,121993,2,2,L|220:217,1,170
199,297,122477,2,2,L|109:297,1,85
377,223,122799,2,2,L|452:223,2,42.5
180,218,123041,2,2,L|179:166,1,42.5
419,223,123202,2,2,L|419:163,1,42.5
181,218,123364,2,2,L|126:218,2,42.5
419,223,123606,1,0,0:0:0:0:
441,184,123686,1,0,0:0:0:0:
419,135,123767,1,0,0:0:0:0:
29,305,123928,6,2,L|29:124,1,170
286,181,124412,2,2,L|170:180,1,85
459,45,124735,2,2,L|461:251,1,170
201,180,125219,2,2,L|292:180,1,85
46,42,125541,2,2,L|48:248,1,170
409,257,126025,1,0,0:0:0:0:
132,203,126186,2,2,L|132:110,1,85
407,204,126509,2,2,L|406:97,1,85
132,203,126831,2,2,L|52:150,1,85
388,205,127154,2,2,L|477:137,1,85
52,202,127477,1,0,0:0:0:0:
132,200,127638,1,0,0:0:0:0:
373,96,127799,2,2,P|374:257|365:272,1,170
132,200,128202,2,2,L|130:143,1,42.5
350,205,128364,2,2,L|348:151,1,42.5
121,198,128606,6,2,L|34:197,2,85
419,206,129089,2,2,L|419:103,1,85
175,207,129412,2,2,L|175:104,1,85
450,205,129735,2,2,L|450:96,1,85
94,222,130057,1,0,0:0:0:0:
65,170,130138,1,0,0:0:0:0:
258,222,130218,1,0,0:0:0:0:
289,170,130299,1,0,0:0:0:0:
63,69,130380,6,2,L|170:69,1,85
415,247,130702,1,0,0:0:0:0:
412,169,130864,1,0,0:0:0:0:
289,170,131025,1,0,0:0:0:0:
205,168,131186,1,0,0:0:0:0:
93,248,131347,1,0,0:0:0:0:
90,170,131509,1,0,0:0:0:0:
370,248,131670,2,2,L|468:248,1,85
93,248,131993,2,2,L|94:153,1,85
370,247,132315,1,0,0:0:0:0:
282,249,132477,1,0,0:0:0:0:
199,102,132638,1,0,0:0:0:0:
291,103,132799,1,0,0:0:0:0:
65,93,132960,6,2,L|64:268,1,170
373,167,133444,2,2,L|425:169,2,42.5
123,191,133686,2,2,L|93:247,1,42.5
372,166,133847,2,0,L|403:211,1,42.5
126,118,134009,2,2,L|63:118,2,42.5
375,283,134250,2,2,L|194:283,1,170
451,193,134735,5,0,0:0:0:0:
227,193,134896,1,0,0:0:0:0:
451,193,135057,1,0,0:0:0:0:
227,193,135219,1,0,0:0:0:0:
451,193,135380,1,0,0:0:0:0:
227,193,135541,1,0,0:0:0:0:
48,81,135864,5,0,0:0:0:0:
139,80,136025,1,0,0:0:0:0:
49,174,136186,1,0,0:0:0:0:
142,175,136347,1,0,0:0:0:0:
365,129,136509,2,2,L|463:129,2,85
146,130,137154,6,2,L|52:130,2,85
453,68,137638,1,0,0:0:0:0:
364,67,137799,1,0,0:0:0:0:
457,158,137960,1,0,0:0:0:0:
363,156,138122,1,0,0:0:0:0:
140,285,138444,6,2,L|41:284,2,85
445,237,138928,1,0,0:0:0:0:
356,235,139089,1,0,0:0:0:0:
97,74,139251,1,0,0:0:0:0:
71,128,139331,1,0,0:0:0:0:
98,174,139412,1,0,0:0:0:0:
361,135,139573,2,2,L|361:39,1,85
71,128,139896,1,0,0:0:0:0:
361,244,140057,2,2,L|361:157,1,85
49,245,140380,2,2,L|49:144,1,85
361,244,140702,2,2,L|468:244,1,85
122,245,141025,2,2,L|26:245,1,85
361,244,141347,2,2,L|450:244,2,85
123,138,141831,6,2,L|185:138,1,42.5
351,138,141993,1,0,0:0:0:0:
84,220,142154,2,2,L|85:131,1,85
459,224,142477,2,2,L|459:123,1,85
84,220,142799,2,2,L|32:140,1,85
413,231,143122,2,0,L|412:178,1,42.5
82,219,143283,2,0,L|82:163,1,42.5
413,231,143444,2,2,L|412:177,1,42.5
82,219,143606,6,2,L|82:112,1,85
414,231,143928,2,2,L|414:120,1,85
82,219,144251,1,0,0:0:0:0:
160,221,144412,1,0,0:0:0:0:
472,40,144573,2,2,L|474:246,1,170
201,180,145057,2,2,L|292:180,1,85
40,34,145379,2,2,L|42:240,1,170
421,288,145864,5,0,0:0:0:0:
384,214,146025,1,0,0:0:0:0:
90,288,146186,1,0,0:0:0:0:
124,212,146347,1,0,0:0:0:0:
439,95,146509,2,2,L|251:95,1,170
319,172,146993,1,0,0:0:0:0:
59,309,147154,2,2,L|239:309,1,170
165,222,147638,1,0,0:0:0:0:
445,51,147799,2,2,L|445:233,1,170
133,148,148283,2,2,L|43:148,2,85
368,294,148767,6,2,L|399:241,1,42.5
109,293,148928,2,0,L|77:234,1,42.5
404,208,149089,2,2,L|404:157,1,42.5
65,206,149251,2,2,L|65:155,1,42.5
404,208,149412,2,2,L|404:153,1,42.5
65,206,149573,2,2,L|65:138,1,42.5
431,62,149735,2,2,L|229:62,1,170
330,144,150218,1,0,0:0:0:0:
53,321,150380,2,2,L|255:321,1,170
155,237,150864,1,0,0:0:0:0:
429,226,151025,6,2,L|462:142,1,85
155,237,151347,1,0,0:0:0:0:
118,169,151509,1,0,0:0:0:0:
395,237,151670,6,2,L|481:237,2,85
110,113,152154,1,0,0:0:0:0:
94,143,152235,1,0,0:0:0:0:
111,171,152315,1,0,0:0:0:0:
423,175,152477,2,2,L|324:175,1,85
110,113,152799,1,0,0:0:0:0:
94,143,152880,1,0,0:0:0:0:
111,171,152960,1,0,0:0:0:0:
423,175,153122,2,2,L|324:175,1,85
91,308,153444,6,2,L|92:256,1,42.5
375,313,153606,2,2,L|375:259,1,42.5
90,309,153767,2,0,L|42:309,1,42.5
375,313,153928,2,2,L|437:313,1,42.5
85,196,154251,2,2,L|202:196,1,85
425,191,154573,1,0,0:0:0:0:
85,196,154735,1,0,0:0:0:0:
256,192,154896,12,0,158767,0:0:0:0:
