osu file format v14

[General]
AudioFilename: audio.mp3
AudioLeadIn: 0
PreviewTime: 63227
Countdown: 0
SampleSet: Normal
StackLeniency: 0.3
Mode: 1
LetterboxInBreaks: 0
WidescreenStoryboard: 1

[Editor]
DistanceSpacing: 1.4
BeatDivisor: 4
GridSize: 8
TimelineZoom: 2.7

[Metadata]
Title:Natsu no Owari, Koi no Hajimari (Cut Ver.)
TitleUnicode:夏の終わり、恋の始まり (Cut Ver.)
Artist:yuikonnu
ArtistUnicode:ゆいこんぬ
Creator:iloveyou4ever
Version:Muzukashii
Source:
Tags:すこっぷ scop yuiko primary female vocal japanese j-pop jpop pop short version
BeatmapID:3981644
BeatmapSetID:1927862

[Difficulty]
HPDrainRate:6
CircleSize:5
OverallDifficulty:5
ApproachRate:6
SliderMultiplier:1.4
SliderTickRate:1

[Events]
//Background and Video events
0,0,"11221.jpg",0,20
//Break Periods
//Storyboard Layer 0 (Background)
//Storyboard Layer 1 (Fail)
//Storyboard Layer 2 (Pass)
//Storyboard Layer 3 (Foreground)
//Storyboard Layer 4 (Overlay)
//Storyboard Sound Samples

[TimingPoints]
58,322.58064516129,4,1,0,60,1,0
1025,-114.942528735632,4,1,0,60,0,0
1348,322.58064516129,4,1,0,60,1,0
1348,-114.942528735632,4,1,0,60,0,0
11670,-111.111111111111,4,1,0,60,0,0
21993,-111.111111111111,4,1,0,68,0,0
42477,-100,4,1,0,72,0,0
42638,-100,4,1,0,75,0,0
45215,-100,4,1,0,82,0,0
51990,-101.317122593718,4,1,0,82,0,0
52151,-102.669404517454,4,1,0,82,0,0
52312,-104.058272632674,4,1,0,82,0,0
52474,-105.374077976818,4,1,0,82,0,0
52635,-106.951871657754,4,1,0,82,0,0
52957,-108.695652173913,4,1,0,82,0,0
58122,-100,4,1,0,82,0,0
62638,-111.111111111111,4,1,0,82,0,0
63137,322.58064516129,4,1,0,82,1,8
63298,322.58064516129,4,1,0,90,1,1
77649,-100.908173562059,4,1,0,90,0,1
77811,-101.83299389002,4,1,0,90,0,1
77972,-102.774922918808,4,1,0,90,0,1
78053,-103.199174406605,4,1,0,90,0,1
78133,-103.626943005181,4,1,0,90,0,1
78294,-104.602510460251,4,1,0,90,0,1
78456,-105.596620908131,4,1,0,90,0,1
78781,-107.52688172043,4,1,0,90,0,0
81039,-104.89877268436,4,1,0,90,0,0
81201,-102.396067990989,4,1,0,90,0,0
81362,-100,4,1,0,90,0,1
82652,-100,4,1,0,90,0,0
83943,-111.111111111111,4,1,0,90,0,0
84504,-109.649122807018,4,1,0,90,0,0
84585,-108.481262327416,4,1,0,90,0,0
84746,-106.232294617564,4,1,0,90,0,0
84907,-104.074681468399,4,1,0,90,0,0
84988,-103.021978021978,4,1,0,90,0,0
85069,-101.990357275312,4,1,0,90,0,0
85230,-100,4,1,0,90,0,0
92975,-100,4,1,0,90,0,1
95556,-100,4,1,0,90,0,0
105878,-100,4,1,0,90,0,1
111039,-100,4,1,0,90,0,0
114830,-100,4,1,0,5,0,0
116201,-111.111111111111,4,1,0,5,0,0
117491,-125,4,1,0,5,0,0
117814,-133.333333333333,4,1,0,60,0,0
117882,322.58064516129,4,1,0,60,1,8
117882,-133.333333333333,4,1,0,60,0,0
118785,322.58064516129,4,1,0,95,1,1
133298,-101.214574898785,4,1,0,95,0,1
133459,-102.213606353944,4,1,0,95,0,1
133540,-102.723718874819,4,1,0,95,0,1
133620,-103.232556153386,4,1,0,95,0,1
133782,-104.278547735204,4,1,0,95,0,1
133943,-105.339297113464,4,1,0,95,0,1
134268,-107.52688172043,4,1,0,95,0,0
139104,-104.895471662488,4,1,0,95,0,0
139185,-104.379411080375,4,1,0,95,0,0
139265,-102.389777404624,4,1,0,95,0,0
139346,-101.42433681672,4,1,0,95,0,0
139430,-100,4,1,0,95,0,1
143623,-100,4,1,0,95,0,0
144591,-100,4,1,0,90,0,0
152333,-100,4,1,0,95,0,1
153623,-100,4,1,0,90,0,0
154914,-100,4,1,0,80,0,0
155075,-100,4,1,0,78,0,0
155236,-100,4,1,0,77,0,0
155397,-100,4,1,0,75,0,0
155559,-100,4,1,0,73,0,0
155720,-100,4,1,0,72,0,0
155881,-100,4,1,0,70,0,0
156043,-100,4,1,0,68,0,0
156204,-108.695652173913,4,1,0,67,0,0
156365,-108.695652173913,4,1,0,65,0,0
156526,-108.695652173913,4,1,0,63,0,0
156688,-108.695652173913,4,1,0,62,0,0
156849,-108.695652173913,4,1,0,60,0,0
157010,-108.695652173913,4,1,0,58,0,0
157172,-108.695652173913,4,1,0,57,0,0
157333,-108.695652173913,4,1,0,55,0,0
157494,-116.279069767442,4,1,0,53,0,0
157655,-116.279069767442,4,1,0,52,0,0
157817,-116.279069767442,4,1,0,50,0,0
157978,-116.279069767442,4,1,0,48,0,0
158139,-116.279069767442,4,1,0,47,0,0
158301,-116.279069767442,4,1,0,45,0,0
158462,-116.279069767442,4,1,0,43,0,0
158623,-116.279069767442,4,1,0,42,0,0
158784,-125,4,1,0,40,0,0
158946,-125,4,1,0,38,0,0
159107,-125,4,1,0,37,0,0
159268,-125,4,1,0,35,0,0
159430,-125,4,1,0,33,0,0
159591,-125,4,1,0,32,0,0
159752,-125,4,1,0,30,0,0
159953,437.956204379562,4,1,0,30,1,8
160387,-98.5611510791367,4,1,0,30,0,0
160828,530.973451327434,4,1,0,30,1,0
160828,-81.2949640287769,4,1,0,30,0,0
161358,480,4,1,0,30,1,8
161358,-89.9280575539568,4,1,0,30,0,0
161838,451.127819548872,4,1,0,30,1,8
161838,-95.6834532374101,4,1,0,30,0,0
162289,416.666666666667,4,1,0,30,1,8
162289,-103.597122302158,4,1,0,30,0,0
162705,342.857142857143,4,1,0,30,1,0
162705,-125.89928057554,4,1,0,30,0,0
163219,444.444444444444,4,1,0,30,1,8
163219,-97.1223021582735,4,1,0,30,0,0
163663,526.315789473684,4,1,0,30,1,8
163663,-82.0143884892087,4,1,0,30,0,0
164189,521.739130434783,4,1,0,30,1,8
164189,-82.7338129496402,4,1,0,30,0,0
164710,618.556701030928,4,1,0,30,1,0
164710,-69.7841726618705,4,1,0,30,0,0
165328,526.315789473684,4,1,0,30,1,8
165328,-82.0143884892087,4,1,0,30,0,0
165854,606.060606060606,4,1,0,30,1,8
165854,-71.2230215827338,4,1,0,30,0,0
166460,827.586206896552,4,1,0,30,1,8
166460,-52.1582733812949,4,1,0,30,0,0
167287,937.5,4,1,0,30,1,0
167287,-46.0431654676259,4,1,0,30,0,0

[Colours]
Combo1 : 255,89,89
Combo2 : 236,136,45
Combo3 : 205,225,159

[HitObjects]
421,184,1187,5,0,0:0:0:0:
388,188,1348,1,8,0:0:0:0:
457,259,1509,1,0,0:0:0:0:
439,188,1670,1,0,0:0:0:0:
453,145,1993,1,8,0:0:0:0:
468,160,2315,1,0,0:0:0:0:
456,222,2477,1,8,0:0:0:0:
451,155,2638,1,8,0:0:0:0:
494,159,2799,1,0,0:0:0:0:
476,177,3122,1,8,0:0:0:0:
477,178,3444,1,0,0:0:0:0:
463,183,3767,1,0,0:0:0:0:
420,178,3928,1,8,0:0:0:0:
476,202,4089,1,0,0:0:0:0:
489,170,4251,1,8,0:0:0:0:
412,174,4573,1,8,0:0:0:0:
488,177,4735,1,0,0:0:0:0:
451,145,5057,1,8,0:0:0:0:
451,145,5218,1,8,0:0:0:0:
451,173,5380,1,0,0:0:0:0:
455,204,5702,1,0,0:0:0:0:
451,161,6347,1,0,0:0:0:0:
478,164,6509,1,8,0:0:0:0:
410,159,6670,1,8,0:0:0:0:
460,168,6831,1,0,0:0:0:0:
426,147,7154,1,8,0:0:0:0:
349,142,7477,1,0,0:0:0:0:
397,163,7638,1,8,0:0:0:0:
414,154,7799,1,0,0:0:0:0:
456,164,7960,1,8,0:0:0:0:
438,282,8283,1,8,0:0:0:0:
369,156,8606,1,0,0:0:0:0:
369,156,8767,1,0,0:0:0:0:
410,157,9089,1,8,0:0:0:0:
462,207,9412,1,0,0:0:0:0:
436,169,9573,1,8,0:0:0:0:
473,161,9896,1,8,0:0:0:0:
450,157,10218,1,0,0:0:0:0:
473,177,10864,1,8,0:0:0:0:
449,175,11186,1,0,0:0:0:0:
426,191,11347,1,8,0:0:0:0:
403,196,11670,1,4,0:0:0:0:
427,197,11993,1,8,0:0:0:0:
442,169,12315,1,0,0:0:0:0:
416,171,12638,1,8,0:0:0:0:
416,171,12960,1,8,0:0:0:0:
452,173,13283,1,0,0:0:0:0:
384,173,13606,1,8,0:0:0:0:
452,246,13928,1,0,0:0:0:0:
443,161,14251,1,0,0:0:0:0:
491,164,14573,1,8,0:0:0:0:
473,164,14896,1,0,0:0:0:0:
426,182,15218,1,0,0:0:0:0:
457,159,15541,1,8,0:0:0:0:
464,175,15864,1,8,0:0:0:0:
464,175,16025,1,8,0:0:0:0:
444,170,16186,1,0,0:0:0:0:
477,171,16347,1,8,0:0:0:0:
408,168,16670,1,8,0:0:0:0:
448,168,16831,1,0,0:0:0:0:
443,202,17154,1,0,0:0:0:0:
464,160,17477,1,8,0:0:0:0:
432,168,17799,1,0,0:0:0:0:
448,176,18122,1,8,0:0:0:0:
504,192,18444,1,8,0:0:0:0:
432,168,18767,1,0,0:0:0:0:
480,291,19089,1,0,0:0:0:0:
432,200,19412,1,8,0:0:0:0:
464,168,19735,1,0,0:0:0:0:
512,184,20057,1,0,0:0:0:0:
480,293,20380,1,0,0:0:0:0:
438,163,20702,1,8,0:0:0:0:
492,172,21347,1,0,0:0:0:0:
492,172,21509,1,0,0:0:0:0:
459,164,21670,1,8,0:0:0:0:
472,247,21993,1,4,0:0:0:0:
379,179,22315,1,8,0:0:0:0:
450,169,22477,1,8,0:0:0:0:
451,165,22638,1,0,0:0:0:0:
465,165,22799,1,0,0:0:0:0:
484,178,22960,1,8,0:0:0:0:
458,167,23283,1,8,0:0:0:0:
458,167,23444,1,8,0:0:0:0:
464,180,23606,1,0,0:0:0:0:
431,167,23767,1,8,0:0:0:0:
449,159,24089,1,8,0:0:0:0:
497,150,24251,1,0,0:0:0:0:
486,150,24412,1,0,0:0:0:0:
478,142,24573,1,8,0:0:0:0:
469,151,24896,1,0,0:0:0:0:
490,148,25057,1,8,0:0:0:0:
458,145,25218,1,0,0:0:0:0:
469,295,25380,1,8,0:0:0:0:
463,207,25702,1,8,0:0:0:0:
472,202,25864,1,8,0:0:0:0:
482,184,26025,1,0,0:0:0:0:
503,170,26347,1,8,0:0:0:0:
496,274,26831,1,0,0:0:0:0:
483,153,27154,1,8,0:0:0:0:
472,182,27315,1,8,0:0:0:0:
461,173,27477,1,0,0:0:0:0:
448,192,27799,1,8,0:0:0:0:
467,175,28122,1,8,0:0:0:0:
448,272,28283,1,0,0:0:0:0:
457,163,28444,1,0,0:0:0:0:
436,225,28606,1,8,0:0:0:0:
481,171,28928,1,8,0:0:0:0:
460,316,29251,1,0,0:0:0:0:
464,169,29412,1,0,0:0:0:0:
491,175,29573,1,0,0:0:0:0:
473,180,29735,1,8,0:0:0:0:
471,175,30057,1,0,0:0:0:0:
480,164,30218,1,8,0:0:0:0:
464,169,30380,1,8,0:0:0:0:
399,225,30541,1,0,0:0:0:0:
337,161,30864,1,8,0:0:0:0:
433,194,31025,1,0,0:0:0:0:
464,171,31670,1,8,0:0:0:0:
467,153,32315,1,12,0:0:0:0:
475,217,32638,1,0,0:0:0:0:
400,184,32960,1,8,0:0:0:0:
440,168,33122,1,0,0:0:0:0:
416,168,33283,1,8,0:0:0:0:
400,168,33444,1,8,0:0:0:0:
456,152,33767,1,0,0:0:0:0:
464,168,33928,1,8,0:0:0:0:
470,317,34573,1,0,0:0:0:0:
448,160,34735,1,0,0:0:0:0:
456,168,34896,1,8,0:0:0:0:
416,152,35218,1,8,0:0:0:0:
448,160,35541,1,0,0:0:0:0:
456,176,35864,1,8,0:0:0:0:
456,176,36025,1,8,0:0:0:0:
504,176,36186,1,0,0:0:0:0:
400,176,36831,1,8,0:0:0:0:
432,176,37315,1,8,0:0:0:0:
473,299,37477,1,0,0:0:0:0:
438,180,37799,1,8,0:0:0:0:
488,192,38122,1,0,0:0:0:0:
448,168,38444,1,8,0:0:0:0:
448,192,38767,1,8,0:0:0:0:
480,160,38928,1,0,0:0:0:0:
448,200,39251,1,8,0:0:0:0:
432,192,39573,1,0,0:0:0:0:
424,176,39735,1,8,0:0:0:0:
440,160,39896,1,0,0:0:0:0:
456,160,40057,1,8,0:0:0:0:
445,156,40380,1,8,0:0:0:0:
426,156,40541,1,0,0:0:0:0:
435,142,40702,1,0,0:0:0:0:
468,152,40864,1,8,0:0:0:0:
471,156,41186,1,8,0:0:0:0:
448,129,41347,1,0,0:0:0:0:
411,189,41831,1,8,0:0:0:0:
450,215,42154,1,0,0:0:0:0:
432,178,42315,1,8,0:0:0:0:
460,197,42638,1,4,0:0:0:0:
479,238,42960,1,0,0:0:0:0:
479,238,43283,1,0,0:0:0:0:
479,238,43606,1,0,0:0:0:0:
446,203,43928,1,8,0:0:0:0:
428,172,44089,1,0,0:0:0:0:
434,169,44251,1,8,0:0:0:0:
428,172,44412,1,8,0:0:0:0:
439,168,44573,1,0,0:0:0:0:
409,168,44735,1,0,0:0:0:0:
428,172,44896,1,8,0:0:0:0:
448,168,45218,1,4,0:0:0:0:
409,168,45541,1,8,0:0:0:0:
396,163,45702,1,0,0:0:0:0:
387,162,45783,1,0,0:0:0:0:
383,172,45864,1,0,0:0:0:0:
389,150,46025,1,0,0:0:0:0:
395,148,46186,1,8,0:0:0:0:
389,148,46347,1,8,0:0:0:0:
376,145,46509,1,0,0:0:0:0:
380,153,46831,1,8,0:0:0:0:
373,153,46993,1,0,0:0:0:0:
395,157,47154,1,8,0:0:0:0:
434,153,47315,1,8,0:0:0:0:
450,168,47477,1,0,0:0:0:0:
432,168,47638,1,8,0:0:0:0:
408,272,47799,1,4,0:0:0:0:
464,200,48122,1,0,0:0:0:0:
400,176,48283,1,8,0:0:0:0:
452,290,48767,1,0,0:0:0:0:
416,184,49089,1,8,0:0:0:0:
435,188,49251,1,0,0:0:0:0:
430,188,49331,1,0,0:0:0:0:
448,176,49412,1,0,0:0:0:0:
456,208,49573,1,0,0:0:0:0:
378,185,49735,1,8,0:0:0:0:
448,228,49896,1,0,0:0:0:0:
414,163,50057,1,8,0:0:0:0:
445,183,50380,1,4,0:0:0:0:
434,172,50702,1,8,0:0:0:0:
403,156,51025,1,0,0:0:0:0:
403,156,51186,1,0,0:0:0:0:
419,150,51347,1,8,0:0:0:0:
437,166,51509,1,0,0:0:0:0:
408,175,51670,1,8,0:0:0:0:
463,167,51993,1,8,0:0:0:0:
380,168,52154,1,0,0:0:0:0:
433,180,52315,1,8,0:0:0:0:
464,181,52477,1,8,0:0:0:0:
429,172,52638,1,0,0:0:0:0:
356,161,52960,1,4,0:0:0:0:
364,184,53444,1,0,0:0:0:0:
364,152,53606,1,8,0:0:0:0:
415,154,53928,1,8,0:0:0:0:
415,154,54089,1,8,0:0:0:0:
437,133,54251,1,0,0:0:0:0:
450,308,54412,1,0,0:0:0:0:
453,248,54735,1,0,0:0:0:0:
450,180,54896,1,8,0:0:0:0:
421,152,55218,1,8,0:0:0:0:
447,169,55380,1,8,0:0:0:0:
479,163,55541,1,4,0:0:0:0:
486,219,55864,1,0,0:0:0:0:
484,184,56025,1,0,0:0:0:0:
467,173,56186,1,12,0:0:0:0:
409,158,56347,1,8,0:0:0:0:
447,172,56670,1,8,0:0:0:0:
450,200,56831,1,0,0:0:0:0:
481,178,57154,1,8,0:0:0:0:
397,185,57315,1,8,0:0:0:0:
438,201,57477,1,0,0:0:0:0:
406,160,57638,1,0,0:0:0:0:
457,162,57799,1,8,0:0:0:0:
409,154,58122,1,4,0:0:0:0:
423,165,58444,1,8,0:0:0:0:
437,165,58767,1,0,0:0:0:0:
392,164,58928,1,8,0:0:0:0:
408,184,59089,1,0,0:0:0:0:
400,168,59251,1,8,0:0:0:0:
432,168,59412,1,0,0:0:0:0:
392,176,59735,1,0,0:0:0:0:
440,218,59896,1,8,0:0:0:0:
386,180,60057,1,8,0:0:0:0:
385,180,60218,1,8,0:0:0:0:
374,179,60380,1,0,0:0:0:0:
352,180,60541,1,0,0:0:0:0:
394,182,60702,1,8,0:0:0:0:
447,168,61025,1,8,0:0:0:0:
416,167,61186,1,8,0:0:0:0:
406,163,61347,1,0,0:0:0:0:
403,169,61509,1,8,0:0:0:0:
416,167,61670,1,0,0:0:0:0:
468,249,61831,1,12,0:0:0:0:
362,83,62154,1,12,0:0:0:0:
474,243,62477,1,4,0:0:0:0:
278,65,62960,1,0,0:0:0:0:
435,196,63298,1,12,0:0:0:0:
398,172,63620,1,8,0:0:0:0:
433,155,63781,1,8,0:0:0:0:
437,148,63943,1,0,0:0:0:0:
433,155,64104,1,0,0:0:0:0:
369,146,64265,1,8,0:0:0:0:
432,168,64427,1,0,0:0:0:0:
408,144,64588,1,8,0:0:0:0:
464,192,64910,1,8,0:0:0:0:
432,176,65233,1,0,0:0:0:0:
408,184,65394,1,0,0:0:0:0:
392,176,65556,1,8,0:0:0:0:
443,177,65878,1,8,0:0:0:0:
438,187,66201,1,0,0:0:0:0:
392,136,66523,1,8,0:0:0:0:
384,144,66685,1,0,0:0:0:0:
360,120,66846,1,8,0:0:0:0:
468,284,67168,1,12,0:0:0:0:
477,240,67330,1,0,0:0:0:0:
477,240,67410,1,0,0:0:0:0:
448,160,67491,1,0,0:0:0:0:
432,160,67652,1,0,0:0:0:0:
448,168,67814,1,8,0:0:0:0:
433,190,67975,1,0,0:0:0:0:
464,168,68136,1,8,0:0:0:0:
408,160,68459,1,4,0:0:0:0:
456,200,68781,1,8,0:0:0:0:
427,265,68943,1,8,0:0:0:0:
464,168,69265,1,0,0:0:0:0:
434,187,69427,1,8,0:0:0:0:
472,176,69588,1,0,0:0:0:0:
416,176,69749,1,8,0:0:0:0:
432,165,70233,1,8,0:0:0:0:
442,201,70394,1,8,0:0:0:0:
482,175,70556,1,0,0:0:0:0:
470,175,70717,1,8,0:0:0:0:
466,152,71039,1,8,0:0:0:0:
445,174,71201,1,0,0:0:0:0:
456,160,71362,1,8,0:0:0:0:
379,164,71523,1,8,0:0:0:0:
411,155,71685,1,0,0:0:0:0:
400,128,71846,1,0,0:0:0:0:
400,136,72007,1,8,0:0:0:0:
463,253,72168,1,0,0:0:0:0:
416,163,72330,1,8,0:0:0:0:
496,194,72652,1,0,0:0:0:0:
408,183,72814,1,8,0:0:0:0:
404,184,72894,1,8,0:0:0:0:
404,184,72975,1,8,0:0:0:0:
404,184,73136,1,8,0:0:0:0:
438,214,73297,1,0,0:0:0:0:
398,168,73620,1,12,0:0:0:0:
398,168,73943,1,8,0:0:0:0:
423,248,74265,1,0,0:0:0:0:
422,233,74427,1,0,0:0:0:0:
456,163,74588,1,8,0:0:0:0:
448,164,74749,1,0,0:0:0:0:
412,145,74910,1,8,0:0:0:0:
444,183,75233,1,8,0:0:0:0:
453,190,75556,1,0,0:0:0:0:
464,176,75717,1,8,0:0:0:0:
461,156,75878,1,0,0:0:0:0:
472,168,76201,1,8,0:0:0:0:
464,160,76362,1,8,0:0:0:0:
464,168,76523,1,0,0:0:0:0:
432,224,76685,1,0,0:0:0:0:
453,176,76846,1,8,0:0:0:0:
408,168,77007,1,0,0:0:0:0:
416,184,77168,1,8,0:0:0:0:
411,190,77491,1,4,0:0:0:0:
466,176,77814,1,8,0:0:0:0:
464,176,77975,1,8,0:0:0:0:
464,176,78056,1,8,0:0:0:0:
476,166,78136,1,8,0:0:0:0:
434,155,78297,1,0,0:0:0:0:
442,173,78459,1,8,0:0:0:0:
390,164,78781,1,4,0:0:0:0:
429,196,79265,1,0,0:0:0:0:
432,181,79427,1,8,0:0:0:0:
464,176,79749,1,8,0:0:0:0:
408,184,79910,1,8,0:0:0:0:
428,171,80072,1,0,0:0:0:0:
395,169,80233,1,8,0:0:0:0:
371,164,80394,1,0,0:0:0:0:
440,248,80556,1,0,0:0:0:0:
411,202,80717,1,12,0:0:0:0:
456,154,81039,1,8,0:0:0:0:
462,187,81201,1,8,0:0:0:0:
456,161,81362,1,0,0:0:0:0:
448,168,81523,1,0,0:0:0:0:
411,167,81685,1,8,0:0:0:0:
430,168,81846,1,8,0:0:0:0:
451,180,82007,1,0,0:0:0:0:
432,197,82168,1,0,0:0:0:0:
386,175,82330,1,8,0:0:0:0:
387,174,82410,1,8,0:0:0:0:
420,189,82491,1,8,0:0:0:0:
446,185,82652,1,4,0:0:0:0:
449,170,83943,1,0,0:0:0:0:
449,170,84265,1,0,0:0:0:0:
432,181,84588,1,8,0:0:0:0:
416,160,84749,1,0,0:0:0:0:
440,160,84910,1,8,0:0:0:0:
384,192,84991,1,8,0:0:0:0:
472,176,85072,1,8,0:0:0:0:
400,176,85233,1,4,0:0:0:0:
448,168,85556,1,8,0:0:0:0:
464,176,85878,1,0,0:0:0:0:
432,176,86039,1,0,0:0:0:0:
456,184,86201,1,8,0:0:0:0:
448,168,86362,1,0,0:0:0:0:
448,160,86523,1,8,0:0:0:0:
448,176,86846,1,0,0:0:0:0:
448,160,87168,1,8,0:0:0:0:
440,184,87330,1,0,0:0:0:0:
448,160,87491,1,8,0:0:0:0:
408,168,87814,1,0,0:0:0:0:
412,208,88297,1,0,0:0:0:0:
472,176,88459,1,8,0:0:0:0:
433,242,88620,1,8,0:0:0:0:
464,176,88781,1,8,0:0:0:0:
402,156,88943,1,0,0:0:0:0:
464,184,89104,1,12,0:0:0:0:
456,184,89427,1,0,0:0:0:0:
411,200,89588,1,8,0:0:0:0:
432,176,89910,1,0,0:0:0:0:
400,168,90072,1,8,0:0:0:0:
456,189,90233,1,8,0:0:0:0:
464,160,90394,1,4,0:0:0:0:
440,176,90717,1,8,0:0:0:0:
408,176,90878,1,0,0:0:0:0:
424,184,91039,1,8,0:0:0:0:
435,238,91201,1,8,0:0:0:0:
435,238,91281,1,8,0:0:0:0:
400,144,91362,1,8,0:0:0:0:
400,160,91523,1,8,0:0:0:0:
424,176,91685,1,0,0:0:0:0:
472,168,92007,1,8,0:0:0:0:
448,176,92168,1,8,0:0:0:0:
456,168,92330,1,0,0:0:0:0:
504,160,92491,1,0,0:0:0:0:
464,176,92652,1,8,0:0:0:0:
440,168,92814,1,0,0:0:0:0:
504,168,92975,1,12,0:0:0:0:
448,168,93297,1,8,0:0:0:0:
464,160,93459,1,0,0:0:0:0:
472,152,93620,1,8,0:0:0:0:
464,168,93781,1,0,0:0:0:0:
448,136,93943,1,8,0:0:0:0:
440,136,94104,1,8,0:0:0:0:
440,168,94265,1,4,0:0:0:0:
432,184,94427,1,0,0:0:0:0:
464,160,94588,1,8,0:0:0:0:
496,160,94749,1,0,0:0:0:0:
440,176,94910,1,8,0:0:0:0:
421,202,95018,1,8,0:0:0:0:
440,176,95125,1,8,0:0:0:0:
387,208,95233,1,8,0:0:0:0:
398,187,95556,1,4,0:0:0:0:
512,208,96039,1,0,0:0:0:0:
495,167,96201,1,8,0:0:0:0:
468,181,96523,1,8,0:0:0:0:
456,183,96685,1,8,0:0:0:0:
429,175,96846,1,0,0:0:0:0:
448,170,97168,1,8,0:0:0:0:
448,170,97330,1,8,0:0:0:0:
470,165,97491,1,0,0:0:0:0:
436,165,97652,1,0,0:0:0:0:
435,178,97814,1,8,0:0:0:0:
422,169,97975,1,0,0:0:0:0:
408,160,98136,1,8,0:0:0:0:
429,171,98297,1,8,0:0:0:0:
392,146,98459,1,0,0:0:0:0:
438,154,98781,1,0,0:0:0:0:
440,168,98943,1,0,0:0:0:0:
448,176,99104,1,8,0:0:0:0:
440,168,99265,1,0,0:0:0:0:
408,174,99427,1,8,0:0:0:0:
448,202,99588,1,8,0:0:0:0:
448,202,99668,1,8,0:0:0:0:
448,202,99749,1,8,0:0:0:0:
457,254,99910,1,8,0:0:0:0:
459,188,100072,1,0,0:0:0:0:
376,161,100233,1,0,0:0:0:0:
440,160,100394,1,8,0:0:0:0:
432,160,100556,1,8,0:0:0:0:
400,168,100717,1,4,0:0:0:0:
424,184,101201,1,0,0:0:0:0:
440,128,101362,1,8,0:0:0:0:
400,144,101685,1,8,0:0:0:0:
432,168,101846,1,0,0:0:0:0:
424,168,102007,1,0,0:0:0:0:
439,162,102330,1,8,0:0:0:0:
465,156,102491,1,0,0:0:0:0:
448,159,102652,1,8,0:0:0:0:
443,161,102814,1,8,0:0:0:0:
454,189,102894,1,8,0:0:0:0:
454,189,102975,1,8,0:0:0:0:
402,162,103136,1,0,0:0:0:0:
410,171,103297,1,12,0:0:0:0:
421,143,103781,1,8,0:0:0:0:
428,164,103943,1,4,0:0:0:0:
446,178,104104,1,8,0:0:0:0:
448,144,104427,1,8,0:0:0:0:
456,168,104588,1,4,0:0:0:0:
432,176,104910,1,8,0:0:0:0:
446,178,105072,1,0,0:0:0:0:
440,160,105233,1,4,0:0:0:0:
448,176,105394,1,8,0:0:0:0:
432,168,105717,1,8,0:0:0:0:
472,168,105878,1,0,0:0:0:0:
423,191,106201,1,8,0:0:0:0:
446,188,106362,1,0,0:0:0:0:
432,176,106523,1,8,0:0:0:0:
472,168,106685,1,0,0:0:0:0:
472,160,106846,1,8,0:0:0:0:
440,160,107007,1,8,0:0:0:0:
504,160,107168,1,0,0:0:0:0:
440,168,107491,1,8,0:0:0:0:
415,186,107652,1,8,0:0:0:0:
416,176,107814,1,0,0:0:0:0:
416,176,107975,1,0,0:0:0:0:
456,168,108136,1,8,0:0:0:0:
464,176,108297,1,0,0:0:0:0:
439,173,108459,1,8,0:0:0:0:
472,192,108781,1,8,0:0:0:0:
432,176,108943,1,8,0:0:0:0:
421,167,109104,1,0,0:0:0:0:
437,173,109265,1,8,0:0:0:0:
464,176,109427,1,0,0:0:0:0:
448,168,109588,1,0,0:0:0:0:
393,175,109749,1,8,0:0:0:0:
416,202,109910,1,0,0:0:0:0:
416,160,110072,1,8,0:0:0:0:
421,202,110233,1,8,0:0:0:0:
421,202,110314,1,8,0:0:0:0:
421,202,110394,1,8,0:0:0:0:
387,189,110556,1,0,0:0:0:0:
421,163,110717,1,8,0:0:0:0:
452,193,111039,1,4,0:0:0:0:
507,188,111362,1,0,0:0:0:0:
453,179,111685,1,8,0:0:0:0:
454,183,111846,1,0,0:0:0:0:
480,160,112007,1,8,0:0:0:0:
480,160,112168,1,8,0:0:0:0:
440,144,112330,1,0,0:0:0:0:
424,184,112652,1,0,0:0:0:0:
448,160,112814,1,0,0:0:0:0:
448,160,112975,1,8,0:0:0:0:
432,187,113136,1,0,0:0:0:0:
451,173,113297,1,8,0:0:0:0:
477,172,113620,1,4,0:0:0:0:
432,160,113943,1,0,0:0:0:0:
424,168,114104,1,8,0:0:0:0:
414,180,114265,1,0,0:0:0:0:
406,180,114346,1,0,0:0:0:0:
430,189,114427,1,0,0:0:0:0:
381,171,114588,1,0,0:0:0:0:
448,169,114749,1,12,0:0:0:0:
416,178,117882,1,4,0:0:0:0:
481,174,118785,1,12,0:0:0:0:
478,201,118946,1,0,0:0:0:0:
433,181,119107,1,8,0:0:0:0:
391,172,119268,1,8,0:0:0:0:
391,172,119349,1,8,0:0:0:0:
391,172,119430,1,8,0:0:0:0:
465,164,119591,1,0,0:0:0:0:
489,178,119752,1,8,0:0:0:0:
479,190,120075,1,8,0:0:0:0:
423,199,120397,1,0,0:0:0:0:
453,202,120720,1,0,0:0:0:0:
474,161,120881,1,0,0:0:0:0:
467,175,121043,1,8,0:0:0:0:
463,201,121365,1,0,0:0:0:0:
463,201,121526,1,0,0:0:0:0:
456,164,121688,1,8,0:0:0:0:
415,163,121849,1,0,0:0:0:0:
448,168,122010,1,8,0:0:0:0:
399,174,122172,1,8,0:0:0:0:
474,171,122333,1,0,0:0:0:0:
464,261,122655,1,12,0:0:0:0:
383,162,122817,1,0,0:0:0:0:
382,162,122897,1,0,0:0:0:0:
382,162,122978,1,0,0:0:0:0:
411,180,123139,1,0,0:0:0:0:
407,180,123301,1,8,0:0:0:0:
401,182,123462,1,0,0:0:0:0:
442,185,123623,1,8,0:0:0:0:
364,153,123704,1,8,0:0:0:0:
364,153,123785,1,8,0:0:0:0:
423,196,123946,1,4,0:0:0:0:
424,157,124268,1,8,0:0:0:0:
449,185,124430,1,8,0:0:0:0:
389,179,124591,1,0,0:0:0:0:
444,157,124752,1,0,0:0:0:0:
442,154,124914,1,8,0:0:0:0:
480,170,125075,1,0,0:0:0:0:
461,170,125236,1,8,0:0:0:0:
402,212,125720,1,0,0:0:0:0:
410,182,125881,1,8,0:0:0:0:
414,185,126043,1,0,0:0:0:0:
452,174,126204,1,8,0:0:0:0:
396,177,126526,1,8,0:0:0:0:
487,170,126688,1,0,0:0:0:0:
426,168,126849,1,8,0:0:0:0:
425,190,127010,1,0,0:0:0:0:
425,190,127091,1,0,0:0:0:0:
420,196,127172,1,0,0:0:0:0:
405,219,127333,1,0,0:0:0:0:
418,171,127494,1,8,0:0:0:0:
418,171,127655,1,8,0:0:0:0:
408,195,127817,1,4,0:0:0:0:
436,170,128139,1,0,0:0:0:0:
436,162,128301,1,8,0:0:0:0:
436,162,128381,1,8,0:0:0:0:
427,173,128462,1,8,0:0:0:0:
418,171,128623,1,8,0:0:0:0:
480,157,128784,1,0,0:0:0:0:
469,179,129107,1,12,0:0:0:0:
464,168,129430,1,0,0:0:0:0:
480,168,129752,1,8,0:0:0:0:
420,164,129914,1,8,0:0:0:0:
469,179,130075,1,0,0:0:0:0:
480,184,130397,1,8,0:0:0:0:
432,184,130559,1,0,0:0:0:0:
464,168,130720,1,8,0:0:0:0:
451,167,130881,1,8,0:0:0:0:
503,168,131043,1,0,0:0:0:0:
468,173,131204,1,0,0:0:0:0:
422,158,131365,1,8,0:0:0:0:
432,168,131688,1,8,0:0:0:0:
390,160,131849,1,0,0:0:0:0:
461,165,132010,1,8,0:0:0:0:
480,184,132172,1,0,0:0:0:0:
408,168,132252,1,0,0:0:0:0:
424,181,132333,1,0,0:0:0:0:
456,168,132494,1,0,0:0:0:0:
416,160,132655,1,8,0:0:0:0:
440,208,132817,1,8,0:0:0:0:
504,192,132978,1,4,0:0:0:0:
435,194,133301,1,0,0:0:0:0:
475,170,133462,1,8,0:0:0:0:
475,170,133543,1,8,0:0:0:0:
472,168,133623,1,8,0:0:0:0:
440,176,133785,1,8,0:0:0:0:
464,160,133946,1,0,0:0:0:0:
352,160,134268,1,12,0:0:0:0:
504,200,134752,1,0,0:0:0:0:
464,176,134914,1,8,0:0:0:0:
480,168,135236,1,8,0:0:0:0:
448,168,135397,1,8,0:0:0:0:
488,176,135559,1,0,0:0:0:0:
440,176,135720,1,0,0:0:0:0:
456,176,135881,1,8,0:0:0:0:
480,160,136043,1,0,0:0:0:0:
424,168,136204,1,12,0:0:0:0:
440,176,136526,1,8,0:0:0:0:
440,176,136688,1,8,0:0:0:0:
424,160,136849,1,4,0:0:0:0:
440,200,137333,1,0,0:0:0:0:
472,176,137494,1,8,0:0:0:0:
488,160,137817,1,8,0:0:0:0:
480,160,137978,1,8,0:0:0:0:
448,176,138139,1,0,0:0:0:0:
448,168,138301,1,8,0:0:0:0:
432,160,138462,1,0,0:0:0:0:
432,160,138623,1,0,0:0:0:0:
488,168,138784,1,12,0:0:0:0:
456,160,139107,1,8,0:0:0:0:
456,160,139268,1,8,0:0:0:0:
448,176,139430,1,4,0:0:0:0:
458,206,139752,1,0,0:0:0:0:
481,179,139914,1,8,0:0:0:0:
481,179,139994,1,8,0:0:0:0:
481,179,140075,1,8,0:0:0:0:
480,200,140236,1,0,0:0:0:0:
512,176,140397,1,8,0:0:0:0:
504,176,140559,1,8,0:0:0:0:
496,184,140720,1,0,0:0:0:0:
480,176,141043,1,8,0:0:0:0:
404,206,141204,1,8,0:0:0:0:
448,184,141365,1,0,0:0:0:0:
405,222,141526,1,0,0:0:0:0:
432,176,141688,1,8,0:0:0:0:
464,176,141849,1,0,0:0:0:0:
432,192,142010,1,8,0:0:0:0:
424,192,142091,1,8,0:0:0:0:
504,170,142172,1,8,0:0:0:0:
419,178,142333,1,8,0:0:0:0:
461,163,142494,1,0,0:0:0:0:
473,156,142655,1,8,0:0:0:0:
438,156,142736,1,8,0:0:0:0:
423,216,142817,1,8,0:0:0:0:
457,165,142978,1,8,0:0:0:0:
461,163,143139,1,8,0:0:0:0:
423,168,143301,1,4,0:0:0:0:
393,177,143462,1,4,0:0:0:0:
423,168,143623,1,4,0:0:0:0:
423,203,144591,1,4,0:0:0:0:
480,176,144914,1,8,0:0:0:0:
440,160,145236,1,8,0:0:0:0:
440,160,145397,1,8,0:0:0:0:
400,160,145559,1,0,0:0:0:0:
400,160,145720,1,0,0:0:0:0:
424,168,145881,1,8,0:0:0:0:
440,176,146204,1,8,0:0:0:0:
432,160,146365,1,0,0:0:0:0:
432,168,146526,1,8,0:0:0:0:
432,168,146688,1,8,0:0:0:0:
480,160,146849,1,0,0:0:0:0:
456,184,147010,1,0,0:0:0:0:
424,168,147172,1,8,0:0:0:0:
426,129,147494,1,8,0:0:0:0:
462,178,147655,1,0,0:0:0:0:
459,177,147817,1,8,0:0:0:0:
438,229,147978,1,0,0:0:0:0:
400,160,148139,1,0,0:0:0:0:
400,160,148301,1,0,0:0:0:0:
400,176,148462,1,12,0:0:0:0:
414,166,148784,1,8,0:0:0:0:
414,166,148946,1,8,0:0:0:0:
427,157,149026,1,8,0:0:0:0:
444,157,149107,1,8,0:0:0:0:
431,164,149268,1,0,0:0:0:0:
390,165,149430,1,8,0:0:0:0:
398,175,149752,1,4,0:0:0:0:
428,169,150236,1,0,0:0:0:0:
478,165,150397,1,8,0:0:0:0:
470,164,150559,1,8,0:0:0:0:
453,165,150720,1,0,0:0:0:0:
437,167,150881,1,8,0:0:0:0:
428,161,151043,1,0,0:0:0:0:
436,174,151365,1,8,0:0:0:0:
407,153,151688,1,8,0:0:0:0:
437,167,151849,1,8,0:0:0:0:
475,170,152010,1,0,0:0:0:0:
370,192,152333,1,4,0:0:0:0:
456,205,152494,1,0,0:0:0:0:
436,173,152655,1,8,0:0:0:0:
449,220,152817,1,8,0:0:0:0:
449,220,152897,1,8,0:0:0:0:
449,220,152978,1,8,0:0:0:0:
460,167,153139,1,0,0:0:0:0:
450,162,153301,1,8,0:0:0:0:
438,162,153462,1,8,0:0:0:0:
429,163,153623,1,4,0:0:0:0:
427,164,153784,1,4,0:0:0:0:
427,164,153946,1,4,0:0:0:0:
480,184,154268,1,8,0:0:0:0:
445,186,154430,1,8,0:0:0:0:
445,186,154591,1,8,0:0:0:0:
416,169,154752,1,4,0:0:0:0:
256,192,154914,12,0,159752,0:0:0:0:
434,188,160390,5,0,0:0:0:0:
434,188,160828,1,8,0:0:0:0:
423,247,161358,1,0,0:0:0:0:
445,187,161838,1,0,0:0:0:0:
448,179,162289,1,0,0:0:0:0:
445,187,162705,1,8,0:0:0:0:
443,171,163219,1,0,0:0:0:0:
443,171,163663,1,0,0:0:0:0:
447,195,164189,1,0,0:0:0:0:
438,282,164710,1,8,0:0:0:0:
449,185,165328,1,8,0:0:0:0:
447,178,165854,1,8,0:0:0:0:
470,179,166460,1,0,0:0:0:0:
472,189,167287,1,8,0:0:0:0:
