osu file format v14

[General]
AudioFilename: audio.mp3
AudioLeadIn: 0
PreviewTime: 63227
Countdown: 0
SampleSet: Normal
StackLeniency: 0.3
Mode: 1
LetterboxInBreaks: 0
WidescreenStoryboard: 1

[Editor]
DistanceSpacing: 1.4
BeatDivisor: 4
GridSize: 8
TimelineZoom: 2.7

[Metadata]
Title:Natsu no Owari, Koi no Hajimari (Cut Ver.)
TitleUnicode:夏の終わり、恋の始まり (Cut Ver.)
Artist:yuikonnu
ArtistUnicode:ゆいこんぬ
Creator:iloveyou4ever
Version:Kantan
Source:
Tags:すこっぷ scop yuiko primary female vocal japanese j-pop jpop pop short version
BeatmapID:3981733
BeatmapSetID:1927862

[Difficulty]
HPDrainRate:8
CircleSize:5
OverallDifficulty:3
ApproachRate:6
SliderMultiplier:1.4
SliderTickRate:1

[Events]
//Background and Video events
0,0,"11221.jpg",0,20
//Break Periods
//Storyboard Layer 0 (Background)
//Storyboard Layer 1 (Fail)
//Storyboard Layer 2 (Pass)
//Storyboard Layer 3 (Foreground)
//Storyboard Layer 4 (Overlay)
//Storyboard Sound Samples

[TimingPoints]
58,322.58064516129,4,1,0,60,1,0
1025,-114.942528735632,4,1,0,60,0,0
1348,322.58064516129,4,1,0,60,1,0
1348,-114.942528735632,4,1,0,60,0,0
11670,-111.111111111111,4,1,0,60,0,0
21993,-111.111111111111,4,1,0,68,0,0
42477,-100,4,1,0,72,0,0
42638,-100,4,1,0,75,0,0
45215,-100,4,1,0,82,0,0
52957,-105.263157894737,4,1,0,82,0,0
58122,-100,4,1,0,82,0,0
62638,-111.111111111111,4,1,0,82,0,0
63137,322.58064516129,4,1,0,82,1,8
63298,322.58064516129,4,1,0,90,1,1
78133,-103.092783505155,4,1,0,90,0,1
78781,-107.52688172043,4,1,0,90,0,0
81039,-104.166666666667,4,1,0,90,0,0
81362,-100,4,1,0,90,0,1
82652,-100,4,1,0,90,0,0
83943,-111.111111111111,4,1,0,90,0,0
84504,-109.649122807018,4,1,0,90,0,0
84585,-108.481262327416,4,1,0,90,0,0
84746,-106.232294617564,4,1,0,90,0,0
84907,-104.074681468399,4,1,0,90,0,0
84988,-103.021978021978,4,1,0,90,0,0
85069,-101.990357275312,4,1,0,90,0,0
85230,-100,4,1,0,90,0,0
92975,-100,4,1,0,90,0,1
95556,-100,4,1,0,90,0,0
105878,-100,4,1,0,90,0,1
111039,-100,4,1,0,90,0,0
114830,-100,4,1,0,5,0,0
116201,-111.111111111111,4,1,0,5,0,0
117491,-125,4,1,0,5,0,0
117814,-133.333333333333,4,1,0,60,0,0
117882,322.58064516129,4,1,0,60,1,8
117882,-133.333333333333,4,1,0,60,0,0
118785,322.58064516129,4,1,0,95,1,1
133298,-101.214574898785,4,1,0,95,0,1
133459,-102.213606353944,4,1,0,95,0,1
133540,-102.723718874819,4,1,0,95,0,1
133620,-103.232556153386,4,1,0,95,0,1
133782,-104.278547735204,4,1,0,95,0,1
133943,-105.339297113464,4,1,0,95,0,1
134268,-107.52688172043,4,1,0,95,0,0
139104,-104.166666666667,4,1,0,95,0,0
139430,-100,4,1,0,95,0,1
143623,-100,4,1,0,95,0,0
144591,-100,4,1,0,90,0,0
152333,-100,4,1,0,95,0,1
153623,-100,4,1,0,90,0,0
154914,-100,4,1,0,80,0,0
155075,-100,4,1,0,78,0,0
155236,-100,4,1,0,77,0,0
155397,-100,4,1,0,75,0,0
155559,-100,4,1,0,73,0,0
155720,-100,4,1,0,72,0,0
155881,-100,4,1,0,70,0,0
156043,-100,4,1,0,68,0,0
156204,-108.695652173913,4,1,0,67,0,0
156365,-108.695652173913,4,1,0,65,0,0
156526,-108.695652173913,4,1,0,63,0,0
156688,-108.695652173913,4,1,0,62,0,0
156849,-108.695652173913,4,1,0,60,0,0
157010,-108.695652173913,4,1,0,58,0,0
157172,-108.695652173913,4,1,0,57,0,0
157333,-108.695652173913,4,1,0,55,0,0
157494,-116.279069767442,4,1,0,53,0,0
157655,-116.279069767442,4,1,0,52,0,0
157817,-116.279069767442,4,1,0,50,0,0
157978,-116.279069767442,4,1,0,48,0,0
158139,-116.279069767442,4,1,0,47,0,0
158301,-116.279069767442,4,1,0,45,0,0
158462,-116.279069767442,4,1,0,43,0,0
158623,-116.279069767442,4,1,0,42,0,0
158784,-125,4,1,0,40,0,0
158946,-125,4,1,0,38,0,0
159107,-125,4,1,0,37,0,0
159268,-125,4,1,0,35,0,0
159430,-125,4,1,0,33,0,0
159591,-125,4,1,0,32,0,0
159752,-125,4,1,0,30,0,0
159953,437.956204379562,4,1,0,30,1,8
160387,-98.5611510791367,4,1,0,30,0,0
160828,530.973451327434,4,1,0,30,1,0
160828,-81.2949640287769,4,1,0,30,0,0
161358,480,4,1,0,30,1,8
161358,-89.9280575539568,4,1,0,30,0,0
161838,451.127819548872,4,1,0,30,1,8
161838,-95.6834532374101,4,1,0,30,0,0
162289,416.666666666667,4,1,0,30,1,8
162289,-103.597122302158,4,1,0,30,0,0
162705,342.857142857143,4,1,0,30,1,0
162705,-125.89928057554,4,1,0,30,0,0
163219,444.444444444444,4,1,0,30,1,8
163219,-97.1223021582735,4,1,0,30,0,0
163663,526.315789473684,4,1,0,30,1,8
163663,-82.0143884892087,4,1,0,30,0,0
164189,521.739130434783,4,1,0,30,1,8
164189,-82.7338129496402,4,1,0,30,0,0
164710,618.556701030928,4,1,0,30,1,0
164710,-69.7841726618705,4,1,0,30,0,0
165328,526.315789473684,4,1,0,30,1,8
165328,-82.0143884892087,4,1,0,30,0,0
165854,606.060606060606,4,1,0,30,1,8
165854,-71.2230215827338,4,1,0,30,0,0
166460,827.586206896552,4,1,0,30,1,8
166460,-52.1582733812949,4,1,0,30,0,0
167287,937.5,4,1,0,30,1,0
167287,-46.0431654676259,4,1,0,30,0,0

[Colours]
Combo1 : 255,89,89
Combo2 : 236,136,45
Combo3 : 205,225,159

[HitObjects]
448,240,1348,5,0,0:0:0:0:
451,155,2638,1,8,0:0:0:0:
420,178,3928,1,8,0:0:0:0:
431,197,5218,1,0,0:0:0:0:
424,128,6509,1,0,0:0:0:0:
468,171,7799,1,8,0:0:0:0:
410,157,9089,1,8,0:0:0:0:
403,196,11670,1,4,0:0:0:0:
442,169,12315,1,0,0:0:0:0:
416,171,12960,1,8,0:0:0:0:
384,173,13606,1,8,0:0:0:0:
443,161,14251,1,0,0:0:0:0:
473,164,14896,1,0,0:0:0:0:
457,159,15541,1,8,0:0:0:0:
448,168,16831,1,0,0:0:0:0:
464,160,17477,1,8,0:0:0:0:
448,176,18122,1,8,0:0:0:0:
432,168,18767,1,0,0:0:0:0:
398,198,19412,1,0,0:0:0:0:
404,193,20057,1,8,0:0:0:0:
438,163,20702,1,8,0:0:0:0:
472,247,21993,1,4,0:0:0:0:
406,164,22638,1,8,0:0:0:0:
406,164,23283,1,8,0:0:0:0:
152,232,23767,1,0,0:0:0:0:
432,176,24251,1,8,0:0:0:0:
424,168,24573,1,0,0:0:0:0:
400,192,25218,1,8,0:0:0:0:
456,288,25864,1,0,0:0:0:0:
432,200,26831,1,0,0:0:0:0:
483,153,27154,1,8,0:0:0:0:
450,183,27799,1,8,0:0:0:0:
456,224,28444,1,0,0:0:0:0:
360,192,28928,1,8,0:0:0:0:
464,169,29412,1,0,0:0:0:0:
473,180,29735,1,8,0:0:0:0:
416,168,30380,1,8,0:0:0:0:
400,208,30864,1,0,0:0:0:0:
467,153,32315,1,12,0:0:0:0:
436,224,32960,1,0,0:0:0:0:
400,168,33444,1,8,0:0:0:0:
401,181,33928,1,0,0:0:0:0:
424,224,34573,1,0,0:0:0:0:
456,168,34896,1,8,0:0:0:0:
448,160,35541,1,0,0:0:0:0:
416,192,36025,1,8,0:0:0:0:
473,299,37477,1,0,0:0:0:0:
488,192,38122,1,0,0:0:0:0:
448,192,38767,1,8,0:0:0:0:
448,200,39251,1,8,0:0:0:0:
431,208,39735,1,0,0:0:0:0:
456,160,40057,1,8,0:0:0:0:
435,142,40702,1,0,0:0:0:0:
417,222,41186,1,0,0:0:0:0:
460,197,42638,1,4,0:0:0:0:
446,203,43928,1,8,0:0:0:0:
434,169,44251,1,8,0:0:0:0:
439,168,44573,1,0,0:0:0:0:
448,168,45218,1,4,0:0:0:0:
400,176,45864,1,0,0:0:0:0:
464,288,46186,1,0,0:0:0:0:
450,172,46509,1,8,0:0:0:0:
444,205,46831,1,0,0:0:0:0:
395,157,47154,1,8,0:0:0:0:
408,272,47799,1,4,0:0:0:0:
416,184,49089,1,8,0:0:0:0:
464,304,49412,1,0,0:0:0:0:
422,169,49735,1,0,0:0:0:0:
445,183,50380,1,4,0:0:0:0:
403,156,51025,1,0,0:0:0:0:
448,248,51347,1,8,0:0:0:0:
423,184,51670,1,8,0:0:0:0:
416,176,51993,1,0,0:0:0:0:
433,180,52315,1,8,0:0:0:0:
356,161,52960,1,4,0:0:0:0:
415,154,53928,1,8,0:0:0:0:
437,133,54251,1,0,0:0:0:0:
392,176,55218,1,8,0:0:0:0:
479,163,55541,1,4,0:0:0:0:
467,173,56186,1,12,0:0:0:0:
450,200,56831,1,0,0:0:0:0:
464,176,57477,1,8,0:0:0:0:
448,184,57799,1,8,0:0:0:0:
409,154,58122,1,4,0:0:0:0:
416,208,58606,1,0,0:0:0:0:
475,195,58928,1,8,0:0:0:0:
432,232,59251,1,8,0:0:0:0:
384,216,60380,1,0,0:0:0:0:
394,182,60702,1,8,0:0:0:0:
408,232,61186,1,0,0:0:0:0:
456,240,61509,1,0,0:0:0:0:
421,47,61831,1,12,0:0:0:0:
456,240,62154,1,12,0:0:0:0:
376,60,62477,1,4,0:0:0:0:
413,191,63298,1,12,0:0:0:0:
398,172,63620,1,8,0:0:0:0:
437,148,63943,1,0,0:0:0:0:
400,200,64265,1,0,0:0:0:0:
408,144,64588,1,8,0:0:0:0:
432,176,65233,1,0,0:0:0:0:
443,177,65878,1,8,0:0:0:0:
438,187,66201,1,0,0:0:0:0:
447,154,66523,1,8,0:0:0:0:
432,184,66846,1,0,0:0:0:0:
424,176,67168,1,12,0:0:0:0:
448,168,67814,1,8,0:0:0:0:
421,173,68136,1,8,0:0:0:0:
408,160,68459,1,4,0:0:0:0:
368,176,68943,1,0,0:0:0:0:
400,176,69427,1,8,0:0:0:0:
440,176,70394,1,0,0:0:0:0:
466,152,71039,1,8,0:0:0:0:
456,160,71362,1,8,0:0:0:0:
411,155,71685,1,0,0:0:0:0:
448,272,72007,1,0,0:0:0:0:
416,163,72330,1,8,0:0:0:0:
398,168,73620,1,12,0:0:0:0:
440,256,73943,1,0,0:0:0:0:
496,68,74265,1,0,0:0:0:0:
432,232,74588,1,0,0:0:0:0:
412,145,74910,1,8,0:0:0:0:
453,190,75556,1,0,0:0:0:0:
472,168,76201,1,8,0:0:0:0:
464,168,76523,1,0,0:0:0:0:
453,176,76846,1,8,0:0:0:0:
416,184,77168,1,8,0:0:0:0:
411,190,77491,1,4,0:0:0:0:
476,166,78136,1,8,0:0:0:0:
390,164,78781,1,4,0:0:0:0:
428,171,80072,1,0,0:0:0:0:
472,224,80717,1,12,0:0:0:0:
456,161,81362,1,0,0:0:0:0:
411,167,81685,1,8,0:0:0:0:
451,180,82007,1,0,0:0:0:0:
417,163,82330,1,8,0:0:0:0:
389,179,82652,1,4,0:0:0:0:
400,176,85233,1,4,0:0:0:0:
464,176,85878,1,0,0:0:0:0:
448,160,86523,1,8,0:0:0:0:
448,176,86846,1,0,0:0:0:0:
448,160,87168,1,8,0:0:0:0:
448,160,87491,1,8,0:0:0:0:
408,168,87814,1,0,0:0:0:0:
472,176,88459,1,8,0:0:0:0:
464,184,89104,1,12,0:0:0:0:
415,193,89588,1,8,0:0:0:0:
400,168,90072,1,8,0:0:0:0:
464,160,90394,1,4,0:0:0:0:
424,184,91039,1,8,0:0:0:0:
400,144,91362,1,8,0:0:0:0:
424,176,91685,1,0,0:0:0:0:
504,168,92975,1,12,0:0:0:0:
448,200,93297,1,0,0:0:0:0:
432,176,93620,1,8,0:0:0:0:
448,136,93943,1,8,0:0:0:0:
472,248,94265,1,0,0:0:0:0:
432,240,94588,1,0,0:0:0:0:
480,176,94910,1,8,0:0:0:0:
398,187,95556,1,4,0:0:0:0:
495,167,96201,1,8,0:0:0:0:
472,216,96685,1,0,0:0:0:0:
440,256,97168,1,0,0:0:0:0:
408,176,97491,1,8,0:0:0:0:
408,160,98136,1,8,0:0:0:0:
450,168,98459,1,8,0:0:0:0:
438,154,98781,1,0,0:0:0:0:
376,200,99104,1,0,0:0:0:0:
408,174,99427,1,8,0:0:0:0:
400,168,100717,1,4,0:0:0:0:
440,128,101362,1,8,0:0:0:0:
456,272,101846,1,0,0:0:0:0:
440,192,102330,1,0,0:0:0:0:
432,176,102652,1,8,0:0:0:0:
410,171,103297,1,12,0:0:0:0:
448,240,103943,1,4,0:0:0:0:
456,168,104588,1,4,0:0:0:0:
472,168,105878,1,0,0:0:0:0:
448,144,106362,1,8,0:0:0:0:
472,160,106846,1,8,0:0:0:0:
504,160,107168,1,0,0:0:0:0:
432,160,107652,1,8,0:0:0:0:
417,207,108136,1,0,0:0:0:0:
439,173,108459,1,8,0:0:0:0:
417,207,108781,1,0,0:0:0:0:
407,187,109104,1,8,0:0:0:0:
112,160,109588,1,0,0:0:0:0:
452,193,111039,1,4,0:0:0:0:
458,157,111523,1,8,0:0:0:0:
428,173,111846,1,0,0:0:0:0:
480,160,112168,1,8,0:0:0:0:
455,306,112975,1,0,0:0:0:0:
477,172,113620,1,4,0:0:0:0:
424,168,114104,1,8,0:0:0:0:
405,200,114427,1,0,0:0:0:0:
448,169,114749,1,12,0:0:0:0:
416,178,117882,1,4,0:0:0:0:
481,174,118785,1,12,0:0:0:0:
433,181,119107,1,8,0:0:0:0:
465,265,119430,1,0,0:0:0:0:
489,178,119752,1,8,0:0:0:0:
479,190,120075,1,8,0:0:0:0:
453,202,120720,1,0,0:0:0:0:
463,201,121365,1,0,0:0:0:0:
456,164,121688,1,8,0:0:0:0:
448,168,122010,1,8,0:0:0:0:
412,208,122333,1,0,0:0:0:0:
408,176,122655,1,12,0:0:0:0:
456,176,123301,1,8,0:0:0:0:
456,176,123623,1,8,0:0:0:0:
423,196,123946,1,4,0:0:0:0:
416,151,124430,1,0,0:0:0:0:
442,154,124914,1,8,0:0:0:0:
455,223,125881,1,0,0:0:0:0:
473,281,126204,1,0,0:0:0:0:
396,177,126526,1,8,0:0:0:0:
419,227,126849,1,0,0:0:0:0:
418,141,127172,1,8,0:0:0:0:
418,171,127494,1,8,0:0:0:0:
408,195,127817,1,4,0:0:0:0:
469,179,129107,1,12,0:0:0:0:
464,168,129430,1,0,0:0:0:0:
440,256,129752,1,0,0:0:0:0:
469,179,130075,1,0,0:0:0:0:
480,184,130397,1,8,0:0:0:0:
503,168,131043,1,0,0:0:0:0:
432,168,131688,1,8,0:0:0:0:
433,189,132010,1,0,0:0:0:0:
475,269,132333,1,8,0:0:0:0:
416,160,132655,1,8,0:0:0:0:
504,192,132978,1,4,0:0:0:0:
474,293,133623,1,0,0:0:0:0:
464,160,133946,1,0,0:0:0:0:
352,160,134268,1,12,0:0:0:0:
480,168,135236,1,8,0:0:0:0:
488,176,135559,1,0,0:0:0:0:
424,168,136204,1,12,0:0:0:0:
424,160,136849,1,4,0:0:0:0:
416,227,138139,1,8,0:0:0:0:
488,168,138784,1,12,0:0:0:0:
448,176,139430,1,4,0:0:0:0:
432,176,139914,1,8,0:0:0:0:
368,192,140397,1,8,0:0:0:0:
496,184,140720,1,0,0:0:0:0:
432,176,141688,1,8,0:0:0:0:
395,185,142010,1,0,0:0:0:0:
419,178,142333,1,8,0:0:0:0:
401,179,142655,1,0,0:0:0:0:
423,168,143301,1,4,0:0:0:0:
423,168,143623,1,4,0:0:0:0:
423,203,144591,1,4,0:0:0:0:
480,176,144914,1,8,0:0:0:0:
440,160,145236,1,8,0:0:0:0:
424,168,145881,1,8,0:0:0:0:
437,176,146204,1,0,0:0:0:0:
432,168,146526,1,8,0:0:0:0:
424,168,147172,1,8,0:0:0:0:
448,280,147494,1,8,0:0:0:0:
440,240,147817,1,0,0:0:0:0:
400,160,148139,1,0,0:0:0:0:
400,176,148462,1,12,0:0:0:0:
398,175,149752,1,4,0:0:0:0:
478,165,150397,1,8,0:0:0:0:
472,184,150720,1,8,0:0:0:0:
428,161,151043,1,0,0:0:0:0:
464,176,151365,1,0,0:0:0:0:
407,153,151688,1,8,0:0:0:0:
370,192,152333,1,4,0:0:0:0:
436,173,152655,1,8,0:0:0:0:
449,220,152978,1,8,0:0:0:0:
450,162,153301,1,8,0:0:0:0:
429,163,153623,1,4,0:0:0:0:
427,164,153946,1,4,0:0:0:0:
416,169,154752,1,4,0:0:0:0:
256,192,154914,12,0,159752,0:0:0:0:
434,188,160828,5,8,0:0:0:0:
400,168,162705,1,0,0:0:0:0:
438,282,164710,1,8,0:0:0:0:
386,164,167287,1,8,0:0:0:0:
