osu file format v14

[General]
AudioFilename: audio.mp3
AudioLeadIn: 0
PreviewTime: 43508
Countdown: 0
SampleSet: Soft
StackLeniency: 0.7
Mode: 3
LetterboxInBreaks: 0
SpecialStyle: 0
WidescreenStoryboard: 1

[Editor]
Bookmarks: 1008,11675,22341,32841,55675,77008,110341,121064,132008,142675,153008,165008,186341,197008
DistanceSpacing: 1
BeatDivisor: 2
GridSize: 4
TimelineZoom: 0.9999999

[Metadata]
Title:Naisho no Dolls
TitleUnicode:内緒のDolls
Artist:yuikonnu
ArtistUnicode:ゆいこんぬ
Creator:R-unknown
Version:4k EZ
Source:
Tags:yuiko ゆいこ Nejimaki to Okitegami ねじまきと置き手紙 ニゴロウ
BeatmapID:2114165
BeatmapSetID:1009798

[Difficulty]
HPDrainRate:7
CircleSize:4
OverallDifficulty:7
ApproachRate:5
SliderMultiplier:1.4
SliderTickRate:1

[Events]
//Background and Video events
0,0,"Nejimaki-to-Okitegami-Cover.jpg",0,150
//Break Periods
//Storyboard Layer 0 (Background)
//Storyboard Layer 1 (Fail)
//Storyboard Layer 2 (Pass)
//Storyboard Layer 3 (Foreground)
//Storyboard Sound Samples

[TimingPoints]
1008.466240991,333.333333333333,4,2,0,100,1,0
45008,-100,4,2,0,100,0,1
66341,-100,4,2,0,100,0,0
110341,-100,4,2,0,100,0,1
132008,-100,4,2,0,100,0,0
165008,-100,4,2,0,100,0,1
186341,-100,4,2,0,100,0,0

[HitObjects]
64,192,1008,128,0,1341:0:0:0:0:
320,192,1675,1,0,0:0:0:0:
192,192,1841,1,0,0:0:0:0:
448,192,2175,128,0,2508:0:0:0:0:
192,192,2841,1,0,0:0:0:0:
448,192,3008,128,0,3341:0:0:0:0:
192,192,3341,1,0,0:0:0:0:
320,192,3675,128,0,4008:0:0:0:0:
192,192,4341,1,0,0:0:0:0:
320,192,4508,1,0,0:0:0:0:
64,192,4841,128,0,5175:0:0:0:0:
320,192,5508,1,0,0:0:0:0:
64,192,5675,128,0,6008:0:0:0:0:
320,192,6008,1,0,0:0:0:0:
192,192,6341,128,0,7341:0:0:0:0:
320,192,7675,128,0,8675:0:0:0:0:
192,192,9008,128,0,10341:0:0:0:0:
320,192,10508,1,0,0:0:0:0:
448,192,10675,1,0,0:0:0:0:
192,192,10841,1,0,0:0:0:0:
192,192,11008,1,0,0:0:0:0:
192,192,11675,1,0,0:0:0:0:
192,192,12008,1,0,0:0:0:0:
320,192,12508,1,0,0:0:0:0:
448,192,12841,1,0,0:0:0:0:
320,192,13175,1,0,0:0:0:0:
192,192,13508,128,0,13841:0:0:0:0:
320,192,13841,1,0,0:0:0:0:
320,192,14341,1,0,0:0:0:0:
320,192,14675,1,0,0:0:0:0:
192,192,15175,1,0,0:0:0:0:
64,192,15508,1,0,0:0:0:0:
192,192,15841,1,0,0:0:0:0:
320,192,16175,128,0,16508:0:0:0:0:
192,192,16508,1,0,0:0:0:0:
192,192,17008,1,0,0:0:0:0:
192,192,17341,1,0,0:0:0:0:
320,192,17841,1,0,0:0:0:0:
448,192,18175,1,0,0:0:0:0:
320,192,18508,1,0,0:0:0:0:
192,192,18841,128,0,19175:0:0:0:0:
320,192,19175,1,0,0:0:0:0:
448,192,19508,128,0,20175:0:0:0:0:
320,192,20175,128,0,20841:0:0:0:0:
192,192,20841,128,0,21508:0:0:0:0:
64,192,21508,128,0,21841:0:0:0:0:
448,192,21841,1,0,0:0:0:0:
192,192,22341,1,0,0:0:0:0:
192,192,22675,1,0,0:0:0:0:
320,192,23175,1,0,0:0:0:0:
448,192,23508,1,0,0:0:0:0:
320,192,23841,1,0,0:0:0:0:
448,192,24175,1,0,0:0:0:0:
320,192,25008,1,0,0:0:0:0:
320,192,25341,1,0,0:0:0:0:
192,192,25841,1,0,0:0:0:0:
64,192,26175,1,0,0:0:0:0:
192,192,26508,1,0,0:0:0:0:
320,192,26841,128,0,27175:0:0:0:0:
192,192,27175,1,0,0:0:0:0:
192,192,27675,1,0,0:0:0:0:
192,192,28008,1,0,0:0:0:0:
320,192,28508,1,0,0:0:0:0:
448,192,28841,1,0,0:0:0:0:
320,192,29175,1,0,0:0:0:0:
448,192,29508,1,0,0:0:0:0:
192,192,30175,128,0,30841:0:0:0:0:
448,192,30841,128,0,31508:0:0:0:0:
64,192,31508,1,0,0:0:0:0:
192,192,31841,1,0,0:0:0:0:
320,192,32008,1,0,0:0:0:0:
64,192,32341,1,0,0:0:0:0:
64,192,32841,1,0,0:0:0:0:
192,192,33175,1,0,0:0:0:0:
320,192,33341,1,0,0:0:0:0:
448,192,33675,1,0,0:0:0:0:
320,192,33841,1,0,0:0:0:0:
64,192,34175,1,0,0:0:0:0:
320,192,34508,1,0,0:0:0:0:
192,192,34675,1,0,0:0:0:0:
320,192,35008,1,0,0:0:0:0:
448,192,35175,1,0,0:0:0:0:
64,192,35508,1,0,0:0:0:0:
192,192,35841,1,0,0:0:0:0:
320,192,36008,1,0,0:0:0:0:
448,192,36341,1,0,0:0:0:0:
320,192,36508,1,0,0:0:0:0:
448,192,36841,128,0,37175:0:0:0:0:
320,192,37175,128,0,37508:0:0:0:0:
192,192,37508,128,0,37841:0:0:0:0:
64,192,37841,1,0,0:0:0:0:
448,192,38175,1,0,0:0:0:0:
320,192,38508,1,0,0:0:0:0:
192,192,38675,1,0,0:0:0:0:
64,192,39008,1,0,0:0:0:0:
192,192,39175,1,0,0:0:0:0:
448,192,39508,1,0,0:0:0:0:
192,192,39841,1,0,0:0:0:0:
320,192,40008,1,0,0:0:0:0:
192,192,40341,1,0,0:0:0:0:
64,192,40508,1,0,0:0:0:0:
448,192,40841,128,0,41175:0:0:0:0:
320,192,41175,128,0,41508:0:0:0:0:
192,192,41508,128,0,41841:0:0:0:0:
64,192,41841,128,0,42175:0:0:0:0:
448,192,42175,128,0,43508:0:0:0:0:
192,192,43508,1,0,0:0:0:0:
192,192,44008,1,0,0:0:0:0:
192,192,44341,1,0,0:0:0:0:
192,192,44675,1,0,0:0:0:0:
448,192,45008,128,0,45341:0:0:0:0:
192,192,45341,128,0,45675:0:0:0:0:
320,192,45675,128,0,46008:0:0:0:0:
448,192,46008,128,0,46341:0:0:0:0:
64,192,46341,1,0,0:0:0:0:
64,192,46508,1,0,0:0:0:0:
448,192,46841,128,0,47175:0:0:0:0:
320,192,47175,128,0,47508:0:0:0:0:
192,192,47508,1,0,0:0:0:0:
192,192,47675,128,0,48008:0:0:0:0:
320,192,48008,128,0,48341:0:0:0:0:
448,192,48341,128,0,48675:0:0:0:0:
320,192,48675,128,0,49008:0:0:0:0:
192,192,49008,1,0,0:0:0:0:
192,192,49175,128,0,49508:0:0:0:0:
320,192,49508,128,0,49841:0:0:0:0:
448,192,49841,128,0,50175:0:0:0:0:
320,192,50175,1,0,0:0:0:0:
192,192,50341,1,0,0:0:0:0:
320,192,50508,1,0,0:0:0:0:
192,192,50675,1,0,0:0:0:0:
320,192,50841,128,0,51175:0:0:0:0:
192,192,51175,128,0,51508:0:0:0:0:
64,192,51508,1,0,0:0:0:0:
448,192,51675,1,0,0:0:0:0:
64,192,51841,1,0,0:0:0:0:
448,192,52008,1,0,0:0:0:0:
192,192,52175,128,0,52508:0:0:0:0:
320,192,52508,128,0,52841:0:0:0:0:
448,192,52841,1,0,0:0:0:0:
448,192,53008,128,0,54175:0:0:0:0:
192,192,54175,1,0,0:0:0:0:
320,192,54508,1,0,0:0:0:0:
192,192,54841,1,0,0:0:0:0:
320,192,55175,1,0,0:0:0:0:
64,192,55675,128,0,56008:0:0:0:0:
192,192,56008,128,0,56341:0:0:0:0:
320,192,56341,128,0,56675:0:0:0:0:
448,192,56675,128,0,57008:0:0:0:0:
64,192,57008,1,0,0:0:0:0:
64,192,57175,128,0,57508:0:0:0:0:
192,192,57508,128,0,57841:0:0:0:0:
320,192,57841,128,0,58175:0:0:0:0:
448,192,58175,1,0,0:0:0:0:
448,192,58341,128,0,58675:0:0:0:0:
320,192,58675,128,0,59008:0:0:0:0:
192,192,59008,128,0,59341:0:0:0:0:
64,192,59341,128,0,59675:0:0:0:0:
448,192,59675,1,0,0:0:0:0:
448,192,59841,128,0,60175:0:0:0:0:
320,192,60175,128,0,60508:0:0:0:0:
192,192,60508,128,0,60841:0:0:0:0:
64,192,60841,1,0,0:0:0:0:
448,192,61008,1,0,0:0:0:0:
64,192,61175,1,0,0:0:0:0:
448,192,61341,1,0,0:0:0:0:
64,192,61508,128,0,61841:0:0:0:0:
448,192,61841,128,0,62175:0:0:0:0:
192,192,62175,1,0,0:0:0:0:
320,192,62341,1,0,0:0:0:0:
192,192,62508,1,0,0:0:0:0:
320,192,62675,1,0,0:0:0:0:
192,192,62841,128,0,63175:0:0:0:0:
320,192,63175,128,0,63508:0:0:0:0:
448,192,63508,1,0,0:0:0:0:
448,192,63675,128,0,65008:0:0:0:0:
320,192,65008,128,0,65675:0:0:0:0:
192,192,65675,128,0,66341:0:0:0:0:
64,192,66341,128,0,66675:0:0:0:0:
320,192,67008,1,0,0:0:0:0:
192,192,67175,1,0,0:0:0:0:
448,192,67508,128,0,67841:0:0:0:0:
192,192,68175,1,0,0:0:0:0:
448,192,68341,128,0,68675:0:0:0:0:
192,192,68675,1,0,0:0:0:0:
320,192,69008,128,0,69341:0:0:0:0:
192,192,69675,1,0,0:0:0:0:
320,192,69841,1,0,0:0:0:0:
64,192,70175,128,0,70508:0:0:0:0:
320,192,70841,1,0,0:0:0:0:
64,192,71008,128,0,71341:0:0:0:0:
320,192,71341,1,0,0:0:0:0:
192,192,71675,128,0,72675:0:0:0:0:
320,192,73008,128,0,74008:0:0:0:0:
192,192,74341,128,0,75675:0:0:0:0:
320,192,75841,1,0,0:0:0:0:
448,192,76008,1,0,0:0:0:0:
192,192,76175,1,0,0:0:0:0:
192,192,76341,1,0,0:0:0:0:
320,192,77008,1,0,0:0:0:0:
320,192,77341,1,0,0:0:0:0:
192,192,77841,1,0,0:0:0:0:
64,192,78175,1,0,0:0:0:0:
192,192,78508,1,0,0:0:0:0:
320,192,78841,128,0,79175:0:0:0:0:
192,192,79175,1,0,0:0:0:0:
192,192,79675,1,0,0:0:0:0:
192,192,80008,1,0,0:0:0:0:
320,192,80508,1,0,0:0:0:0:
448,192,80841,1,0,0:0:0:0:
320,192,81175,1,0,0:0:0:0:
192,192,81508,128,0,81841:0:0:0:0:
320,192,81841,1,0,0:0:0:0:
320,192,82341,1,0,0:0:0:0:
320,192,82675,1,0,0:0:0:0:
192,192,83175,1,0,0:0:0:0:
64,192,83508,1,0,0:0:0:0:
192,192,83841,1,0,0:0:0:0:
320,192,84175,128,0,84508:0:0:0:0:
192,192,84508,1,0,0:0:0:0:
64,192,84841,128,0,85508:0:0:0:0:
192,192,85508,128,0,86175:0:0:0:0:
320,192,86175,128,0,86841:0:0:0:0:
448,192,86841,128,0,87175:0:0:0:0:
64,192,87175,1,0,0:0:0:0:
320,192,87675,1,0,0:0:0:0:
320,192,88008,1,0,0:0:0:0:
192,192,88508,1,0,0:0:0:0:
64,192,88841,1,0,0:0:0:0:
192,192,89175,1,0,0:0:0:0:
64,192,89508,1,0,0:0:0:0:
192,192,90341,1,0,0:0:0:0:
192,192,90675,1,0,0:0:0:0:
320,192,91175,1,0,0:0:0:0:
448,192,91508,1,0,0:0:0:0:
320,192,91841,1,0,0:0:0:0:
192,192,92175,128,0,92508:0:0:0:0:
320,192,92508,1,0,0:0:0:0:
320,192,93008,1,0,0:0:0:0:
320,192,93341,1,0,0:0:0:0:
192,192,93841,1,0,0:0:0:0:
64,192,94175,1,0,0:0:0:0:
192,192,94508,1,0,0:0:0:0:
64,192,94841,1,0,0:0:0:0:
320,192,95508,128,0,96175:0:0:0:0:
64,192,96175,128,0,96841:0:0:0:0:
448,192,96841,1,0,0:0:0:0:
320,192,97175,1,0,0:0:0:0:
192,192,97341,1,0,0:0:0:0:
448,192,97675,1,0,0:0:0:0:
448,192,98175,1,0,0:0:0:0:
320,192,98508,1,0,0:0:0:0:
192,192,98675,1,0,0:0:0:0:
64,192,99008,1,0,0:0:0:0:
192,192,99175,1,0,0:0:0:0:
448,192,99508,1,0,0:0:0:0:
192,192,99841,1,0,0:0:0:0:
320,192,100008,1,0,0:0:0:0:
192,192,100341,1,0,0:0:0:0:
64,192,100508,1,0,0:0:0:0:
448,192,100841,1,0,0:0:0:0:
320,192,101175,1,0,0:0:0:0:
192,192,101341,1,0,0:0:0:0:
64,192,101675,1,0,0:0:0:0:
192,192,101841,1,0,0:0:0:0:
64,192,102175,128,0,102508:0:0:0:0:
192,192,102508,128,0,102841:0:0:0:0:
320,192,102841,128,0,103175:0:0:0:0:
448,192,103175,1,0,0:0:0:0:
64,192,103508,1,0,0:0:0:0:
192,192,103841,1,0,0:0:0:0:
320,192,104008,1,0,0:0:0:0:
448,192,104341,1,0,0:0:0:0:
320,192,104508,1,0,0:0:0:0:
64,192,104841,1,0,0:0:0:0:
320,192,105119,1,0,0:0:0:0:
192,192,105341,1,0,0:0:0:0:
320,192,105675,1,0,0:0:0:0:
448,192,105841,1,0,0:0:0:0:
64,192,106175,128,0,106508:0:0:0:0:
192,192,106508,128,0,106841:0:0:0:0:
320,192,106841,128,0,107175:0:0:0:0:
448,192,107175,128,0,107508:0:0:0:0:
64,192,107508,128,0,108841:0:0:0:0:
320,192,108841,1,0,0:0:0:0:
320,192,109341,1,0,0:0:0:0:
320,192,109675,1,0,0:0:0:0:
320,192,110008,1,0,0:0:0:0:
64,192,110341,128,0,110675:0:0:0:0:
320,192,110675,128,0,111008:0:0:0:0:
192,192,111008,128,0,111341:0:0:0:0:
64,192,111341,128,0,111675:0:0:0:0:
448,192,111675,1,0,0:0:0:0:
448,192,111841,1,0,0:0:0:0:
64,192,112175,128,0,112508:0:0:0:0:
192,192,112508,128,0,112841:0:0:0:0:
320,192,112841,1,0,0:0:0:0:
320,192,113008,128,0,113341:0:0:0:0:
192,192,113341,128,0,113675:0:0:0:0:
64,192,113675,128,0,114008:0:0:0:0:
192,192,114008,128,0,114341:0:0:0:0:
320,192,114341,1,0,0:0:0:0:
320,192,114508,128,0,114841:0:0:0:0:
192,192,114841,128,0,115175:0:0:0:0:
64,192,115175,128,0,115508:0:0:0:0:
192,192,115508,1,0,0:0:0:0:
320,192,115675,1,0,0:0:0:0:
192,192,115841,1,0,0:0:0:0:
320,192,116008,1,0,0:0:0:0:
192,192,116175,128,0,116508:0:0:0:0:
320,192,116508,128,0,116841:0:0:0:0:
448,192,116841,1,0,0:0:0:0:
64,192,117008,1,0,0:0:0:0:
448,192,117175,1,0,0:0:0:0:
64,192,117341,1,0,0:0:0:0:
320,192,117508,128,0,117841:0:0:0:0:
192,192,117841,128,0,118175:0:0:0:0:
64,192,118175,1,0,0:0:0:0:
64,192,118341,128,0,119508:0:0:0:0:
320,192,119508,1,0,0:0:0:0:
192,192,119841,1,0,0:0:0:0:
320,192,120175,1,0,0:0:0:0:
192,192,120508,1,0,0:0:0:0:
448,192,121008,128,0,121341:0:0:0:0:
320,192,121341,128,0,121675:0:0:0:0:
192,192,121675,128,0,122008:0:0:0:0:
64,192,122008,128,0,122341:0:0:0:0:
448,192,122341,1,0,0:0:0:0:
448,192,122508,128,0,122841:0:0:0:0:
320,192,122841,128,0,123175:0:0:0:0:
192,192,123175,128,0,123508:0:0:0:0:
64,192,123508,1,0,0:0:0:0:
64,192,123675,128,0,124008:0:0:0:0:
192,192,124008,128,0,124341:0:0:0:0:
320,192,124341,128,0,124675:0:0:0:0:
448,192,124675,128,0,125008:0:0:0:0:
64,192,125008,1,0,0:0:0:0:
64,192,125175,128,0,125508:0:0:0:0:
192,192,125508,128,0,125841:0:0:0:0:
320,192,125841,128,0,126175:0:0:0:0:
448,192,126175,1,0,0:0:0:0:
64,192,126341,1,0,0:0:0:0:
448,192,126508,1,0,0:0:0:0:
64,192,126675,1,0,0:0:0:0:
448,192,126841,128,0,127175:0:0:0:0:
64,192,127175,128,0,127508:0:0:0:0:
320,192,127508,1,0,0:0:0:0:
192,192,127675,1,0,0:0:0:0:
320,192,127841,1,0,0:0:0:0:
192,192,128008,1,0,0:0:0:0:
320,192,128175,128,0,128508:0:0:0:0:
192,192,128508,128,0,128841:0:0:0:0:
64,192,128841,1,0,0:0:0:0:
64,192,129008,128,0,130341:0:0:0:0:
192,192,130341,128,0,131008:0:0:0:0:
320,192,131008,128,0,131675:0:0:0:0:
192,192,132008,1,0,0:0:0:0:
192,192,132675,1,0,0:0:0:0:
192,192,133341,1,0,0:0:0:0:
192,192,134008,1,0,0:0:0:0:
192,192,134675,1,0,0:0:0:0:
192,192,135341,1,0,0:0:0:0:
192,192,136008,1,0,0:0:0:0:
192,192,136675,128,0,137008:0:0:0:0:
320,192,137008,1,0,0:0:0:0:
192,192,137341,1,0,0:0:0:0:
192,192,138008,1,0,0:0:0:0:
192,192,138675,1,0,0:0:0:0:
192,192,139341,1,0,0:0:0:0:
320,192,139675,1,0,0:0:0:0:
448,192,139841,128,0,140175:0:0:0:0:
192,192,140175,128,0,140508:0:0:0:0:
448,192,140508,128,0,140841:0:0:0:0:
192,192,140841,128,0,141175:0:0:0:0:
448,192,141175,128,0,141508:0:0:0:0:
192,192,141508,128,0,141841:0:0:0:0:
448,192,141841,128,0,142341:0:0:0:0:
192,192,142341,5,0,0:0:0:0:
320,192,142841,1,0,0:0:0:0:
448,192,143175,1,0,0:0:0:0:
320,192,143508,1,0,0:0:0:0:
192,192,143841,1,0,0:0:0:0:
320,192,144175,1,0,0:0:0:0:
64,192,144508,128,0,144841:0:0:0:0:
448,192,144841,1,0,0:0:0:0:
448,192,145008,1,0,0:0:0:0:
192,192,145508,1,0,0:0:0:0:
64,192,145841,1,0,0:0:0:0:
192,192,146175,1,0,0:0:0:0:
448,192,146508,1,0,0:0:0:0:
320,192,146841,1,0,0:0:0:0:
192,192,147175,128,0,147675:0:0:0:0:
320,192,148341,1,0,0:0:0:0:
320,192,148508,1,0,0:0:0:0:
192,192,148841,1,0,0:0:0:0:
448,192,149175,1,0,0:0:0:0:
320,192,149508,1,0,0:0:0:0:
192,192,149841,1,0,0:0:0:0:
64,192,150175,1,0,0:0:0:0:
192,192,150508,128,0,150841:0:0:0:0:
320,192,150841,128,0,151175:0:0:0:0:
192,192,151175,128,0,151508:0:0:0:0:
320,192,151508,128,0,151841:0:0:0:0:
192,192,151841,128,0,152175:0:0:0:0:
448,192,152175,1,0,0:0:0:0:
320,192,152841,128,0,154175:0:0:0:0:
192,192,154175,128,0,155508:0:0:0:0:
64,192,155508,128,0,156841:0:0:0:0:
192,192,156841,128,0,157175:0:0:0:0:
320,192,157175,128,0,157508:0:0:0:0:
448,192,157508,128,0,157841:0:0:0:0:
64,192,157841,1,0,0:0:0:0:
192,192,158175,128,0,159508:0:0:0:0:
320,192,159508,128,0,160841:0:0:0:0:
64,192,160841,128,0,161175:0:0:0:0:
448,192,161175,128,0,161508:0:0:0:0:
64,192,161508,128,0,161841:0:0:0:0:
448,192,161841,128,0,162175:0:0:0:0:
64,192,162175,128,0,163175:0:0:0:0:
192,192,163508,128,0,163841:0:0:0:0:
320,192,164008,1,0,0:0:0:0:
320,192,164341,1,0,0:0:0:0:
320,192,164675,1,0,0:0:0:0:
448,192,165008,128,0,165341:0:0:0:0:
192,192,165341,128,0,165675:0:0:0:0:
448,192,165675,128,0,166008:0:0:0:0:
192,192,166008,128,0,166341:0:0:0:0:
448,192,166341,1,0,0:0:0:0:
448,192,166508,1,0,0:0:0:0:
192,192,166841,128,0,167175:0:0:0:0:
320,192,167175,128,0,167508:0:0:0:0:
448,192,167508,1,0,0:0:0:0:
448,192,167675,128,0,168008:0:0:0:0:
64,192,168008,128,0,168341:0:0:0:0:
448,192,168341,128,0,168675:0:0:0:0:
64,192,168675,128,0,169008:0:0:0:0:
192,192,169008,1,0,0:0:0:0:
192,192,169175,128,0,169508:0:0:0:0:
320,192,169508,128,0,169841:0:0:0:0:
192,192,169841,128,0,170175:0:0:0:0:
64,192,170175,1,0,0:0:0:0:
448,192,170341,1,0,0:0:0:0:
64,192,170508,1,0,0:0:0:0:
448,192,170675,1,0,0:0:0:0:
320,192,170841,128,0,171175:0:0:0:0:
192,192,171175,128,0,171508:0:0:0:0:
64,192,171508,1,0,0:0:0:0:
448,192,171675,1,0,0:0:0:0:
64,192,171841,1,0,0:0:0:0:
448,192,172008,1,0,0:0:0:0:
192,192,172175,128,0,172508:0:0:0:0:
320,192,172508,128,0,172841:0:0:0:0:
448,192,172841,1,0,0:0:0:0:
448,192,173008,128,0,174175:0:0:0:0:
192,192,174175,1,0,0:0:0:0:
320,192,174508,1,0,0:0:0:0:
192,192,174841,1,0,0:0:0:0:
320,192,175175,1,0,0:0:0:0:
64,192,175675,128,0,176008:0:0:0:0:
448,192,176008,128,0,176341:0:0:0:0:
64,192,176341,128,0,176675:0:0:0:0:
448,192,176675,128,0,177008:0:0:0:0:
64,192,177008,1,0,0:0:0:0:
64,192,177175,128,0,177508:0:0:0:0:
448,192,177508,128,0,177841:0:0:0:0:
64,192,177841,128,0,178175:0:0:0:0:
448,192,178175,1,0,0:0:0:0:
448,192,178341,128,0,178675:0:0:0:0:
64,192,178675,128,0,179008:0:0:0:0:
448,192,179008,128,0,179341:0:0:0:0:
64,192,179341,128,0,179675:0:0:0:0:
448,192,179675,1,0,0:0:0:0:
448,192,179841,128,0,180175:0:0:0:0:
64,192,180175,128,0,180508:0:0:0:0:
448,192,180508,128,0,180841:0:0:0:0:
192,192,180841,1,0,0:0:0:0:
320,192,181008,1,0,0:0:0:0:
192,192,181175,1,0,0:0:0:0:
320,192,181341,1,0,0:0:0:0:
64,192,181508,128,0,181841:0:0:0:0:
448,192,181841,128,0,182175:0:0:0:0:
192,192,182175,1,0,0:0:0:0:
320,192,182341,1,0,0:0:0:0:
192,192,182508,1,0,0:0:0:0:
320,192,182675,1,0,0:0:0:0:
192,192,182841,128,0,183175:0:0:0:0:
320,192,183175,128,0,183508:0:0:0:0:
448,192,183508,1,0,0:0:0:0:
448,192,183675,128,0,185008:0:0:0:0:
320,192,185008,128,0,185675:0:0:0:0:
192,192,185675,128,0,186341:0:0:0:0:
64,192,186341,128,0,186675:0:0:0:0:
320,192,187008,1,0,0:0:0:0:
320,192,187175,1,0,0:0:0:0:
64,192,187508,128,0,187841:0:0:0:0:
448,192,188175,128,0,188508:0:0:0:0:
192,192,188508,1,0,0:0:0:0:
320,192,188675,1,0,0:0:0:0:
192,192,188841,1,0,0:0:0:0:
64,192,189008,128,0,189341:0:0:0:0:
320,192,189675,1,0,0:0:0:0:
320,192,189841,1,0,0:0:0:0:
448,192,190175,128,0,190508:0:0:0:0:
320,192,190508,128,0,190841:0:0:0:0:
192,192,190841,128,0,191175:0:0:0:0:
64,192,191175,1,0,0:0:0:0:
448,192,191675,128,0,192008:0:0:0:0:
192,192,192341,1,0,0:0:0:0:
192,192,192508,1,0,0:0:0:0:
448,192,192841,128,0,193175:0:0:0:0:
64,192,193508,128,0,193841:0:0:0:0:
320,192,193841,1,0,0:0:0:0:
192,192,194008,1,0,0:0:0:0:
320,192,194175,1,0,0:0:0:0:
448,192,194341,128,0,194675:0:0:0:0:
192,192,195008,1,0,0:0:0:0:
192,192,195175,1,0,0:0:0:0:
64,192,195508,128,0,195841:0:0:0:0:
192,192,195841,128,0,196175:0:0:0:0:
320,192,196175,128,0,196508:0:0:0:0:
448,192,196508,128,0,197008:0:0:0:0:
64,192,197008,1,0,0:0:0:0:
