osu file format v14

[General]
AudioFilename: audio.mp3
AudioLeadIn: 0
PreviewTime: 130613
Countdown: 0
SampleSet: Soft
StackLeniency: 0.6
Mode: 0
LetterboxInBreaks: 0
WidescreenStoryboard: 1

[Editor]
DistanceSpacing: 1
BeatDivisor: 4
GridSize: 16
TimelineZoom: 1.1

[Metadata]
Title:Mousou Sketch
TitleUnicode:妄想スケッチ
Artist:yuikonnu
ArtistUnicode:ゆいこんぬ
Creator:Lasse
Version:Normal
Source:
Tags:utaite cover delusion 40mP 40Meter-P Nijiiro Chocolatier 虹色ショコラティエ yuiko
BeatmapID:1228651
BeatmapSetID:577217

[Difficulty]
HPDrainRate:3
CircleSize:3.2
OverallDifficulty:4
ApproachRate:5
SliderMultiplier:1.12
SliderTickRate:1

[Events]
//Background and Video events
0,0,"bg.jpg",0,0
//Break Periods
2,150419,160254
//Storyboard Layer 0 (Background)
//Storyboard Layer 1 (Fail)
//Storyboard Layer 2 (Pass)
//Storyboard Layer 3 (Foreground)
//Storyboard Sound Samples

[TimingPoints]
75,344.827586206897,4,2,1,50,1,0
419,-111.111111111111,4,2,1,50,0,0
1109,-111.111111111111,4,2,1,50,0,0
1454,-100,4,2,1,65,0,0
1712,-100,4,2,99,5,0,0
1799,-100,4,2,1,65,0,0
4471,-100,4,2,99,5,0,0
4557,-100,4,2,1,65,0,0
7230,-100,4,2,99,5,0,0
7316,-100,4,2,1,65,0,0
11109,-100,4,2,1,30,0,0
11281,-100,4,2,1,65,0,0
12488,-111.111111111111,4,2,1,60,0,0
12747,-111.111111111111,4,2,99,5,0,0
12833,-111.111111111111,4,2,1,60,0,0
15506,-111.111111111111,4,2,99,5,0,0
15592,-111.111111111111,4,2,1,60,0,0
16712,-111.111111111111,4,2,99,5,0,0
16799,-111.111111111111,4,2,1,60,0,0
19471,-111.111111111111,4,2,99,5,0,0
19557,-111.111111111111,4,2,1,60,0,0
20764,-100,4,2,1,62,0,0
21281,-100,4,2,1,64,0,0
21799,-100,4,2,1,66,0,0
22057,-100,4,2,99,5,0,0
22143,-100,4,2,1,68,0,0
22833,-100,4,2,1,70,0,0
23006,-100,4,2,1,60,0,0
23523,-111.111111111111,4,2,1,60,0,0
23781,-111.111111111111,4,2,99,5,0,0
23867,-111.111111111111,4,2,1,60,0,0
26540,-111.111111111111,4,2,99,5,0,0
26626,-111.111111111111,4,2,1,60,0,0
27747,-111.111111111111,4,2,99,5,0,0
27833,-111.111111111111,4,2,1,60,0,0
30506,-111.111111111111,4,2,99,5,0,0
30592,-111.111111111111,4,2,1,60,0,0
31799,-100,4,2,1,62,0,0
32316,-100,4,2,1,64,0,0
32833,-100,4,2,1,66,0,0
33350,-100,4,2,1,68,0,0
33609,-100,4,2,99,5,0,0
33695,-100,4,2,1,68,0,0
33868,-100,4,2,1,70,0,0
34040,-100,4,2,1,60,0,0
34385,-100,4,2,1,57,0,0
34471,-100,4,2,1,53,0,0
34557,-117.647058823529,4,2,2,50,0,0
51109,-111.111111111111,4,2,3,55,0,0
53350,-111.111111111111,4,2,1,55,0,0
53523,-111.111111111111,4,2,3,55,0,0
53868,-111.111111111111,4,2,1,60,0,0
55075,-111.111111111111,4,2,1,65,0,0
55333,-111.111111111111,4,2,99,5,0,0
55419,-111.111111111111,4,2,1,60,0,0
55506,-111.111111111111,4,2,1,30,0,0
55592,-111.111111111111,4,2,1,60,0,0
55937,-111.111111111111,4,2,1,65,0,0
56626,-95.2380952380952,4,2,1,70,0,1
56885,-95.2380952380952,4,2,99,5,0,1
56971,-95.2380952380952,4,2,1,70,0,1
61626,-95.2380952380952,4,2,1,65,0,0
62143,-95.2380952380952,4,2,1,70,0,1
62402,-95.2380952380952,4,2,99,5,0,1
62488,-95.2380952380952,4,2,1,70,0,1
67143,-95.2380952380952,4,2,1,65,0,0
67661,-95.2380952380952,4,2,1,70,0,1
67919,-95.2380952380952,4,2,99,5,0,1
68006,-95.2380952380952,4,2,1,70,0,1
72316,-95.2380952380952,4,2,1,70,0,1
72833,-95.2380952380952,4,2,1,70,0,1
74040,-95.2380952380952,4,2,1,71,0,1
74212,-95.2380952380952,4,2,1,72,0,1
74385,-95.2380952380952,4,2,1,74,0,1
74557,-95.2380952380952,4,2,1,76,0,0
75937,-100,4,2,1,65,0,0
76195,-100,4,2,99,5,0,0
76281,-100,4,2,1,65,0,0
78954,-100,4,2,99,5,0,0
79040,-100,4,2,1,65,0,0
81712,-100,4,2,99,5,0,0
81799,-100,4,2,1,65,0,0
85592,-100,4,2,1,30,0,0
85764,-100,4,2,1,65,0,0
86971,-111.111111111111,4,2,1,60,0,0
87230,-111.111111111111,4,2,99,5,0,0
87316,-111.111111111111,4,2,1,60,0,0
89988,-111.111111111111,4,2,99,5,0,0
90075,-111.111111111111,4,2,1,60,0,0
91195,-111.111111111111,4,2,99,5,0,0
91281,-111.111111111111,4,2,1,60,0,0
93954,-111.111111111111,4,2,99,5,0,0
94040,-111.111111111111,4,2,1,60,0,0
95247,-100,4,2,1,62,0,0
95764,-100,4,2,1,64,0,0
96281,-100,4,2,1,66,0,0
96540,-100,4,2,99,5,0,0
96626,-100,4,2,1,68,0,0
97316,-100,4,2,1,70,0,0
97488,-100,4,2,1,60,0,0
98006,-111.111111111111,4,2,1,60,0,0
98264,-111.111111111111,4,2,99,5,0,0
98350,-111.111111111111,4,2,1,60,0,0
101023,-111.111111111111,4,2,99,5,0,0
101109,-111.111111111111,4,2,1,60,0,0
102230,-111.111111111111,4,2,99,5,0,0
102316,-111.111111111111,4,2,1,60,0,0
104988,-111.111111111111,4,2,99,5,0,0
105075,-111.111111111111,4,2,1,60,0,0
106281,-100,4,2,1,62,0,0
106799,-100,4,2,1,64,0,0
107316,-100,4,2,1,66,0,0
107833,-100,4,2,1,68,0,0
108178,-100,4,2,1,68,0,0
108350,-100,4,2,1,70,0,0
108523,-100,4,2,1,60,0,0
108868,-100,4,2,1,57,0,0
108954,-100,4,2,1,53,0,0
109040,-117.647058823529,4,2,2,50,0,0
125592,-111.111111111111,4,2,3,55,0,0
127488,-111.111111111111,4,2,2,55,0,0
127833,-111.111111111111,4,2,1,55,0,0
128006,-111.111111111111,4,2,3,55,0,0
128178,-111.111111111111,4,2,1,55,0,0
128350,-111.111111111111,4,2,1,60,0,0
129557,-111.111111111111,4,2,1,65,0,0
129816,-111.111111111111,4,2,99,5,0,0
129902,-111.111111111111,4,2,1,60,0,0
129988,-111.111111111111,4,2,1,30,0,0
130075,-111.111111111111,4,2,1,60,0,0
130419,-111.111111111111,4,2,1,65,0,0
131109,-95.2380952380952,4,2,1,70,0,1
131368,-95.2380952380952,4,2,99,5,0,1
131454,-95.2380952380952,4,2,1,70,0,1
136109,-95.2380952380952,4,2,1,65,0,0
136626,-95.2380952380952,4,2,1,70,0,1
136885,-95.2380952380952,4,2,99,5,0,1
136971,-95.2380952380952,4,2,1,70,0,1
141626,-95.2380952380952,4,2,1,65,0,0
142143,-95.2380952380952,4,2,1,70,0,1
142402,-95.2380952380952,4,2,99,5,0,1
142488,-95.2380952380952,4,2,1,70,0,1
146799,-95.2380952380952,4,2,1,70,0,1
147316,-95.2380952380952,4,2,1,70,0,1
148523,-95.2380952380952,4,2,1,71,0,1
148695,-95.2380952380952,4,2,1,72,0,1
148868,-95.2380952380952,4,2,1,74,0,1
149040,-95.2380952380952,4,2,1,76,0,0
149385,-95.2380952380952,4,2,1,50,0,0
159902,-125,4,2,1,55,0,0
160247,-125,4,2,1,55,0,0
160592,-125,4,2,1,60,0,0
161109,-125,4,2,1,60,0,0
161454,-105.263157894737,4,2,1,65,0,0
161712,-105.263157894737,4,2,99,5,0,0
161799,-105.263157894737,4,2,1,65,0,0
167230,-105.263157894737,4,2,99,5,0,0
167316,-105.263157894737,4,2,1,65,0,0
173868,-100,4,2,1,40,0,0
173954,-99.9999999999999,4,2,1,5,0,0
174902,-99.9999999999999,4,2,99,5,0,0
175247,-95.2380952380952,4,2,1,70,0,1
175506,-95.2380952380952,4,2,99,5,0,1
175592,-95.2380952380952,4,2,1,70,0,1
180247,-95.2380952380952,4,2,1,65,0,0
180764,-95.2380952380952,4,2,1,70,0,1
181023,-95.2380952380952,4,2,99,5,0,1
181109,-95.2380952380952,4,2,1,70,0,1
185764,-95.2380952380952,4,2,1,65,0,0
186281,-95.2380952380952,4,2,1,70,0,1
186540,-95.2380952380952,4,2,99,5,0,1
186626,-95.2380952380952,4,2,1,70,0,1
190937,-95.2380952380952,4,2,1,70,0,1
191454,-95.2380952380952,4,2,1,70,0,1
192661,-95.2380952380952,4,2,1,72,0,1
192833,-95.2380952380952,4,2,1,74,0,1
193006,-95.2380952380952,4,2,1,76,0,0
193350,-100,4,2,1,55,0,0
193437,-100,4,2,1,5,0,0
193868,-100,4,2,99,25,0,0
194040,-90.9090909090909,4,2,1,45,0,0
194212,-90.9090909090909,4,2,1,70,0,0
194557,-100,4,2,1,65,0,0
194816,-100,4,2,99,5,0,0
194902,-100,4,2,1,65,0,0
197575,-100,4,2,99,5,0,0
197661,-100,4,2,1,65,0,0
200333,-100,4,2,99,5,0,0
200419,-100,4,2,1,65,0,0
205592,-100,4,2,1,70,0,0
211109,-100,4,2,1,75,0,0
213868,-100,4,2,1,74,0,0
214385,-100,4,2,1,73,0,0
215075,-100,4,2,1,72,0,0
215247,-100,4,2,1,30,0,0
215419,-100,4,2,1,71,0,0
216626,-100,4,2,1,70,0,0
216712,-133.333333333333,4,2,1,60,0,0
216799,-133.333333333333,4,2,1,55,0,0
216971,-133.333333333333,4,2,1,50,0,0
217143,-133.333333333333,4,2,1,45,0,0
217316,-133.333333333333,4,2,1,40,0,0
217488,-133.333333333333,4,2,1,35,0,0
217661,-133.333333333333,4,2,1,30,0,0
217833,-133.333333333333,4,2,1,25,0,0
218006,-133.333333333333,4,2,1,20,0,0
218178,-133.333333333333,4,2,1,15,0,0
218350,-133.333333333333,4,2,1,10,0,0
218523,-133.333333333333,4,2,1,5,0,0
219212,-200,4,2,1,40,0,0

[Colours]
Combo1 : 220,110,130
Combo2 : 240,150,100
Combo3 : 250,200,120
Combo4 : 240,240,130
Combo5 : 140,210,140
Combo6 : 190,240,220
Combo7 : 130,170,190
Combo8 : 140,120,160

[HitObjects]
106,22,419,6,0,B|127:62|117:103|117:103|85:165|116:216,1,201.599993847656,8|8,0:0|0:0,0:0:0:0:
213,160,1454,6,0,P|271:141|330:150,1,112,6|10,0:1|0:0,0:0:0:0:
427,180,2143,1,2,1:2:0:0:
431,296,2488,1,10,0:0:0:0:
431,296,2661,2,0,B|380:324|380:324|253:315,1,168,2|10,1:1|0:0,0:0:0:0:
166,356,3523,1,2,0:0:0:0:
80,286,3868,1,10,0:0:0:0:
97,176,4212,6,0,L|105:54,1,112,2|10,1:1|0:0,0:0:0:0:
214,38,4902,2,0,P|264:57|344:52,1,112,2|10,1:2|0:2,0:0:0:0:
368,25,5419,2,0,L|379:192,1,168,0|10,1:2|1:2,0:0:0:0:
455,274,6281,1,2,1:1:0:0:
373,350,6626,1,10,0:1:0:0:
297,268,6971,6,0,P|247:249|167:254,1,112,2|10,1:1|0:0,0:0:0:0:
108,326,7661,1,2,1:2:0:0:
34,249,8006,1,10,0:0:0:0:
34,249,8178,2,0,B|9:205|9:205|3:143|37:75,1,168,2|10,1:1|0:0,0:0:0:0:
127,145,9040,2,0,P|182:144|234:125,1,112,2|10,0:0|0:0,0:0:0:0:
316,48,9730,6,0,B|291:92|291:92|285:154|319:222,1,168,2|10,1:1|0:3,0:0:0:0:
375,298,10592,1,10,0:0:0:0:
470,238,10937,2,0,B|484:204|484:204|490:164|482:125,1,112,2|10,1:1|0:1,0:0:0:0:
434,34,11626,1,2,1:1:0:0:
434,34,11799,2,0,L|306:25,1,112,2|10,0:2|0:1,0:0:0:0:
231,68,12488,6,0,P|182:81|132:74,1,100.799996923828,6|10,1:2|0:2,0:0:0:0:
42,112,13178,1,0,1:2:0:0:
42,112,13350,2,0,P|54:160|47:210,1,100.799996923828,2|2,1:2|1:2,0:0:0:0:
5,302,14040,1,2,1:2:0:0:
79,369,14385,2,0,P|127:381|177:373,1,100.799996923828,2|2,1:2|1:2,0:0:0:0:
264,250,15247,6,0,L|271:138,1,100.799996923828,2|10,1:2|0:2,0:0:0:0:
327,65,15937,1,0,1:2:0:0:
327,65,16109,2,0,L|439:72,1,100.799996923828,2|2,1:2|1:2,0:0:0:0:
485,154,16799,1,2,1:2:0:0:
405,284,17316,6,0,P|338:251|263:249,2,151.199995385742,2|10|10,0:2|0:2|0:2,0:0:0:0:
495,238,18695,1,0,1:2:0:0:
495,238,18868,2,0,L|502:126,1,100.799996923828,2|2,1:2|1:2,0:0:0:0:
420,76,19557,2,0,P|371:71|323:55,1,100.799996923828,2|2,1:2|1:2,0:0:0:0:
230,16,20247,1,2,1:2:0:0:
164,170,20764,6,0,B|100:174|100:174|67:160|67:160|-12:166,2,168,6|2|2,1:2|1:2|1:2,0:0:0:0:
275,208,22143,1,2,0:2:0:0:
275,208,22316,2,0,B|338:212|338:212|371:198|371:198|439:203,1,168,2|10,1:2|0:2,0:0:0:0:
512,289,23178,1,10,0:2:0:0:
435,370,23523,6,0,L|329:362,1,100.799996923828,6|10,1:2|0:2,0:0:0:0:
249,321,24212,1,0,1:2:0:0:
249,321,24385,2,0,L|143:313,1,100.799996923828,2|2,1:2|1:2,0:0:0:0:
54,352,25075,1,2,1:2:0:0:
15,257,25419,2,0,L|7:156,1,100.799996923828,2|2,1:2|1:2,0:0:0:0:
149,207,26281,6,0,P|198:222|248:221,1,100.799996923828,2|10,1:2|0:2,0:0:0:0:
330,162,26971,1,0,1:2:0:0:
330,162,27143,2,0,P|378:147|428:148,1,100.799996923828,2|2,1:2|1:2,0:0:0:0:
512,91,27833,1,2,1:2:0:0:
365,35,28350,6,0,L|205:23,2,151.199995385742,2|10|10,0:2|0:2|0:2,0:0:0:0:
416,128,29730,1,0,1:2:0:0:
416,128,29902,2,0,L|408:239,1,100.799996923828,2|2,1:2|1:2,0:0:0:0:
320,278,30592,2,0,P|308:214|288:168,1,100.799996923828,2|2,1:2|1:2,0:0:0:0:
234,100,31281,1,2,1:2:0:0:
78,162,31799,6,0,B|48:205|48:205|25:262|60:335,1,168,6|10,1:2|0:2,0:0:0:0:
212,368,32833,2,0,B|242:325|242:325|265:268|230:195,1,168,10|10,0:2|0:2,0:0:0:0:
162,127,33695,1,2,1:2:0:0:
162,127,33868,2,0,P|147:74|162:21,1,112,10|10,0:2|0:2,0:0:0:0:
241,72,34557,6,0,L|433:72,1,190.400003631592,6|2,0:1|0:2,0:0:0:0:
508,246,35937,2,0,L|348:246,1,142.800002723694,2|2,0:1|0:2,0:0:0:0:
290,304,36799,1,10,0:1:0:0:
215,254,37143,1,0,1:2:0:0:
215,254,37316,6,0,L|215:47,1,190.400003631592,2|2,0:1|0:2,0:0:0:0:
33,4,38695,2,0,L|33:146,1,142.800002723694,2|2,0:1|0:2,0:0:0:0:
63,236,39557,2,0,L|63:332,1,95.2000018157959,10|0,0:2|1:2,0:0:0:0:
99,362,40075,6,0,L|292:362,1,190.400003631592,2|2,0:1|0:2,0:0:0:0:
423,226,41454,2,0,L|281:226,1,142.800002723694,2|2,0:1|0:2,0:0:0:0:
184,226,42316,1,10,0:2:0:0:
188,134,42661,1,0,1:2:0:0:
188,134,42833,6,0,L|476:134,1,285.600005447388,2|2,0:1|0:2,0:0:0:0:
473,38,44212,2,0,L|325:38,1,142.800002723694,2|2,0:1|1:1,0:0:0:0:
234,38,45075,2,0,L|86:38,1,142.800002723694,10|2,0:1|0:2,0:0:0:0:
0,204,46281,5,2,0:2:0:0:
178,137,46971,2,0,L|320:137,1,142.800002723694,2|2,0:1|0:2,0:0:0:0:
395,195,47833,2,0,L|395:337,2,142.800002723694,10|2|2,0:1|0:1|0:2,0:0:0:0:
395,99,49212,1,2,1:2:0:0:
327,31,49557,2,0,L|231:31,1,95.2000018157959,2|2,1:2|0:1,0:0:0:0:
164,98,50247,2,0,L|164:242,1,142.800002723694,2|0,0:2|0:2,0:0:0:0:
125,333,51109,6,0,P|202:274|298:292,1,201.599993847656,10|8,0:2|0:2,0:0:0:0:
385,343,52143,1,10,0:2:0:0:
460,277,52488,2,0,L|471:119,1,151.199995385742,8|2,0:2|0:2,0:0:0:0:
375,160,53350,2,0,P|334:163|255:140,1,100.799996923828,10|2,0:2|1:2,0:0:0:0:
226,138,53868,6,0,B|204:131|176:146|176:146|153:132|153:132|114:151|82:135,1,151.199995385742,6|2,1:2|0:2,0:0:0:0:
14,60,54730,1,2,1:2:0:0:
113,39,55075,2,0,B|160:29|160:29|226:43,1,100.799996923828,6|10,0:1|0:2,0:0:0:0:
258,57,55592,2,0,B|309:67|309:67|356:57,1,100.799996923828,4|2,0:3|0:1,0:0:0:0:
456,270,56626,6,0,P|402:248|344:253,1,117.599996411133,6|10,1:2|0:2,0:0:0:0:
257,332,57316,2,0,P|203:353|145:348,1,117.599996411133,2|8,1:2|0:2,0:0:0:0:
103,306,57833,2,0,L|90:130,1,176.399994616699,2|8,1:2|0:2,0:0:0:0:
157,33,58695,1,2,0:2:0:0:
270,67,59040,1,10,0:2:0:0:
272,184,59385,6,0,B|308:295|308:295|365:322|435:265,1,235.199992822266,0|0,1:2|1:2,0:0:0:0:
495,187,60419,1,8,0:2:0:0:
445,80,60764,2,0,L|305:69,1,117.599996411133,2|10,1:2|0:2,0:0:0:0:
271,54,61281,1,2,1:2:0:0:
165,105,61626,2,0,P|104:107|39:82,1,117.599996411133,2|2,1:2|1:2,0:0:0:0:
11,132,62143,6,0,L|1:263,1,117.599996411133,6|10,1:2|0:2,0:0:0:0:
77,340,62833,2,0,P|132:321|191:324,1,117.599996411133,2|8,1:2|0:2,0:0:0:0:
244,347,63350,2,0,L|361:355,1,117.599996411133,2|2,1:1|1:2,0:0:0:0:
473,318,64040,1,2,1:1:0:0:
431,207,64385,1,2,1:2:0:0:
256,222,64902,6,0,B|174:216|174:216|141:230|141:230|110:211|110:211|28:206,1,235.199992822266,2|0,1:2|1:2,0:0:0:0:
3,90,65937,1,10,0:2:0:0:
105,29,66281,2,0,B|238:22,1,117.599996411133,2|10,1:1|0:2,0:0:0:0:
281,20,66799,1,2,1:1:0:0:
385,74,67143,2,0,B|426:94|426:94|465:98|505:86,1,117.599996411133,2|10,1:2|0:2,0:0:0:0:
503,147,67661,6,0,P|486:207|494:274,1,117.599996411133,6|10,1:2|0:2,0:0:0:0:
422,357,68350,2,0,P|362:340|295:348,1,117.599996411133,2|8,1:2|0:2,0:0:0:0:
249,355,68868,2,0,L|73:342,1,176.399994616699,2|8,1:2|0:2,0:0:0:0:
0,250,69730,1,2,0:2:0:0:
65,153,70075,1,10,0:2:0:0:
177,184,70419,6,0,B|291:213|291:213|347:188|361:123,1,235.199992822266,0|0,1:2|1:2,0:0:0:0:
311,17,71454,1,8,0:2:0:0:
193,31,71799,2,0,B|48:20,1,117.599996411133,2|10,1:2|0:2,0:0:0:0:
19,39,72316,2,0,P|65:115|47:203,1,176.399994616699,2|10,1:2|0:2,0:0:0:0:
0,304,73178,6,0,L|127:295,1,117.599996411133,4|8,1:2|0:2,0:0:0:0:
224,344,73868,2,0,L|351:353,1,117.599996411133,0|10,1:2|0:2,0:0:0:0:
445,297,74557,1,14,0:1:0:0:
285,43,75937,6,0,P|230:61|176:52,1,112,6|10,0:1|0:0,0:0:0:0:
70,20,76626,1,2,1:2:0:0:
11,116,76971,1,10,0:0:0:0:
11,116,77143,2,0,B|-1:285,1,168,2|10,1:1|0:0,0:0:0:0:
80,361,78006,1,2,0:0:0:0:
183,320,78350,1,10,0:0:0:0:
287,360,78695,6,0,L|414:368,1,112,2|10,1:1|0:0,0:0:0:0:
480,290,79385,2,0,P|458:240|460:184,1,112,2|10,1:2|0:2,0:0:0:0:
489,137,79902,2,0,P|408:161|322:126,1,168,0|10,1:2|1:2,0:0:0:0:
247,59,80764,1,2,1:1:0:0:
172,143,81109,1,10,0:1:0:0:
256,218,81454,6,0,P|273:270|255:322,1,112,2|10,1:1|0:0,0:0:0:0:
154,372,82143,1,2,1:2:0:0:
57,327,82488,1,10,0:0:0:0:
57,327,82661,2,0,B|16:277|40:221|40:221|82:177,1,168,2|10,1:1|0:0,0:0:0:0:
178,133,83523,2,0,L|305:141,1,112,2|10,0:0|0:0,0:0:0:0:
353,233,84212,6,0,B|312:183|336:127|336:127|373:87,1,168,2|10,1:1|0:3,0:0:0:0:
481,56,85075,1,10,0:0:0:0:
512,164,85419,2,0,L|504:275,1,112,2|10,1:1|0:1,0:0:0:0:
423,353,86109,1,2,1:1:0:0:
423,353,86281,2,0,P|354:334|296:337,1,112,2|10,0:0|0:1,0:0:0:0:
216,358,86971,6,0,L|104:350,1,100.799996923828,6|10,1:2|0:2,0:0:0:0:
41,291,87661,1,0,1:2:0:0:
41,291,87833,2,0,P|59:247|68:192,1,100.799996923828,2|2,1:2|1:2,0:0:0:0:
134,119,88523,1,2,1:2:0:0:
227,159,88868,2,0,L|338:166,1,100.799996923828,2|2,1:2|1:2,0:0:0:0:
464,101,89730,6,0,P|399:91|359:69,1,100.799996923828,2|10,1:2|0:2,0:0:0:0:
284,29,90419,1,0,1:2:0:0:
284,29,90592,2,0,L|172:21,1,100.799996923828,2|2,1:2|1:2,0:0:0:0:
83,9,91281,1,2,1:2:0:0:
19,146,91799,6,0,B|6:194|6:194|14:306,2,151.199995385742,2|10|10,0:2|0:2|0:2,0:0:0:0:
113,110,93178,1,0,1:2:0:0:
113,110,93350,2,0,L|225:117,1,100.799996923828,2|2,1:2|1:2,0:0:0:0:
302,164,94040,2,0,L|414:171,1,100.799996923828,2|2,1:2|1:2,0:0:0:0:
491,218,94730,1,2,1:2:0:0:
376,340,95247,6,0,B|341:349|312:336|312:336|279:350|279:350|249:334|200:344,2,168,6|10|10,0:2|0:2|0:2,0:0:0:0:
486,308,96626,1,2,1:2:0:0:
486,308,96799,2,0,B|479:272|495:242|495:242|481:209|481:209|494:180|485:145,1,168,10|10,0:2|0:2,0:0:0:0:
435,46,97661,1,10,0:2:0:0:
331,87,98006,6,0,P|280:92|225:79,1,100.799996923828,6|10,1:2|0:2,0:0:0:0:
142,34,98695,1,0,1:2:0:0:
142,34,98868,2,0,L|134:140,1,100.799996923828,2|2,1:2|1:2,0:0:0:0:
84,222,99557,1,2,1:2:0:0:
151,296,99902,2,0,L|257:304,1,100.799996923828,2|2,1:2|1:2,0:0:0:0:
394,353,100764,6,0,P|377:312|376:257,1,100.799996923828,2|10,1:2|0:2,0:0:0:0:
429,171,101454,1,2,1:2:0:0:
429,171,101626,2,0,P|384:165|336:138,1,100.799996923828,2|2,1:2|1:2,0:0:0:0:
269,61,102316,1,2,1:2:0:0:
204,197,102833,6,0,L|192:357,2,151.199995385742,2|10|10,0:2|0:2|0:2,0:0:0:0:
164,110,104212,1,2,1:2:0:0:
164,110,104385,2,0,P|108:92|59:97,1,100.799996923828,2|2,1:2|1:2,0:0:0:0:
10,178,105075,2,0,L|1:301,1,100.799996923828,2|2,1:2|1:2,0:0:0:0:
67,356,105764,1,2,1:2:0:0:
226,302,106281,6,0,B|257:278|303:280|303:280|345:305|385:288,1,168,6|10,1:2|0:2,0:0:0:0:
452,134,107316,2,0,B|411:117|369:142|369:142|323:144|292:120,1,168,10|10,0:2|0:2,0:0:0:0:
141,44,108350,2,0,P|89:27|35:39,1,112,10|10,0:2|0:2,0:0:0:0:
85,121,109040,6,0,L|85:313,1,190.400003631592,6|2,0:1|0:2,0:0:0:0:
271,352,110419,2,0,L|413:352,1,142.800002723694,2|10,0:1|0:3,0:0:0:0:
481,284,111281,1,10,0:1:0:0:
418,220,111626,1,0,1:2:0:0:
418,220,111799,6,0,L|418:13,1,190.400003631592,2|2,0:1|0:2,0:0:0:0:
227,29,113178,2,0,L|227:171,1,142.800002723694,2|10,0:1|0:3,0:0:0:0:
159,239,114040,2,0,L|63:239,1,95.2000018157959,10|8,0:2|1:3,0:0:0:0:
29,205,114557,6,0,L|29:12,1,190.400003631592,2|2,0:1|0:2,0:0:0:0:
193,110,115937,2,0,L|335:110,1,142.800002723694,2|10,0:1|0:3,0:0:0:0:
431,110,116799,1,10,0:2:0:0:
435,209,117143,1,0,1:2:0:0:
435,209,117316,6,0,L|147:209,1,285.600005447388,2|2,0:1|0:2,0:0:0:0:
54,209,118695,2,0,L|54:357,1,142.800002723694,2|10,0:1|0:3,0:0:0:0:
149,351,119557,2,0,L|297:351,1,142.800002723694,10|2,0:1|0:2,0:0:0:0:
482,351,120764,5,2,0:2:0:0:
353,210,121454,2,0,L|211:210,1,142.800002723694,2|10,0:1|0:3,0:0:0:0:
131,155,122316,2,0,L|131:13,2,142.800002723694,10|2|2,0:1|0:1|0:2,0:0:0:0:
63,222,123695,1,2,1:2:0:0:
130,289,124040,2,0,L|226:289,1,95.2000018157959,2|2,1:2|0:1,0:0:0:0:
320,289,124730,2,0,L|466:289,1,142.800002723694,10|0,0:3|0:2,0:0:0:0:
510,199,125592,6,0,B|408:192|408:192|373:175|349:100,1,201.599993847656,10|8,0:2|0:2,0:0:0:0:
278,43,126626,1,10,0:2:0:0:
182,75,126971,2,0,L|22:63,1,151.199995385742,8|10,0:2|0:3,0:0:0:0:
62,160,127833,2,0,P|72:204|68:278,1,100.799996923828,10|2,0:2|1:2,0:0:0:0:
62,309,128350,6,0,B|83:314|112:301|112:301|132:310|132:310|164:294|208:305,1,151.199995385742,6|2,1:2|0:2,0:0:0:0:
297,352,129212,1,2,1:2:0:0:
383,297,129557,2,0,L|392:182,1,100.799996923828,6|10,0:1|0:2,0:0:0:0:
414,150,130075,2,0,P|363:146|317:127,1,100.799996923828,4|2,0:3|0:1,0:0:0:0:
104,26,131109,6,0,L|95:147,1,117.599996411133,6|10,1:2|0:2,0:0:0:0:
173,231,131799,2,0,P|228:207|285:215,1,117.599996411133,2|8,1:2|0:2,0:0:0:0:
333,246,132316,2,0,B|422:273|417:223|506:248,1,176.399994616699,2|8,1:2|0:2,0:0:0:0:
461,357,133178,1,2,0:2:0:0:
346,376,133523,1,10,0:2:0:0:
235,335,133868,6,0,B|177:311|121:337|121:337|57:332|28:270,1,235.199992822266,0|0,1:2|1:2,0:0:0:0:
1,158,134902,1,8,0:2:0:0:
86,75,135247,2,0,L|213:65,1,117.599996411133,2|10,1:2|0:2,0:0:0:0:
262,61,135764,1,2,1:2:0:0:
356,132,136109,2,0,B|363:192|339:185|351:250,1,117.599996411133,2|2,1:2|1:2,0:0:0:0:
388,293,136626,6,0,L|519:303,1,117.599996411133,6|10,1:2|0:2,0:0:0:0:
459,193,137316,2,0,P|451:137|473:79,1,117.599996411133,2|8,1:2|0:2,0:0:0:0:
498,28,137833,2,0,L|381:20,1,117.599996411133,2|2,1:1|1:2,0:0:0:0:
277,77,138523,1,2,1:1:0:0:
175,16,138868,1,2,1:2:0:0:
24,106,139385,6,0,B|1:162|32:221|32:221|-5:273|18:336,1,235.199992822266,2|0,1:2|1:2,0:0:0:0:
124,378,140419,1,10,0:2:0:0:
219,309,140764,2,0,B|344:302,1,117.599996411133,2|10,1:1|0:2,0:0:0:0:
395,296,141281,1,2,1:1:0:0:
503,344,141626,2,0,P|482:300|491:223,1,117.599996411133,2|10,1:2|0:2,0:0:0:0:
507,177,142143,6,0,P|449:183|395:161,1,117.599996411133,6|10,1:2|0:2,0:0:0:0:
331,61,142833,2,0,P|276:40|218:47,1,117.599996411133,2|8,1:2|0:2,0:0:0:0:
206,105,143350,2,0,L|193:281,1,176.399994616699,2|8,1:2|0:2,0:0:0:0:
96,347,144212,1,2,0:2:0:0:
3,275,144557,1,10,0:2:0:0:
42,165,144902,6,0,B|65:50|65:50|114:9|177:27,1,235.199992822266,0|0,1:2|1:2,0:0:0:0:
256,111,145937,1,8,0:2:0:0:
337,26,146281,2,0,P|396:15|453:31,1,117.599996411133,2|10,1:2|0:2,0:0:0:0:
469,85,146799,2,0,L|481:260,1,176.399994616699,2|10,1:2|0:2,0:0:0:0:
398,345,147661,6,0,P|345:318|287:314,1,117.599996411133,4|8,1:2|0:2,0:0:0:0:
176,352,148350,2,0,P|118:362|61:350,1,117.599996411133,0|10,1:2|0:2,0:0:0:0:
2,248,149040,1,14,0:1:0:0:
200,323,161454,6,0,P|148:332|97:317,1,106.399997158814,6|10,1:2|0:2,0:0:0:0:
62,216,162143,2,0,L|69:110,1,106.399997158814,2|8,1:2|0:2,0:0:0:0:
110,75,162661,2,0,P|161:65|212:80,1,106.399997158814,2|2,1:2|1:2,0:0:0:0:
310,120,163350,2,0,B|391:139|391:100|467:119,1,159.59999573822,2|8,1:2|0:2,0:0:0:0:
511,216,164212,5,2,1:2:0:0:
448,302,164557,1,10,0:2:0:0:
342,290,164902,2,0,B|308:285|283:272|283:272|264:271|232:280,1,106.399997158814,2|8,1:2|0:2,0:0:0:0:
193,311,165419,2,0,L|200:199,1,106.399997158814,2|2,1:2|1:2,0:0:0:0:
191,98,166109,2,0,P|122:61|45:78,1,159.59999573822,2|8,1:2|0:2,0:0:0:0:
10,179,166971,6,0,L|1:306,1,106.399997158814,2|10,1:2|0:2,0:0:0:0:
81,357,167661,2,0,P|130:339|183:335,1,106.399997158814,2|8,1:2|0:2,0:0:0:0:
235,347,168178,2,0,L|341:354,1,106.399997158814,2|2,1:2|1:2,0:0:0:0:
442,319,168868,2,0,B|460:288|460:288|470:144,1,159.59999573822,2|10,1:2|0:1,0:0:0:0:
497,62,169730,6,0,B|414:83|422:40|341:52,1,159.59999573822,2|2,0:1|1:1,0:0:0:0:
256,118,170592,1,10,0:2:0:0:
171,52,170937,2,0,P|121:37|68:36,1,106.399997158814,2|0,0:2|0:2,0:0:0:0:
33,76,171454,2,0,L|21:235,1,159.59999573822,8|2,0:2|1:2,0:0:0:0:
45,339,172316,1,10,2:3:0:0:
153,319,172661,5,6,2:3:0:0:
153,319,172833,2,0,P|211:307|270:314,1,106.399997158814,0|10,1:2|0:2,0:0:0:0:
357,349,173523,2,0,P|408:360|461:357,1,106.399997158814,10|0,0:2|0:2,0:0:0:0:
490,46,175247,6,0,P|435:25|377:32,1,117.599996411133,6|10,1:2|0:2,0:0:0:0:
273,87,175937,2,0,P|215:94|160:73,1,117.599996411133,2|8,1:2|0:2,0:0:0:0:
130,23,176454,2,0,L|117:202,1,176.399994616699,2|8,1:2|0:2,0:0:0:0:
40,287,177316,1,2,0:2:0:0:
130,365,177661,1,10,0:2:0:0:
208,275,178006,6,0,B|265:253|319:291|319:291|382:276|405:211,1,235.199992822266,0|0,1:2|1:2,0:0:0:0:
428,100,179040,1,8,0:2:0:0:
326,41,179385,2,0,L|208:32,1,117.599996411133,2|10,1:2|0:2,0:0:0:0:
149,27,179902,1,2,1:2:0:0:
40,70,180247,2,0,P|75:116|91:172,1,117.599996411133,2|2,1:2|1:2,0:0:0:0:
75,229,180764,6,0,P|130:213|206:239,1,117.599996411133,6|10,1:2|0:2,0:0:0:0:
288,288,181454,2,0,P|343:304|400:290,1,117.599996411133,2|8,1:2|0:2,0:0:0:0:
433,241,181971,2,0,L|441:124,1,117.599996411133,2|2,1:1|1:2,0:0:0:0:
387,18,182661,1,2,1:1:0:0:
323,117,183006,1,2,1:2:0:0:
161,46,183523,6,0,B|109:16|48:45|48:45|39:173,1,235.199992822266,2|0,1:2|1:2,0:0:0:0:
31,279,184557,1,10,0:2:0:0:
139,323,184902,2,0,B|195:339|199:303|259:323,1,117.599996411133,2|10,1:1|0:2,0:0:0:0:
310,341,185419,1,2,1:1:0:0:
423,370,185764,2,0,B|431:242,1,117.599996411133,2|10,1:2|0:2,0:0:0:0:
450,197,186281,6,0,P|387:200|324:177,1,117.599996411133,6|10,1:2|0:2,0:0:0:0:
225,140,186971,2,0,P|166:136|110:153,1,117.599996411133,2|8,1:2|0:2,0:0:0:0:
64,190,187488,2,0,L|51:13,1,176.399994616699,2|8,1:2|0:2,0:0:0:0:
164,44,188350,1,2,0:2:0:0:
281,22,188695,1,10,0:2:0:0:
394,52,189040,6,0,B|376:119|319:137|319:137|369:175|350:246,1,235.199992822266,0|0,1:2|1:2,0:0:0:0:
313,353,190075,1,8,0:2:0:0:
201,314,190419,2,0,P|144:297|86:295,1,117.599996411133,2|10,1:2|0:2,0:0:0:0:
31,318,190937,2,0,P|73:240|59:154,1,176.399994616699,2|10,1:2|0:2,0:0:0:0:
27,43,191799,6,0,L|154:51,1,117.599996411133,4|8,1:2|0:2,0:0:0:0:
259,73,192488,2,0,L|386:65,1,117.599996411133,0|10,1:2|0:2,0:0:0:0:
433,81,193006,1,14,0:1:0:0:
472,328,194557,6,0,P|421:308|365:311,1,112,6|10,0:1|0:0,0:0:0:0:
266,363,195246,1,2,1:2:0:0:
175,308,195592,1,10,0:0:0:0:
175,308,195764,2,0,B|162:132,1,168,2|10,1:1|0:0,0:0:0:0:
115,39,196626,1,2,0:0:0:0:
14,87,196971,1,10,0:0:0:0:
62,188,197316,6,0,L|71:309,1,112,2|10,1:1|0:0,0:0:0:0:
161,365,198005,2,0,P|215:344|291:351,1,112,2|10,1:2|0:2,0:0:0:0:
322,361,198522,2,0,B|308:276|349:283|333:195,1,168,0|10,1:2|1:2,0:0:0:0:
238,136,199384,1,2,1:1:0:0:
143,195,199730,1,10,0:1:0:0:
47,135,200074,6,0,P|31:83|45:29,1,112,2|10,1:1|0:0,0:0:0:0:
145,79,200764,1,2,1:2:0:0:
249,33,201109,1,10,0:0:0:0:
249,33,201281,2,0,B|329:16|329:16|412:38,1,168,2|10,1:1|0:0,0:0:0:0:
460,139,202143,2,0,L|467:250,1,112,2|10,0:0|0:0,0:0:0:0:
424,354,202833,6,0,P|385:318|260:303,1,168,2|10,1:1|0:3,0:0:0:0:
174,349,203695,1,10,0:0:0:0:
123,248,204040,2,0,B|115:136,1,112,2|2,1:1|1:1,0:0:0:0:
211,79,204729,1,2,1:1:0:0:
211,79,204902,2,0,P|266:98|330:96,1,112,2|10,0:0|0:2,0:0:0:0:
405,25,205592,6,0,B|399:56|399:56|407:97|407:97|401:134,1,112,6|2,1:1|1:1,0:0:0:0:
384,246,206281,1,2,1:0:0:0:
278,227,206626,1,2,1:1:0:0:
278,227,206799,2,0,B|224:214|224:214|166:235|166:235|101:219,1,168,10|2,0:2|1:2,0:0:0:0:
13,266,207661,1,2,1:0:0:0:
57,369,208006,1,2,1:0:0:0:
160,325,208350,6,0,B|222:304|222:304|267:313,1,112,2|2,1:0|1:1,0:0:0:0:
374,350,209040,2,0,B|438:369|438:369|482:361,1,112,2|2,1:0|1:0,0:0:0:0:
489,305,209557,2,0,B|476:251|476:251|495:198|495:198|481:128,1,168,10|2,0:0|1:0,0:0:0:0:
431,44,210419,1,2,1:0:0:0:
322,63,210764,1,2,1:0:0:0:
306,172,211109,6,0,B|279:196|279:196|203:201,1,112,2|2,1:0|1:0,0:0:0:0:
122,279,211799,1,2,1:0:0:0:
27,231,212143,1,2,1:0:0:0:
27,231,212316,2,0,B|2:187|2:187|-1:124|-1:124|24:75,1,168,10|2,0:0|1:2,0:0:0:0:
135,72,213178,2,0,B|161:96|161:96|237:101,1,112,2|2,1:0|1:0,0:0:0:0:
338,50,213868,6,0,P|420:28|492:69,1,168,2|10,1:0|0:3,0:0:0:0:
512,176,214730,1,10,0:0:0:0:
464,277,215075,2,0,P|411:292|358:272,1,112,2|10,1:1|0:1,0:0:0:0:
276,208,215764,1,2,1:1:0:0:
276,208,215937,2,0,P|226:183|172:192,1,112,2|10,0:2|0:1,0:0:0:0:
80,256,216626,5,6,1:2:0:0:
256,192,216799,12,12,219212,0:3:0:0:
