osu file format v14

[General]
AudioFilename: audio.mp3
AudioLeadIn: 0
PreviewTime: 130613
Countdown: 0
SampleSet: Soft
StackLeniency: 0.7
Mode: 0
LetterboxInBreaks: 0
WidescreenStoryboard: 0

[Editor]
Bookmarks: 194557,205592
DistanceSpacing: 1
BeatDivisor: 4
GridSize: 16
TimelineZoom: 0.9

[Metadata]
Title:Mousou Sketch
TitleUnicode:妄想スケッチ
Artist:yuikonnu
ArtistUnicode:ゆいこんぬ
Creator:Lasse
Version:Easy
Source:
Tags:utaite cover delusion 40mP 40Meter-P Nijiiro Chocolatier 虹色ショコラティエ yuiko
BeatmapID:1228747
BeatmapSetID:577217

[Difficulty]
HPDrainRate:2
CircleSize:3
OverallDifficulty:3
ApproachRate:4
SliderMultiplier:0.96
SliderTickRate:1

[Events]
//Background and Video events
0,0,"bg.jpg",0,0
//Break Periods
2,150419,160134
//Storyboard Layer 0 (Background)
//Storyboard Layer 1 (Fail)
//Storyboard Layer 2 (Pass)
//Storyboard Layer 3 (Foreground)
//Storyboard Sound Samples

[TimingPoints]
75,344.827586206897,4,2,1,50,1,0
419,-111.111111111111,4,2,1,50,0,0
1109,-111.111111111111,4,2,1,50,0,0
1454,-100,4,2,1,65,0,0
1712,-100,4,2,99,5,0,0
1799,-100,4,2,1,65,0,0
4471,-100,4,2,99,5,0,0
4557,-100,4,2,1,65,0,0
7230,-100,4,2,99,5,0,0
7316,-100,4,2,1,65,0,0
11109,-100,4,2,1,30,0,0
11281,-100,4,2,1,65,0,0
12488,-105.263157894737,4,2,1,60,0,0
12747,-105.263157894737,4,2,99,5,0,0
12833,-105.263157894737,4,2,1,60,0,0
15506,-105.263157894737,4,2,99,5,0,0
15592,-105.263157894737,4,2,1,60,0,0
16712,-105.263157894737,4,2,99,5,0,0
16799,-105.263157894737,4,2,1,60,0,0
19471,-105.263157894737,4,2,99,5,0,0
19557,-105.263157894737,4,2,1,60,0,0
20764,-105.263157894737,4,2,1,62,0,0
21281,-105.263157894737,4,2,1,64,0,0
21799,-105.263157894737,4,2,1,66,0,0
22057,-105.263157894737,4,2,99,5,0,0
22143,-105.263157894737,4,2,1,68,0,0
22833,-105.263157894737,4,2,1,70,0,0
23006,-105.263157894737,4,2,1,60,0,0
23523,-105.263157894737,4,2,1,60,0,0
23781,-105.263157894737,4,2,99,5,0,0
23867,-105.263157894737,4,2,1,60,0,0
26540,-105.263157894737,4,2,99,5,0,0
26626,-105.263157894737,4,2,1,60,0,0
27747,-105.263157894737,4,2,99,5,0,0
27833,-105.263157894737,4,2,1,60,0,0
30506,-105.263157894737,4,2,99,5,0,0
30592,-105.263157894737,4,2,1,60,0,0
31799,-105.263157894737,4,2,1,62,0,0
32316,-105.263157894737,4,2,1,64,0,0
32833,-105.263157894737,4,2,1,66,0,0
33350,-105.263157894737,4,2,1,68,0,0
33609,-105.263157894737,4,2,99,5,0,0
33695,-105.263157894737,4,2,1,68,0,0
33868,-105.263157894737,4,2,1,70,0,0
34040,-105.263157894737,4,2,1,60,0,0
34385,-105.263157894737,4,2,1,57,0,0
34471,-105.263157894737,4,2,1,53,0,0
34557,-125,4,2,2,50,0,0
51109,-111.111111111111,4,2,3,55,0,0
53350,-111.111111111111,4,2,1,55,0,0
53523,-111.111111111111,4,2,3,55,0,0
53868,-111.111111111111,4,2,1,60,0,0
55075,-111.111111111111,4,2,1,65,0,0
55333,-111.111111111111,4,2,99,5,0,0
55419,-111.111111111111,4,2,1,60,0,0
55506,-111.111111111111,4,2,1,30,0,0
55592,-111.111111111111,4,2,1,60,0,0
55937,-111.111111111111,4,2,1,65,0,0
56626,-100,4,2,1,70,0,1
56885,-100,4,2,99,5,0,1
56971,-100,4,2,1,70,0,1
61626,-100,4,2,1,65,0,0
62143,-100,4,2,1,70,0,1
62402,-100,4,2,99,5,0,1
62488,-100,4,2,1,70,0,1
67143,-100,4,2,1,65,0,0
67661,-100,4,2,1,70,0,1
67919,-100,4,2,99,5,0,1
68006,-100,4,2,1,70,0,1
72316,-100,4,2,1,70,0,1
72833,-100,4,2,1,70,0,1
74040,-100,4,2,1,71,0,1
74212,-100,4,2,1,72,0,1
74385,-100,4,2,1,74,0,1
74557,-100,4,2,1,76,0,0
75937,-100,4,2,1,65,0,0
76195,-100,4,2,99,5,0,0
76281,-100,4,2,1,65,0,0
78954,-100,4,2,99,5,0,0
79040,-100,4,2,1,65,0,0
81712,-100,4,2,99,5,0,0
81799,-100,4,2,1,65,0,0
85592,-100,4,2,1,30,0,0
85764,-100,4,2,1,65,0,0
86971,-105.263157894737,4,2,1,60,0,0
87230,-105.263157894737,4,2,99,5,0,0
87316,-105.263157894737,4,2,1,60,0,0
89988,-105.263157894737,4,2,99,5,0,0
90075,-105.263157894737,4,2,1,60,0,0
91195,-105.263157894737,4,2,99,5,0,0
91281,-105.263157894737,4,2,1,60,0,0
93954,-105.263157894737,4,2,99,5,0,0
94040,-105.263157894737,4,2,1,60,0,0
95247,-105.263157894737,4,2,1,62,0,0
95764,-105.263157894737,4,2,1,64,0,0
96281,-105.263157894737,4,2,1,66,0,0
96540,-105.263157894737,4,2,99,5,0,0
96626,-105.263157894737,4,2,1,68,0,0
97316,-105.263157894737,4,2,1,70,0,0
97488,-105.263157894737,4,2,1,60,0,0
98006,-105.263157894737,4,2,1,60,0,0
98264,-105.263157894737,4,2,99,5,0,0
98350,-105.263157894737,4,2,1,60,0,0
101023,-105.263157894737,4,2,99,5,0,0
101109,-105.263157894737,4,2,1,60,0,0
102230,-105.263157894737,4,2,99,5,0,0
102316,-105.263157894737,4,2,1,60,0,0
104988,-105.263157894737,4,2,99,5,0,0
105075,-105.263157894737,4,2,1,60,0,0
106281,-105.263157894737,4,2,1,62,0,0
106799,-105.263157894737,4,2,1,64,0,0
107316,-105.263157894737,4,2,1,66,0,0
107833,-105.263157894737,4,2,1,68,0,0
108178,-105.263157894737,4,2,1,68,0,0
108350,-105.263157894737,4,2,1,70,0,0
108523,-105.263157894737,4,2,1,60,0,0
108868,-105.263157894737,4,2,1,57,0,0
108954,-105.263157894737,4,2,1,53,0,0
109040,-125,4,2,2,50,0,0
125592,-111.111111111111,4,2,3,55,0,0
127488,-111.111111111111,4,2,2,55,0,0
127833,-111.111111111111,4,2,1,55,0,0
128006,-111.111111111111,4,2,3,55,0,0
128178,-111.111111111111,4,2,1,55,0,0
128350,-111.111111111111,4,2,1,60,0,0
129557,-111.111111111111,4,2,1,65,0,0
129816,-111.111111111111,4,2,99,5,0,0
129902,-111.111111111111,4,2,1,60,0,0
129988,-111.111111111111,4,2,1,30,0,0
130075,-111.111111111111,4,2,1,60,0,0
130419,-111.111111111111,4,2,1,65,0,0
131109,-100,4,2,1,70,0,1
131368,-100,4,2,99,5,0,1
131454,-100,4,2,1,70,0,1
136109,-100,4,2,1,65,0,0
136626,-100,4,2,1,70,0,1
136885,-100,4,2,99,5,0,1
136971,-100,4,2,1,70,0,1
141626,-100,4,2,1,65,0,0
142143,-100,4,2,1,70,0,1
142402,-100,4,2,99,5,0,1
142488,-100,4,2,1,70,0,1
146799,-100,4,2,1,70,0,1
147316,-100,4,2,1,70,0,1
148523,-100,4,2,1,71,0,1
148695,-100,4,2,1,72,0,1
148868,-100,4,2,1,74,0,1
149040,-100,4,2,1,76,0,0
149385,-100,4,2,1,50,0,0
159902,-125,4,2,1,55,0,0
160247,-125,4,2,1,55,0,0
160592,-125,4,2,1,60,0,0
161109,-125,4,2,1,60,0,0
161454,-105.263157894737,4,2,1,65,0,0
161712,-105.263157894737,4,2,99,5,0,0
161799,-105.263157894737,4,2,1,65,0,0
167230,-105.263157894737,4,2,99,5,0,0
167316,-105.263157894737,4,2,1,65,0,0
173868,-100,4,2,1,40,0,0
173954,-99.9999999999999,4,2,1,5,0,0
174902,-99.9999999999999,4,2,99,5,0,0
175247,-100,4,2,1,70,0,1
175506,-100,4,2,99,5,0,1
175592,-100,4,2,1,70,0,1
180247,-100,4,2,1,65,0,0
180764,-100,4,2,1,70,0,1
181023,-100,4,2,99,5,0,1
181109,-100,4,2,1,70,0,1
185764,-100,4,2,1,65,0,0
186281,-100,4,2,1,70,0,1
186540,-100,4,2,99,5,0,1
186626,-100,4,2,1,70,0,1
190937,-100,4,2,1,70,0,1
191454,-100,4,2,1,70,0,1
192661,-100,4,2,1,72,0,1
192833,-100,4,2,1,74,0,1
193006,-100,4,2,1,76,0,0
193350,-100,4,2,1,55,0,0
193437,-100,4,2,1,5,0,0
193868,-100,4,2,99,25,0,0
194040,-100,4,2,1,45,0,0
194212,-100,4,2,1,70,0,0
194557,-100,4,2,1,65,0,0
194816,-100,4,2,99,5,0,0
194902,-100,4,2,1,65,0,0
197575,-100,4,2,99,5,0,0
197661,-100,4,2,1,65,0,0
200333,-100,4,2,99,5,0,0
200419,-100,4,2,1,65,0,0
205592,-100,4,2,1,70,0,0
211109,-100,4,2,1,75,0,0
213868,-100,4,2,1,74,0,0
214385,-100,4,2,1,73,0,0
215075,-100,4,2,1,72,0,0
215247,-100,4,2,1,30,0,0
215419,-100,4,2,1,71,0,0
216626,-100,4,2,1,70,0,0
216712,-133.333333333333,4,2,1,60,0,0
216799,-133.333333333333,4,2,1,55,0,0
216971,-133.333333333333,4,2,1,50,0,0
217143,-133.333333333333,4,2,1,45,0,0
217316,-133.333333333333,4,2,1,40,0,0
217488,-133.333333333333,4,2,1,35,0,0
217661,-133.333333333333,4,2,1,30,0,0
217833,-133.333333333333,4,2,1,25,0,0
218006,-133.333333333333,4,2,1,20,0,0
218178,-133.333333333333,4,2,1,15,0,0
218350,-133.333333333333,4,2,1,10,0,0
218523,-133.333333333333,4,2,1,5,0,0
219212,-200,4,2,1,40,0,0

[Colours]
Combo1 : 220,110,130
Combo2 : 240,150,100
Combo3 : 250,200,120
Combo4 : 240,240,130
Combo5 : 140,210,140
Combo6 : 190,240,220
Combo7 : 130,170,190
Combo8 : 140,120,160

[HitObjects]
51,327,1454,6,0,P|35:282|47:237,1,96,6|10,0:1|0:0,0:0:0:0:
121,175,2143,2,0,P|191:186|260:167,1,144,2|2,1:2|1:1,0:0:0:0:
326,97,3006,2,0,P|394:77|465:89,1,144,2|2,0:0|0:0,0:0:0:0:
508,175,3868,1,10,0:0:0:0:
446,248,4212,6,0,P|435:295|435:353,1,96,2|10,1:1|0:0,0:0:0:0:
339,361,4902,2,0,L|179:349,1,144,2|0,1:2|1:2,0:0:0:0:
102,325,5764,2,0,B|78:286|78:286|70:171,1,144,0|2,1:2|1:1,0:0:0:0:
80,92,6626,1,10,0:1:0:0:
169,127,6971,6,0,P|211:138|273:126,1,96,2|10,1:1|0:0,0:0:0:0:
324,56,7661,2,0,B|399:41|399:41|481:66,1,144,2|2,1:2|1:1,0:0:0:0:
490,153,8523,2,0,L|479:296,1,144,2|2,0:0|0:0,0:0:0:0:
407,358,9385,1,10,0:0:0:0:
343,286,9730,6,0,L|332:142,1,144,2|10,1:1|0:3,0:0:0:0:
259,80,10592,1,10,0:0:0:0:
201,156,10937,2,0,L|194:251,1,96,2|10,1:1|0:1,0:0:0:0:
159,341,11626,2,0,P|75:351|15:307,1,144,2|10,1:1|0:1,0:0:0:0:
16,230,12488,6,0,L|23:118,1,91.1999975646973,6|10,1:2|0:2,0:0:0:0:
90,78,13178,2,0,P|146:59|217:83,1,136.799996347046,0|2,1:2|1:2,0:0:0:0:
286,142,14040,1,2,1:2:0:0:
369,104,14385,2,0,B|445:58|445:58|515:88|503:183,1,227.999993911743,2|2,1:2|1:2,0:0:0:0:
481,261,15592,5,10,0:2:0:0:
408,315,15937,2,0,L|259:304,2,136.799996347046,0|2|8,1:2|1:2|0:2,0:0:0:0:
490,354,17316,1,2,0:2:0:0:
507,218,17833,1,10,0:2:0:0:
389,148,18350,6,0,B|329:119|315:158|253:133,1,136.799996347046,10|2,0:2|1:2,0:0:0:0:
172,94,19212,1,2,1:2:0:0:
99,149,19557,2,0,L|91:260,1,91.1999975646973,2|2,1:2|1:2,0:0:0:0:
80,330,20247,1,2,1:2:0:0:
214,351,20764,6,0,B|260:361|260:361|304:336|346:346,1,136.799996347046,6|2,1:2|1:2,0:0:0:0:
480,373,21799,2,0,B|490:327|490:327|465:283|475:240,1,136.799996347046,2|2,1:2|1:2,0:0:0:0:
492,105,22833,2,0,P|507:57|489:2,1,91.1999975646973,10|10,0:2|0:2,0:0:0:0:
415,56,23523,6,0,P|377:62|312:48,1,91.1999975646973,6|10,1:2|0:2,0:0:0:0:
236,33,24212,2,0,L|92:22,1,136.799996347046,0|2,1:2|1:2,0:0:0:0:
36,88,25075,1,2,1:2:0:0:
100,152,25419,2,0,B|140:186|148:227|148:227|226:194|288:240,1,227.999993911743,2|2,1:2|1:2,0:0:0:0:
343,298,26626,5,10,0:2:0:0:
424,258,26971,2,0,L|434:114,2,136.799996347046,0|2|8,1:2|1:2|0:2,0:0:0:0:
419,349,28350,1,2,0:2:0:0:
283,364,28868,1,10,0:2:0:0:
225,239,29385,6,0,L|214:95,1,136.799996347046,10|2,0:2|1:2,0:0:0:0:
150,38,30247,1,2,1:2:0:0:
85,102,30592,2,0,L|77:206,1,91.1999975646973,2|2,1:2|1:2,0:0:0:0:
72,284,31281,1,2,1:2:0:0:
190,352,31799,6,0,B|229:352|248:325|248:325|272:345|313:339,1,136.799996347046,6|10,1:2|0:2,0:0:0:0:
411,242,32833,2,0,B|411:203|384:184|384:184|404:160|398:118,1,136.799996347046,10|10,0:2|0:2,0:0:0:0:
282,44,33868,2,0,P|228:53|182:39,1,91.1999975646973,10|10,0:2|0:2,0:0:0:0:
112,18,34557,6,0,L|112:171,1,153.6,6|2,0:1|0:2,0:0:0:0:
112,340,35937,2,0,L|240:340,1,115.2,2|2,0:1|0:2,0:0:0:0:
311,340,36799,2,0,L|439:340,1,115.2,10|2,0:1|0:1,0:0:0:0:
256,47,38695,2,0,L|140:47,1,115.2,2|2,0:1|0:2,0:0:0:0:
81,106,39557,2,0,L|81:234,1,115.2,10|2,0:2|0:1,0:0:0:0:
398,338,41454,6,0,L|398:210,1,115.2,2|2,0:1|0:2,0:0:0:0:
398,138,42316,2,0,L|398:10,1,115.2,10|2,0:2|0:1,0:0:0:0:
144,22,43868,1,2,0:2:0:0:
144,106,44212,2,0,L|144:233,1,115.2,2|2,0:1|1:1,0:0:0:0:
228,221,45075,2,0,L|355:221,1,115.2,10|2,0:1|0:2,0:0:0:0:
462,340,46281,5,2,0:2:0:0:
292,340,46971,2,0,L|173:340,1,115.2,2|2,0:1|0:2,0:0:0:0:
117,280,47833,2,0,L|117:161,2,115.2,10|2|2,0:1|0:1|0:2,0:0:0:0:
57,339,49212,1,2,1:2:0:0:
0,279,49557,2,0,L|0:187,1,76.8,2|2,1:2|0:1,0:0:0:0:
246,26,51109,6,0,P|320:93|400:72,1,172.799994726563,10|8,0:2|0:2,0:0:0:0:
462,42,52143,1,10,0:2:0:0:
503,119,52488,2,0,L|492:262,1,129.599996044922,8|2,0:2|0:2,0:0:0:0:
485,334,53350,1,10,0:2:0:0:
379,258,53868,6,0,P|307:232|249:238,1,129.599996044922,6|2,1:2|0:2,0:0:0:0:
179,278,54730,1,2,1:2:0:0:
107,230,55075,2,0,L|96:86,1,129.599996044922,6|4,0:1|0:3,0:0:0:0:
121,17,55937,1,2,0:1:0:0:
274,131,56626,6,0,L|266:239,1,96,6|10,1:2|0:2,0:0:0:0:
307,314,57316,2,0,P|355:344|446:322,1,144,2|2,1:2|1:2,0:0:0:0:
485,246,58178,2,0,L|495:97,1,144,2|2,1:2|0:2,0:0:0:0:
446,19,59040,1,10,0:2:0:0:
378,87,59385,6,0,B|286:118|286:118|191:79,1,192,0|0,1:2|1:2,0:0:0:0:
113,37,60419,1,8,0:2:0:0:
64,120,60764,2,0,L|59:263,1,144,2|2,1:2|1:2,0:0:0:0:
76,358,61626,1,2,1:2:0:0:
193,274,62143,6,0,L|201:164,1,96,6|10,1:2|0:2,0:0:0:0:
256,99,62833,2,0,P|322:75|390:95,1,144,2|2,1:2|1:1,0:0:0:0:
458,163,63695,1,2,1:2:0:0:
476,257,64040,2,0,L|469:352,1,96,2|2,1:1|1:2,0:0:0:0:
345,288,64902,6,0,B|301:265|251:276|251:276|228:232|171:217,1,192,2|0,1:2|1:2,0:0:0:0:
82,252,65937,1,10,0:2:0:0:
8,188,66281,2,0,P|-8:117|19:54,1,144,2|2,1:1|1:1,0:0:0:0:
106,15,67143,1,2,1:2:0:0:
187,133,67661,6,0,L|194:228,1,96,6|10,1:2|0:2,0:0:0:0:
244,310,68350,2,0,B|302:350|302:350|372:317,1,144,2|2,1:2|1:2,0:0:0:0:
445,262,69212,2,0,L|455:114,1,144,2|2,1:2|0:2,0:0:0:0:
408,34,70075,1,10,0:2:0:0:
328,87,70419,6,0,B|280:102|235:81|235:81|200:32|132:40,1,192,0|0,1:2|1:2,0:0:0:0:
77,99,71454,1,8,0:2:0:0:
103,191,71799,2,0,B|130:222|178:219|178:219|208:227|231:258,2,144,2|2|10,1:2|1:2|0:2,0:0:0:0:
168,120,73178,6,0,L|175:10,1,96,4|8,1:2|0:2,0:0:0:0:
264,58,73868,2,0,P|313:73|374:80,1,96,0|10,1:2|0:2,0:0:0:0:
449,54,74557,1,14,0:1:0:0:
470,343,75937,6,0,P|419:326|372:325,1,96,6|10,0:1|0:0,0:0:0:0:
284,350,76626,2,0,P|212:356|142:329,1,144,2|2,1:2|1:1,0:0:0:0:
94,249,77488,2,0,L|83:105,1,144,2|2,0:0|0:0,0:0:0:0:
140,28,78350,1,10,0:0:0:0:
225,71,78695,6,0,P|275:82|337:74,1,96,2|10,1:1|0:0,0:0:0:0:
406,37,79385,2,0,L|394:196,1,144,2|0,1:2|1:2,0:0:0:0:
340,259,80247,2,0,P|283:225|205:224,1,144,0|2,1:2|1:1,0:0:0:0:
121,266,81109,1,10,0:1:0:0:
151,357,81454,6,0,B|197:371|197:371|244:357,1,96,2|10,1:1|0:0,0:0:0:0:
340,352,82143,2,0,B|379:357|409:336|409:336|440:364|497:362,1,144,2|2,1:2|1:1,0:0:0:0:
477,265,83006,2,0,B|465:221|465:221|491:177|472:117,1,144,2|2,0:0|0:0,0:0:0:0:
423,44,83868,1,10,0:0:0:0:
342,96,84212,6,0,P|277:108|198:85,1,144,2|10,1:1|0:3,0:0:0:0:
117,43,85075,1,10,0:0:0:0:
52,114,85419,2,0,L|45:209,1,96,2|10,1:1|0:1,0:0:0:0:
99,288,86109,2,0,P|149:226|214:210,1,144,2|10,1:1|0:1,0:0:0:0:
299,213,86971,6,0,L|403:221,1,91.1999975646973,6|10,1:2|0:2,0:0:0:0:
472,258,87661,2,0,B|493:292|493:324|493:324|473:353|439:360,1,136.799996347046,0|2,1:2|1:2,0:0:0:0:
348,358,88523,1,2,1:2:0:0:
267,314,88868,2,0,B|228:284|178:285|178:285|128:347|51:321,1,227.999993911743,2|2,1:2|1:2,0:0:0:0:
11,246,90075,5,10,0:2:0:0:
49,163,90419,2,0,L|60:14,2,136.799996347046,0|2|8,1:2|1:2|0:2,0:0:0:0:
100,238,91799,1,2,0:2:0:0:
183,129,92316,1,10,0:2:0:0:
284,220,92833,6,0,P|350:237|420:219,1,136.799996347046,10|2,0:2|1:2,0:0:0:0:
463,143,93695,1,2,1:2:0:0:
400,76,94040,2,0,L|304:69,1,91.1999975646973,2|2,1:2|1:2,0:0:0:0:
228,26,94730,1,2,1:2:0:0:
106,89,95247,6,0,B|85:124|85:124|76:175|101:221,1,136.799996347046,6|10,0:2|0:2,0:0:0:0:
205,302,96281,2,0,B|245:302|245:302|294:284|321:240,1,136.799996347046,10|10,0:2|0:2,0:0:0:0:
385,123,97316,2,0,B|430:111|430:111|488:126,1,91.1999975646973,10|10,0:2|0:2,0:0:0:0:
499,209,98006,6,0,L|492:304,1,91.1999975646973,6|10,1:2|0:2,0:0:0:0:
423,358,98695,2,0,L|279:347,1,136.799996347046,0|2,1:2|1:2,0:0:0:0:
201,314,99557,1,2,1:2:0:0:
140,240,99902,2,0,B|114:199|122:152|122:152|148:139|148:139|169:76|227:74,1,227.999993911743,2|2,1:2|1:2,0:0:0:0:
315,73,101109,5,10,0:2:0:0:
376,140,101454,2,0,L|520:150,2,136.799996347046,2|2|8,1:2|1:2|0:2,0:0:0:0:
289,169,102833,1,2,0:2:0:0:
198,65,103350,1,10,0:2:0:0:
77,130,103868,6,0,L|66:274,1,136.799996347046,10|2,0:2|1:2,0:0:0:0:
80,356,104730,1,2,1:2:0:0:
170,342,105075,2,0,P|212:339|273:342,1,91.1999975646973,2|2,1:2|1:2,0:0:0:0:
351,355,105764,1,2,1:2:0:0:
467,282,106281,6,0,B|492:251|492:225|492:225|474:200|481:149,1,136.799996347046,6|10,1:2|0:2,0:0:0:0:
376,65,107316,2,0,B|338:57|306:82|306:82|275:84|240:68,1,136.799996347046,10|10,0:2|0:2,0:0:0:0:
113,27,108350,2,0,B|70:15|70:15|13:22,1,91.1999975646973,10|10,0:2|0:2,0:0:0:0:
6,103,109040,6,0,L|6:256,1,153.6,6|2,0:1|0:2,0:0:0:0:
152,340,110419,2,0,L|280:340,1,115.2,2|10,0:1|0:3,0:0:0:0:
351,340,111281,2,0,L|479:340,1,115.2,10|2,0:1|0:1,0:0:0:0:
305,42,113178,2,0,L|189:42,1,115.2,2|10,0:1|0:3,0:0:0:0:
130,101,114040,2,0,L|130:229,1,115.2,10|2,0:2|0:1,0:0:0:0:
444,340,115937,6,0,L|444:212,1,115.2,2|10,0:1|0:3,0:0:0:0:
444,140,116799,2,0,L|444:12,1,115.2,10|2,0:2|0:1,0:0:0:0:
264,204,118350,1,2,0:2:0:0:
179,204,118695,2,0,L|52:204,1,115.2,2|10,0:1|0:3,0:0:0:0:
3,144,119557,2,0,L|3:17,1,115.2,10|2,0:1|0:2,0:0:0:0:
171,28,120764,5,2,0:2:0:0:
329,86,121454,2,0,L|329:205,1,115.2,2|10,0:1|0:3,0:0:0:0:
388,260,122316,2,0,L|507:260,2,115.2,10|2|2,0:1|0:1|0:2,0:0:0:0:
328,319,123695,1,2,1:2:0:0:
243,319,124040,2,0,L|151:319,1,76.8,2|2,1:2|0:1,0:0:0:0:
0,67,125592,6,0,P|39:96|161:79,1,172.799994726563,10|8,0:2|0:2,0:0:0:0:
230,39,126626,1,10,0:2:0:0:
299,90,126971,2,0,L|442:101,1,129.599996044922,8|10,0:2|0:3,0:0:0:0:
498,150,127833,1,10,0:2:0:0:
383,210,128350,6,0,L|240:199,1,129.599996044922,6|2,1:2|0:2,0:0:0:0:
192,261,129212,1,2,1:2:0:0:
253,322,129557,2,0,L|396:333,1,129.599996044922,6|4,0:1|0:3,0:0:0:0:
462,364,130419,1,2,0:1:0:0:
485,173,131109,6,0,L|477:65,1,96,6|10,1:2|0:2,0:0:0:0:
396,25,131799,2,0,B|347:69|347:69|305:77|254:59,1,144,2|2,1:2|1:2,0:0:0:0:
187,113,132661,2,0,B|166:192|196:180|179:255,1,144,2|2,1:2|0:2,0:0:0:0:
111,323,133523,1,10,0:2:0:0:
43,255,133868,6,0,B|17:217|30:174|30:174|43:157|43:157|29:107|62:55,1,192,0|0,1:2|1:2,0:0:0:0:
133,24,134902,1,8,0:2:0:0:
217,70,135247,2,0,P|282:90|360:75,1,144,2|2,1:2|1:2,0:0:0:0:
435,24,136109,1,2,1:2:0:0:
506,148,136626,6,0,L|499:243,1,96,6|10,1:2|0:2,0:0:0:0:
461,332,137316,2,0,P|400:290|331:298,1,144,2|2,1:2|1:1,0:0:0:0:
254,351,138178,1,2,1:2:0:0:
179,290,138523,2,0,P|166:257|180:196,1,96,2|2,1:1|1:2,0:0:0:0:
298,121,139385,6,0,B|245:112|211:77|211:77|160:58|108:84,1,192,2|0,1:2|1:2,0:0:0:0:
56,149,140419,1,10,0:2:0:0:
99,234,140764,2,0,P|115:302|80:363,1,144,2|2,1:1|1:1,0:0:0:0:
20,288,141626,1,2,1:2:0:0:
56,148,142143,6,0,P|102:138|147:152,1,96,6|10,1:2|0:2,0:0:0:0:
193,237,142833,2,0,P|253:272|322:255,1,144,2|2,1:2|1:2,0:0:0:0:
382,180,143695,2,0,P|443:146|511:164,1,144,2|2,1:2|0:2,0:0:0:0:
455,242,144557,1,10,0:2:0:0:
399,320,144902,6,0,B|352:338|352:338|192:327,1,192,0|0,1:2|1:2,0:0:0:0:
119,359,145937,1,8,0:2:0:0:
44,298,146281,2,0,B|27:269|32:239|32:239|55:196|37:159,2,144,2|2|10,1:2|1:2|0:2,0:0:0:0:
130,257,147661,6,0,P|178:238|243:235,1,96,4|8,1:2|0:2,0:0:0:0:
315,256,148350,2,0,P|362:262|409:256,1,96,0|10,1:2|0:2,0:0:0:0:
488,201,149040,1,14,0:1:0:0:
42,80,161454,6,0,P|86:68|135:82,1,91.1999975646973,6|10,1:2|0:2,0:0:0:0:
182,152,162143,2,0,L|190:301,1,136.799996347046,2|2,1:2|1:2,0:0:0:0:
254,353,163006,1,2,1:2:0:0:
318,288,163350,2,0,B|391:277|379:313|455:302,1,136.799996347046,2|8,1:2|0:2,0:0:0:0:
492,220,164212,6,0,L|498:124,1,91.1999975646973,2|10,1:2|0:2,0:0:0:0:
417,86,164902,2,0,P|364:91|267:57,1,136.799996347046,2|2,1:2|1:2,0:0:0:0:
206,21,165764,1,2,1:2:0:0:
153,95,166109,2,0,L|143:234,1,136.799996347046,2|8,1:2|0:2,0:0:0:0:
107,315,166971,6,0,P|63:326|21:311,1,91.1999975646973,2|10,1:2|0:2,0:0:0:0:
8,220,167661,2,0,L|17:80,1,136.799996347046,2|2,1:2|1:2,0:0:0:0:
90,29,168523,1,2,1:2:0:0:
153,95,168868,2,0,B|186:121|186:121|297:129,1,136.799996347046,2|10,1:2|0:1,0:0:0:0:
355,76,169730,6,0,B|412:41|412:41|470:79,1,136.799996347046,2|2,0:1|1:1,0:0:0:0:
493,167,170592,1,10,0:2:0:0:
446,245,170937,2,0,B|403:262|358:239|358:239|330:234|303:251,2,136.799996347046,2|8|2,0:2|0:2|1:2,0:0:0:0:
410,160,172316,1,10,2:3:0:0:
340,100,172661,2,0,B|297:83|252:106|252:106|227:109|207:99,1,136.799996347046,6|10,2:3|0:2,0:0:0:0:
132,47,173523,2,0,B|87:35|87:35|43:44,1,91.1999975646973,10|0,0:2|0:2,0:0:0:0:
41,340,175247,6,0,P|87:351|133:341,1,96,6|10,1:2|0:2,0:0:0:0:
206,277,175937,2,0,P|268:244|335:266,1,144,2|2,1:2|1:2,0:0:0:0:
420,309,176799,2,0,L|430:165,1,144,2|2,1:2|0:2,0:0:0:0:
393,77,177661,1,10,0:2:0:0:
300,46,178006,6,0,B|254:44|212:80|212:80|168:39|127:39,1,192,0|0,1:2|1:2,0:0:0:0:
38,74,179040,1,8,0:2:0:0:
11,166,179385,2,0,L|21:309,1,144,2|2,1:2|1:2,0:0:0:0:
104,356,180247,1,2,1:2:0:0:
235,297,180764,6,0,L|243:187,1,96,6|10,1:2|0:2,0:0:0:0:
179,127,181454,2,0,P|113:151|47:125,1,144,2|2,1:2|1:1,0:0:0:0:
115,53,182316,1,2,1:2:0:0:
209,34,182661,2,0,L|304:40,1,96,2|2,1:1|1:2,0:0:0:0:
447,36,183523,6,0,B|416:75|420:124|420:124|453:164|434:216,1,192,2|0,1:2|1:2,0:0:0:0:
402,307,184557,1,10,0:2:0:0:
314,268,184902,2,0,P|247:240|165:247,1,144,2|2,1:1|1:1,0:0:0:0:
105,307,185764,1,2,1:2:0:0:
19,190,186281,6,0,L|12:95,1,96,6|10,1:2|0:2,0:0:0:0:
92,42,186971,2,0,P|157:69|229:66,1,144,2|2,1:2|1:2,0:0:0:0:
323,47,187833,2,0,P|394:43|460:71,1,144,2|2,1:2|0:2,0:0:0:0:
493,161,188695,1,10,0:2:0:0:
425,228,189040,6,0,B|365:251|325:240|325:240|305:196|242:181,1,192,0|0,1:2|1:2,0:0:0:0:
163,164,190075,1,8,0:2:0:0:
77,212,190419,2,0,B|53:245|63:287|63:287|62:328|42:355,2,144,2|2|10,1:2|1:2|0:2,0:0:0:0:
158,262,191799,6,0,P|186:272|260:272,1,96,4|8,1:2|0:2,0:0:0:0:
333,223,192488,2,0,L|343:79,1,144,0|14,1:2|0:1,0:0:0:0:
31,24,194557,6,0,L|24:119,1,96,6|10,0:1|0:0,0:0:0:0:
62,207,195247,2,0,P|132:231|203:214,1,144,2|2,1:2|1:1,0:0:0:0:
287,178,196109,2,0,B|358:161|359:203|428:185,1,144,2|2,0:0|0:0,0:0:0:0:
503,126,196971,1,10,0:0:0:0:
443,50,197316,6,0,P|394:35|351:39,1,96,2|10,1:1|0:0,0:0:0:0:
261,76,198006,2,0,B|189:92|188:50|119:68,1,144,2|0,1:2|1:2,0:0:0:0:
57,140,198868,2,0,L|45:299,1,144,0|2,1:2|1:1,0:0:0:0:
104,360,199730,1,10,0:1:0:0:
183,305,200075,6,0,P|228:296|285:308,1,96,2|10,1:1|0:0,0:0:0:0:
363,346,200764,2,0,P|431:362|497:335,1,144,2|2,1:2|1:1,0:0:0:0:
503,240,201626,2,0,L|492:97,1,144,2|2,0:0|0:0,0:0:0:0:
424,28,202488,1,10,0:0:0:0:
356,95,202833,6,0,L|345:239,1,144,2|10,1:1|0:3,0:0:0:0:
277,306,203695,1,10,0:0:0:0:
209,238,204040,2,0,L|202:143,1,96,2|2,1:1|1:1,0:0:0:0:
145,61,204730,2,0,P|79:37|15:66,1,144,2|10,1:1|0:2,0:0:0:0:
82,135,205592,6,0,B|96:176|96:176|88:233,1,96,6|2,1:1|1:1,0:0:0:0:
75,323,206281,2,0,B|115:311|115:311|170:328|170:328|219:321,1,144,2|10,1:0|0:2,0:0:0:0:
307,299,207143,2,0,B|347:287|347:287|402:304|402:304|446:298,1,144,10|2,2:1|1:0,0:0:0:0:
502,220,208006,1,2,1:0:0:0:
443,144,208350,6,0,B|396:123|396:123|354:140,1,96,2|2,1:0|1:1,0:0:0:0:
272,194,209040,2,0,B|233:216|233:216|115:204,1,144,2|10,1:0|0:0,0:0:0:0:
52,155,209902,2,0,B|30:116|30:116|32:56|32:56|54:22,1,144,10|2,0:0|1:0,0:0:0:0:
122,89,210764,1,2,1:0:0:0:
210,51,211109,6,0,B|257:41|257:41|312:54,1,96,2|2,1:0|1:0,0:0:0:0:
369,122,211799,2,0,B|417:133|417:133|461:120|461:120|521:140,1,144,2|10,1:0|0:0,0:0:0:0:
456,217,212661,2,0,B|445:265|445:265|458:309|458:309|437:369,1,144,10|2,0:1|1:0,0:0:0:0:
360,304,213523,1,2,1:0:0:0:
269,349,213868,6,0,P|199:358|134:324,1,144,2|10,1:0|0:3,0:0:0:0:
69,255,214730,1,10,0:0:0:0:
109,167,215075,2,0,L|116:72,1,96,2|10,1:1|0:1,0:0:0:0:
206,38,215764,2,0,P|269:70|339:61,1,144,2|10,1:1|0:1,0:0:0:0:
425,18,216626,5,6,1:2:0:0:
256,192,216799,12,12,219212,0:3:0:0:
