osu file format v14

[General]
AudioFilename: audio.mp3
AudioLeadIn: 0
PreviewTime: 130613
Countdown: 0
SampleSet: Soft
StackLeniency: 0.5
Mode: 0
LetterboxInBreaks: 0
WidescreenStoryboard: 0

[Editor]
Bookmarks: 205419
DistanceSpacing: 1.5
BeatDivisor: 4
GridSize: 32
TimelineZoom: 2.4

[Metadata]
Title:Mousou Sketch
TitleUnicode:妄想スケッチ
Artist:yuikonnu
ArtistUnicode:ゆいこんぬ
Creator:Lasse
Version:Deception
Source:
Tags:utaite cover delusion 40mP 40Meter-P Nijiiro Chocolatier 虹色ショコラティエ yuiko
BeatmapID:1221756
BeatmapSetID:577217

[Difficulty]
HPDrainRate:7
CircleSize:4
OverallDifficulty:8
ApproachRate:9
SliderMultiplier:1.92
SliderTickRate:1

[Events]
//Background and Video events
0,0,"bg.jpg",0,0
//Break Periods
2,150419,159302
//Storyboard Layer 0 (Background)
//Storyboard Layer 1 (Fail)
//Storyboard Layer 2 (Pass)
//Storyboard Layer 3 (Foreground)
//Storyboard Sound Samples

[TimingPoints]
75,344.827586206897,4,2,1,50,1,0
419,-200,4,2,1,50,0,0
1454,-100,4,2,1,65,0,0
1712,-100,4,2,99,5,0,0
1799,-100,4,2,1,65,0,0
4471,-100,4,2,99,5,0,0
4557,-100,4,2,1,65,0,0
7230,-100,4,2,99,5,0,0
7316,-100,4,2,1,65,0,0
11109,-100,4,2,1,30,0,0
11281,-100,4,2,1,65,0,0
12488,-133.333333333333,4,2,1,60,0,0
12747,-133.333333333333,4,2,99,5,0,0
12833,-133.333333333333,4,2,1,60,0,0
15506,-133.333333333333,4,2,99,5,0,0
15592,-133.333333333333,4,2,1,60,0,0
16712,-133.333333333333,4,2,99,5,0,0
16799,-133.333333333333,4,2,1,60,0,0
19471,-133.333333333333,4,2,99,5,0,0
19557,-133.333333333333,4,2,1,60,0,0
20764,-100,4,2,1,62,0,0
21281,-80,4,2,1,64,0,0
21799,-66.6666666666667,4,2,1,66,0,0
22057,-66.6666666666667,4,2,99,5,0,0
22143,-57.1428571428571,4,2,1,68,0,0
22833,-50,4,2,1,70,0,0
23006,-133.333333333333,4,2,1,60,0,0
23523,-133.333333333333,4,2,1,60,0,0
23781,-133.333333333333,4,2,99,5,0,0
23867,-133.333333333333,4,2,1,60,0,0
26540,-133.333333333333,4,2,99,5,0,0
26626,-133.333333333333,4,2,1,60,0,0
27747,-133.333333333333,4,2,99,5,0,0
27833,-133.333333333333,4,2,1,60,0,0
30506,-133.333333333333,4,2,99,5,0,0
30592,-133.333333333333,4,2,1,60,0,0
31799,-100,4,2,1,62,0,0
32316,-80,4,2,1,64,0,0
32833,-66.6666666666667,4,2,1,66,0,0
33350,-57.1428571428571,4,2,1,68,0,0
33609,-57.1428571428571,4,2,99,5,0,0
33695,-57.1428571428571,4,2,1,68,0,0
33868,-50,4,2,1,70,0,0
34040,-133.333333333333,4,2,1,60,0,0
34385,-133.333333333333,4,2,1,57,0,0
34471,-133.333333333333,4,2,1,53,0,0
34557,-200,4,2,2,50,0,0
51109,-133.333333333333,4,2,3,55,0,0
53350,-133.333333333333,4,2,1,55,0,0
53523,-133.333333333333,4,2,3,55,0,0
53868,-100,4,2,1,60,0,0
55075,-66.6666666666667,4,2,1,65,0,0
55333,-66.6666666666667,4,2,99,5,0,0
55419,-100,4,2,1,60,0,0
55506,-100,4,2,1,30,0,0
55592,-100,4,2,1,60,0,0
55937,-100,4,2,1,65,0,0
56626,-79.9999999999999,4,2,1,70,0,1
56885,-79.9999999999999,4,2,99,5,0,1
56971,-79.9999999999999,4,2,1,70,0,1
61626,-79.9999999999999,4,2,1,65,0,0
62143,-79.9999999999999,4,2,1,70,0,1
62402,-79.9999999999999,4,2,99,5,0,1
62488,-79.9999999999999,4,2,1,70,0,1
67143,-79.9999999999999,4,2,1,65,0,0
67661,-79.9999999999999,4,2,1,70,0,1
67919,-79.9999999999999,4,2,99,5,0,1
68006,-79.9999999999999,4,2,1,70,0,1
72316,-100,4,2,1,70,0,1
72833,-79.9999999999999,4,2,1,70,0,1
74040,-79.9999999999999,4,2,1,71,0,1
74212,-79.9999999999999,4,2,1,72,0,1
74385,-79.9999999999999,4,2,1,74,0,1
74557,-133.333333333333,4,2,1,76,0,0
75937,-100,4,2,1,65,0,0
76195,-100,4,2,99,5,0,0
76281,-100,4,2,1,65,0,0
78954,-100,4,2,99,5,0,0
79040,-100,4,2,1,65,0,0
81712,-100,4,2,99,5,0,0
81799,-100,4,2,1,65,0,0
85592,-100,4,2,1,30,0,0
85764,-100,4,2,1,65,0,0
86971,-133.333333333333,4,2,1,60,0,0
87230,-133.333333333333,4,2,99,5,0,0
87316,-133.333333333333,4,2,1,60,0,0
89988,-133.333333333333,4,2,99,5,0,0
90075,-133.333333333333,4,2,1,60,0,0
91195,-133.333333333333,4,2,99,5,0,0
91281,-133.333333333333,4,2,1,60,0,0
93954,-133.333333333333,4,2,99,5,0,0
94040,-133.333333333333,4,2,1,60,0,0
95247,-100,4,2,1,62,0,0
95764,-80,4,2,1,64,0,0
96281,-66.6666666666667,4,2,1,66,0,0
96540,-66.6666666666667,4,2,99,5,0,0
96626,-57.1428571428571,4,2,1,68,0,0
97316,-50,4,2,1,70,0,0
97488,-133.333333333333,4,2,1,60,0,0
98006,-133.333333333333,4,2,1,60,0,0
98264,-133.333333333333,4,2,99,5,0,0
98350,-133.333333333333,4,2,1,60,0,0
101023,-133.333333333333,4,2,99,5,0,0
101109,-133.333333333333,4,2,1,60,0,0
102230,-133.333333333333,4,2,99,5,0,0
102316,-133.333333333333,4,2,1,60,0,0
104988,-133.333333333333,4,2,99,5,0,0
105075,-133.333333333333,4,2,1,60,0,0
106281,-100,4,2,1,62,0,0
106799,-80,4,2,1,64,0,0
107316,-66.6666666666667,4,2,1,66,0,0
107833,-57.1428571428571,4,2,1,68,0,0
108178,-57.1428571428571,4,2,1,68,0,0
108350,-50,4,2,1,70,0,0
108523,-133.333333333333,4,2,1,60,0,0
108868,-133.333333333333,4,2,1,57,0,0
108954,-133.333333333333,4,2,1,53,0,0
109040,-200,4,2,2,50,0,0
125592,-133.333333333333,4,2,3,55,0,0
127488,-133.333333333333,4,2,2,55,0,0
127833,-133.333333333333,4,2,2,55,0,0
128006,-133.333333333333,4,2,3,55,0,0
128350,-100,4,2,1,60,0,0
129557,-66.6666666666667,4,2,1,65,0,0
129816,-66.6666666666667,4,2,99,5,0,0
129902,-100,4,2,1,60,0,0
129988,-100,4,2,1,30,0,0
130075,-100,4,2,1,60,0,0
130419,-100,4,2,1,65,0,0
131109,-79.9999999999999,4,2,1,70,0,1
131368,-79.9999999999999,4,2,99,5,0,1
131454,-79.9999999999999,4,2,1,70,0,1
136109,-79.9999999999999,4,2,1,65,0,0
136626,-79.9999999999999,4,2,1,70,0,1
136885,-79.9999999999999,4,2,99,5,0,1
136971,-79.9999999999999,4,2,1,70,0,1
141626,-79.9999999999999,4,2,1,65,0,0
142143,-79.9999999999999,4,2,1,70,0,1
142402,-79.9999999999999,4,2,99,5,0,1
142488,-79.9999999999999,4,2,1,70,0,1
146799,-100,4,2,1,70,0,1
147316,-79.9999999999999,4,2,1,70,0,1
148523,-79.9999999999999,4,2,1,71,0,1
148695,-79.9999999999999,4,2,1,72,0,1
148868,-79.9999999999999,4,2,1,74,0,1
149040,-133.333333333333,4,2,1,76,0,0
149385,-133.333333333333,4,2,1,50,0,0
159902,-133.333333333333,4,2,1,55,0,0
160592,-133.333333333333,4,2,1,60,0,0
161454,-111.111111111111,4,2,1,65,0,0
161712,-111.111111111111,4,2,99,5,0,0
161799,-111.111111111111,4,2,1,65,0,0
167230,-111.111111111111,4,2,99,5,0,0
167316,-111.111111111111,4,2,1,65,0,0
173868,-99.9999999999999,4,2,1,40,0,0
173954,-99.9999999999999,4,2,1,5,0,0
174902,-99.9999999999999,4,2,99,5,0,0
175247,-79.9999999999999,4,2,1,70,0,1
175506,-79.9999999999999,4,2,99,5,0,1
175592,-79.9999999999999,4,2,1,70,0,1
180247,-79.9999999999999,4,2,1,65,0,0
180764,-79.9999999999999,4,2,1,70,0,1
181023,-79.9999999999999,4,2,99,5,0,1
181109,-79.9999999999999,4,2,1,70,0,1
185764,-79.9999999999999,4,2,1,65,0,0
186281,-79.9999999999999,4,2,1,70,0,1
186540,-79.9999999999999,4,2,99,5,0,1
186626,-79.9999999999999,4,2,1,70,0,1
190937,-100,4,2,1,70,0,1
191454,-79.9999999999999,4,2,1,70,0,1
192661,-79.9999999999999,4,2,1,72,0,1
192833,-79.9999999999999,4,2,1,74,0,1
193006,-79.9999999999999,4,2,1,76,0,0
193350,-90.9090909090909,4,2,1,55,0,0
193437,-90.9090909090909,4,2,1,5,0,0
193868,-90.9090909090909,4,2,99,25,0,0
194040,-66.6666666666667,4,2,1,45,0,0
194212,-66.6666666666667,4,2,1,70,0,0
194557,-100,4,2,1,65,0,0
194816,-100,4,2,99,5,0,0
194902,-100,4,2,1,65,0,0
197575,-100,4,2,99,5,0,0
197661,-100,4,2,1,65,0,0
200333,-100,4,2,99,5,0,0
200419,-100,4,2,1,65,0,0
205592,-86.9565217391304,4,2,1,70,0,0
211109,-76.9230769230769,4,2,1,75,0,0
213868,-83.3333333333333,4,2,1,74,0,0
214385,-90.9090909090909,4,2,1,73,0,0
215075,-100,4,2,1,72,0,0
215247,-100,4,2,1,30,0,0
215419,-100,4,2,1,71,0,0
216626,-133.333333333333,4,2,1,70,0,0
216712,-133.333333333333,4,2,1,60,0,0
216799,-133.333333333333,4,2,1,55,0,0
216971,-133.333333333333,4,2,1,50,0,0
217143,-133.333333333333,4,2,1,45,0,0
217316,-133.333333333333,4,2,1,40,0,0
217488,-133.333333333333,4,2,1,35,0,0
217661,-133.333333333333,4,2,1,30,0,0
217833,-133.333333333333,4,2,1,25,0,0
218006,-133.333333333333,4,2,1,20,0,0
218178,-133.333333333333,4,2,1,15,0,0
218350,-133.333333333333,4,2,1,10,0,0
218523,-133.333333333333,4,2,1,5,0,0
219212,-200,4,2,1,40,0,0

[Colours]
Combo1 : 220,110,130
Combo2 : 240,150,100
Combo3 : 250,200,120
Combo4 : 240,240,130
Combo5 : 140,210,140
Combo6 : 190,240,220
Combo7 : 130,170,190
Combo8 : 140,120,160

[HitObjects]
165,318,419,5,8,0:0:0:0:
165,318,506,1,8,0:0:0:0:
165,318,592,1,8,0:3:0:0:
165,318,937,5,8,0:3:0:0:
249,249,1109,2,0,P|274:244|296:246,1,48,8|8,0:0|0:3,0:0:0:0:
401,348,1454,6,0,B|385:278|421:290|402:204,1,144,6|0,0:1|0:0,0:0:0:0:
370,135,1799,2,0,P|364:101|366:74,2,48,10|2|2,0:0|0:0|0:0,0:0:0:0:
482,317,2143,5,2,1:2:0:0:
314,261,2316,1,0,1:2:0:0:
447,143,2488,1,10,0:0:0:0:
314,261,2661,6,0,B|261:266|227:223|227:223|206:272|152:279,1,192,2|2,1:1|0:0,0:0:0:0:
157,278,3092,1,2,0:0:0:0:
157,278,3178,1,10,0:0:0:0:
305,166,3350,5,0,1:0:0:0:
241,334,3523,1,2,0:0:0:0:
138,185,3695,1,0,1:0:0:0:
314,261,3868,1,10,0:0:0:0:
214,115,4040,5,2,1:2:0:0:
214,115,4126,1,2,0:2:0:0:
214,115,4212,2,0,B|192:61|222:14|222:14|181:31,1,144,2|0,1:1|0:0,0:0:0:0:
116,61,4557,2,0,L|49:56,2,48,10|2|2,0:0|0:0|0:0,0:0:0:0:
301,70,4902,5,2,1:2:0:0:
213,197,5075,1,0,1:2:0:0:
186,29,5247,1,10,0:2:0:0:
294,159,5419,1,0,1:2:0:0:
410,42,5592,5,2,1:1:0:0:
303,176,5764,1,0,1:2:0:0:
310,53,5937,1,10,1:2:0:0:
401,200,6109,1,0,1:2:0:0:
419,25,6281,5,2,1:1:0:0:
301,70,6454,1,2,1:0:0:0:
480,118,6626,1,10,0:1:0:0:
312,193,6799,1,10,0:0:0:0:
511,291,6971,6,0,B|439:274|440:316|369:297,1,144,2|0,1:1|0:0,0:0:0:0:
294,273,7316,2,0,P|271:268|247:266,2,48,10|2|2,0:0|0:0|0:0,0:0:0:0:
426,384,7661,5,2,1:2:0:0:
399,214,7833,1,0,1:2:0:0:
313,350,8006,1,10,0:0:0:0:
399,214,8178,6,0,B|445:151|404:82|404:82|384:98|385:129,1,192,2|2,1:1|0:0,0:0:0:0:
385,127,8609,1,2,0:0:0:0:
385,127,8695,1,10,0:0:0:0:
462,275,8868,5,0,1:0:0:0:
313,350,9040,1,2,0:0:0:0:
322,184,9212,1,0,1:0:0:0:
462,275,9385,1,10,0:0:0:0:
248,264,9557,5,10,0:2:0:0:
248,264,9643,1,8,0:0:0:0:
248,264,9730,2,0,B|199:257|157:291|157:291|102:303|66:275,1,192,2|8,1:1|0:0,0:0:0:0:
115,74,10247,2,0,L|123:201,1,96,10|4,0:3|0:3,0:0:0:0:
248,264,10592,5,10,0:0:0:0:
121,169,10764,1,10,0:0:0:0:
266,106,10937,2,0,L|393:97,1,96,2|0,1:1|0:0,0:0:0:0:
203,17,11281,5,10,0:1:0:0:
203,17,11368,1,10,0:0:0:0:
203,17,11454,1,10,0:0:0:0:
216,181,11626,1,2,1:1:0:0:
361,99,11799,6,0,L|357:51,1,48,2|2,0:2|0:0,0:0:0:0:
203,17,11971,1,8,0:3:0:0:
121,169,12143,5,10,0:1:0:0:
203,17,12316,1,10,0:3:0:0:
361,189,12488,6,0,B|399:195|427:166|427:166|458:191,1,108.000004119873,6|0,1:2|0:0,0:0:0:0:
461,204,12833,2,0,L|467:299,1,72.0000027465821,10|0,0:2|0:2,0:0:0:0:
394,367,13178,1,0,1:2:0:0:
285,326,13350,2,0,P|242:319|212:320,1,72.0000027465821,2|8,1:2|0:2,0:0:0:0:
60,362,13695,5,2,1:2:0:0:
60,362,14040,2,0,L|66:266,1,72.0000027465821,2|8,1:2|0:2,0:0:0:0:
73,164,14385,5,2,1:2:0:0:
73,164,14730,2,0,L|79:68,2,72.0000027465821,2|8|0,1:2|0:2|0:2,0:0:0:0:
64,290,15247,6,0,P|113:266|165:277,1,108.000004119873,2|0,1:2|0:2,0:0:0:0:
178,288,15592,2,0,L|273:294,1,72.0000027465821,10|0,0:2|0:2,0:0:0:0:
352,240,15937,1,0,1:2:0:0:
334,126,16109,2,0,P|330:96|339:50,1,72.0000027465821,2|8,1:2|0:2,0:0:0:0:
511,105,16454,6,0,P|463:83|411:94,1,108.000004119873,2|0,1:2|0:2,0:0:0:0:
411,93,16799,1,2,1:2:0:0:
453,234,16971,2,0,P|458:198|455:162,1,72.0000027465821,8|0,0:2|1:2,0:0:0:0:
337,55,17316,5,2,0:2:0:0:
246,144,17488,2,0,P|210:149|174:146,1,72.0000027465821,10|0,0:2|1:2,0:0:0:0:
360,251,17833,2,0,P|332:227|300:212,1,72.0000027465821,10|0,0:2|1:2,0:0:0:0:
300,212,18350,6,0,P|293:248|296:283,1,72.0000027465821,10|0,0:2|0:2,0:0:0:0:
202,350,18695,1,0,1:2:0:0:
98,299,18868,2,0,L|18:293,1,72.0000027465821,2|8,1:2|0:2,0:0:0:0:
108,186,19212,6,0,P|120:133|110:81,1,108.000004119873,2|0,1:2|0:2,0:0:0:0:
116,98,19557,2,0,P|150:106|185:100,1,72.0000027465821,2|8,1:2|0:2,0:0:0:0:
287,45,19902,2,0,P|322:38|356:47,1,72.0000027465821,2|0,1:2|0:2,0:0:0:0:
431,137,20247,5,2,1:2:0:0:
356,47,20419,1,8,0:2:0:0:
316,156,20592,1,8,0:2:0:0:
313,169,20678,1,8,0:2:0:0:
310,182,20764,6,0,B|294:237|296:311|296:311|285:274|263:258,1,192,6|2,1:2|0:2,0:0:0:0:
203,333,21281,6,0,P|115:342|102:199,1,240,2|2,1:2|0:2,0:0:0:0:
162,159,21799,6,0,B|205:87|159:5|159:5|103:108,1,216.000008239746,2|0,1:2|0:2,0:0:0:0:
133,52,22143,1,2,0:2:0:0:
162,159,22316,6,0,B|258:232|371:150|371:150|328:94|267:114,1,336.000003204346,2|2,1:2|0:2,0:0:0:0:
162,159,22833,6,0,B|122:225|164:300|164:300|188:257,1,192,10|0,0:2|1:2,0:0:0:0:
276,111,23178,5,10,0:2:0:0:
137,56,23350,1,8,0:2:0:0:
119,53,23437,1,8,0:2:0:0:
101,50,23523,6,0,B|70:43|45:60|45:60|17:62|-9:44,1,108.000004119873,6|0,1:2|0:0,0:0:0:0:
4,66,23868,2,0,L|-3:161,1,72.0000027465821,10|0,0:2|0:2,0:0:0:0:
42,244,24212,1,0,1:2:0:0:
147,195,24385,2,0,P|183:190|219:193,1,72.0000027465821,2|8,1:2|0:2,0:0:0:0:
340,294,24730,5,2,1:2:0:0:
340,294,25075,2,0,L|346:198,1,72.0000027465821,2|8,1:2|0:2,0:0:0:0:
218,192,25419,5,2,1:2:0:0:
218,192,25764,2,0,L|212:96,2,72.0000027465821,2|8|0,1:2|0:2|0:2,0:0:0:0:
344,222,26281,6,0,P|393:198|445:209,1,108.000004119873,2|0,1:2|0:2,0:0:0:0:
450,191,26626,2,0,L|456:96,1,72.0000027465821,10|0,0:2|0:2,0:0:0:0:
367,43,26971,1,0,1:2:0:0:
284,123,27143,2,0,P|254:127|208:118,1,72.0000027465821,2|8,1:2|0:2,0:0:0:0:
95,30,27488,6,0,B|103:82|83:81|93:139,1,108.000004119873,2|0,1:2|0:2,0:0:0:0:
92,137,27833,1,2,1:2:0:0:
223,221,28006,2,0,P|195:197|163:182,1,72.0000027465821,8|0,0:2|1:2,0:0:0:0:
97,352,28350,5,2,0:2:0:0:
219,291,28523,2,0,P|226:256|223:221,1,72.0000027465821,10|0,0:2|1:2,0:0:0:0:
326,362,28868,2,0,P|322:326|329:291,1,72.0000027465821,10|0,0:2|1:2,0:0:0:0:
329,291,29385,6,0,P|364:294|399:287,1,72.0000027465821,10|0,0:2|0:2,0:0:0:0:
501,234,29730,1,0,1:2:0:0:
483,121,29902,2,0,L|477:41,1,72.0000027465821,2|8,1:2|0:2,0:0:0:0:
410,191,30247,6,0,P|366:158|315:146,1,108.000004119873,2|0,1:2|0:2,0:0:0:0:
301,158,30592,2,0,P|261:163|221:152,1,72.0000027465821,2|8,1:2|0:2,0:0:0:0:
276,32,30937,2,0,P|316:27|356:38,1,72.0000027465821,2|0,1:2|0:2,0:0:0:0:
432,135,31281,5,2,1:2:0:0:
346,33,31454,1,8,0:2:0:0:
301,158,31626,1,8,0:2:0:0:
300,172,31712,1,8,0:2:0:0:
299,186,31799,6,0,B|285:315|285:315|269:286|252:262,1,192,6|2,1:2|1:2,0:0:0:0:
171,191,32316,6,0,B|127:170|88:181|106:194|42:207|5:170|12:111|48:97|98:106|78:143,1,240,10|0,0:2|1:2,0:0:0:0:
36,258,32833,6,0,B|17:307|22:356|22:356|19:329|-2:303,2,144.000005493164,10|0|2,0:2|1:2|1:2,0:0:0:0:
146,326,33350,6,0,B|185:368|289:366|328:318|328:318|300:307|270:316,1,252.000002403259,10|0,0:2|0:2,0:0:0:0:
276,314,33695,1,2,1:2:0:0:
378,381,33868,6,0,B|418:354|421:284|374:252|374:252|397:264|417:266,1,192,10|0,0:2|1:2,0:0:0:0:
512,115,34212,5,10,0:2:0:0:
387,47,34385,1,10,0:2:0:0:
372,45,34471,1,8,0:2:0:0:
357,43,34557,6,0,L|261:43,1,96,6|0,0:1|0:2,0:0:0:0:
99,12,35247,1,2,0:2:0:0:
31,49,35419,2,0,L|31:111,1,48,0|0,1:2|0:2,0:0:0:0:
99,12,35764,5,2,1:2:0:0:
31,97,35937,2,0,L|31:159,1,48,2|0,0:1|0:2,0:0:0:0:
97,328,36454,5,2,0:2:0:0:
97,328,36799,1,10,0:1:0:0:
222,179,37143,5,0,1:2:0:0:
276,233,37316,2,0,L|390:233,1,96,2|0,0:1|0:2,0:0:0:0:
222,179,38006,5,2,0:2:0:0:
202,252,38178,2,0,L|202:300,1,48,2|0,1:2|0:2,0:0:0:0:
222,179,38523,5,0,1:2:0:0:
202,300,38695,2,0,L|202:348,2,48,2|0|0,0:1|0:2|0:2,0:0:0:0:
222,179,39212,2,0,L|222:131,1,48,2|0,0:2|0:2,0:0:0:0:
292,251,39557,2,0,L|340:251,1,48,10|0,0:2|0:2,0:0:0:0:
222,179,39902,5,0,1:2:0:0:
340,251,40075,2,0,L|388:251,2,48,2|0|0,0:1|0:2|0:2,0:0:0:0:
202,348,40764,5,2,0:2:0:0:
157,285,40937,2,0,L|157:237,1,48,2|0,1:2|0:2,0:0:0:0:
202,348,41281,5,2,1:2:0:0:
157,237,41454,2,0,L|157:189,2,48,2|0|0,0:1|0:2|0:2,0:0:0:0:
84,332,41971,2,0,L|36:332,1,48,2|0,0:2|0:2,0:0:0:0:
157,237,42316,2,0,L|205:237,1,48,10|0,0:2|0:2,0:0:0:0:
77,181,42661,5,0,1:2:0:0:
205,237,42833,2,0,L|267:237,2,48,2|0|2,0:1|0:2|0:2,0:0:0:0:
205,237,43523,2,0,L|141:237,1,48,2|0,0:2|1:2,0:0:0:0:
77,181,43868,5,2,0:2:0:0:
77,181,44212,2,0,L|77:117,1,48,2|0,0:1|0:2,0:0:0:0:
157,237,44557,5,2,0:2:0:0:
77,133,44730,2,0,L|77:69,1,48,2|0,1:1|0:2,0:0:0:0:
157,237,45075,2,0,L|157:301,2,48,10|0|0,0:1|0:2|1:2,0:0:0:0:
256,144,45592,6,0,L|256:48,1,96,2|0,0:2|0:2,0:0:0:0:
330,225,46281,5,2,0:2:0:0:
256,192,46454,2,0,L|256:144,1,48,2|0,1:2|0:2,0:0:0:0:
330,225,46799,5,0,1:0:0:0:
256,144,46971,2,0,L|256:96,1,48,2|0,0:1|0:2,0:0:0:0:
429,13,47488,5,2,0:2:0:0:
429,13,47833,1,10,0:1:0:0:
496,192,48178,5,0,1:2:0:0:
427,158,48350,2,0,L|379:158,1,48,2|0,0:1|0:2,0:0:0:0:
496,192,48695,5,2,0:2:0:0:
379,158,48868,2,0,L|331:158,1,48,2|0,0:2|0:2,0:0:0:0:
464,87,49212,2,0,L|512:87,1,48,2|0,1:2|0:2,0:0:0:0:
331,158,49557,5,2,1:2:0:0:
331,158,49902,1,2,0:1:0:0:
331,158,50247,5,2,0:2:0:0:
256,128,50419,1,2,0:2:0:0:
181,158,50592,2,0,L|133:158,2,48,10|0|0,0:1|0:2|1:2,0:0:0:0:
331,158,51109,6,0,B|346:118|322:81|322:81|319:44|342:12,2,144.000005493164,10|8|8,0:2|0:2|0:2,0:0:0:0:
256,237,51971,1,0,1:2:0:0:
181,158,52143,6,0,P|173:121|182:87,1,72.0000027465821,10|0,0:2|1:2,0:0:0:0:
256,237,52488,2,0,P|264:274|254:307,1,72.0000027465821,8|0,0:2|0:2,0:0:0:0:
181,158,52833,5,8,0:2:0:0:
255,306,53006,2,0,P|289:314|324:305,1,72.0000027465821,2|8,0:2|0:2,0:0:0:0:
181,158,53350,2,0,P|146:149|111:158,1,72.0000027465821,10|8,0:2|0:2,0:0:0:0:
324,305,53695,5,2,1:2:0:0:
181,158,53868,2,0,P|170:111|182:65,1,96,6|0,1:2|0:2,0:0:0:0:
288,37,54212,5,8,0:2:0:0:
229,231,54385,2,0,P|182:241|136:229,1,96,2|0,0:2|1:2,0:0:0:0:
288,37,54730,5,2,1:2:0:0:
351,252,54902,1,10,0:2:0:0:
502,73,55075,6,0,P|438:154|336:141,1,216.000008239746,6|0,0:1|0:2,0:0:0:0:
260,112,55419,6,0,P|234:105|196:107,1,48,10|8,0:2|0:2,0:0:0:0:
136,229,55592,1,4,0:3:0:0:
136,229,55937,5,2,0:1:0:0:
459,345,56626,6,0,P|385:283|292:325,1,180,6|0,1:2|0:2,0:0:0:0:
228,353,56971,2,0,P|171:366|115:346,1,120,10|0,0:2|0:2,0:0:0:0:
89,108,57316,5,2,1:2:0:0:
180,255,57488,2,0,P|182:203|188:135,1,120,2|8,1:2|0:2,0:0:0:0:
32,309,57833,6,0,P|30:257|23:189,1,120,2|0,1:2|0:2,0:0:0:0:
114,345,58178,1,2,1:2:0:0:
187,135,58350,1,8,0:2:0:0:
24,189,58523,1,2,0:2:0:0:
210,142,58695,5,2,0:2:0:0:
34,93,58868,1,2,1:2:0:0:
159,266,59040,1,10,0:2:0:0:
128,73,59212,1,2,1:2:0:0:
32,308,59385,6,0,P|156:266|266:285,2,240,0|8|0,1:2|0:2|1:2,0:0:0:0:
32,308,60247,1,0,1:2:0:0:
128,157,60419,1,8,0:2:0:0:
260,282,60592,5,2,1:2:0:0:
356,129,60764,2,0,P|373:73|356:16,1,120,2|0,1:2|0:2,0:0:0:0:
260,282,61109,5,10,0:2:0:0:
156,16,61281,1,2,1:2:0:0:
156,16,61626,5,2,1:2:0:0:
356,129,61799,1,10,0:2:0:0:
128,157,61971,1,2,1:2:0:0:
379,131,62143,6,0,B|509:123|509:123|434:98,1,180,6|0,1:2|0:2,0:0:0:0:
452,203,62488,2,0,L|443:330,1,120,10|0,0:2|0:2,0:0:0:0:
256,128,62833,5,2,1:2:0:0:
355,15,63006,2,0,L|482:6,1,120,2|8,1:2|0:2,0:0:0:0:
295,228,63350,6,0,P|237:209|178:199,1,120,2|0,1:1|0:2,0:0:0:0:
388,129,63695,2,0,P|367:72|354:14,1,120,2|8,1:2|0:2,0:0:0:0:
63,231,64040,6,0,P|119:210|178:199,1,120,2|0,1:1|0:2,0:0:0:0:
475,210,64385,1,2,1:2:0:0:
475,210,64557,2,0,P|428:171|387:128,1,120,8|0,0:2|1:2,0:0:0:0:
304,339,64902,6,0,P|193:283|83:318,2,240,2|8|0,1:2|0:2|1:2,0:0:0:0:
304,339,65764,1,0,1:2:0:0:
260,132,65937,1,10,0:2:0:0:
167,285,66109,5,2,1:2:0:0:
277,115,66281,2,0,P|334:99|405:115,1,120,2|0,1:1|1:2,0:0:0:0:
150,302,66626,5,10,0:2:0:0:
299,105,66799,2,0,P|358:99|424:128,1,120,2|0,1:1|0:2,0:0:0:0:
339,337,67143,5,2,1:2:0:0:
299,105,67316,1,10,0:2:0:0:
150,302,67488,1,10,0:2:0:0:
133,319,67575,1,8,0:2:0:0:
116,336,67661,6,0,P|30:340|-8:262,1,180,6|0,1:2|0:2,0:0:0:0:
31,176,68006,2,0,P|50:120|37:60,1,120,10|0,0:2|0:2,0:0:0:0:
29,340,68350,5,2,1:2:0:0:
126,177,68523,2,0,P|182:157|240:170,1,120,2|8,1:2|0:2,0:0:0:0:
372,357,68868,6,0,P|327:317|308:261,1,120,2|0,1:2|0:2,0:0:0:0:
405,54,69212,1,2,1:2:0:0:
414,259,69385,1,8,0:2:0:0:
314,100,69557,1,2,0:2:0:0:
423,281,69730,5,2,0:2:0:0:
414,76,69902,1,2,1:2:0:0:
308,261,70075,1,10,0:2:0:0:
495,174,70247,1,2,1:2:0:0:
250,178,70419,6,0,B|189:173|189:173|81:119|81:119|13:113,2,240,0|8|0,1:2|0:2|1:2,0:0:0:0:
250,178,71281,1,0,1:2:0:0:
54,209,71454,1,8,0:2:0:0:
215,83,71626,5,2,1:2:0:0:
112,282,71799,2,0,P|56:299|0:281,1,120,2|0,1:2|0:2,0:0:0:0:
215,83,72143,5,10,0:2:0:0:
290,325,72316,2,0,P|206:279|111:283,1,192,2|2,1:2|1:2,0:0:0:0:
215,83,72833,5,10,0:2:0:0:
290,325,73006,1,10,0:2:0:0:
215,83,73178,1,4,1:2:0:0:
111,283,73350,6,0,P|54:301|-1:284,1,120,2|8,0:2|0:2,0:0:0:0:
215,83,73695,2,0,P|271:64|327:81,1,120,2|0,0:2|1:2,0:0:0:0:
481,343,74040,5,8,0:2:0:0:
272,160,74212,5,10,0:2:0:0:
469,147,74385,5,10,0:2:0:0:
285,357,74557,5,14,0:1:0:0:
377,252,75937,6,0,B|337:271|337:271|237:264,1,144,6|0,0:1|0:0,0:0:0:0:
175,219,76281,2,0,P|141:213|114:215,2,48,10|2|2,0:0|0:0|0:0,0:0:0:0:
288,355,76626,5,2,1:2:0:0:
245,188,76799,1,0,1:2:0:0:
122,309,76971,1,10,0:0:0:0:
245,188,77143,6,0,B|255:44|255:44|246:66|226:86,1,192,2|2,1:1|0:0,0:0:0:0:
228,83,77575,1,2,0:0:0:0:
228,83,77661,1,10,0:0:0:0:
412,207,77833,5,0,1:0:0:0:
348,39,78006,1,2,0:0:0:0:
245,188,78178,1,0,1:0:0:0:
419,107,78350,1,10,0:0:0:0:
330,273,78523,5,2,1:2:0:0:
330,273,78609,1,2,0:2:0:0:
330,273,78695,2,0,B|246:294|246:294|191:276,1,144,2|0,1:1|0:0,0:0:0:0:
116,256,79040,2,0,L|49:261,2,48,10|2|2,0:0|0:0|0:0,0:0:0:0:
236,91,79385,5,2,1:2:0:0:
191,276,79557,1,0,1:2:0:0:
133,106,79730,1,10,0:2:0:0:
252,195,79902,1,0,1:2:0:0:
278,13,80075,5,2,1:1:0:0:
258,177,80247,1,0,1:2:0:0:
175,28,80419,1,10,1:2:0:0:
327,103,80592,1,0,1:2:0:0:
139,124,80764,5,2,1:1:0:0:
320,84,80937,1,2,1:0:0:0:
181,10,81109,1,10,0:1:0:0:
252,195,81281,1,10,0:0:0:0:
460,105,81454,6,0,B|388:118|389:71|315:85,1,144,2|0,1:1|0:0,0:0:0:0:
244,102,81799,2,0,L|180:106,2,48,10|2|2,0:0|0:0|0:0,0:0:0:0:
434,25,82143,5,2,1:2:0:0:
451,197,82316,1,0,1:2:0:0:
320,84,82488,1,10,0:0:0:0:
451,197,82661,6,0,B|476:241|470:275|470:275|453:306|454:349|454:349|448:328|437:313,1,192,2|2,1:1|0:0,0:0:0:0:
440,317,83092,1,2,0:0:0:0:
440,317,83178,1,10,0:0:0:0:
289,165,83350,5,0,1:0:0:0:
451,197,83523,1,2,0:0:0:0:
341,322,83695,1,0,1:0:0:0:
289,165,83868,1,10,0:0:0:0:
166,335,84040,5,10,0:2:0:0:
166,335,84126,1,8,0:0:0:0:
166,335,84212,2,0,B|121:313|71:332|71:332|15:327|-3:281,1,192,2|8,1:1|0:0,0:0:0:0:
79,97,84730,2,0,P|86:145|89:193,1,96,10|4,0:3|0:3,0:0:0:0:
166,335,85075,5,10,0:0:0:0:
250,197,85247,1,10,0:0:0:0:
89,193,85419,2,0,P|41:188|-5:177,1,96,2|0,1:1|0:0,0:0:0:0:
180,43,85764,5,10,0:1:0:0:
180,43,85850,1,10,0:0:0:0:
180,43,85937,1,10,0:0:0:0:
250,197,86109,1,2,1:1:0:0:
336,80,86281,6,0,P|342:55|340:32,1,48,2|2,0:0|0:0,0:0:0:0:
180,43,86454,1,8,0:3:0:0:
89,193,86626,5,10,0:1:0:0:
180,43,86799,1,10,0:3:0:0:
326,160,86971,6,0,B|355:166|386:146|386:146|409:143|436:159,1,108.000004119873,6|0,1:2|0:0,0:0:0:0:
441,168,87316,2,0,L|447:73,1,72.0000027465821,10|0,0:2|0:2,0:0:0:0:
340,32,87661,1,0,1:2:0:0:
326,160,87833,2,0,L|320:255,1,72.0000027465821,2|8,1:2|0:2,0:0:0:0:
196,349,88178,5,2,1:2:0:0:
196,349,88523,2,0,P|155:339|100:343,1,72.0000027465821,2|8,1:2|0:2,0:0:0:0:
48,242,88868,5,2,1:2:0:0:
48,242,89212,2,0,P|89:252|144:248,2,72.0000027465821,2|8|0,1:2|0:2|0:2,0:0:0:0:
100,139,89730,6,0,B|118:97|105:50|105:50|86:81,1,108.000004119873,2|0,1:2|0:2,0:0:0:0:
109,76,90075,2,0,L|204:82,1,72.0000027465821,10|0,0:2|0:2,0:0:0:0:
256,167,90419,1,0,1:2:0:0:
332,80,90592,2,0,P|343:52|346:5,1,72.0000027465821,2|8,1:2|0:2,0:0:0:0:
410,134,90937,6,0,P|428:80|471:48,1,108.000004119873,2|0,1:2|0:2,0:0:0:0:
467,49,91281,1,2,1:2:0:0:
509,199,91454,2,0,P|496:165|494:130,1,72.0000027465821,8|0,0:2|1:2,0:0:0:0:
348,187,91799,5,2,0:2:0:0:
444,280,91971,2,0,P|438:244|422:212,1,72.0000027465821,10|0,0:2|1:2,0:0:0:0:
347,10,92316,2,0,P|344:45|331:79,1,72.0000027465821,10|0,0:2|1:2,0:0:0:0:
331,79,92833,6,0,P|298:94|263:100,1,72.0000027465821,10|0,0:2|0:2,0:0:0:0:
147,92,93178,1,0,1:2:0:0:
262,100,93350,2,0,P|297:106|330:121,1,72.0000027465821,2|8,1:2|0:2,0:0:0:0:
261,227,93695,6,0,B|247:279|273:284|256:333,1,108.000004119873,2|0,1:2|0:2,0:0:0:0:
240,342,94040,2,0,L|168:336,1,72.0000027465821,2|8,1:2|0:2,0:0:0:0:
261,227,94385,2,0,L|333:233,1,72.0000027465821,2|0,1:2|0:2,0:0:0:0:
407,142,94730,5,2,1:2:0:0:
332,232,94902,1,8,0:2:0:0:
292,123,95075,1,8,0:2:0:0:
284,110,95161,1,8,0:2:0:0:
276,97,95247,6,0,B|230:76|223:23|223:23|159:2|112:46,1,192,6|2,0:2|1:2,0:0:0:0:
89,117,95764,6,0,P|196:146|196:258,1,240,10|2,0:2|1:2,0:0:0:0:
86,276,96281,6,0,B|56:272|39:255|39:255|117:215|195:258,1,216.000008239746,10|0,0:2|0:2,0:0:0:0:
195,258,96626,1,2,1:2:0:0:
86,276,96799,6,0,B|168:383|291:299|291:299|246:257|196:262,1,336.000003204346,10|2,0:2|1:2,0:0:0:0:
291,299,97316,6,0,B|338:233|293:158|293:158|277:205,1,192,10|0,0:2|1:2,0:0:0:0:
393,319,97661,5,10,0:2:0:0:
474,203,97833,1,8,0:2:0:0:
477,185,97919,1,8,0:2:0:0:
480,167,98006,6,0,B|481:135|496:115|496:115|482:93|479:63,1,108.000004119873,6|0,1:2|0:0,0:0:0:0:
466,53,98350,2,0,L|371:46,1,72.0000027465821,10|2,0:2|0:2,0:0:0:0:
313,130,98695,1,0,1:2:0:0:
209,78,98868,2,0,L|202:-17,1,72.0000027465821,2|8,1:2|0:2,0:0:0:0:
163,170,99212,5,2,1:2:0:0:
163,170,99557,2,0,P|203:181|248:175,1,72.0000027465821,2|8,1:2|0:2,0:0:0:0:
94,275,99902,5,2,1:2:0:0:
94,275,100247,2,0,P|134:264|179:270,2,72.0000027465821,2|8|0,1:2|0:2|0:2,0:0:0:0:
15,160,100764,6,0,P|7:106|29:46,1,108.000004119873,2|0,1:2|0:2,0:0:0:0:
38,47,101109,2,0,L|133:53,1,72.0000027465821,10|2,0:2|0:2,0:0:0:0:
179,144,101454,1,2,1:2:0:0:
289,107,101626,2,0,L|295:9,1,72.0000027465821,2|8,1:2|0:2,0:0:0:0:
254,188,101971,6,0,B|292:207|336:183|336:183|318:207|315:223,1,108.000004119873,2|0,1:2|0:2,0:0:0:0:
323,201,102316,1,2,1:2:0:0:
244,335,102488,2,0,P|235:299|238:264,1,72.0000027465821,8|0,0:2|1:2,0:0:0:0:
289,107,102833,5,2,0:2:0:0:
327,204,103006,2,0,P|363:207|398:199,1,72.0000027465821,10|0,0:2|1:2,0:0:0:0:
349,69,103350,2,0,P|316:83|288:106,1,72.0000027465821,10|0,0:2|1:2,0:0:0:0:
288,106,103868,6,0,P|252:112|216:107,1,72.0000027465821,10|2,0:2|0:2,0:0:0:0:
118,47,104212,1,2,1:2:0:0:
217,107,104385,2,0,P|238:135|251:169,1,72.0000027465821,2|8,1:2|0:2,0:0:0:0:
158,256,104730,6,0,B|103:258|109:228|53:233,1,108.000004119873,2|0,1:2|0:2,0:0:0:0:
47,249,105075,2,0,L|41:328,1,72.0000027465821,2|8,1:2|0:2,0:0:0:0:
158,256,105419,2,0,L|163:176,1,72.0000027465821,2|0,1:2|0:2,0:0:0:0:
49,117,105764,5,2,1:2:0:0:
47,249,105937,1,8,0:2:0:0:
163,184,106109,1,8,0:2:0:0:
176,179,106195,1,8,0:2:0:0:
190,173,106281,6,0,B|290:155|278:213|377:195,1,192,6|2,1:2|1:2,0:0:0:0:
433,116,106799,6,0,B|398:92|353:95|371:108|311:122|270:84|277:25|313:11|356:22|352:52,1,240,10|2,0:2|1:2,0:0:0:0:
376,195,107316,6,0,B|382:294|382:294|408:257,1,144.000005493164,10|0,0:2|1:2,0:0:0:0:
433,116,107661,5,2,1:2:0:0:
253,172,107833,6,0,B|211:179|150:153|131:101|138:53|138:53|119:124|72:148|28:151,1,336.000003204346,10|2,0:2|1:2,0:0:0:0:
12,23,108350,6,0,B|16:44|8:65|8:65|41:19|99:15|137:53,1,192,10|0,0:2|1:2,0:0:0:0:
253,172,108695,5,10,0:2:0:0:
352,51,108868,1,8,0:2:0:0:
364,44,108954,1,8,0:2:0:0:
376,37,109040,6,0,L|472:37,1,96,6|0,0:1|0:2,0:0:0:0:
512,192,109730,1,2,0:2:0:0:
470,256,109902,2,0,L|470:318,1,48,0|0,1:2|0:2,0:0:0:0:
512,192,110247,5,2,1:2:0:0:
470,304,110419,2,0,L|470:366,2,48,2|0|0,0:1|0:2|0:0,0:0:0:0:
512,192,110937,6,0,L|512:149,2,24,10|8|8,0:3|0:3|0:3,0:0:0:0:
470,304,111281,2,0,L|470:256,1,48,10|0,0:1|0:0,0:0:0:0:
512,168,111626,5,0,1:2:0:0:
470,103,111799,2,0,L|470:-11,1,96,2|0,0:1|0:2,0:0:0:0:
512,168,112488,5,2,0:2:0:0:
434,171,112661,2,0,L|386:171,1,48,2|0,1:2|0:2,0:0:0:0:
512,168,113006,5,0,1:2:0:0:
386,171,113178,2,0,L|338:170,2,48,2|0|0,0:1|0:2|0:2,0:0:0:0:
478,263,113695,5,10,0:3:0:0:
478,263,113781,1,8,0:3:0:0:
478,263,113868,1,8,0:3:0:0:
386,219,114040,2,0,L|386:170,1,48,10|0,0:2|0:2,0:0:0:0:
320,80,114385,5,8,1:3:0:0:
320,80,114471,1,8,0:3:0:0:
320,80,114557,2,0,L|320:32,2,48,2|0|0,0:1|0:2|0:2,0:0:0:0:
256,256,115247,5,2,0:2:0:0:
193,211,115419,2,0,L|145:211,1,48,2|0,1:2|0:2,0:0:0:0:
256,256,115764,5,2,1:2:0:0:
145,211,115937,2,0,L|97:211,2,48,2|0|0,0:1|0:2|0:2,0:0:0:0:
256,256,116454,6,0,L|282:256,2,24,10|8|8,0:3|0:3|0:3,0:0:0:0:
145,211,116799,2,0,L|145:163,1,48,10|0,0:2|0:2,0:0:0:0:
256,256,117143,5,0,1:2:0:0:
145,163,117316,2,0,L|145:101,2,48,2|0|2,0:1|0:2|0:2,0:0:0:0:
145,163,118006,2,0,L|145:211,1,48,2|0,0:2|1:2,0:0:0:0:
145,321,118350,5,2,0:2:0:0:
145,321,118695,2,0,L|145:385,1,48,2|0,0:1|0:2,0:0:0:0:
232,276,119040,5,2,0:2:0:0:
152,218,119212,1,10,0:3:0:0:
152,218,119299,1,8,0:3:0:0:
152,218,119385,1,8,0:3:0:0:
242,177,119557,2,0,L|306:177,2,48,10|0|0,0:1|0:2|1:2,0:0:0:0:
152,218,120075,6,0,L|56:218,1,96,2|0,0:2|0:2,0:0:0:0:
230,101,120764,5,2,0:2:0:0:
290,177,120937,2,0,L|338:177,1,48,2|0,1:2|0:2,0:0:0:0:
230,101,121281,5,0,1:0:0:0:
338,177,121454,2,0,L|386:177,2,48,2|0|0,0:1|0:2|0:0,0:0:0:0:
230,101,121971,6,0,L|201:101,2,24,10|8|8,0:3|0:3|0:3,0:0:0:0:
350,46,122316,2,0,L|350:-2,1,48,10|0,0:1|0:0,0:0:0:0:
410,100,122661,5,0,1:2:0:0:
350,46,122833,2,0,L|302:46,1,48,2|0,0:1|0:2,0:0:0:0:
410,100,123178,5,2,0:2:0:0:
302,46,123350,2,0,L|254:46,1,48,2|0,0:2|0:2,0:0:0:0:
410,100,123695,2,0,L|458:100,1,48,2|0,1:2|0:2,0:0:0:0:
254,46,124040,6,0,L|253:112,1,48,2|0,1:2|0:0,0:0:0:0:
409,147,124385,2,0,L|410:81,1,48,2|0,0:1|0:0,0:0:0:0:
314,186,124730,5,10,0:3:0:0:
314,186,124816,1,8,0:3:0:0:
314,186,124902,1,10,0:3:0:0:
409,99,125075,2,0,L|410:33,2,48,10|0|0,0:1|0:2|1:2,0:0:0:0:
314,186,125592,6,0,B|274:171|236:190|236:190|196:194|169:165,2,144.000005493164,10|8|8,0:2|0:2|0:2,0:0:0:0:
282,291,126454,1,0,1:2:0:0:
176,172,126626,6,0,P|168:135|177:101,1,72.0000027465821,10|0,0:2|1:2,0:0:0:0:
282,291,126971,2,0,P|290:328|281:362,1,72.0000027465821,8|0,0:2|0:2,0:0:0:0:
176,172,127316,5,8,0:2:0:0:
290,299,127488,1,10,0:3:0:0:
290,299,127575,1,8,0:3:0:0:
290,299,127661,1,12,0:3:0:0:
176,172,127833,2,0,P|141:163|106:172,1,72.0000027465821,10|8,0:2|0:2,0:0:0:0:
57,277,128178,5,2,1:2:0:0:
176,172,128350,2,0,P|187:125|175:79,1,96,6|0,1:2|0:2,0:0:0:0:
80,33,128695,5,8,0:2:0:0:
176,172,128868,2,0,P|223:182|269:170,1,96,2|0,0:2|1:2,0:0:0:0:
356,21,129212,5,2,1:2:0:0:
430,233,129385,1,10,0:2:0:0:
495,14,129557,6,0,B|436:6|436:6|341:23|341:23|281:19,1,216.000008239746,6|0,0:1|0:2,0:0:0:0:
223,76,129902,6,0,L|159:80,1,48,10|8,0:2|0:2,0:0:0:0:
24,20,130075,1,4,0:3:0:0:
24,20,130419,5,2,0:1:0:0:
0,314,131109,6,0,B|95:296|78:363|184:333,1,180,6|0,1:2|0:2,0:0:0:0:
231,257,131454,2,0,L|239:129,1,120,10|0,0:2|0:2,0:0:0:0:
439,18,131799,5,2,1:2:0:0:
489,175,131971,2,0,P|429:181|371:168,1,120,2|8,1:2|0:2,0:0:0:0:
473,367,132316,6,0,P|456:309|420:261,1,120,2|0,1:2|0:2,0:0:0:0:
238,137,132661,1,2,1:2:0:0:
258,327,132833,1,8,0:2:0:0:
371,168,133006,1,2,0:2:0:0:
234,321,133178,5,2,0:2:0:0:
262,131,133350,1,2,1:2:0:0:
420,261,133523,1,10,0:2:0:0:
209,221,133695,1,2,1:2:0:0:
465,175,133868,6,0,P|514:276|435:356,2,240,0|8|0,1:2|0:2|1:2,0:0:0:0:
465,175,134730,1,0,1:2:0:0:
293,239,134902,1,8,0:2:0:0:
435,356,135075,5,2,1:2:0:0:
293,239,135247,2,0,P|232:227|161:233,1,120,2|0,1:2|0:2,0:0:0:0:
350,0,135592,5,10,0:2:0:0:
420,261,135764,1,2,1:2:0:0:
420,261,136109,5,2,1:2:0:0:
258,98,136281,1,10,0:2:0:0:
481,139,136454,1,2,1:2:0:0:
238,85,136626,6,0,B|205:70|171:79|178:85|134:89|108:73|108:73|131:60|158:65,1,180,6|0,1:2|0:2,0:0:0:0:
200,159,136971,2,0,L|190:284,1,120,10|0,0:2|0:2,0:0:0:0:
310,21,137316,5,2,1:2:0:0:
405,143,137488,2,0,L|415:268,1,120,2|8,1:2|0:2,0:0:0:0:
197,368,137833,6,0,P|138:353|79:347,1,120,2|0,1:1|0:2,0:0:0:0:
331,285,138178,2,0,P|306:230|290:172,1,120,2|8,1:2|0:2,0:0:0:0:
38,32,138523,6,0,P|94:53|153:64,1,120,2|0,1:1|0:2,0:0:0:0:
0,280,138868,1,2,1:2:0:0:
0,279,139040,2,0,P|55:258|114:246,1,120,8|0,0:2|1:2,0:0:0:0:
424,301,139385,6,0,P|313:282|288:172,2,240,2|8|0,1:2|0:2|1:2,0:0:0:0:
424,301,140247,1,0,1:2:0:0:
359,79,140419,1,10,0:2:0:0:
298,263,140592,5,2,1:2:0:0:
379,66,140764,2,0,P|441:54|504:75,1,120,2|0,1:1|1:2,0:0:0:0:
278,276,141109,5,10,0:2:0:0:
401,58,141281,2,0,P|464:57|525:94,1,120,2|0,1:1|0:2,0:0:0:0:
407,285,141626,5,2,1:2:0:0:
266,104,141799,1,10,0:2:0:0:
179,331,141971,1,10,0:2:0:0:
162,347,142057,1,8,0:2:0:0:
144,364,142143,6,0,P|46:373|-7:304,1,180,6|0,1:2|0:2,0:0:0:0:
0,219,142488,2,0,L|10:75,1,120,10|0,0:2|0:2,0:0:0:0:
87,286,142833,5,2,1:2:0:0:
235,163,143006,2,0,P|292:150|348:170,1,120,2|8,1:2|0:2,0:0:0:0:
121,131,143350,6,0,P|170:99|196:45,1,120,2|0,1:2|0:2,0:0:0:0:
87,286,143695,1,2,1:2:0:0:
8,100,143868,1,8,0:2:0:0:
235,163,144040,1,2,0:2:0:0:
0,123,144212,5,2,0:2:0:0:
196,45,144385,1,2,1:2:0:0:
14,219,144557,1,10,0:2:0:0:
110,14,144730,1,2,1:2:0:0:
302,207,144902,6,0,P|196:235|160:131,2,240,0|8|0,1:2|0:2|1:2,0:0:0:0:
302,207,145764,1,0,1:2:0:0:
445,64,145937,1,8,0:2:0:0:
462,266,146109,5,2,1:2:0:0:
319,118,146281,2,0,P|303:59|320:4,1,120,2|0,1:2|0:2,0:0:0:0:
462,266,146626,5,10,0:2:0:0:
236,162,146799,2,0,L|28:147,1,192,2|2,1:2|1:2,0:0:0:0:
319,4,147316,5,10,0:2:0:0:
355,254,147488,1,10,0:2:0:0:
319,4,147661,1,4,1:2:0:0:
149,156,147833,6,0,P|141:215|140:275,1,120,2|8,0:2|0:2,0:0:0:0:
345,373,148178,2,0,P|353:313|354:253,1,120,2|0,0:2|1:2,0:0:0:0:
236,31,148523,5,8,0:2:0:0:
248,227,148695,5,10,0:2:0:0:
432,17,148868,5,10,0:2:0:0:
445,214,149040,5,14,0:1:0:0:
187,269,159902,6,0,P|208:222|171:140,1,144.000005493164,2|0,1:2|0:2,0:0:0:0:
173,141,160333,1,8,0:2:0:0:
173,141,160419,1,10,0:2:0:0:
75,68,160592,6,0,P|53:63|27:63,2,36.0000013732911,2|2|2,1:1|0:2|0:2,0:0:0:0:
188,156,160937,1,10,0:2:0:0:
188,156,161023,1,10,0:2:0:0:
188,156,161109,2,0,P|209:160|235:160,3,36.0000013732911,2|2|2|2,1:1|0:2|0:2|0:2,0:0:0:0:
289,107,161454,6,0,P|338:70|419:84,1,129.599996044922,6|0,1:2|0:2,0:0:0:0:
412,94,161799,2,0,L|418:189,1,86.3999973632813,10|0,0:2|0:2,0:0:0:0:
289,107,162143,5,2,1:2:0:0:
418,180,162316,2,0,L|424:275,1,86.3999973632813,2|8,1:2|0:2,0:0:0:0:
251,336,162661,5,2,0:2:0:0:
251,336,162747,1,2,0:2:0:0:
251,336,162833,1,2,0:2:0:0:
142,237,163006,2,0,P|100:224|56:226,1,86.3999973632813,2|8,1:2|0:2,0:0:0:0:
237,174,163350,2,0,P|268:144|289:105,1,86.3999973632813,2|0,1:2|0:2,0:0:0:0:
119,20,163695,5,2,1:2:0:0:
142,237,163868,1,8,0:2:0:0:
193,86,164040,1,0,1:2:0:0:
6,157,164212,5,2,1:2:0:0:
6,157,164557,2,0,L|0:61,1,86.3999973632813,10|0,0:2|0:2,0:0:0:0:
193,86,164902,5,2,1:2:0:0:
142,237,165075,2,0,L|135:141,1,86.3999973632813,2|8,1:2|0:2,0:0:0:0:
189,320,165419,6,0,P|148:332|106:325,1,86.3999973632813,2|0,1:2|1:2,0:0:0:0:
237,237,165764,2,0,P|278:224|321:232,1,86.3999973632813,2|8,1:2|0:2,0:0:0:0:
193,86,166109,2,0,P|154:66|111:66,1,86.3999973632813,2|0,1:2|0:2,0:0:0:0:
135,211,166454,5,2,1:2:0:0:
193,86,166626,1,8,0:2:0:0:
319,231,166799,1,8,0:2:0:0:
468,86,166971,6,0,P|411:134|347:106,1,129.599996044922,2|0,1:2|0:2,0:0:0:0:
347,106,167316,2,0,L|339:-5,1,86.3999973632813,10|0,0:2|0:2,0:0:0:0:
193,86,167661,5,2,1:2:0:0:
238,244,167833,2,0,L|232:157,1,86.3999973632813,2|8,1:2|0:2,0:0:0:0:
137,28,168178,5,2,0:2:0:0:
137,28,168264,1,2,0:2:0:0:
137,28,168350,1,2,0:2:0:0:
82,183,168523,2,0,P|40:193|-4:178,1,86.3999973632813,2|8,1:2|0:2,0:0:0:0:
193,86,168868,2,0,P|235:76|279:91,1,86.3999973632813,2|0,1:2|0:2,0:0:0:0:
378,228,169212,5,2,1:1:0:0:
232,157,169385,1,10,0:1:0:0:
155,316,169557,1,10,0:1:0:0:
146,336,169643,1,8,0:2:0:0:
136,355,169730,6,0,P|114:357|91:352,2,43.1999986816407,2|2|2,0:1|0:2|0:2,0:0:0:0:
248,274,170075,5,10,0:2:0:0:
378,228,170247,2,0,P|420:223|462:231,1,86.3999973632813,2|2,1:1|1:2,0:0:0:0:
275,88,170592,5,10,0:2:0:0:
248,274,170764,1,10,0:1:0:0:
149,100,170937,6,0,P|199:142|275:73,1,172.799994726563,2|0,0:2|0:2,0:0:0:0:
316,23,171368,1,8,0:2:0:0:
337,19,171454,2,0,P|380:19|420:33,2,86.3999973632813,8|0|0,0:2|1:2|1:2,0:0:0:0:
149,100,171971,5,2,1:2:0:0:
202,11,172143,1,10,0:1:0:0:
149,100,172316,6,0,P|107:110|65:106,1,86.3999973632813,10|0,2:3|0:2,0:0:0:0:
0,208,172661,2,0,P|41:197|83:201,1,86.3999973632813,6|0,2:3|1:2,0:0:0:0:
216,341,173006,5,10,0:1:0:0:
216,341,173092,1,10,0:2:0:0:
216,341,173178,1,10,0:2:0:0:
290,175,173350,5,10,0:1:0:0:
296,168,173437,1,8,0:2:0:0:
302,162,173523,1,10,0:2:0:0:
308,155,173609,1,8,0:2:0:0:
315,149,173695,1,10,0:2:0:0:
321,143,173781,1,8,0:2:0:0:
327,136,173868,6,2,B|354:84|424:74|479:120|481:201|421:235|373:226|373:226|401:286|355:352|355:352|396:315|418:305|456:304|497:325,1,576,0|0,0:2|0:2,1:2:0:0:
258,271,175247,6,0,B|196:266|196:266|144:294|144:294|85:289,1,180,6|0,1:2|0:2,0:0:0:0:
11,225,175592,2,0,L|2:97,1,120,10|0,0:2|0:2,0:0:0:0:
163,283,175937,5,2,1:2:0:0:
251,165,176109,2,0,P|263:106|273:47,1,120,2|8,1:2|0:2,0:0:0:0:
386,249,176454,6,0,P|373:190|363:131,1,120,2|0,1:2|0:2,0:0:0:0:
349,345,176799,1,2,1:2:0:0:
251,165,176971,1,8,0:2:0:0:
195,337,177143,1,2,0:2:0:0:
273,156,177316,5,2,0:2:0:0:
107,277,177488,1,2,1:2:0:0:
299,242,177661,1,10,0:2:0:0:
135,168,177833,1,2,1:2:0:0:
326,351,178006,6,0,P|407:267|358:146,2,240,0|8|0,1:2|0:2|1:2,0:0:0:0:
326,351,178868,1,0,1:2:0:0:
179,247,179040,1,8,0:2:0:0:
374,159,179212,5,2,1:2:0:0:
227,55,179385,2,0,L|69:43,1,120,2|0,1:2|0:2,0:0:0:0:
33,326,179730,5,10,0:2:0:0:
18,39,179902,1,2,1:2:0:0:
18,39,180247,5,2,1:2:0:0:
225,134,180419,1,10,0:2:0:0:
0,183,180592,1,2,1:2:0:0:
247,141,180764,6,0,B|277:102|282:49|266:18|266:18|254:33|253:49|257:64,1,180,6|0,1:2|0:2,0:0:0:0:
347,105,181109,2,0,L|465:113,1,120,10|0,0:2|0:2,0:0:0:0:
379,328,181454,5,2,1:2:0:0:
244,225,181626,2,0,L|362:216,1,120,2|8,1:2|0:2,0:0:0:0:
171,29,181971,6,0,P|106:60|53:61,1,120,2|0,1:1|0:2,0:0:0:0:
244,225,182316,2,0,P|191:197|131:192,1,120,2|8,1:2|0:2,0:0:0:0:
470,171,182661,6,0,P|412:182|362:216,1,120,2|0,1:1|0:2,0:0:0:0:
176,33,183006,1,2,1:2:0:0:
176,33,183178,2,0,P|231:52|292:48,1,120,8|0,0:2|1:2,0:0:0:0:
423,308,183523,6,0,P|357:214|243:224,2,240,2|8|0,1:2|0:2|1:2,0:0:0:0:
423,308,184385,1,0,1:2:0:0:
371,79,184557,1,10,0:2:0:0:
243,224,184730,5,2,1:2:0:0:
389,64,184902,2,0,P|448:56|514:92,1,120,2|0,1:1|1:2,0:0:0:0:
225,239,185247,5,10,0:2:0:0:
411,57,185419,2,0,P|471:62|528:109,1,120,2|0,1:1|0:2,0:0:0:0:
402,292,185764,5,2,1:2:0:0:
277,100,185937,1,10,0:2:0:0:
155,326,186109,1,10,0:2:0:0:
143,346,186195,1,8,0:2:0:0:
131,366,186281,6,0,L|114:175,1,180,6|0,1:2|0:2,0:0:0:0:
52,126,186626,2,0,B|110:141|110:141|163:111,1,120,10|0,0:2|0:2,0:0:0:0:
131,366,186971,5,2,1:2:0:0:
237,243,187143,2,0,P|292:223|350:235,1,120,2|8,1:2|0:2,0:0:0:0:
512,110,187488,6,0,P|466:71|448:15,1,120,2|0,1:2|0:2,0:0:0:0:
350,235,187833,1,2,1:2:0:0:
319,19,188006,1,8,0:2:0:0:
443,186,188178,1,2,0:2:0:0:
295,18,188350,5,2,0:2:0:0:
512,110,188523,1,2,1:2:0:0:
291,136,188695,1,10,0:2:0:0:
448,15,188868,1,2,1:2:0:0:
436,292,189040,6,0,B|379:324|305:293|344:274|267:234|210:270,2,240,0|8|0,1:2|0:2|1:2,0:0:0:0:
436,292,189902,1,0,1:2:0:0:
257,354,190075,1,8,0:2:0:0:
388,208,190247,5,2,1:2:0:0:
211,269,190419,2,0,L|83:260,1,120,2|0,1:2|0:2,0:0:0:0:
388,208,190764,5,10,0:2:0:0:
157,178,190937,2,0,P|106:102|143:14,1,192,2|2,1:2|1:2,0:0:0:0:
416,21,191454,5,10,0:2:0:0:
201,91,191626,1,10,0:2:0:0:
416,21,191799,1,4,1:2:0:0:
376,261,191971,6,0,P|316:280|256:265,1,120,2|8,0:2|0:2,0:0:0:0:
416,21,192316,2,0,P|475:1|536:17,1,120,2|0,0:2|1:2,0:0:0:0:
261,267,192661,5,10,0:2:0:0:
265,13,192833,5,10,0:2:0:0:
483,143,193006,5,14,0:1:0:0:
483,143,193350,6,2,B|453:132|436:102|436:102|415:127|369:132|340:108|340:108|317:101|302:111|302:111|282:132|247:139|247:139|280:136|307:153,1,316.800009667969,2|0,0:2|0:2,1:2:0:0:
314,158,194040,6,0,B|289:136|247:139|247:139|213:155|176:143,1,144.000005493164,10|4,0:3|0:3,0:0:0:0:
176,143,194557,6,0,B|160:213|196:201|177:287,1,144,6|0,0:1|0:0,0:0:0:0:
122,340,194902,2,0,L|56:344,2,48,10|2|2,0:0|0:0|0:0,0:0:0:0:
256,174,195247,5,2,1:2:0:0:
99,254,195419,1,0,1:2:0:0:
246,349,195592,1,10,0:0:0:0:
99,254,195764,6,0,B|80:207|80:207|91:51,1,192,2|2,1:1|0:0,0:0:0:0:
90,66,196195,1,2,0:0:0:0:
90,66,196281,1,10,0:0:0:0:
256,174,196454,5,0,1:0:0:0:
99,254,196626,1,2,0:0:0:0:
199,100,196799,1,0,1:0:0:0:
272,267,196971,1,10,0:0:0:0:
454,124,197143,5,2,1:2:0:0:
454,124,197230,1,2,0:2:0:0:
454,124,197316,2,0,B|433:88|433:88|422:212,1,144,2|0,1:1|0:0,0:0:0:0:
465,258,197661,2,0,P|488:256|512:261,2,48,10|2|2,0:0|0:0|0:0,0:0:0:0:
309,366,198006,5,2,1:2:0:0:
338,203,198178,1,0,1:2:0:0:
407,368,198350,1,10,0:2:0:0:
272,267,198523,1,0,1:2:0:0:
465,258,198695,5,2,1:1:0:0:
286,280,198868,1,0,1:2:0:0:
423,357,199040,1,10,1:2:0:0:
356,208,199212,1,0,1:2:0:0:
222,346,199385,5,2,1:1:0:0:
259,197,199557,1,2,1:0:0:0:
411,341,199730,1,10,0:1:0:0:
368,192,199902,1,10,0:0:0:0:
207,358,200075,6,0,B|98:351|98:351|149:324,1,144,2|0,1:1|0:0,0:0:0:0:
160,265,200419,2,0,P|165:239|163:217,2,48,10|2|2,0:0|0:0|0:0,0:0:0:0:
17,371,200764,5,2,1:2:0:0:
21,188,200937,1,0,1:2:0:0:
129,335,201109,1,10,0:0:0:0:
21,188,201281,6,0,B|5:168|0:146|0:146|14:100|6:50|6:50|13:79|26:94,1,192,2|2,1:1|0:0,0:0:0:0:
25,94,201712,1,2,0:0:0:0:
25,94,201799,1,10,0:0:0:0:
169,263,201971,5,0,1:0:0:0:
21,188,202143,1,2,0:0:0:0:
160,97,202316,1,0,1:0:0:0:
169,263,202488,1,10,0:0:0:0:
292,83,202661,5,10,0:2:0:0:
292,83,202747,1,8,0:0:0:0:
292,83,202833,2,0,B|336:57|385:69|385:69|427:103|478:95,1,192,2|8,1:1|0:0,0:0:0:0:
355,260,203350,2,0,P|348:212|347:164,1,96,10|4,0:3|0:3,0:0:0:0:
455,0,203695,5,10,0:0:0:0:
347,164,203868,1,10,0:0:0:0:
194,35,204040,6,0,P|146:28|98:27,1,96,2|8,1:1|0:0,0:0:0:0:
259,252,204385,2,0,P|306:258|354:259,1,96,2|0,1:1|1:0,0:0:0:0:
138,153,204730,5,2,1:1:0:0:
116,290,204902,2,0,P|114:312|112:337,1,48,2|2,0:0|0:0,0:0:0:0:
259,252,205075,5,10,0:2:0:0:
266,239,205161,1,8,0:2:0:0:
273,226,205247,1,10,0:2:0:0:
280,213,205333,1,8,0:2:0:0:
287,200,205419,1,10,2:3:0:0:
262,21,205592,5,6,1:1:0:0:
138,153,205764,1,8,0:0:0:0:
317,113,205937,1,2,1:1:0:0:
317,113,206023,1,2,0:2:0:0:
317,113,206109,1,10,0:2:0:0:
151,47,206281,5,2,1:0:0:0:
287,200,206454,1,10,0:2:0:0:
262,21,206626,5,2,1:1:0:0:
192,229,206799,2,0,P|138:241|87:224,1,110.400002105713,10|0,0:2|1:0,0:0:0:0:
324,120,207143,5,10,2:1:0:0:
324,120,207230,1,2,0:0:0:0:
324,120,207316,1,2,1:2:0:0:
363,314,207488,1,10,0:0:0:0:
428,118,207661,5,2,1:0:0:0:
339,314,207833,1,10,0:0:0:0:
498,196,208006,5,2,1:0:0:0:
315,314,208178,1,10,0:0:0:0:
428,118,208350,5,2,1:0:0:0:
433,347,208523,1,8,0:0:0:0:
331,127,208695,1,2,1:1:0:0:
331,127,208781,1,2,0:0:0:0:
331,127,208868,1,10,0:0:0:0:
291,314,209040,5,2,1:0:0:0:
428,118,209212,1,10,0:0:0:0:
481,283,209385,5,2,1:0:0:0:
254,185,209557,2,0,P|234:134|248:80,1,110.400002105713,10|0,0:0|1:0,0:0:0:0:
453,25,209902,5,10,0:0:0:0:
247,81,210075,1,2,1:0:0:0:
443,135,210247,1,10,0:0:0:0:
261,192,210419,5,2,1:0:0:0:
261,192,210506,1,2,0:0:0:0:
261,192,210592,1,10,0:0:0:0:
340,20,210764,1,2,1:0:0:0:
457,246,210937,1,10,0:0:0:0:
247,81,211109,5,2,1:0:0:0:
218,303,211281,1,8,0:0:0:0:
41,167,211454,1,2,1:0:0:0:
41,167,211540,1,2,0:0:0:0:
41,167,211626,1,10,0:0:0:0:
261,192,211799,5,2,1:0:0:0:
41,265,211971,1,10,0:0:0:0:
95,87,212143,5,2,1:0:0:0:
218,303,212316,2,0,B|259:321|302:306|302:306|260:338,1,124.79999428711,10|0,0:0|1:0,0:0:0:0:
49,174,212661,5,10,0:1:0:0:
49,174,212747,1,2,0:0:0:0:
49,174,212833,1,2,1:2:0:0:
319,129,213006,1,10,0:0:0:0:
43,267,213178,5,2,1:0:0:0:
264,51,213350,1,10,0:0:0:0:
96,343,213523,5,2,1:0:0:0:
182,26,213695,1,10,0:0:0:0:
182,26,213781,1,10,0:0:0:0:
182,26,213868,2,0,B|187:62|187:62|181:148,1,115.199996484375,2|0,1:0|0:0,0:0:0:0:
0,28,214212,5,8,0:0:0:0:
182,140,214385,2,0,L|171:283,1,105.600003222656,10|4,0:3|0:3,0:0:0:0:
281,361,214730,5,10,0:0:0:0:
174,245,214902,1,10,0:0:0:0:
327,210,215075,2,0,P|379:203|454:201,1,96,2|0,1:1|0:0,0:0:0:0:
261,48,215419,5,10,0:1:0:0:
261,48,215506,1,10,0:0:0:0:
261,48,215592,1,10,0:0:0:0:
174,245,215764,1,2,1:1:0:0:
153,77,215937,6,0,P|148:58|152:21,1,48,2|2,0:2|0:0,0:0:0:0:
300,137,216109,1,8,0:3:0:0:
177,240,216281,5,10,0:1:0:0:
261,48,216454,1,10,0:3:0:0:
357,291,216626,5,6,1:2:0:0:
256,192,216712,12,12,219212,0:3:0:0:
