osu file format v14

[General]
AudioFilename: audio.mp3
AudioLeadIn: 0
PreviewTime: 130613
Countdown: 0
SampleSet: Soft
StackLeniency: 0.7
Mode: 0
LetterboxInBreaks: 0
WidescreenStoryboard: 0

[Editor]
DistanceSpacing: 1.2
BeatDivisor: 4
GridSize: 8
TimelineZoom: 1.6

[Metadata]
Title:Mousou Sketch
TitleUnicode:妄想スケッチ
Artist:yuikonnu
ArtistUnicode:ゆいこんぬ
Creator:Lasse
Version:Hard
Source:
Tags:utaite cover delusion 40mP 40Meter-P Nijiiro Chocolatier 虹色ショコラティエ yuiko
BeatmapID:1226344
BeatmapSetID:577217

[Difficulty]
HPDrainRate:5
CircleSize:3.6
OverallDifficulty:6
ApproachRate:7.5
SliderMultiplier:1.44
SliderTickRate:1

[Events]
//Background and Video events
0,0,"bg.jpg",0,0
//Break Periods
2,150419,159077
//Storyboard Layer 0 (Background)
//Storyboard Layer 1 (Fail)
//Storyboard Layer 2 (Pass)
//Storyboard Layer 3 (Foreground)
//Storyboard Sound Samples

[TimingPoints]
75,344.827586206897,4,2,1,50,1,0
419,-133.333333333333,4,2,1,50,0,0
1109,-133.333333333333,4,2,1,50,0,0
1454,-100,4,2,1,65,0,0
1712,-100,4,2,99,5,0,0
1799,-100,4,2,1,65,0,0
4471,-100,4,2,99,5,0,0
4557,-100,4,2,1,65,0,0
7230,-100,4,2,99,5,0,0
7316,-100,4,2,1,65,0,0
11109,-100,4,2,1,30,0,0
11281,-100,4,2,1,65,0,0
12488,-125,4,2,1,60,0,0
12747,-125,4,2,99,5,0,0
12833,-125,4,2,1,60,0,0
15506,-125,4,2,99,5,0,0
15592,-125,4,2,1,60,0,0
16712,-125,4,2,99,5,0,0
16799,-125,4,2,1,60,0,0
19471,-125,4,2,99,5,0,0
19557,-125,4,2,1,60,0,0
20764,-100,4,2,1,62,0,0
21281,-100,4,2,1,64,0,0
21799,-100,4,2,1,66,0,0
22057,-100,4,2,99,5,0,0
22143,-100,4,2,1,68,0,0
22833,-100,4,2,1,70,0,0
23006,-100,4,2,1,60,0,0
23523,-125,4,2,1,60,0,0
23781,-125,4,2,99,5,0,0
23867,-125,4,2,1,60,0,0
26540,-125,4,2,99,5,0,0
26626,-125,4,2,1,60,0,0
27747,-125,4,2,99,5,0,0
27833,-125,4,2,1,60,0,0
30506,-125,4,2,99,5,0,0
30592,-125,4,2,1,60,0,0
31799,-100,4,2,1,62,0,0
32316,-100,4,2,1,64,0,0
32833,-100,4,2,1,66,0,0
33350,-100,4,2,1,68,0,0
33609,-100,4,2,99,5,0,0
33695,-100,4,2,1,68,0,0
33868,-100,4,2,1,70,0,0
34040,-100,4,2,1,60,0,0
34385,-100,4,2,1,57,0,0
34471,-100,4,2,1,53,0,0
34557,-166.666666666667,4,2,2,50,0,0
51109,-133.333333333333,4,2,3,55,0,0
53350,-133.333333333333,4,2,1,55,0,0
53523,-133.333333333333,4,2,3,55,0,0
53868,-100,4,2,1,60,0,0
55075,-90.9090909090909,4,2,1,65,0,0
55333,-66.6666666666667,4,2,99,5,0,0
55419,-100,4,2,1,60,0,0
55506,-100,4,2,1,30,0,0
55592,-100,4,2,1,60,0,0
55937,-90.9090909090909,4,2,1,65,0,0
56626,-90.9090909090909,4,2,1,70,0,1
56885,-90.9090909090909,4,2,99,5,0,1
56971,-90.9090909090909,4,2,1,70,0,1
61626,-111.111111111111,4,2,1,65,0,0
62143,-90.9090909090909,4,2,1,70,0,1
62402,-90.9090909090909,4,2,99,5,0,1
62488,-90.9090909090909,4,2,1,70,0,1
67143,-90.9090909090909,4,2,1,65,0,0
67661,-90.9090909090909,4,2,1,70,0,1
67919,-90.9090909090909,4,2,99,5,0,1
68006,-90.9090909090909,4,2,1,70,0,1
72316,-90.9090909090909,4,2,1,70,0,1
72833,-90.9090909090909,4,2,1,70,0,1
74040,-90.9090909090909,4,2,1,71,0,1
74212,-90.9090909090909,4,2,1,72,0,1
74385,-90.9090909090909,4,2,1,74,0,1
74557,-133.333333333333,4,2,1,76,0,0
75937,-100,4,2,1,65,0,0
76195,-100,4,2,99,5,0,0
76281,-100,4,2,1,65,0,0
78954,-100,4,2,99,5,0,0
79040,-100,4,2,1,65,0,0
81712,-100,4,2,99,5,0,0
81799,-100,4,2,1,65,0,0
85592,-100,4,2,1,30,0,0
85764,-100,4,2,1,65,0,0
86971,-125,4,2,1,60,0,0
87230,-125,4,2,99,5,0,0
87316,-125,4,2,1,60,0,0
89988,-125,4,2,99,5,0,0
90075,-125,4,2,1,60,0,0
91195,-125,4,2,99,5,0,0
91281,-125,4,2,1,60,0,0
93954,-125,4,2,99,5,0,0
94040,-125,4,2,1,60,0,0
95247,-100,4,2,1,62,0,0
95764,-100,4,2,1,64,0,0
96281,-100,4,2,1,66,0,0
96540,-100,4,2,99,5,0,0
96626,-100,4,2,1,68,0,0
97316,-100,4,2,1,70,0,0
97488,-100,4,2,1,60,0,0
98006,-125,4,2,1,60,0,0
98264,-125,4,2,99,5,0,0
98350,-125,4,2,1,60,0,0
101023,-125,4,2,99,5,0,0
101109,-125,4,2,1,60,0,0
102230,-125,4,2,99,5,0,0
102316,-125,4,2,1,60,0,0
104988,-125,4,2,99,5,0,0
105075,-125,4,2,1,60,0,0
106281,-100,4,2,1,62,0,0
106799,-100,4,2,1,64,0,0
107316,-100,4,2,1,66,0,0
107833,-100,4,2,1,68,0,0
108178,-100,4,2,1,68,0,0
108350,-100,4,2,1,70,0,0
108523,-100,4,2,1,60,0,0
108868,-100,4,2,1,57,0,0
108954,-100,4,2,1,53,0,0
109040,-166.666666666667,4,2,2,50,0,0
125592,-133.333333333333,4,2,3,55,0,0
127488,-133.333333333333,4,2,2,55,0,0
127833,-133.333333333333,4,2,1,55,0,0
128006,-133.333333333333,4,2,3,55,0,0
128178,-133.333333333333,4,2,1,55,0,0
128350,-100,4,2,1,60,0,0
129557,-90.9090909090909,4,2,1,65,0,0
129816,-66.6666666666667,4,2,99,5,0,0
129902,-100,4,2,1,60,0,0
129988,-100,4,2,1,30,0,0
130075,-100,4,2,1,60,0,0
130419,-100,4,2,1,65,0,0
131109,-90.9090909090909,4,2,1,70,0,1
131368,-90.9090909090909,4,2,99,5,0,1
131454,-90.9090909090909,4,2,1,70,0,1
136109,-111.111111111111,4,2,1,65,0,0
136626,-90.9090909090909,4,2,1,70,0,1
136885,-90.9090909090909,4,2,99,5,0,1
136971,-90.9090909090909,4,2,1,70,0,1
141626,-90.9090909090909,4,2,1,65,0,0
142143,-90.9090909090909,4,2,1,70,0,1
142402,-90.9090909090909,4,2,99,5,0,1
142488,-90.9090909090909,4,2,1,70,0,1
146799,-90.9090909090909,4,2,1,70,0,1
147316,-90.9090909090909,4,2,1,70,0,1
148523,-90.9090909090909,4,2,1,71,0,1
148695,-90.9090909090909,4,2,1,72,0,1
148868,-90.9090909090909,4,2,1,74,0,1
149040,-133.333333333333,4,2,1,76,0,0
149385,-133.333333333333,4,2,1,50,0,0
159902,-125,4,2,1,55,0,0
160247,-125,4,2,1,55,0,0
160592,-125,4,2,1,60,0,0
161109,-125,4,2,1,60,0,0
161454,-111.111111111111,4,2,1,65,0,0
161712,-111.111111111111,4,2,99,5,0,0
161799,-111.111111111111,4,2,1,65,0,0
167230,-111.111111111111,4,2,99,5,0,0
167316,-111.111111111111,4,2,1,65,0,0
173868,-99.9999999999999,4,2,1,40,0,0
173954,-99.9999999999999,4,2,1,5,0,0
174902,-99.9999999999999,4,2,99,5,0,0
175247,-90.9090909090909,4,2,1,70,0,1
175506,-90.9090909090909,4,2,99,5,0,1
175592,-90.9090909090909,4,2,1,70,0,1
180247,-111.111111111111,4,2,1,65,0,0
180764,-90.9090909090909,4,2,1,70,0,1
181023,-90.9090909090909,4,2,99,5,0,1
181109,-90.9090909090909,4,2,1,70,0,1
185764,-90.9090909090909,4,2,1,65,0,0
186281,-90.9090909090909,4,2,1,70,0,1
186540,-90.9090909090909,4,2,99,5,0,1
186626,-90.9090909090909,4,2,1,70,0,1
190937,-90.9090909090909,4,2,1,70,0,1
191454,-90.9090909090909,4,2,1,70,0,1
192661,-90.9090909090909,4,2,1,72,0,1
192833,-90.9090909090909,4,2,1,74,0,1
193006,-90.9090909090909,4,2,1,76,0,0
193350,-100,4,2,1,55,0,0
193437,-90.9090909090909,4,2,1,5,0,0
193868,-90.9090909090909,4,2,99,25,0,0
194040,-76.9230769230769,4,2,1,45,0,0
194212,-76.9230769230769,4,2,1,70,0,0
194557,-100,4,2,1,65,0,0
194816,-100,4,2,99,5,0,0
194902,-100,4,2,1,65,0,0
197575,-100,4,2,99,5,0,0
197661,-100,4,2,1,65,0,0
200333,-100,4,2,99,5,0,0
200419,-100,4,2,1,65,0,0
205592,-95.2380952380952,4,2,1,70,0,0
211109,-95.2380952380952,4,2,1,75,0,0
213868,-100,4,2,1,74,0,0
214385,-100,4,2,1,73,0,0
215075,-100,4,2,1,72,0,0
215247,-100,4,2,1,30,0,0
215419,-100,4,2,1,71,0,0
216626,-100,4,2,1,70,0,0
216712,-133.333333333333,4,2,1,60,0,0
216799,-133.333333333333,4,2,1,55,0,0
216971,-133.333333333333,4,2,1,50,0,0
217143,-133.333333333333,4,2,1,45,0,0
217316,-133.333333333333,4,2,1,40,0,0
217488,-133.333333333333,4,2,1,35,0,0
217661,-133.333333333333,4,2,1,30,0,0
217833,-133.333333333333,4,2,1,25,0,0
218006,-133.333333333333,4,2,1,20,0,0
218178,-133.333333333333,4,2,1,15,0,0
218350,-133.333333333333,4,2,1,10,0,0
218523,-133.333333333333,4,2,1,5,0,0
219212,-200,4,2,1,40,0,0

[Colours]
Combo1 : 220,110,130
Combo2 : 240,150,100
Combo3 : 250,200,120
Combo4 : 240,240,130
Combo5 : 140,210,140
Combo6 : 190,240,220
Combo7 : 130,170,190
Combo8 : 140,120,160

[HitObjects]
197,100,419,6,0,L|157:103,2,27.0000010299683,8|8|8,0:0|0:0|0:3,0:0:0:0:
309,51,937,1,8,0:3:0:0:
309,51,1109,2,0,L|363:55,1,54.0000020599366,8|8,0:0|0:3,0:0:0:0:
456,27,1454,6,0,B|469:106|427:94|446:167,1,144,6|10,0:1|0:0,0:0:0:0:
452,255,1971,1,2,0:0:0:0:
375,215,2143,2,0,P|340:212|306:222,1,72,2|0,1:2|1:2,0:0:0:0:
230,265,2488,1,10,0:0:0:0:
195,185,2661,6,0,L|184:41,1,144,2|2,1:1|0:0,0:0:0:0:
169,51,3092,1,2,0:0:0:0:
155,62,3178,2,0,P|120:71|86:58,1,72,10|0,0:0|1:0,0:0:0:0:
5,86,3523,2,0,P|30:111|36:147,1,72,2|0,0:0|1:0,0:0:0:0:
91,213,3868,2,0,P|66:238|59:273,1,72,10|2,0:0|1:2,0:0:0:0:
64,290,4126,1,2,0:2:0:0:
72,305,4212,6,0,L|239:316,1,144,2|10,1:1|0:0,0:0:0:0:
291,357,4730,1,2,0:0:0:0:
359,305,4902,2,0,L|365:217,1,72,2|0,1:2|1:2,0:0:0:0:
432,181,5247,1,10,0:2:0:0:
353,149,5419,6,0,L|209:138,1,144,0|0,1:2|1:2,0:0:0:0:
139,85,5937,2,0,P|165:62|199:51,1,72,10|0,1:2|1:2,0:0:0:0:
286,57,6281,2,0,L|379:64,1,72,2|2,1:1|1:0,0:0:0:0:
435,24,6626,1,10,0:1:0:0:
495,86,6799,1,10,0:0:0:0:
453,163,6971,6,0,B|442:199|442:199|473:246|444:300,1,144,2|10,1:1|0:0,0:0:0:0:
385,363,7488,1,2,0:0:0:0:
300,343,7661,2,0,L|205:337,1,72,2|0,1:2|1:2,0:0:0:0:
144,360,8006,1,10,0:0:0:0:
83,297,8178,6,0,B|72:261|72:261|103:214|74:160,1,144,2|2,1:1|0:0,0:0:0:0:
58,151,8609,1,2,0:0:0:0:
43,139,8695,2,0,P|34:104|38:68,1,72,10|0,0:0|1:0,0:0:0:0:
110,20,9040,2,0,L|189:14,1,72,2|0,0:0|1:0,0:0:0:0:
260,52,9385,1,10,0:0:0:0:
255,138,9557,1,10,0:2:0:0:
251,155,9643,1,8,0:0:0:0:
249,173,9730,6,0,B|256:283|256:283|284:246,1,144,2|8,1:1|0:0,0:0:0:0:
334,193,10247,1,10,0:3:0:0:
165,233,10592,1,10,0:0:0:0:
165,233,10764,1,10,0:0:0:0:
131,154,10937,6,0,P|82:117|0:138,1,144,2|10,1:1|0:1,0:0:0:0:
2,150,11368,1,10,0:0:0:0:
1,167,11454,2,0,L|-5:254,1,72,10|2,0:0|1:1,0:0:0:0:
3,325,11799,2,0,P|44:308|83:308,1,72,2|8,0:2|0:3,0:0:0:0:
157,313,12143,2,0,P|198:329|225:357,1,72,10|10,0:1|0:3,0:0:0:0:
315,363,12488,6,0,P|300:309|317:255,1,115.2,6|10,1:2|0:2,0:0:0:0:
439,148,13178,1,0,1:2:0:0:
439,148,13350,2,0,P|446:94|439:68,1,57.6,2|8,1:2|0:2,0:0:0:0:
394,29,13695,5,2,1:2:0:0:
238,70,14040,2,0,L|158:64,1,57.6,2|8,1:2|0:2,0:0:0:0:
107,31,14385,1,2,1:2:0:0:
35,175,14730,2,0,L|29:254,2,57.6,2|8|0,1:2|0:2|0:2,0:0:0:0:
2,100,15247,5,2,1:2:0:0:
118,212,15592,1,10,0:2:0:0:
180,65,15937,1,0,1:2:0:0:
180,65,16109,2,0,L|243:69,1,57.6,2|8,1:2|0:2,0:0:0:0:
303,22,16454,6,0,P|278:74|291:130,1,115.2,2|2,1:2|1:2,0:0:0:0:
343,189,16971,2,0,P|352:218|350:253,1,57.6,8|0,0:2|1:2,0:0:0:0:
315,319,17316,1,2,0:2:0:0:
315,319,17488,2,0,L|251:314,1,57.6,10|0,0:2|1:2,0:0:0:0:
185,351,17833,2,0,L|121:346,1,57.6,10|0,0:2|1:2,0:0:0:0:
0,247,18350,5,10,0:2:0:0:
154,191,18695,1,0,1:2:0:0:
154,191,18868,2,0,P|160:155|155:116,1,57.6,2|8,1:2|0:2,0:0:0:0:
116,65,19212,1,2,1:2:0:0:
272,25,19557,2,0,L|355:19,1,57.6,2|8,1:2|0:2,0:0:0:0:
397,62,19902,2,0,P|392:90|393:118,1,57.6,2|0,1:2|0:2,0:0:0:0:
430,191,20247,2,0,P|433:218|431:247,1,57.6,2|8,1:2|0:2,0:0:0:0:
369,299,20592,1,8,0:2:0:0:
351,296,20678,1,8,0:2:0:0:
333,293,20764,6,0,B|282:284|282:284|180:315,1,144,6|2,1:2|0:2,0:0:0:0:
105,343,21281,2,0,B|113:292|113:292|83:189,1,144,2|2,1:2|0:2,0:0:0:0:
55,115,21799,2,0,B|106:123|106:123|208:93,1,144,2|2,1:2|0:2,0:0:0:0:
283,65,22316,2,0,B|274:116|274:116|305:218,1,144,2|2,1:2|0:2,0:0:0:0:
384,246,22833,6,0,L|471:239,1,72,10|0,0:2|1:2,0:0:0:0:
505,320,23178,2,0,L|417:326,1,72,10|8,0:2|0:2,0:0:0:0:
418,336,23437,1,8,0:2:0:0:
402,346,23523,6,0,B|363:348|363:348|320:339|320:339|283:342,1,115.2,6|10,1:2|0:2,0:0:0:0:
127,357,24212,1,0,1:2:0:0:
127,356,24385,2,0,P|132:328|132:299,1,57.6,2|8,1:2|0:2,0:0:0:0:
88,232,24730,5,2,1:2:0:0:
203,119,25075,2,0,P|231:113|260:113,1,57.6,2|8,1:2|0:2,0:0:0:0:
332,148,25419,1,2,1:2:0:0:
474,72,25764,2,0,L|480:-7,2,57.6,2|8|0,1:2|0:2|0:2,0:0:0:0:
492,150,26281,5,2,1:2:0:0:
356,62,26626,1,10,0:2:0:0:
234,168,26971,1,0,1:2:0:0:
234,168,27143,2,0,L|230:231,1,57.6,2|8,1:2|0:2,0:0:0:0:
195,298,27488,6,0,B|156:300|156:300|113:291|113:291|80:293,1,115.2,2|2,1:2|1:2,0:0:0:0:
15,245,28006,2,0,L|11:182,1,57.6,8|0,0:2|1:2,0:0:0:0:
55,120,28350,1,2,0:2:0:0:
55,120,28523,2,0,L|59:57,1,57.6,10|0,0:2|1:2,0:0:0:0:
129,24,28868,2,0,P|156:26|193:19,1,57.6,10|0,0:2|1:2,0:0:0:0:
336,79,29385,5,10,0:2:0:0:
215,184,29730,1,0,1:2:0:0:
215,184,29902,2,0,P|209:220|214:259,1,57.6,2|8,1:2|0:2,0:0:0:0:
261,302,30247,1,2,1:2:0:0:
402,223,30592,2,0,P|430:217|458:218,1,57.6,2|8,1:2|0:2,0:0:0:0:
511,157,30937,2,0,P|505:128|506:100,1,57.6,2|0,1:2|0:2,0:0:0:0:
445,48,31281,2,0,P|416:53|388:52,1,57.6,2|8,1:2|0:2,0:0:0:0:
308,39,31626,1,8,0:2:0:0:
290,36,31712,1,8,0:2:0:0:
272,33,31799,6,0,B|200:17|206:56|130:34,1,144,6|2,1:2|1:2,0:0:0:0:
36,24,32316,2,0,B|38:102|73:85|80:158,1,144,10|0,0:2|1:2,0:0:0:0:
104,249,32833,2,0,B|171:219|143:191|217:164,1,144,10|2,0:2|1:2,0:0:0:0:
311,164,33350,2,0,B|385:190|357:218|424:248,1,144,10|2,0:2|1:2,0:0:0:0:
461,341,33868,6,0,P|423:331|366:325,1,72,10|0,0:2|1:2,0:0:0:0:
297,334,34212,2,0,P|263:347|228:356,1,72,10|10,0:2|0:2,0:0:0:0:
208,362,34471,1,8,0:2:0:0:
186,364,34557,6,0,B|99:364,1,86.3999973632813,6|0,0:1|0:2,0:0:0:0:
4,271,35247,1,2,0:2:0:0:
4,271,35419,1,0,1:2:0:0:
141,236,35764,1,2,1:2:0:0:
141,236,35937,2,0,L|189:236,1,43.1999986816407,2|0,0:1|0:2,0:0:0:0:
316,196,36454,1,2,0:2:0:0:
448,156,36799,1,10,0:1:0:0:
351,66,37143,5,0,1:2:0:0:
351,66,37316,2,0,L|262:66,1,86.3999973632813,2|0,0:1|0:2,0:0:0:0:
137,27,38006,1,2,0:2:0:0:
137,27,38178,1,2,1:2:0:0:
55,138,38523,1,0,1:2:0:0:
55,138,38695,2,0,L|55:186,1,43.1999986816407,2|0,0:1|0:2,0:0:0:0:
103,310,39212,1,2,0:2:0:0:
190,203,39557,1,10,0:2:0:0:
239,331,39902,5,0,1:2:0:0:
239,331,40075,2,0,L|335:331,1,86.3999973632813,2|0,0:1|0:2,0:0:0:0:
447,266,40764,1,2,0:2:0:0:
447,266,40937,1,2,1:2:0:0:
327,196,41281,1,2,1:2:0:0:
327,196,41454,2,0,L|269:196,1,43.1999986816407,2|0,0:1|0:2,0:0:0:0:
163,126,41971,1,2,0:2:0:0:
283,58,42316,1,10,0:2:0:0:
288,200,42661,5,0,1:2:0:0:
288,200,42833,2,0,L|288:288,2,86.3999973632813,2|2|2,0:1|0:2|0:2,0:0:0:0:
283,58,43868,1,2,0:2:0:0:
163,126,44212,2,0,L|59:126,1,86.3999973632813,2|2,0:1|0:2,0:0:0:0:
15,70,44730,1,2,1:1:0:0:
0,208,45075,2,0,L|0:264,1,43.1999986816407,10|0,0:1|0:2,0:0:0:0:
163,212,45592,6,0,L|163:117,1,86.3999973632813,2|0,0:2|0:2,0:0:0:0:
77,25,46281,1,2,0:2:0:0:
77,25,46454,2,0,L|21:25,2,43.1999986816407,2|0|0,1:2|0:2|1:0,0:0:0:0:
159,25,46971,2,0,L|215:25,1,43.1999986816407,2|0,0:1|0:2,0:0:0:0:
302,120,47488,1,2,0:2:0:0:
396,19,47833,1,10,0:1:0:0:
501,117,48178,5,0,1:2:0:0:
501,117,48350,1,2,0:1:0:0:
401,217,48695,1,2,0:2:0:0:
401,217,48868,2,0,L|401:322,1,86.3999973632813,2|2,0:2|1:2,0:0:0:0:
278,367,49557,1,2,1:2:0:0:
179,269,49902,1,2,0:1:0:0:
248,151,50247,5,2,0:2:0:0:
248,151,50419,2,0,L|248:103,2,43.1999986816407,2|10|0,0:2|0:1|0:2,0:0:0:0:
179,269,51109,6,0,B|144:273|144:273|110:251|63:269,2,108.000004119873,10|8|8,0:2|0:2|0:2,0:0:0:0:
326,237,52143,1,10,0:2:0:0:
248,107,52488,2,0,P|232:62|249:0,1,108.000004119873,8|8,0:2|0:2,0:0:0:0:
325,54,53006,2,0,P|376:68|427:51,2,108.000004119873,2|10|2,0:2|0:2|1:2,0:0:0:0:
382,154,53868,6,0,P|397:226|371:301,1,144,6|8,1:2|0:2,0:0:0:0:
279,339,54385,2,0,P|244:330|204:327,1,72,2|0,0:2|1:2,0:0:0:0:
118,354,54730,1,2,1:2:0:0:
51,288,54902,1,10,0:2:0:0:
93,203,55075,6,0,B|109:165|109:165|78:99|123:48,1,158.400004833985,6|10,0:1|0:2,0:0:0:0:
188,115,55592,1,4,0:3:0:0:
361,45,55937,1,2,0:1:0:0:
361,45,56626,6,0,B|336:125|385:119|350:203,1,158.400004833985,6|10,1:2|0:2,0:0:0:0:
217,336,57316,1,2,1:2:0:0:
143,276,57488,2,0,P|91:261|42:261,1,79.2000024169923,2|8,1:2|0:2,0:0:0:0:
0,189,57833,6,0,B|20:146|20:146|-2:91|29:37,1,158.400004833985,2|2,1:2|1:2,0:0:0:0:
118,10,58350,1,8,0:2:0:0:
173,87,58523,1,2,0:2:0:0:
263,58,58695,2,0,P|302:45|341:37,1,79.2000024169923,2|2,0:2|1:2,0:0:0:0:
430,65,59040,2,0,P|467:77|506:85,1,79.2000024169923,10|2,0:2|1:2,0:0:0:0:
490,179,59385,6,0,B|469:234|469:234|470:350,2,158.400004833985,0|8|0,1:2|0:2|1:2,0:0:0:0:
506,85,60247,1,0,1:2:0:0:
416,118,60419,1,8,0:2:0:0:
326,85,60592,6,0,B|278:81|278:81|221:93|221:93|169:90,1,158.400004833985,2|0,1:2|0:2,0:0:0:0:
93,31,61109,1,10,0:2:0:0:
79,126,61281,1,2,1:2:0:0:
284,169,61626,6,0,L|348:173,2,64.799998022461,2|10|2,1:2|0:2|1:2,0:0:0:0:
220,240,62143,6,0,P|211:278|208:318,1,79.2000024169923,6|0,1:2|0:0,0:0:0:0:
131,374,62488,2,0,P|128:334|119:295,1,79.2000024169923,10|0,0:2|0:2,0:0:0:0:
43,237,62833,1,2,1:2:0:0:
20,144,63006,2,0,P|22:104|31:65,1,79.2000024169923,2|8,1:2|0:2,0:0:0:0:
116,26,63350,6,0,P|156:24|195:15,1,79.2000024169923,2|0,1:1|0:2,0:0:0:0:
278,59,63695,2,0,P|318:61|357:70,1,79.2000024169923,2|8,1:2|0:2,0:0:0:0:
356,165,64040,2,0,P|317:173|277:175,1,79.2000024169923,2|0,1:1|0:2,0:0:0:0:
201,233,64385,1,2,1:2:0:0:
201,233,64557,2,0,P|162:224|122:222,1,79.2000024169923,8|0,0:2|1:2,0:0:0:0:
39,175,64902,6,0,B|60:97|18:97|45:18,2,158.400004833985,2|8|0,1:2|0:2|1:2,0:0:0:0:
7,363,65937,1,10,0:2:0:0:
7,363,66109,1,2,1:2:0:0:
91,320,66281,6,0,P|157:313|183:319,1,79.2000024169923,2|0,1:1|1:2,0:0:0:0:
251,363,66626,1,10,0:2:0:0:
321,299,66799,2,0,L|333:115,1,158.400004833985,2|2,1:1|1:2,0:0:0:0:
396,70,67316,2,0,P|434:62|470:45,1,79.2000024169923,10|10,0:2|0:2,0:0:0:0:
471,65,67575,1,8,0:2:0:0:
475,84,67661,6,0,L|488:267,1,158.400004833985,6|10,1:2|0:2,0:0:0:0:
339,362,68350,1,2,1:2:0:0:
255,322,68523,2,0,P|216:313|159:315,1,79.2000024169923,2|8,1:2|0:2,0:0:0:0:
82,326,68868,6,0,B|71:331|55:348|55:348|65:212,1,158.400004833985,2|2,1:2|1:2,0:0:0:0:
102,136,69385,1,8,0:2:0:0:
197,124,69557,1,2,0:2:0:0:
254,200,69730,2,0,P|291:210|339:204,1,79.2000024169923,2|2,0:2|1:2,0:0:0:0:
398,138,70075,2,0,L|403:58,1,79.2000024169923,10|2,0:2|1:2,0:0:0:0:
319,15,70419,6,0,B|285:36|285:36|165:28,2,158.400004833985,0|8|0,1:2|0:2|1:2,0:0:0:0:
403,58,71281,1,0,1:2:0:0:
407,152,71454,1,8,0:2:0:0:
327,202,71626,6,0,B|304:236|304:236|336:294|291:364,1,158.400004833985,2|0,1:2|0:2,0:0:0:0:
223,287,72143,1,10,0:2:0:0:
140,341,72316,2,0,P|73:354|11:296,1,158.400004833985,2|2,1:2|1:2,0:0:0:0:
2,201,72833,1,10,0:2:0:0:
2,201,73006,1,10,0:2:0:0:
68,133,73178,6,0,P|72:96|74:48,2,79.2000024169923,4|2|8,1:2|0:2|0:2,0:0:0:0:
120,212,73695,2,0,P|173:157|248:167,1,158.400004833985,2|8,0:2|0:2,0:0:0:0:
314,237,74212,1,10,0:2:0:0:
401,196,74385,1,10,0:2:0:0:
388,100,74557,1,14,0:1:0:0:
511,193,75937,6,0,B|491:239|491:239|484:343,1,144,6|10,0:1|0:0,0:0:0:0:
406,368,76454,1,2,0:0:0:0:
335,316,76626,2,0,P|299:306|265:302,1,72,2|0,1:2|1:2,0:0:0:0:
181,324,76971,1,10,0:0:0:0:
116,254,77143,6,0,B|91:222|91:222|78:169|108:119,1,144,2|2,1:1|0:0,0:0:0:0:
122,115,77575,1,2,0:0:0:0:
139,114,77661,2,0,P|175:117|212:98,1,72,10|0,0:0|1:0,0:0:0:0:
271,160,78006,2,0,P|291:130|293:88,1,72,2|0,0:0|1:0,0:0:0:0:
376,68,78350,2,0,P|360:35|325:12,1,72,10|2,0:0|1:2,0:0:0:0:
314,11,78609,1,2,0:2:0:0:
296,13,78695,6,0,L|129:24,1,144,2|10,1:1|0:0,0:0:0:0:
66,8,79212,1,2,0:0:0:0:
22,83,79385,2,0,L|16:154,1,72,2|0,1:2|1:2,0:0:0:0:
9,241,79730,1,10,0:2:0:0:
86,203,79902,6,0,B|134:200|134:200|186:211|186:211|231:207,1,144,0|0,1:2|1:2,0:0:0:0:
300,159,80419,2,0,B|334:148|334:148|390:154,1,72,10|0,1:2|1:2,0:0:0:0:
376,238,80764,2,0,B|342:249|342:249|286:243,1,72,2|2,1:1|1:0,0:0:0:0:
228,207,81109,1,10,0:1:0:0:
222,121,81281,1,10,0:0:0:0:
293,72,81454,6,0,B|335:61|335:61|446:76,1,144,2|10,1:1|0:0,0:0:0:0:
505,124,81971,1,2,0:0:0:0:
479,206,82143,2,0,L|472:293,1,72,2|0,1:2|1:2,0:0:0:0:
442,358,82488,1,10,0:0:0:0:
388,290,82661,6,0,B|361:271|324:279|324:279|276:300|237:269,1,144,2|2,1:1|0:0,0:0:0:0:
236,265,83092,1,2,0:0:0:0:
221,254,83178,2,0,P|187:242|151:245,1,72,10|0,0:0|1:0,0:0:0:0:
78,292,83523,2,0,P|42:295|8:283,1,72,2|0,0:0|1:0,0:0:0:0:
52,208,83868,1,10,0:0:0:0:
125,162,84040,1,10,0:2:0:0:
142,158,84126,1,8,0:0:0:0:
158,154,84212,6,0,P|214:148|306:174,1,144,2|8,1:1|0:0,0:0:0:0:
367,223,84730,1,10,0:3:0:0:
479,91,85075,1,10,0:0:0:0:
479,91,85247,1,10,0:0:0:0:
392,89,85419,6,0,P|322:72|262:33,1,144,2|10,1:1|0:1,0:0:0:0:
245,26,85850,1,10,0:0:0:0:
228,19,85937,2,0,P|183:14|133:17,1,72,10|2,0:0|1:1,0:0:0:0:
88,78,86281,2,0,L|82:157,1,72,2|8,0:0|0:3,0:0:0:0:
47,236,86626,2,0,L|52:315,1,72,10|10,0:1|0:3,0:0:0:0:
134,363,86971,6,0,B|160:337|160:337|196:321|244:341,1,115.2,6|10,1:2|0:2,0:0:0:0:
395,367,87661,1,0,1:2:0:0:
395,367,87833,2,0,P|362:371|328:363,1,57.6,2|8,1:2|0:2,0:0:0:0:
304,293,88178,5,2,1:2:0:0:
444,213,88523,2,0,P|477:209|511:217,1,57.6,2|8,1:2|0:2,0:0:0:0:
473,289,88868,1,2,1:2:0:0:
330,216,89212,2,0,P|297:212|263:220,1,57.6,2|8,1:2|0:2,0:0:0:0:
166,337,89730,5,2,1:2:0:0:
45,230,90075,1,10,0:2:0:0:
156,113,90419,1,0,1:2:0:0:
156,113,90592,2,0,P|160:84|156:56,1,57.6,2|8,1:2|0:2,0:0:0:0:
85,16,90937,6,0,B|-2:9|-2:9|11:15|21:24,1,115.2,2|2,1:2|1:2,0:0:0:0:
60,95,91454,2,0,P|64:124|60:152,1,57.6,8|0,0:2|1:2,0:0:0:0:
19,223,91799,1,2,0:2:0:0:
19,223,91971,2,0,P|14:251|18:279,1,57.6,10|0,0:2|1:2,0:0:0:0:
83,327,92316,2,0,L|140:331,1,57.6,10|0,0:2|1:2,0:0:0:0:
297,368,92833,5,10,0:2:0:0:
254,217,93178,1,0,1:2:0:0:
254,217,93350,2,0,L|249:159,1,57.6,2|8,1:2|0:2,0:0:0:0:
244,78,93695,1,2,1:2:0:0:
398,32,94040,2,0,P|425:39|454:41,1,57.6,2|8,1:2|0:2,0:0:0:0:
494,111,94385,2,0,P|495:139|502:167,1,57.6,2|0,1:2|0:2,0:0:0:0:
448,226,94730,2,0,P|421:236|396:251,1,57.6,2|8,1:2|0:2,0:0:0:0:
347,308,95075,1,8,0:2:0:0:
333,318,95161,1,8,0:2:0:0:
319,328,95247,6,0,B|272:347|272:347|224:351|180:315,1,144,6|2,0:2|1:2,0:0:0:0:
103,365,95764,2,0,B|70:326|70:326|51:281|72:228,1,144,10|2,0:2|1:2,0:0:0:0:
1,171,96281,2,0,B|27:128|27:128|64:96|121:99,1,144,10|2,0:2|1:2,0:0:0:0:
153,14,96799,2,0,B|202:26|202:26|243:51|257:106,1,144,10|2,0:2|1:2,0:0:0:0:
301,181,97316,6,0,P|341:189|389:180,1,72,10|0,0:2|1:2,0:0:0:0:
419,266,97661,2,0,P|378:268|334:289,1,72,10|8,0:2|0:2,0:0:0:0:
339,294,97919,1,8,0:2:0:0:
328,308,98006,6,0,B|290:319|290:319|249:298|206:311,1,115.2,6|10,1:2|0:2,0:0:0:0:
63,359,98695,1,0,1:2:0:0:
63,359,98868,2,0,L|58:295,1,57.6,2|8,1:2|0:2,0:0:0:0:
82,224,99212,5,2,1:2:0:0:
6,81,99557,2,0,P|34:86|63:86,1,57.6,2|8,1:2|0:2,0:0:0:0:
134,47,99902,1,2,1:2:0:0:
239,169,100247,2,0,L|234:232,1,57.6,2|8,1:2|0:2,0:0:0:0:
339,348,100764,5,2,1:2:0:0:
476,263,101109,2,0,L|481:199,1,57.6,10|2,0:2|0:2,0:0:0:0:
476,129,101454,1,2,1:2:0:0:
476,129,101626,2,0,L|471:65,1,57.6,2|8,1:2|0:2,0:0:0:0:
404,27,101971,6,0,B|317:20|317:20|340:35,1,115.2,2|2,1:2|1:2,0:0:0:0:
365,112,102488,2,0,L|369:175,1,57.6,8|0,0:2|1:2,0:0:0:0:
332,243,102833,1,2,0:2:0:0:
332,243,103006,2,0,P|291:237|262:238,1,57.6,10|0,0:2|1:2,0:0:0:0:
200,266,103350,2,0,P|171:265|142:260,1,57.6,10|0,0:2|1:2,0:0:0:0:
21,153,103868,6,0,P|26:124|26:95,1,57.6,10|2,0:2|0:2,0:0:0:0:
86,42,104212,1,2,1:2:0:0:
86,42,104385,2,0,P|114:47|143:47,1,57.6,2|8,1:2|0:2,0:0:0:0:
221,26,104730,1,2,1:2:0:0:
279,179,105075,2,0,P|273:207|274:236,1,57.6,2|8,1:2|0:2,0:0:0:0:
324,299,105419,2,0,L|387:303,1,57.6,2|0,1:2|0:2,0:0:0:0:
444,252,105764,2,0,P|449:223|448:194,1,57.6,2|8,1:2|0:2,0:0:0:0:
406,126,106109,1,8,0:2:0:0:
391,116,106195,1,8,0:2:0:0:
377,106,106281,6,0,B|340:102|340:102|289:79|289:79|229:94,1,144,6|2,1:2|1:2,0:0:0:0:
173,24,106799,2,0,B|157:57|157:57|120:99|120:99|116:150,1,144,10|2,0:2|1:2,0:0:0:0:
31,192,107316,2,0,B|58:216|58:216|86:265|86:265|133:284,1,144,10|2,0:2|1:2,0:0:0:0:
157,375,107833,2,0,B|204:355|204:355|231:307|231:307|259:282,1,144,10|2,0:2|1:2,0:0:0:0:
352,266,108350,6,0,L|447:272,1,72,10|0,0:2|1:2,0:0:0:0:
474,191,108695,2,0,L|378:184,1,72,10|8,0:2|0:2,0:0:0:0:
381,178,108954,1,8,0:2:0:0:
358,169,109040,6,0,P|348:136|360:83,1,86.3999973632813,6|0,0:1|0:2,0:0:0:0:
496,53,109730,1,2,0:2:0:0:
496,53,109902,1,0,1:2:0:0:
478,194,110247,1,2,1:2:0:0:
478,194,110419,2,0,L|478:242,1,43.1999986816407,2|0,0:1|0:2,0:0:0:0:
380,334,110937,2,0,B|357:326|357:326|329:335,1,43.1999986816407,10|8,0:3|0:3,0:0:0:0:
266,358,111281,1,10,0:1:0:0:
141,299,111626,5,0,1:2:0:0:
141,299,111799,2,0,L|141:210,1,86.3999973632813,2|0,0:1|0:2,0:0:0:0:
45,111,112488,1,2,0:2:0:0:
45,111,112661,1,2,1:2:0:0:
150,18,113006,1,0,1:2:0:0:
150,18,113178,2,0,L|198:18,1,43.1999986816407,2|0,0:1|0:2,0:0:0:0:
273,130,113695,2,0,B|296:138|296:138|323:126,1,43.1999986816407,10|8,0:3|0:3,0:0:0:0:
381,92,114040,1,10,0:2:0:0:
472,203,114385,5,8,1:3:0:0:
472,203,114557,2,0,L|472:299,1,86.3999973632813,2|0,0:1|0:2,0:0:0:0:
356,365,115247,1,2,0:2:0:0:
356,365,115419,1,2,1:2:0:0:
252,283,115764,1,2,1:2:0:0:
252,283,115937,2,0,L|252:225,1,43.1999986816407,2|0,0:1|0:2,0:0:0:0:
179,121,116454,2,0,B|155:129|155:129|128:120,1,43.1999986816407,10|8,0:3|0:3,0:0:0:0:
71,83,116799,1,10,0:2:0:0:
4,206,117143,5,0,1:2:0:0:
4,206,117316,2,0,L|4:294,2,86.3999973632813,2|2|2,0:1|0:2|0:2,0:0:0:0:
70,84,118350,1,2,0:2:0:0:
192,150,118695,2,0,L|296:150,1,86.3999973632813,2|2,0:1|0:2,0:0:0:0:
346,111,119212,2,0,B|365:104|365:104|394:115,1,43.1999986816407,10|8,0:3|0:3,0:0:0:0:
432,176,119557,2,0,L|432:224,1,43.1999986816407,10|0,0:1|0:2,0:0:0:0:
327,349,120075,6,0,L|232:349,1,86.3999973632813,2|0,0:2|0:2,0:0:0:0:
115,290,120764,1,2,0:2:0:0:
115,290,120937,2,0,L|59:290,2,43.1999986816407,2|0|0,1:2|0:2|1:0,0:0:0:0:
180,239,121454,2,0,L|180:183,1,43.1999986816407,2|0,0:1|0:2,0:0:0:0:
160,58,121971,2,0,B|137:50|137:50|109:59,1,43.1999986816407,10|8,0:3|0:3,0:0:0:0:
50,97,122316,1,10,0:1:0:0:
184,199,122661,5,0,1:2:0:0:
184,199,122833,1,2,0:1:0:0:
260,84,123178,1,2,0:2:0:0:
260,84,123350,2,0,L|364:84,1,86.3999973632813,2|2,0:2|1:2,0:0:0:0:
482,58,124040,1,2,1:2:0:0:
508,194,124385,1,2,0:1:0:0:
372,220,124730,2,0,B|350:226|350:226|329:220,1,43.1999986816407,10|10,0:3|0:3,0:0:0:0:
272,167,125075,1,10,0:1:0:0:
272,167,125247,2,0,L|272:119,1,43.1999986816407,0|0,0:2|1:2,0:0:0:0:
369,100,125592,6,0,B|425:93|416:115|475:109,2,108.000004119873,10|8|8,0:2|0:2|0:2,0:0:0:0:
325,245,126626,1,10,0:2:0:0:
175,204,126971,2,0,P|116:197|55:196,1,108.000004119873,8|8,0:2|0:2,0:0:0:0:
12,128,127488,2,0,B|20:99|20:99|12:76,1,54.0000020599366,10|12,0:3|0:3,0:0:0:0:
85,28,127833,2,0,P|138:34|192:36,1,108.000004119873,10|2,0:2|1:2,0:0:0:0:
309,21,128350,6,0,B|290:59|290:59|282:171,1,144,6|8,1:2|0:2,0:0:0:0:
359,237,128868,2,0,P|400:239|439:253,1,72,2|0,0:2|1:2,0:0:0:0:
379,343,129212,1,2,1:2:0:0:
276,309,129385,1,10,0:2:0:0:
173,343,129557,6,0,B|145:347|125:335|125:335|106:350|106:350|68:328|9:345,1,158.400004833985,6|10,0:1|0:2,0:0:0:0:
68,242,130075,1,4,0:3:0:0:
276,309,130419,1,2,0:1:0:0:
276,309,131109,6,0,B|315:292|315:292|360:313|360:313|432:304,1,158.400004833985,6|10,1:2|0:2,0:0:0:0:
505,131,131799,1,2,1:2:0:0:
412,150,131971,2,0,B|373:146|373:146|335:133,1,79.2000024169923,2|8,1:2|0:2,0:0:0:0:
259,75,132316,6,0,B|220:58|220:58|175:79|175:79|103:70,1,158.400004833985,2|2,1:2|1:2,0:0:0:0:
19,101,132833,1,8,0:2:0:0:
50,191,133006,1,2,0:2:0:0:
140,160,133178,2,0,B|179:160|179:160|218:176,1,79.2000024169923,2|2,0:2|1:2,0:0:0:0:
275,249,133523,2,0,B|312:233|312:233|351:233,1,79.2000024169923,10|2,0:2|1:2,0:0:0:0:
436,277,133868,6,0,B|460:192|414:200|436:118,2,158.400004833985,0|8|0,1:2|0:2|1:2,0:0:0:0:
388,359,134730,1,0,1:2:0:0:
294,360,134902,1,8,0:2:0:0:
246,279,135075,6,0,B|203:261|203:261|145:301|89:267,1,158.400004833985,2|0,1:2|0:2,0:0:0:0:
20,215,135592,1,10,0:2:0:0:
30,121,135764,1,2,1:2:0:0:
215,28,136109,6,0,P|243:29|279:24,2,64.799998022461,2|10|2,1:2|0:2|1:2,0:0:0:0:
244,118,136626,6,0,P|253:156|256:195,1,79.2000024169923,6|0,1:2|0:0,0:0:0:0:
330,255,136971,2,0,P|332:215|341:177,1,79.2000024169923,10|0,0:2|0:2,0:0:0:0:
409,109,137316,1,2,1:2:0:0:
476,176,137488,2,0,P|485:214|487:253,1,79.2000024169923,2|8,1:2|0:2,0:0:0:0:
441,337,137833,6,0,P|401:339|362:348,1,79.2000024169923,2|0,1:1|0:2,0:0:0:0:
270,324,138178,2,0,P|231:315|191:313,1,79.2000024169923,2|8,1:2|0:2,0:0:0:0:
110,263,138523,2,0,P|143:241|172:214,1,79.2000024169923,2|0,1:1|0:2,0:0:0:0:
251,161,138868,1,2,1:2:0:0:
251,161,139040,2,0,P|289:169|329:171,1,79.2000024169923,8|0,0:2|1:2,0:0:0:0:
396,103,139385,6,0,B|367:132|367:132|339:189|389:264,2,158.400004833985,2|8|0,1:2|0:2|1:2,0:0:0:0:
463,286,140419,1,10,0:2:0:0:
463,286,140592,1,2,1:2:0:0:
377,244,140764,6,0,P|338:234|299:235,1,79.2000024169923,2|0,1:1|1:2,0:0:0:0:
222,291,141109,1,10,0:2:0:0:
134,251,141281,2,0,B|112:220|112:220|106:84,1,158.400004833985,2|2,1:1|1:2,0:0:0:0:
36,35,141799,2,0,B|31:76|31:76|16:118,1,79.2000024169923,10|10,0:2|0:2,0:0:0:0:
14,131,142057,1,8,0:2:0:0:
15,150,142143,6,0,L|28:333,1,158.400004833985,6|10,1:2|0:2,0:0:0:0:
206,369,142833,1,2,1:2:0:0:
271,300,143006,2,0,P|310:291|367:293,1,79.2000024169923,2|8,1:2|0:2,0:0:0:0:
421,352,143350,6,0,P|383:284|409:212,1,158.400004833985,2|2,1:2|1:2,0:0:0:0:
487,157,143868,1,8,0:2:0:0:
458,65,144040,1,2,0:2:0:0:
361,65,144212,2,0,P|314:63|271:57,1,79.2000024169923,2|2,0:2|1:2,0:0:0:0:
191,31,144557,2,0,P|151:26|112:24,1,79.2000024169923,10|2,0:2|1:2,0:0:0:0:
17,38,144902,6,0,P|54:105|28:177,2,158.400004833985,0|8|0,1:2|0:2|1:2,0:0:0:0:
112,24,145764,1,0,1:2:0:0:
171,99,145937,1,8,0:2:0:0:
134,186,146109,6,0,P|108:258|146:326,1,158.400004833985,2|0,1:2|0:2,0:0:0:0:
236,355,146626,1,10,0:2:0:0:
326,325,146799,2,0,B|372:309|413:333|413:333|449:341|480:327,1,158.400004833985,2|2,1:2|1:2,0:0:0:0:
496,237,147316,1,10,0:2:0:0:
496,237,147488,1,10,0:2:0:0:
426,172,147661,6,0,P|422:135|420:87,2,79.2000024169923,4|2|8,1:2|0:2|0:2,0:0:0:0:
338,210,148178,2,0,B|292:194|251:218|251:218|215:226|183:212,1,158.400004833985,2|8,0:2|0:2,0:0:0:0:
99,169,148695,1,10,0:2:0:0:
93,73,148868,1,10,0:2:0:0:
173,19,149040,1,14,0:1:0:0:
70,106,159902,6,0,P|126:114|179:92,1,115.2,2|0,1:2|0:2,0:0:0:0:
248,41,160419,1,10,0:2:0:0:
329,71,160592,2,0,P|349:67|380:68,2,28.8,2|2|2,1:1|0:2|0:2,0:0:0:0:
260,122,160937,1,10,0:2:0:0:
256,139,161023,1,10,0:2:0:0:
252,156,161109,2,0,P|249:189|250:220,1,57.6,2|2,1:1|0:2,0:0:0:0:
261,319,161454,6,0,P|211:285|132:289,2,129.599996044922,6|10|2,1:2|0:2|1:2,0:0:0:0:
336,356,162316,2,0,P|375:359|417:348,1,64.799998022461,2|8,1:2|0:2,0:0:0:0:
462,297,162661,6,0,L|468:209,1,64.799998022461,2|0,1:2|0:2,0:0:0:0:
425,158,163006,2,0,L|418:70,1,64.799998022461,2|8,1:2|0:2,0:0:0:0:
365,29,163350,2,0,P|309:61|246:57,1,129.599996044922,2|2,1:2|1:2,0:0:0:0:
167,26,163868,1,8,0:2:0:0:
167,26,164040,1,0,1:2:0:0:
179,109,164212,6,0,L|188:247,1,129.599996044922,2|10,1:2|0:2,0:0:0:0:
50,337,164902,1,2,1:2:0:0:
82,261,165075,2,0,P|88:216|86:183,1,64.799998022461,2|8,1:2|0:2,0:0:0:0:
59,117,165419,6,0,L|52:21,1,64.799998022461,2|0,1:2|1:2,0:0:0:0:
140,71,165764,2,0,L|144:6,1,64.799998022461,2|8,1:2|0:2,0:0:0:0:
226,43,166109,2,0,B|263:56|263:56|354:50,1,129.599996044922,2|2,1:2|1:2,0:0:0:0:
434,26,166626,1,8,0:2:0:0:
483,94,166799,1,8,0:2:0:0:
434,162,166971,6,0,P|420:234|447:292,2,129.599996044922,2|10|2,1:2|0:2|1:2,0:0:0:0:
483,94,167833,2,0,L|488:14,1,64.799998022461,2|8,1:2|0:2,0:0:0:0:
399,57,168178,6,0,P|362:57|323:43,1,64.799998022461,2|0,1:2|0:2,0:0:0:0:
296,124,168523,2,0,P|269:97|252:60,1,64.799998022461,2|8,1:2|0:2,0:0:0:0:
192,129,168868,2,0,P|131:113|63:134,1,129.599996044922,2|2,1:2|1:1,0:0:0:0:
13,194,169385,1,10,0:1:0:0:
57,267,169557,1,10,0:1:0:0:
67,283,169643,1,8,0:2:0:0:
77,299,169730,6,0,P|138:315|206:294,1,129.599996044922,2|10,0:1|0:2,0:0:0:0:
274,255,170247,2,0,P|305:251|336:260,1,64.799998022461,2|2,1:1|1:2,0:0:0:0:
405,309,170592,2,0,P|435:318|467:313,1,64.799998022461,10|10,0:2|0:1,0:0:0:0:
440,234,170937,6,0,B|416:200|416:200|409:98,1,129.599996044922,2|0,0:2|0:2,0:0:0:0:
406,92,171368,1,8,0:2:0:0:
408,72,171454,2,0,L|416:-10,2,64.799998022461,8|0|0,0:2|1:2|1:2,0:0:0:0:
321,110,171971,5,2,1:2:0:0:
237,114,172143,1,10,0:1:0:0:
156,87,172316,2,0,P|129:83|88:81,1,64.799998022461,10|0,2:3|0:2,0:0:0:0:
25,134,172661,2,0,P|20:166|18:198,1,64.799998022461,6|0,2:3|1:2,0:0:0:0:
45,291,173006,6,0,L|41:346,2,32.3999990112305,10|10|10,0:1|0:2|0:2,0:0:0:0:
113,221,173350,2,0,L|117:166,2,32.3999990112305,10|8|10,0:1|0:2|0:2,0:0:0:0:
164,303,173695,1,10,0:2:0:0:
179,306,173781,1,8,0:2:0:0:
194,309,173868,6,2,B|240:280|322:294|354:351|354:351|366:286|406:240|445:228|476:240|490:258|488:284|475:304|449:307|434:294,1,432,0|0,0:2|0:2,1:2:0:0:
323,221,175247,6,0,B|319:165|319:165|340:123|340:123|335:51,1,158.400004833985,6|10,1:2|0:2,0:0:0:0:
149,26,175937,1,2,1:2:0:0:
75,85,176109,2,0,L|69:164,1,79.2000024169923,2|8,1:2|0:2,0:0:0:0:
80,258,176454,6,0,P|127:232|235:258,1,158.400004833985,2|2,1:2|1:2,0:0:0:0:
274,332,176971,1,8,0:2:0:0:
366,355,177143,1,2,0:2:0:0:
447,306,177316,2,0,L|453:215,1,79.2000024169923,2|2,0:2|1:2,0:0:0:0:
503,146,177661,2,0,P|463:143|415:120,1,79.2000024169923,10|2,0:2|1:2,0:0:0:0:
393,39,178006,6,0,B|400:122|354:106|370:195,2,158.400004833985,0|8|0,1:2|0:2|1:2,0:0:0:0:
300,60,178868,1,0,1:2:0:0:
210,32,179040,1,8,0:2:0:0:
120,60,179212,6,0,B|105:89|111:129|111:129|137:168|114:217,1,158.400004833985,2|0,1:2|0:2,0:0:0:0:
41,272,179730,1,10,0:2:0:0:
26,178,179902,1,2,1:2:0:0:
219,341,180247,6,0,L|283:345,2,64.799998022461,2|10|2,1:2|0:2|1:2,0:0:0:0:
274,263,180764,6,0,P|283:225|286:185,1,79.2000024169923,6|0,1:2|0:0,0:0:0:0:
374,148,181109,2,0,P|371:108|362:69,1,79.2000024169923,10|0,0:2|0:2,0:0:0:0:
270,47,181454,1,2,1:2:0:0:
192,101,181626,2,0,P|153:109|113:111,1,79.2000024169923,2|8,1:2|0:2,0:0:0:0:
66,194,181971,6,0,P|105:195|144:204,1,79.2000024169923,2|0,1:1|0:2,0:0:0:0:
233,238,182316,2,0,P|271:247|310:249,1,79.2000024169923,2|8,1:2|0:2,0:0:0:0:
340,339,182661,2,0,P|301:333|261:337,1,79.2000024169923,2|0,1:1|0:2,0:0:0:0:
172,359,183006,1,2,1:2:0:0:
172,359,183178,2,0,P|132:361|92:358,1,79.2000024169923,8|0,0:2|1:2,0:0:0:0:
20,296,183523,6,0,B|16:248|16:248|28:191|28:191|25:139,2,158.400004833985,2|8|0,1:2|0:2|1:2,0:0:0:0:
207,264,184557,1,10,0:2:0:0:
207,264,184730,1,2,1:2:0:0:
132,204,184902,6,0,L|124:122,1,79.2000024169923,2|0,1:1|1:2,0:0:0:0:
176,45,185247,1,10,0:2:0:0:
246,109,185419,2,0,P|324:121|397:94,1,158.400004833985,2|2,1:1|1:2,0:0:0:0:
462,165,185937,2,0,P|452:223|454:247,1,79.2000024169923,10|10,0:2|0:2,0:0:0:0:
453,262,186195,1,8,0:2:0:0:
457,281,186281,6,0,P|383:253|306:265,1,158.400004833985,6|10,1:2|0:2,0:0:0:0:
139,357,186971,1,2,1:2:0:0:
181,272,187143,2,0,P|190:233|188:176,1,79.2000024169923,2|8,1:2|0:2,0:0:0:0:
140,112,187488,6,0,B|102:100|85:71|85:71|40:56|1:80,1,158.400004833985,2|2,1:2|1:2,0:0:0:0:
41,167,188006,1,8,0:2:0:0:
0,254,188178,1,2,0:2:0:0:
40,340,188350,2,0,P|79:349|118:343,1,79.2000024169923,2|2,0:2|1:2,0:0:0:0:
201,297,188695,2,0,P|240:291|278:299,1,79.2000024169923,10|2,0:2|1:2,0:0:0:0:
342,370,189040,6,0,P|317:297|353:229,2,158.400004833985,0|8|0,1:2|0:2|1:2,0:0:0:0:
412,305,189902,1,0,1:2:0:0:
447,216,190075,1,8,0:2:0:0:
387,141,190247,6,0,B|342:129|303:153|303:153|264:161|235:138,1,158.400004833985,2|0,1:2|0:2,0:0:0:0:
165,73,190764,1,10,0:2:0:0:
143,167,190937,2,0,L|130:342,1,158.400004833985,2|2,1:2|1:2,0:0:0:0:
48,371,191454,1,10,0:2:0:0:
48,371,191626,1,10,0:2:0:0:
49,275,191799,6,0,L|43:195,2,79.2000024169923,4|2|8,1:2|0:2|0:2,0:0:0:0:
131,325,192316,2,0,B|172:303|172:303|292:312,1,158.400004833985,2|10,0:2|0:2,0:0:0:0:
373,345,192833,1,10,0:2:0:0:
358,251,193006,1,14,0:1:0:0:
223,184,193350,6,2,B|184:184|157:206|157:206|104:218|73:176|73:176|94:187|124:182,1,216,2|0,0:2|0:2,1:2:0:0:
168,110,194040,6,0,L|175:6,1,93.5999957153322,10|4,0:3|0:3,0:0:0:0:
333,67,194557,6,0,B|366:81|398:74|398:74|437:52|474:66,1,144,6|10,0:1|0:0,0:0:0:0:
444,147,195075,1,2,0:0:0:0:
387,211,195247,2,0,L|307:216,1,72,2|0,1:2|1:2,0:0:0:0:
237,254,195592,1,10,0:0:0:0:
191,327,195764,6,0,B|161:353|161:353|102:366|61:333,1,144,2|2,1:1|0:0,0:0:0:0:
55,317,196195,1,2,0:0:0:0:
60,299,196281,2,0,P|69:261|59:217,1,72,10|0,0:0|1:0,0:0:0:0:
11,159,196626,2,0,P|48:147|81:117,1,72,2|0,0:0|1:0,0:0:0:0:
107,47,196971,2,0,P|135:73|178:86,1,72,10|2,0:0|1:2,0:0:0:0:
184,86,197230,1,2,0:2:0:0:
201,85,197316,6,0,L|368:74,1,144,2|10,1:1|0:0,0:0:0:0:
431,64,197833,1,2,0:0:0:0:
398,145,198006,2,0,P|391:197|396:239,1,72,2|0,1:2|1:2,0:0:0:0:
425,296,198350,1,10,0:2:0:0:
354,346,198523,6,0,P|286:325|215:334,1,144,0|0,1:2|1:2,0:0:0:0:
146,281,199040,2,0,P|175:260|200:234,1,72,10|0,1:2|1:2,0:0:0:0:
232,154,199385,2,0,P|238:118|237:82,1,72,2|2,1:1|1:0,0:0:0:0:
173,26,199730,1,10,0:1:0:0:
93,54,199902,1,10,0:0:0:0:
77,137,200075,6,0,B|73:188|73:188|48:218|48:218|44:276,1,144,2|10,1:1|0:0,0:0:0:0:
64,355,200592,1,2,0:0:0:0:
148,335,200764,2,0,L|243:329,1,72,2|0,1:2|1:2,0:0:0:0:
299,295,201109,1,10,0:0:0:0:
230,242,201281,6,0,B|213:208|213:208|207:156|239:105,1,144,2|2,1:1|0:0,0:0:0:0:
253,97,201712,1,2,0:0:0:0:
270,97,201799,2,0,P|305:100|341:95,1,72,10|0,0:0|1:0,0:0:0:0:
414,140,202143,2,0,P|411:175|416:210,1,72,2|0,0:0|1:0,0:0:0:0:
469,279,202488,1,10,0:0:0:0:
420,350,202661,1,10,0:2:0:0:
402,346,202747,1,8,0:0:0:0:
383,342,202833,6,0,P|315:322|243:318,1,144,2|8,1:1|0:0,0:0:0:0:
162,349,203350,1,10,0:3:0:0:
0,288,203695,1,10,0:0:0:0:
0,288,203868,1,10,0:0:0:0:
36,209,204040,6,0,P|41:173|39:133,1,72,2|8,1:1|0:0,0:0:0:0:
83,62,204385,2,0,L|170:68,1,72,2|0,1:1|1:2,0:0:0:0:
233,30,204730,1,2,1:1:0:0:
316,52,204902,2,0,L|403:58,1,72,2|10,0:0|0:2,0:0:0:0:
403,66,205161,1,8,0:2:0:0:
418,74,205247,2,0,L|505:80,1,72,10|10,0:2|0:3,0:0:0:0:
482,173,205592,6,0,P|470:209|469:247,1,75.5999976928712,6|8,1:1|0:0,0:0:0:0:
478,338,205937,2,0,L|481:385,2,37.7999988464356,2|2|10,1:1|0:2|0:2,0:0:0:0:
394,300,206281,2,0,P|358:288|320:287,1,75.5999976928712,2|10,1:0|0:2,0:0:0:0:
229,297,206626,1,2,1:1:0:0:
157,353,206799,6,0,B|121:339|121:339|99:293|116:220,1,151.199995385742,10|10,0:2|2:1,0:0:0:0:
125,213,207230,1,2,0:0:0:0:
138,198,207316,2,0,P|144:161|143:124,1,75.5999976928712,2|10,1:2|0:0,0:0:0:0:
98,43,207661,2,0,P|61:40|25:29,1,75.5999976928712,2|10,1:0|0:0,0:0:0:0:
31,125,208006,1,2,1:0:0:0:
1,210,208178,1,10,0:0:0:0:
15,299,208350,6,0,P|51:310|88:313,1,75.5999976928712,2|8,1:0|0:0,0:0:0:0:
167,268,208695,2,0,L|170:212,2,37.7999988464356,2|2|10,1:1|0:0|0:0,0:0:0:0:
233,330,209040,2,0,P|270:332|306:343,1,75.5999976928712,2|10,1:0|0:0,0:0:0:0:
395,363,209385,1,2,1:0:0:0:
367,275,209557,6,0,P|348:203|378:135,1,151.199995385742,10|10,0:0|0:0,0:0:0:0:
340,52,210075,2,0,P|303:50|267:39,1,75.5999976928712,2|10,1:0|0:0,0:0:0:0:
177,22,210419,2,0,P|157:18|121:18,2,37.7999988464356,2|2|10,1:0|0:0|0:0,0:0:0:0:
204,108,210764,1,2,1:0:0:0:
292,128,210937,1,10,0:0:0:0:
340,52,211109,6,0,P|376:40|413:38,1,75.5999976928712,2|8,1:0|0:0,0:0:0:0:
491,84,211454,2,0,P|502:68|509:50,2,37.7999988464356,2|2|10,1:0|0:0|0:0,0:0:0:0:
442,160,211799,2,0,P|430:196|428:233,1,75.5999976928712,2|10,1:0|0:0,0:0:0:0:
451,321,212143,1,2,1:0:0:0:
370,363,212316,2,0,P|333:351|296:349,1,75.5999976928712,10|0,0:0|1:0,0:0:0:0:
205,356,212661,5,10,0:1:0:0:
186,358,212747,1,2,0:0:0:0:
167,361,212833,2,0,P|129:358|93:347,1,75.5999976928712,2|10,1:2|0:0,0:0:0:0:
29,282,213178,2,0,P|12:247|4:210,1,75.5999976928712,2|10,1:0|0:0,0:0:0:0:
28,122,213523,2,0,P|49:90|77:64,1,75.5999976928712,2|10,1:0|0:0,0:0:0:0:
95,63,213781,1,10,0:0:0:0:
113,64,213868,6,0,L|283:75,1,144,2|8,1:0|0:0,0:0:0:0:
339,47,214385,1,10,0:3:0:0:
444,184,214730,1,10,0:0:0:0:
444,184,214902,1,10,0:0:0:0:
369,228,215075,6,0,L|225:218,1,144,2|10,1:1|0:1,0:0:0:0:
213,231,215506,1,10,0:0:0:0:
204,247,215592,2,0,P|194:281|190:316,1,72,10|2,0:0|1:1,0:0:0:0:
113,356,215937,2,0,P|109:320|98:286,1,72,2|8,0:2|0:3,0:0:0:0:
41,220,216281,2,0,P|30:185|26:150,1,72,10|10,0:1|0:3,0:0:0:0:
73,77,216626,5,6,1:2:0:0:
256,192,216712,12,12,219212,0:3:0:0:
