osu file format v14

[General]
AudioFilename: audio.mp3
AudioLeadIn: 0
PreviewTime: 178138
Countdown: 0
SampleSet: Soft
StackLeniency: 0.7
Mode: 0
LetterboxInBreaks: 0
WidescreenStoryboard: 1

[Editor]
DistanceSpacing: 0.5
BeatDivisor: 4
GridSize: 32
TimelineZoom: 2.600002

[Metadata]
Title:Kakushigoto
TitleUnicode:かくしごと
Artist:yuikonnu
ArtistUnicode:ゆいこんぬ
Creator:Lasse
Version:Hyper
Source:
Tags:mafumafu secret utaite cover Kalibe sahuang 虹色ショコラティエ Nijiiro Chocolatier
BeatmapID:1075432
BeatmapSetID:504245

[Difficulty]
HPDrainRate:5
CircleSize:3.8
OverallDifficulty:7
ApproachRate:8.5
SliderMultiplier:1.55
SliderTickRate:1

[Events]
//Background and Video events
0,0,"bg.jpg",0,0
//Break Periods
2,72738,79063
2,140538,141313
2,178138,185338
//Storyboard Layer 0 (Background)
//Storyboard Layer 1 (Fail)
//Storyboard Layer 2 (Pass)
//Storyboard Layer 3 (Foreground)
//Storyboard Sound Samples

[TimingPoints]
538,300,4,2,98,60,1,0
538,-128.205128205128,4,2,98,60,0,0
763,-128.205128205128,4,2,12,5,0,0
838,-128.205128205128,4,2,98,60,0,0
1063,-128.205128205128,4,1,1,40,0,0
1138,-100,4,1,1,55,0,0
1738,-100,4,1,1,60,0,0
11338,-200,4,2,97,50,0,0
11413,-100,4,2,12,5,0,0
12538,-142.857142857143,4,2,1,32,0,0
21088,-142.857142857143,4,2,96,43,0,0
21538,-142.857142857143,4,1,1,48,0,0
21838,-142.857142857143,4,1,1,30,0,0
21913,-142.857142857143,4,1,1,48,0,0
22138,-111.111111111111,4,1,1,55,0,0
22363,-111.111111111111,4,2,1,5,0,0
22438,-111.111111111111,4,1,1,55,0,0
31738,-200,4,2,2,40,0,0
40138,-142.857142857143,4,2,96,45,0,0
40438,-142.857142857143,4,2,96,47,0,0
40738,-100,4,1,1,50,0,0
40888,-100,4,2,1,30,0,0
41038,-90.9090909090909,4,1,1,60,0,0
41188,-90.9090909090909,4,2,1,25,0,0
41338,-111.111111111111,4,1,1,55,0,0
46138,-99.9999999999999,4,2,1,40,0,0
46438,-99.9999999999999,4,2,1,43,0,0
46738,-90.9090909090909,4,2,1,46,0,0
47038,-90.9090909090909,4,2,1,49,0,0
47338,-90.9090909090909,4,1,1,52,0,0
47638,-90.9090909090909,4,1,1,55,0,0
47938,-90.9090909090909,4,1,1,58,0,0
48238,-90.9090909090909,4,1,1,61,0,0
48538,-83.3333333333333,4,2,1,50,0,0
48988,-83.3333333333333,4,1,1,55,0,0
49438,-83.3333333333333,4,1,1,60,0,0
49888,-83.3333333333333,4,1,3,63,0,0
50188,-83.3333333333333,4,1,3,66,0,0
50338,-200,4,2,3,50,0,0
50638,-200,4,2,1,30,0,0
50938,-90.9090909090909,4,1,3,70,0,1
58138,-90.9090909090909,4,1,3,73,0,1
58738,-90.9090909090909,4,1,3,76,0,1
59188,-90.9090909090909,4,1,3,70,0,1
59938,-90.9090909090909,4,1,3,65,0,0
60538,-90.9090909090909,4,1,3,70,0,1
68338,-90.9090909090909,4,1,3,68,0,1
68938,-90.9090909090909,4,1,1,70,0,1
69538,-90.9090909090909,4,1,1,72,0,1
70138,-100,4,1,1,74,0,0
70213,-100,4,1,1,50,0,0
71338,-100,4,1,1,45,0,0
72538,-100,4,1,1,40,0,0
79738,-200,4,2,97,50,0,0
79813,-100,4,2,12,5,0,0
80938,-142.857142857143,4,2,1,32,0,0
88738,-125,4,2,1,32,0,0
89038,-111.111111111111,4,2,96,43,0,0
89338,-100,4,2,96,46,0,0
89638,-100,4,1,1,48,0,0
89938,-200,4,2,1,32,0,0
89956,-200,4,2,1,10,0,0
90538,-111.111111111111,4,1,1,55,0,0
100138,-200,4,2,2,40,0,0
108538,-142.857142857143,4,2,96,40,0,0
108688,-142.857142857143,4,2,96,42,0,0
108838,-142.857142857143,4,2,96,44,0,0
108988,-142.857142857143,4,2,96,46,0,0
109138,-100,4,1,1,50,0,0
109288,-100,4,2,1,30,0,0
109438,-90.9090909090909,4,1,1,60,0,0
109588,-90.9090909090909,4,2,1,25,0,0
109738,-111.111111111111,4,1,1,55,0,0
114538,-99.9999999999999,4,2,1,40,0,0
114838,-99.9999999999999,4,2,1,43,0,0
115138,-90.9090909090909,4,2,1,46,0,0
115438,-90.9090909090909,4,2,1,49,0,0
115738,-90.9090909090909,4,1,1,52,0,0
116038,-90.9090909090909,4,1,1,55,0,0
116338,-90.9090909090909,4,1,1,58,0,0
116638,-90.9090909090909,4,1,1,61,0,0
116938,-83.3333333333333,4,2,1,50,0,0
117388,-83.3333333333333,4,1,1,55,0,0
117838,-83.3333333333333,4,1,1,60,0,0
118288,-83.3333333333333,4,1,3,63,0,0
118588,-83.3333333333333,4,1,3,66,0,0
118738,-333.333333333333,4,1,3,50,0,0
118963,-100,4,2,1,5,0,0
119038,-100,4,1,1,50,0,0
119113,-100,4,1,1,55,0,0
119188,-100,4,1,1,60,0,0
119263,-100,4,1,1,65,0,0
119338,-90.9090909090909,4,1,3,70,0,1
126538,-90.9090909090909,4,1,3,73,0,1
127138,-90.9090909090909,4,1,3,76,0,1
127588,-90.9090909090909,4,1,3,70,0,1
128338,-90.9090909090909,4,1,3,65,0,0
128938,-90.9090909090909,4,1,3,70,0,1
136738,-90.9090909090909,4,1,1,68,0,1
137338,-90.9090909090909,4,1,1,70,0,1
137938,-90.9090909090909,4,1,1,72,0,1
138538,-100,4,1,1,74,0,0
138613,-100,4,1,1,50,0,0
139738,-100,4,1,1,45,0,0
140338,-100,4,1,1,40,0,0
141988,-100,4,1,1,62,0,0
142888,-100,4,2,96,62,0,0
143038,-100,4,1,1,62,0,0
146938,-100,4,1,1,55,0,0
147238,-100,4,1,1,58,0,0
147538,-100,4,1,1,61,0,0
147838,-100,4,1,1,64,0,0
148138,-100,4,1,4,65,0,0
152638,-100,4,1,1,65,0,0
152938,-100,4,1,4,65,0,0
154138,-100,4,1,1,65,0,0
154738,-100,4,1,4,65,0,0
155338,-100,4,2,1,65,0,0
157738,-200,4,2,2,40,0,0
166138,-142.857142857143,4,2,96,45,0,0
166438,-142.857142857143,4,2,96,47,0,0
166738,-100,4,1,1,50,0,0
166888,-100,4,2,1,30,0,0
167038,-90.9090909090909,4,1,1,60,0,0
167188,-90.9090909090909,4,2,1,25,0,0
167338,-111.111111111111,4,1,1,55,0,0
172138,-99.9999999999999,4,2,1,40,0,0
172438,-99.9999999999999,4,2,1,43,0,0
172738,-90.9090909090909,4,2,1,46,0,0
173038,-90.9090909090909,4,2,1,49,0,0
173338,-90.9090909090909,4,1,1,52,0,0
173638,-90.9090909090909,4,1,1,55,0,0
173938,-90.9090909090909,4,1,1,58,0,0
174238,-90.9090909090909,4,1,1,61,0,0
174538,-83.3333333333333,4,2,1,50,0,0
174988,-83.3333333333333,4,1,1,55,0,0
175438,-83.3333333333333,4,1,1,60,0,0
175738,-83.3333333333333,4,1,1,50,0,0
175888,-83.3333333333333,4,2,1,5,0,0
175938,-83.3333333333333,4,1,1,50,0,0
176088,-83.3333333333333,4,2,1,5,0,0
176138,-83.3333333333333,4,1,1,50,0,0
176288,-83.3333333333333,4,2,1,5,0,0
176338,-83.3333333333333,4,1,1,50,0,0
176488,-83.3333333333333,4,2,1,5,0,0
176538,-71.4285714285714,4,1,1,50,0,0
176738,-83.3333333333333,4,1,1,50,0,0
178138,-200,4,2,1,25,0,0
187138,-200,4,2,94,20,0,0
187156,-200,4,2,99,15,0,0
188338,-200,4,2,95,15,0,0
188938,-83.3333333333333,4,1,3,80,0,1
189838,-90.9090909090909,4,1,3,70,0,1
194938,-90.9090909090909,4,1,3,73,0,1
195538,-90.9090909090909,4,1,3,76,0,1
195988,-90.9090909090909,4,1,3,70,0,1
196738,-90.9090909090909,4,1,3,65,0,0
197338,-90.9090909090909,4,1,3,70,0,1
202738,-111.111111111111,4,1,3,60,0,1
202888,-111.111111111111,4,1,3,55,0,1
203038,-142.857142857143,4,1,3,50,0,1
203188,-142.857142857143,4,1,3,45,0,1
203338,-71.4285714285714,4,1,3,75,0,1
203638,-71.4285714285714,4,1,3,70,0,1
203788,-90.9090909090909,4,1,3,45,0,1
203938,-90.9090909090909,4,1,3,70,0,1
204538,-200,4,2,97,40,0,0
204613,-200,4,2,1,5,0,0
204838,-86.9565217391304,4,1,3,75,0,1
205063,-86.9565217391304,4,2,3,5,0,1
205138,-86.9565217391304,4,1,3,75,0,1
211738,-86.9565217391304,4,1,3,77,0,1
212338,-86.9565217391304,4,1,3,80,0,1
212788,-86.9565217391304,4,1,3,75,0,1
213538,-100,4,1,3,70,0,0
214138,-86.9565217391304,4,1,3,75,0,1
221938,-86.9565217391304,4,1,3,73,0,1
222538,-86.9565217391304,4,1,1,75,0,1
223138,-86.9565217391304,4,1,1,77,0,1
223438,-200,4,2,97,70,0,0
223513,-200,4,2,12,5,0,0
223738,-100,4,1,3,80,0,1
223813,-100,4,2,1,50,0,0
228538,-100,4,2,12,70,0,0

[Colours]
Combo1 : 166,83,83
Combo2 : 87,111,128
Combo3 : 236,176,87
Combo4 : 82,122,102

[HitObjects]
23,155,538,6,0,P|65:145|104:167,1,90.6750030438996,0|0,0:0|0:0,0:0:0:0:
123,208,838,2,0,P|162:229|207:219,1,90.6750030438996,0|0,0:0|0:0,0:0:0:0:
242,193,1138,6,0,L|247:137,3,38.75,8|0|0|0,0:0|0:0|0:0|0:0,0:0:0:0:
320,137,1438,2,0,L|325:81,3,38.75,8|8|8|8,0:0|0:0|0:0|0:0,0:0:0:0:
398,81,1738,6,0,B|449:82|449:82|483:97,1,77.5,4|2,0:0|0:1,0:0:0:0:
427,207,2038,2,0,L|422:310,1,77.5,8|2,0:0|0:1,0:0:0:0:
319,352,2338,2,0,L|315:274,1,77.5,2|2,0:2|0:2,0:0:0:0:
220,192,2638,1,10,0:1:0:0:
129,297,2788,6,0,B|77:302|77:302|16:289|16:289|48:326,1,155,2|2,0:0|0:0,0:0:0:0:
170,379,3238,2,0,B|200:360|200:360|215:321,1,77.5,8|2,0:0|0:2,0:0:0:0:
220,192,3538,2,0,B|225:115,1,77.5,2|2,0:2|0:0,0:0:0:0:
123,219,3838,2,0,B|128:296,1,77.5,10|0,0:2|0:0,0:0:0:0:
294,262,4138,6,0,B|326:262|326:262|340:266|340:266|370:268,1,77.5,2|0,0:0|0:0,0:0:0:0:
476,188,4438,1,10,0:0:0:0:
463,281,4588,1,0,0:1:0:0:
383,175,4738,2,0,B|351:175|351:175|337:171|337:171|306:168,2,77.5,2|2|10,0:0|0:2|0:1,0:0:0:0:
489,95,5188,6,0,B|462:47|403:30|403:30|372:69,1,155,2|2,0:0|0:0,0:0:0:0:
306,167,5638,2,0,P|267:173|230:164,1,77.5,8|2,0:0|0:2,0:0:0:0:
116,114,5938,2,0,P|78:104|40:111,1,77.5,2|2,0:2|0:0,0:0:0:0:
26,134,6163,1,0,0:0:0:0:
14,159,6238,2,0,L|7:224,3,38.75,10|0|2|0,0:2|0:0|0:2|0:0,0:0:0:0:
0,276,6538,6,0,P|39:227|126:236,1,155,4|8,0:0|0:0,0:0:0:0:
204,330,6988,1,2,0:1:0:0:
88,374,7138,2,0,B|76:343|76:343|76:297,2,77.5,2|2|10,0:2|0:2|0:1,0:0:0:0:
206,250,7588,6,0,B|213:194|172:161|172:161|229:130,1,155,2|2,0:0|0:0,0:0:0:0:
320,60,8038,2,0,P|292:32|258:15,1,77.5,8|2,0:0|0:2,0:0:0:0:
137,41,8338,2,0,L|26:42,1,77.5,2|2,0:2|0:0,0:0:0:0:
1,151,8638,1,10,0:2:0:0:
61,227,8788,1,0,0:0:0:0:
150,123,8938,6,0,B|195:119|231:160|231:160|260:137|294:144,1,155,2|10,0:0|0:2,0:0:0:0:
401,194,9388,1,0,0:0:0:0:
319,287,9538,2,0,P|295:257|281:221,1,77.5,2|2,0:0|0:2,0:0:0:0:
364,127,9838,2,0,P|379:91|384:53,1,77.5,10|2,0:0|0:2,0:0:0:0:
485,101,10138,6,0,P|479:159|483:268,1,155,2|10,0:0|0:0,0:0:0:0:
422,364,10588,2,0,P|416:325|402:290,1,77.5,2|0,0:2|0:0,0:0:0:0:
309,207,10888,1,10,0:0:0:0:
306,210,10963,1,0,0:0:0:0:
303,213,11038,2,0,L|229:216,3,38.75,8|0|8|0,0:0|0:0|0:0|0:0,0:0:0:0:
206,266,11338,6,0,L|178:265,1,19.375,0|0,0:0|0:0,0:0:0:0:
205,266,12538,6,0,P|155:281|105:262,1,108.499996688843,2|2,0:0|0:0,0:0:0:0:
52,203,12988,1,0,0:0:0:0:
111,149,13138,2,0,P|126:98|107:48,1,108.499996688843,2|2,0:0|0:0,0:0:0:0:
88,36,13738,6,0,B|187:106|212:15|301:58,1,216.999993377686,2|0,0:0|0:0,0:0:0:0:
298,58,14638,1,0,0:0:0:0:
250,168,14938,6,0,B|234:215|268:230|251:276,1,108.499996688843,2|2,0:0|0:0,0:0:0:0:
176,251,15388,1,0,0:0:0:0:
117,197,15538,2,0,B|108:153|125:119|125:119|156:98,1,108.499996688843,2|2,0:0|0:0,0:0:0:0:
162,120,16138,6,0,B|201:80|249:72|249:72|319:102,1,162.749995033264,2|0,0:0|0:0,0:0:0:0:
375,132,16738,2,0,P|430:138|479:106,1,108.499996688843,2|2,0:0|0:0,0:0:0:0:
470,91,17338,6,0,B|481:152|481:152|474:221,2,108.499996688843,2|2|2,0:0|0:0|0:0,0:0:0:0:
326,27,18238,1,2,0:0:0:0:
220,144,18538,6,0,L|89:155,2,108.499996688843,2|2|2,0:0|0:0|0:0,0:0:0:0:
326,27,19438,1,2,0:0:0:0:
470,91,19738,6,0,B|481:152|481:152|474:221,1,108.499996688843,2|0,0:0|0:0,0:0:0:0:
325,137,20338,2,0,P|272:129|220:143,2,108.499996688843,2|0|2,0:0|0:0|0:0,0:0:0:0:
380,197,21088,5,0,0:0:0:0:
375,277,21238,1,0,0:0:0:0:
370,357,21388,1,0,0:0:0:0:
273,318,21538,6,0,L|209:312,1,54.2499983444214,0|8,0:0|0:0,0:0:0:0:
182,331,21763,2,0,L|135:335,1,27.1249991722107,8|0,0:0|2:2,0:0:0:0:
124,306,21913,2,0,L|60:300,1,54.2499983444214,8|8,0:0|0:0,0:0:0:0:
12,350,22138,6,0,B|11:325|11:325|22:301|22:301|0:266|22:210,1,139.499995742798,4|8,0:0|0:0,0:0:0:0:
72,116,22588,1,0,0:0:0:0:
183,134,22738,2,0,B|248:151|254:105|319:124,1,139.499995742798,2|8,0:0|0:0,0:0:0:0:
417,176,23188,1,0,0:0:0:0:
293,241,23338,6,0,P|251:254|213:258,1,69.749997871399,2|0,0:2|0:0,0:0:0:0:
114,251,23638,2,0,P|71:238|38:220,1,69.749997871399,8|0,0:2|0:0,0:0:0:0:
0,328,23938,2,0,P|89:339|138:378,1,139.499995742798,2|10,0:1|0:2,0:0:0:0:
239,354,24388,1,0,0:0:0:0:
293,241,24538,6,0,B|318:190|296:146|296:146|257:158,1,139.499995742798,2|10,0:2|0:2,0:0:0:0:
158,212,24988,1,0,0:0:0:0:
76,133,25138,2,0,B|62:79|83:39|83:39|136:27,1,139.499995742798,2|8,0:0|0:0,0:0:0:0:
237,43,25588,1,0,0:2:0:0:
258,171,25738,6,0,P|292:180|327:181,1,69.749997871399,2|2,0:0|0:2,0:0:0:0:
312,64,26038,2,0,P|278:55|244:55,1,69.749997871399,10|2,0:0|0:2,0:0:0:0:
124,29,26338,2,0,L|31:33,1,69.749997871399,2|0,0:0|0:0,0:0:0:0:
5,124,26638,1,10,0:2:0:0:
5,124,26788,1,0,0:2:0:0:
111,195,26938,6,0,P|72:139|6:124,1,139.499995742798,2|10,0:2|0:2,0:0:0:0:
12,228,27388,1,0,0:0:0:0:
91,296,27538,2,0,B|143:303|176:273|176:273|214:303,1,139.499995742798,2|8,0:1|0:0,0:0:0:0:
293,370,27988,1,0,0:2:0:0:
405,285,28138,6,0,P|408:250|400:215,1,69.749997871399,2|0,0:2|0:0,0:0:0:0:
320,148,28438,2,0,P|285:155|251:152,1,69.749997871399,8|0,0:2|0:0,0:0:0:0:
277,50,28738,2,0,L|362:46,1,69.749997871399,2|0,0:1|0:0,0:0:0:0:
451,23,29038,1,10,0:0:0:0:
451,23,29188,1,0,0:0:0:0:
388,142,29338,6,0,B|344:151|344:151|313:147,1,69.749997871399,2|0,0:2|0:0,0:0:0:0:
277,50,29638,2,0,B|233:41|233:41|202:45,1,69.749997871399,10|0,0:2|0:0,0:0:0:0:
166,142,29938,2,0,P|163:184|172:216,1,69.749997871399,2|0,0:2|0:0,0:0:0:0:
315,216,30238,2,0,P|322:182|318:147,1,69.749997871399,10|0,0:2|0:0,0:0:0:0:
240,270,30538,6,0,L|240:346,2,69.749997871399,2|2|10,0:0|0:2|0:0,0:0:0:0:
169,210,30988,1,2,0:2:0:0:
160,203,31063,1,2,0:2:0:0:
151,197,31138,2,0,P|118:188|83:191,1,69.749997871399,2|8,0:0|0:0,0:0:0:0:
11,131,31438,1,8,0:0:0:0:
46,44,31588,1,8,0:0:0:0:
56,41,31663,1,8,0:0:0:0:
66,38,31738,6,0,B|98:32|98:32|155:39,1,77.5,6|0,1:2|1:0,0:0:0:0:
256,64,32338,2,0,B|300:69|300:69|332:63,1,77.5,0|0,1:0|1:0,0:0:0:0:
439,15,32938,2,0,B|450:108,1,77.5,2|0,1:0|1:0,0:0:0:0:
468,206,33538,1,0,1:0:0:0:
410,307,33838,1,0,1:0:0:0:
312,211,34138,6,0,P|266:202|224:214,1,77.5,2|0,1:2|1:0,0:0:0:0:
142,276,34738,1,0,1:0:0:0:
49,208,35038,1,0,1:0:0:0:
84,99,35338,2,0,B|94:61|94:61|109:26,1,77.5,2|0,1:0|1:0,0:0:0:0:
199,99,35938,1,0,1:0:0:0:
297,36,36238,1,0,1:0:0:0:
365,158,36538,6,0,L|453:169,1,77.5,2|0,1:2|1:0,0:0:0:0:
290,216,37138,2,0,L|201:227,1,77.5,0|0,1:0|1:0,0:0:0:0:
365,274,37738,2,0,L|453:285,1,77.5,2|0,1:0|1:0,0:0:0:0:
290,332,38338,2,0,L|201:343,1,77.5,0|0,1:0|1:0,0:0:0:0:
70,349,38938,6,0,P|83:309|71:261,1,77.5,2|0,1:2|1:0,0:0:0:0:
19,173,39538,1,0,1:0:0:0:
77,72,39838,1,2,1:0:0:0:
77,72,39988,1,0,0:0:0:0:
177,69,40138,6,0,L|232:76,1,54.2499983444214,2|0,0:3|0:0,0:0:0:0:
251,172,40438,2,0,L|306:179,1,54.2499983444214,0|0,0:0|0:0,0:0:0:0:
405,217,40738,6,0,P|394:179|403:142,1,77.5,2|0,0:0|0:0,0:0:0:0:
436,49,41038,6,0,P|393:58|352:47,1,85.2500026016236,2|0,0:0|0:0,0:0:0:0:
231,77,41338,6,0,B|205:84|181:74|181:74|159:86|159:86|119:92|86:77,1,139.499995742798,4|8,0:0|0:0,0:0:0:0:
1,36,41788,1,0,0:0:0:0:
9,140,41938,2,0,P|11:174|9:242,1,69.749997871399,2|0,0:2|0:0,0:0:0:0:
73,293,42238,2,0,P|79:259|99:194,1,69.749997871399,10|0,0:0|0:2,0:0:0:0:
104,210,42463,1,0,0:0:0:0:
124,200,42538,6,0,B|195:190|184:241|262:226,1,139.499995742798,2|8,0:0|0:0,0:0:0:0:
350,178,42988,1,0,0:0:0:0:
425,250,43138,2,0,B|432:288|432:288|423:344,1,69.749997871399,2|0,0:2|0:0,0:0:0:0:
332,363,43438,2,0,B|325:325|325:325|334:269,1,69.749997871399,10|0,0:2|0:0,0:0:0:0:
350,178,43738,6,0,B|360:129|329:96|329:96|352:79|361:55,1,139.499995742798,2|10,0:2|0:2,0:0:0:0:
265,13,44188,1,0,0:0:0:0:
167,50,44338,2,0,L|67:40,1,69.749997871399,2|0,0:2|0:0,0:0:0:0:
132,140,44638,2,0,P|137:175|129:209,1,69.749997871399,10|0,0:2|0:0,0:0:0:0:
120,228,44863,1,0,0:0:0:0:
108,245,44938,6,0,P|99:278|104:313,1,69.749997871399,2|0,0:0|0:0,0:0:0:0:
196,362,45238,1,8,0:0:0:0:
239,285,45388,1,0,0:0:0:0:
329,338,45538,2,0,L|423:342,1,69.749997871399,0|8,0:0|0:0,0:0:0:0:
415,336,45763,1,8,0:0:0:0:
430,328,45838,2,0,P|439:295|434:260,1,69.749997871399,8|8,0:0|0:0,0:0:0:0:
326,183,46138,6,0,L|219:171,1,77.5,6|0,1:2|0:0,0:0:0:0:
356,99,46438,2,0,L|463:87,1,77.5,2|0,1:2|0:0,0:0:0:0:
326,15,46738,6,0,L|264:8,3,42.6250013008118,2|0|0|0,1:2|0:0|0:0|0:0,0:0:0:0:
243,26,47038,2,0,L|181:19,3,42.6250013008118,2|0|0|0,1:2|0:0|0:0|0:0,0:0:0:0:
163,41,47338,6,0,P|121:50|80:42,1,85.2500026016236,8|0,0:0|0:0,0:0:0:0:
54,42,47563,1,0,0:0:0:0:
35,59,47638,2,0,P|26:100|35:141,1,85.2500026016236,8|0,0:0|0:0,0:0:0:0:
148,190,47938,5,8,0:0:0:0:
174,195,48013,1,0,0:0:0:0:
198,206,48088,1,0,0:0:0:0:
220,220,48163,1,0,0:0:0:0:
241,236,48238,2,0,P|261:240|283:240,3,42.6250013008118,8|8|8|8,0:0|0:0|0:0|0:0,0:0:0:0:
340,294,48538,6,0,P|305:222|384:210,1,185.999994323731,4|0,1:0|1:2,0:0:0:0:
436,290,48988,1,0,0:0:0:0:
456,278,49063,1,0,0:0:0:0:
474,263,49138,2,0,P|487:206|467:152,1,92.9999971618653
448,84,49438,2,0,L|448:18,4,46.4999985809327,2|0|2|0|2,0:0|0:2|0:2|0:2|0:2,0:0:0:0:
340,117,49888,6,0,B|303:123|278:107|278:107|244:120,1,92.9999971618653,12|0,0:0|0:0,0:0:0:0:
165,228,50188,1,8,0:0:0:0:
112,98,50338,6,0,P|104:60|110:13,1,77.5,8|0,0:1|0:0,0:0:0:0:
122,11,50938,6,0,B|129:67|112:98|112:98|82:122|82:122|69:172,1,170.500005203247,6|8,0:0|0:0,0:0:0:0:
21,290,51388,1,0,0:0:0:0:
156,270,51538,2,0,B|257:256|230:318|334:306,1,170.500005203247,2|8,0:0|0:0,0:0:0:0:
449,271,51988,1,0,0:0:0:0:
342,146,52138,6,0,B|314:172|314:172|301:217,1,85.2500026016236,2|0,0:0|0:0,0:0:0:0:
244,92,52438,1,10,0:0:0:0:
346,0,52588,1,0,0:0:0:0:
464,67,52738,2,0,B|466:96|466:96|458:120|458:120|468:190|426:229,1,170.500005203247,2|8,0:0|0:0,0:0:0:0:
342,146,53188,1,0,0:0:0:0:
190,217,53338,6,0,P|148:222|97:204,1,85.2500026016236,2|0,0:0|0:0,0:0:0:0:
161,85,53638,2,0,P|203:80|254:98,1,85.2500026016236,10|0,0:0|0:0,0:0:0:0:
275,251,53938,6,0,L|286:345,1,85.2500026016236,2|0,0:0|0:0,0:0:0:0:
420,309,54238,2,0,L|431:215,1,85.2500026016236,10|0,0:0|0:0,0:0:0:0:
469,55,54538,6,0,P|465:132|388:129,1,170.500005203247,2|8,0:0|0:0,0:0:0:0:
300,24,54988,1,0,0:0:0:0:
164,48,55138,2,0,L|71:33,1,85.2500026016236,2|0,0:0|0:0,0:0:0:0:
138,145,55438,2,0,P|154:184|149:226,1,85.2500026016236,8|8,0:2|0:2,0:0:0:0:
16,340,55738,6,0,B|26:221|26:221|70:195,1,170.500005203247,6|8,0:0|0:0,0:0:0:0:
149,306,56188,1,0,0:0:0:0:
285,294,56338,2,0,B|331:288|343:317|399:318|399:318|374:338|350:349,1,170.500005203247,2|8,0:0|0:0,0:0:0:0:
223,370,56788,1,0,0:0:0:0:
210,218,56938,6,0,B|212:187|212:187|224:165|224:165|216:128|216:128|223:90|247:57,1,170.500005203247,2|8,0:0|0:0,0:0:0:0:
377,19,57388,1,0,0:0:0:0:
475,112,57538,2,0,P|472:161|458:205,1,85.2500026016236,2|0,0:0|0:0,0:0:0:0:
342,262,57838,2,0,P|330:220|329:178,1,85.2500026016236,10|0,0:0|0:0,0:0:0:0:
430,281,58138,6,0,B|443:313|443:313|446:335,3,42.6250013008118,8|0|0|0,3:0|3:0|3:0|3:0,0:0:0:0:
367,349,58438,2,0,B|323:347|323:347|283:330,1,85.2500026016236,4|0,3:2|0:0,0:0:0:0:
328,178,58738,6,0,B|341:146|341:146|344:124,3,42.6250013008118,8|0|0|0,3:0|3:0|3:0|3:0,0:0:0:0:
294,72,59038,2,0,B|250:66|250:66|207:76,1,85.2500026016236,4|0,3:2|0:0,0:0:0:0:
122,214,59338,6,0,P|82:221|29:205,1,85.2500026016236,2|0,0:0|0:0,0:0:0:0:
22,196,59563,1,0,0:0:0:0:
14,176,59638,2,0,L|20:80,1,85.2500026016236,10|0,0:0|0:0,0:0:0:0:
122,214,59938,2,0,L|116:310,1,85.2500026016236,6|0,1:2|2:0,0:0:0:0:
232,354,60238,5,10,0:0:0:0:
252,350,60313,1,8,0:2:0:0:
273,348,60388,1,10,0:2:0:0:
294,344,60463,1,8,0:2:0:0:
315,341,60538,6,0,B|279:281|314:227|314:227|393:261,1,170.500005203247,6|8,0:0|0:0,0:0:0:0:
485,300,60988,1,0,0:0:0:0:
469,165,61138,2,0,B|450:104|466:49|466:49|431:60|401:44,1,170.500005203247,2|8,0:0|0:0,0:0:0:0:
286,0,61588,1,0,0:0:0:0:
207,130,61738,6,0,P|207:193|218:235,1,85.2500026016236,2|0,0:0|0:0,0:0:0:0:
303,314,62038,1,10,0:0:0:0:
171,344,62188,1,0,0:0:0:0:
80,245,62338,2,0,P|65:163|85:69,1,170.500005203247,2|8,0:0|0:0,0:0:0:0:
207,130,62788,1,0,0:0:0:0:
335,29,62938,6,0,B|390:24|390:24|417:35,1,85.2500026016236,2|0,0:0|0:0,0:0:0:0:
289,136,63238,2,0,B|234:141|234:141|206:129,1,85.2500026016236,10|0,0:0|0:0,0:0:0:0:
82,24,63538,6,0,P|82:66|73:107,1,85.2500026016236,2|0,0:0|0:0,0:0:0:0:
80,245,63838,2,0,P|100:207|128:175,1,85.2500026016236,10|0,0:0|0:0,0:0:0:0:
289,136,64138,6,0,B|366:125|363:188|450:175,1,170.500005203247,2|8,0:0|0:0,0:0:0:0:
438,39,64588,1,0,0:0:0:0:
302,22,64738,2,0,P|263:26|211:55,1,85.2500026016236,2|0,0:0|0:0,0:0:0:0:
213,181,65038,2,0,L|208:276,1,85.2500026016236,8|8,0:2|0:2,0:0:0:0:
216,286,65263,1,8,0:2:0:0:
227,304,65338,6,0,B|261:323|297:306|297:306|322:359|377:361,1,170.500005203247,6|8,0:0|0:0,0:0:0:0:
489,290,65788,1,0,0:0:0:0:
389,196,65938,2,0,B|378:227|378:227|374:280,1,85.2500026016236,2|0,0:0|0:0,0:0:0:0:
483,196,66238,2,0,B|480:160|465:139|465:139|433:117,1,85.2500026016236,10|0,0:0|0:0,0:0:0:0:
273,126,66538,6,0,P|284:69|352:122,1,170.500005203247,6|8,0:0|0:0,0:0:0:0:
279,226,66988,1,0,0:0:0:0:
164,150,67138,2,0,P|123:137|80:139,1,85.2500026016236,10|0,0:0|0:0,0:0:0:0:
22,263,67438,2,0,P|70:276|117:271,1,85.2500026016236,10|0,0:0|0:0,0:0:0:0:
279,226,67738,6,0,B|402:222|402:222|357:263,1,170.500005203247,14|8,0:0|0:0,0:0:0:0:
237,300,68188,1,0,0:0:0:0:
253,143,68338,2,0,B|259:60|309:42|309:42|385:63,1,170.500005203247,10|8,0:0|0:0,0:0:0:0:
472,124,68788,1,0,0:0:0:0:
472,124,68863,1,0,0:0:0:0:
472,124,68938,6,0,P|480:171|470:225,2,85.2500026016236,10|0|8,0:0|0:0|0:0,0:0:0:0:
355,54,69388,1,0,0:0:0:0:
334,49,69463,1,0,0:0:0:0:
312,43,69538,6,0,P|291:41|270:45,3,42.6250013008118,10|0|0|0,0:0|0:0|0:0|0:0,0:0:0:0:
215,100,69838,2,0,P|193:102|172:98,3,42.6250013008118,8|0|0|0,0:0|0:0|0:0|0:0,0:0:0:0:
126,16,70138,5,4,0:0:0:0:
256,192,70213,12,2,72538,2:2:0:0:
109,119,79738,6,0,L|87:114,1,19.375,0|0,0:0|0:0,0:0:0:0:
109,119,80938,6,0,B|165:111|165:111|218:125,1,108.499996688843,2|2,0:0|0:0,0:0:0:0:
256,192,81388,1,0,0:0:0:0:
296,259,81538,2,0,B|346:272|346:272|402:264,1,108.499996688843,2|2,0:0|0:0,0:0:0:0:
423,257,82138,6,0,B|430:223|425:201|425:201|448:158|448:158|457:94|409:35,1,216.999993377686,2|0,0:0|0:0,0:0:0:0:
421,52,83038,1,0,0:0:0:0:
284,75,83338,6,0,B|244:90|207:75|207:75|213:103,1,108.499996688843,2|2,0:0|0:0,0:0:0:0:
223,181,83788,1,0,0:0:0:0:
269,244,83938,2,0,P|206:256|168:235,1,108.499996688843,2|2,0:0|0:0,0:0:0:0:
152,223,84538,6,0,P|106:216|117:313,1,162.749995033264,2|0,0:0|0:0,0:0:0:0:
166,344,85138,2,0,B|223:361|218:326|287:350,1,108.499996688843,2|2,0:0|0:0,0:0:0:0:
424,302,85738,6,0,P|443:247|426:186,2,108.499996688843,2|2|2,0:0|0:0|0:0,0:0:0:0:
272,345,86638,1,2,0:0:0:0:
164,230,86938,6,0,B|104:216|104:216|35:223,2,108.499996688843,2|2|2,0:0|0:0|0:0,0:0:0:0:
272,345,87838,1,2,0:0:0:0:
424,302,88138,6,0,P|443:247|426:186,1,108.499996688843,2|0,0:0|0:0,0:0:0:0:
323,86,88738,6,0,L|257:81,1,62,2|0,0:0|0:0,0:0:0:0:
178,33,89038,6,0,L|108:38,1,69.749997871399,0|0,0:0|0:0,0:0:0:0:
34,107,89338,6,0,P|27:151|41:195,1,77.5,0|0,0:0|0:0,0:0:0:0:
121,282,89638,5,0,0:0:0:0:
210,205,89788,1,0,0:0:0:0:
255,286,89938,6,0,L|255:318,4,19.375,2|0|0|0|0,0:3|0:0|0:0|0:0|0:0,0:0:0:0:
386,326,90538,6,0,B|332:339|292:299|292:299|255:306,1,139.499995742798,4|8,0:0|0:0,0:0:0:0:
147,336,90988,1,0,0:0:0:0:
67,256,91138,2,0,B|32:214|61:152|61:152|108:180,1,139.499995742798,2|8,0:1|0:0,0:0:0:0:
178,230,91588,1,0,0:0:0:0:
281,151,91738,6,0,P|287:116|289:81,1,69.749997871399,2|0,0:2|0:0,0:0:0:0:
370,5,92038,2,0,P|373:39|379:73,1,69.749997871399,8|0,0:2|0:0,0:0:0:0:
465,147,92338,2,0,P|392:134|416:195,1,139.499995742798,2|10,0:1|0:2,0:0:0:0:
441,276,92788,1,0,0:0:0:0:
346,359,92938,6,0,B|304:365|274:357|274:357|263:348|263:348|239:349|212:334,1,139.499995742798,2|10,0:2|0:2,0:0:0:0:
151,241,93388,1,0,0:0:0:0:
263,235,93538,2,0,B|274:208|275:189|275:189|271:160|271:160|288:129|273:89,1,139.499995742798,2|8,0:1|0:0,0:0:0:0:
189,28,93988,1,0,0:2:0:0:
90,104,94138,6,0,B|85:134|85:134|88:174,1,69.749997871399,2|2,0:0|0:2,0:0:0:0:
161,258,94438,2,0,L|155:330,1,69.749997871399,10|2,0:0|0:2,0:0:0:0:
44,343,94738,2,0,L|38:271,1,69.749997871399,2|0,0:0|0:0,0:0:0:0:
92,177,95038,1,10,0:2:0:0:
92,177,95188,1,0,0:2:0:0:
222,170,95338,6,0,P|156:152|91:176,1,139.499995742798,2|10,0:2|0:2,0:0:0:0:
161,258,95788,1,0,0:0:0:0:
268,268,95938,2,0,P|316:219|328:151,1,139.499995742798,2|8,0:1|0:0,0:0:0:0:
259,69,96388,1,0,0:2:0:0:
374,22,96538,6,0,L|462:27,1,69.749997871399,2|0,0:2|0:0,0:0:0:0:
496,115,96838,2,0,P|463:127|428:124,1,69.749997871399,8|0,0:2|0:0,0:0:0:0:
328,151,97138,2,0,P|293:148|260:159,1,69.749997871399,2|0,0:1|0:0,0:0:0:0:
163,120,97438,1,10,0:0:0:0:
160,123,97588,1,0,0:0:0:0:
82,223,97738,6,0,B|75:261|75:261|83:304,1,69.749997871399,2|0,0:2|0:0,0:0:0:0:
181,342,98038,2,0,B|188:304|188:304|180:261,1,69.749997871399,10|0,0:2|0:0,0:0:0:0:
82,223,98338,2,0,L|-6:218,1,69.749997871399,2|0,0:2|0:0,0:0:0:0:
90,119,98638,2,0,L|178:124,1,69.749997871399,10|0,0:2|0:0,0:0:0:0:
293,166,98938,6,0,P|305:136|298:91,2,69.749997871399,2|2|10,0:0|0:2|0:0,0:0:0:0:
210,212,99388,1,2,0:2:0:0:
202,218,99463,1,2,0:2:0:0:
195,225,99538,2,0,P|183:257|190:290,1,69.749997871399,2|8,0:0|0:0,0:0:0:0:
268,345,99838,1,8,0:0:0:0:
343,287,99988,1,8,0:0:0:0:
353,284,100063,1,8,0:0:0:0:
363,281,100138,6,0,B|453:288,1,77.5,6|0,1:2|1:0,0:0:0:0:
498,186,100738,2,0,P|459:172|407:178,1,77.5,0|0,1:0|1:0,0:0:0:0:
311,204,101338,2,0,P|272:204|236:191,1,77.5,2|0,1:0|1:0,0:0:0:0:
171,94,101938,1,0,1:0:0:0:
55,102,102238,1,0,1:0:0:0:
41,234,102538,6,0,L|44:328,1,77.5,2|0,1:2|1:0,0:0:0:0:
149,358,103138,1,0,1:0:0:0:
242,289,103438,1,0,1:0:0:0:
228,173,103738,2,0,L|225:79,1,77.5,2|0,1:0|1:0,0:0:0:0:
303,9,104338,1,0,1:0:0:0:
417,34,104638,1,0,1:0:0:0:
441,172,104938,6,0,B|401:174|401:174|357:162,1,77.5,2|0,1:2|1:0,0:0:0:0:
267,101,105538,2,0,L|180:92,1,77.5,0|0,1:0|1:0,0:0:0:0:
126,190,106138,2,0,L|203:197,1,77.5,2|0,1:0|1:0,0:0:0:0:
300,260,106738,2,0,B|336:269|336:269|376:267,1,77.5,0|0,1:0|1:0,0:0:0:0:
495,349,107338,6,0,P|460:365|422:372,1,77.5,2|0,1:2|1:0,0:0:0:0:
376,266,107938,1,0,1:0:0:0:
463,190,108238,1,2,1:0:0:0:
463,190,108388,1,0,0:0:0:0:
418,101,108538,6,0,P|392:92|365:92,1,54.2499983444214,2|2,0:1|0:0,0:0:0:0:
273,126,108838,2,0,P|245:125|220:117,1,54.2499983444214,2|2,0:1|0:0,0:0:0:0:
146,30,109138,6,0,B|138:71|138:71|109:101,1,77.5,6|0,0:1|0:0,0:0:0:0:
38,175,109438,6,0,B|83:183|83:183|111:211,1,85.2500026016236,2|0,0:0|0:0,0:0:0:0:
161,337,109738,6,0,P|168:273|235:261,1,139.499995742798,4|8,0:0|0:0,0:0:0:0:
323,312,110188,1,0,0:0:0:0:
413,260,110338,2,0,P|417:221|409:174,1,69.749997871399,2|0,0:2|0:0,0:0:0:0:
333,122,110638,2,0,P|294:126|247:118,1,69.749997871399,10|0,0:0|0:2,0:0:0:0:
243,114,110863,1,0,0:0:0:0:
225,102,110938,6,0,B|177:67|126:85|126:85|104:112,1,139.499995742798,2|8,0:0|0:0,0:0:0:0:
59,207,111388,1,0,0:0:0:0:
119,294,111538,2,0,B|154:303|154:303|197:301,1,69.749997871399,2|0,0:2|0:0,0:0:0:0:
233,206,111838,2,0,B|198:197|198:197|164:198,1,69.749997871399,10|0,0:2|0:0,0:0:0:0:
271,283,112138,6,0,B|299:296|314:295|314:295|337:289|337:289|377:306|424:293,1,139.499995742798,2|10,0:2|0:2,0:0:0:0:
460,204,112588,1,0,0:0:0:0:
390,125,112738,2,0,L|298:116,1,69.749997871399,2|0,0:2|0:0,0:0:0:0:
250,39,113038,2,0,L|342:30,1,69.749997871399,10|0,0:2|0:0,0:0:0:0:
340,31,113263,1,0,0:0:0:0:
360,29,113338,6,0,B|380:35|380:35|423:33|451:57,1,69.749997871399,2|0,0:0|0:0,0:0:0:0:
506,111,113638,1,8,0:0:0:0:
390,125,113788,1,0,0:0:0:0:
460,204,113938,2,0,B|468:241|468:241|459:271,1,69.749997871399,0|8,0:0|0:0,0:0:0:0:
449,290,114163,1,8,0:0:0:0:
434,305,114238,2,0,L|342:296,1,69.749997871399,8|8,0:0|0:0,0:0:0:0:
283,194,114538,6,0,P|242:187|177:200,1,77.5,6|0,1:2|0:0,0:0:0:0:
288,294,114838,2,0,P|329:301|394:288,1,77.5,2|0,1:2|0:0,0:0:0:0:
409,159,115138,6,0,P|408:132|401:101,3,42.6250013008118,2|0|0|0,1:2|0:0|0:0|0:0,0:0:0:0:
363,126,115438,2,0,P|355:100|340:72,3,42.6250013008118,2|0|0|0,1:2|0:0|0:0|0:0,0:0:0:0:
310,106,115738,6,0,B|286:109|278:100|278:100|253:109|208:96,1,85.2500026016236,8|0,0:0|0:0,0:0:0:0:
204,88,115963,1,0,0:0:0:0:
181,76,116038,2,0,P|139:66|97:70,1,85.2500026016236,8|0,0:0|0:0,0:0:0:0:
23,168,116338,5,8,0:0:0:0:
26,193,116413,1,0,0:0:0:0:
30,218,116488,1,0,0:0:0:0:
33,242,116563,1,0,0:0:0:0:
36,267,116638,2,0,L|103:269,3,42.6250013008118,8|8|8|8,0:0|0:0|0:0|0:0,0:0:0:0:
116,339,116938,6,0,B|92:273|120:210|120:210|162:256,1,185.999994323731,4|0,1:0|1:2,0:0:0:0:
238,326,117388,1,0,0:0:0:0:
265,336,117463,1,0,0:0:0:0:
293,341,117538,2,0,P|339:341|385:339,1,92.9999971618653,0|0,0:0|0:0,0:0:0:0:
444,244,117838,2,0,L|448:178,4,46.4999985809327,2|0|2|0|2,0:0|0:2|0:2|0:2|0:2,0:0:0:0:
382,105,118288,6,0,B|343:73|343:73|324:116,1,92.9999971618653,12|0,0:0|0:0,0:0:0:0:
294,220,118588,1,8,0:0:0:0:
217,139,118738,6,0,L|206:104,1,34.8749989356995,8|0,0:0|0:0,0:0:0:0:
225,61,119038,5,8,0:0:0:0:
205,58,119113,1,8,0:0:0:0:
185,56,119188,1,8,0:0:0:0:
165,53,119263,1,8,0:0:0:0:
145,51,119338,6,0,B|28:36|28:36|59:111,1,170.500005203247,6|8,0:0|0:0,0:0:0:0:
101,210,119788,1,0,0:0:0:0:
217,139,119938,2,0,B|247:131|270:135|270:135|323:154|323:154|347:128|391:125,1,170.500005203247,2|8,0:0|0:0,0:0:0:0:
497,62,120388,1,0,0:0:0:0:
466,217,120538,6,0,B|449:221|431:219|431:219|410:207|382:208,1,85.2500026016236,2|0,0:0|0:0,0:0:0:0:
258,263,120838,1,10,0:0:0:0:
388,303,120988,1,0,0:0:0:0:
261,357,121138,2,0,B|200:357|174:306|174:306|144:329|111:320,1,170.500005203247,2|8,0:0|0:0,0:0:0:0:
3,242,121588,1,0,0:0:0:0:
134,147,121738,6,0,B|132:198|132:198|122:231,1,85.2500026016236,2|0,0:0|0:0,0:0:0:0:
15,143,122038,2,0,B|17:92|17:92|27:59,1,85.2500026016236,10|0,0:0|0:0,0:0:0:0:
197,21,122338,6,0,L|304:37,1,85.2500026016236,2|0,0:0|0:0,0:0:0:0:
218,159,122638,2,0,L|111:143,1,85.2500026016236,10|0,0:0|0:0,0:0:0:0:
306,126,122938,6,0,B|318:188|283:224|283:224|278:261|312:295,1,170.500005203247,2|8,0:0|0:0,0:0:0:0:
423,350,123388,1,0,0:0:0:0:
488,228,123538,2,0,P|495:172|491:143,1,85.2500026016236,2|0,0:0|0:0,0:0:0:0:
372,74,123838,2,0,P|330:111|304:126,1,85.2500026016236,8|8,0:2|0:2,0:0:0:0:
141,66,124138,6,0,P|210:43|211:117,1,170.500005203247,6|8,0:0|0:0,0:0:0:0:
75,131,124588,1,0,0:0:0:0:
18,255,124738,2,0,B|-7:323|32:368|32:368|96:321,1,170.500005203247,2|8,0:0|0:0,0:0:0:0:
177,250,125188,1,0,0:0:0:0:
306,361,125338,6,0,B|375:374|432:349|432:349|380:311,1,170.500005203247,2|8,0:0|0:0,0:0:0:0:
272,270,125788,1,0,0:0:0:0:
156,345,125938,2,0,L|72:338,1,85.2500026016236,2|0,0:0|0:0,0:0:0:0:
17,212,126238,2,0,P|16:173|30:128,1,85.2500026016236,10|0,0:0|0:0,0:0:0:0:
169,58,126538,6,0,L|211:61,3,42.6250013008118,8|0|0|0,3:0|3:0|3:0|3:0,0:0:0:0:
279,102,126838,2,0,P|289:61|280:20,1,85.2500026016236,4|0,3:2|0:0,0:0:0:0:
168,139,127138,6,0,L|210:142,3,42.6250013008118,8|0|0|0,3:0|3:0|3:0|3:0,0:0:0:0:
278,183,127438,2,0,P|288:143|279:102,1,85.2500026016236,4|0,3:2|0:0,0:0:0:0:
208,222,127738,6,0,P|236:252|279:264,1,85.2500026016236,2|0,0:0|0:0,0:0:0:0:
298,262,127963,1,0,0:0:0:0:
319,261,128038,2,0,L|432:271,1,85.2500026016236,10|0,0:0|0:0,0:0:0:0:
363,108,128338,2,0,L|250:98,1,85.2500026016236,6|0,1:2|2:0,0:0:0:0:
164,138,128638,5,10,0:0:0:0:
143,135,128713,1,8,0:2:0:0:
122,134,128788,1,10,0:2:0:0:
101,132,128863,1,8,0:2:0:0:
80,131,128938,6,0,B|44:130|18:148|18:148|20:116|0:89|0:89|0:75|13:46,1,170.500005203247,6|8,0:0|0:0,0:0:0:0:
141,6,129388,1,0,0:0:0:0:
242,96,129538,2,0,B|272:111|317:109|317:109|352:81|352:81|388:87|399:103,1,170.500005203247,2|8,0:0|0:0,0:0:0:0:
501,187,129988,1,0,0:0:0:0:
432,336,130138,6,0,P|389:341|347:337,1,85.2500026016236,2|0,0:0|0:0,0:0:0:0:
248,242,130438,1,10,0:0:0:0:
127,306,130588,1,0,0:0:0:0:
28,210,130738,2,0,B|7:138|27:86|27:86|81:55,1,170.500005203247,2|8,0:0|0:0,0:0:0:0:
194,17,131188,1,0,0:0:0:0:
291,153,131338,6,0,L|375:144,1,85.2500026016236,2|0,0:0|0:0,0:0:0:0:
279,8,131638,2,0,L|195:17,1,85.2500026016236,10|0,0:0|0:0,0:0:0:0:
204,177,131938,6,0,P|211:136|211:93,1,85.2500026016236,2|0,0:0|0:0,0:0:0:0:
66,64,132238,2,0,P|58:106|59:149,1,85.2500026016236,10|0,0:0|0:0,0:0:0:0:
105,303,132538,6,0,B|151:325|151:325|201:312|201:312|266:328,1,170.500005203247,2|8,0:0|0:0,0:0:0:0:
397,366,132988,1,0,0:0:0:0:
364,234,133138,2,0,L|280:213,1,85.2500026016236,2|0,0:0|0:0,0:0:0:0:
220,91,133438,2,0,B|240:75|274:70|274:70|306:73,1,85.2500026016236,8|8,0:2|0:2,0:0:0:0:
321,79,133663,1,8,0:2:0:0:
340,89,133738,6,0,B|367:106|408:105|408:105|443:68|498:71,1,170.500005203247,6|8,0:0|0:0,0:0:0:0:
497,208,134188,1,0,0:0:0:0:
364,234,134338,2,0,B|332:237|303:218|303:218|287:232,1,85.2500026016236,2|0,0:0|0:0,0:0:0:0:
173,308,134638,2,0,P|129:314|75:288,1,85.2500026016236,10|0,0:0|0:0,0:0:0:0:
28,152,134938,6,0,B|24:92|36:47|36:47|61:73|93:75,1,170.500005203247,6|8,0:0|0:0,0:0:0:0:
221,29,135388,1,0,0:0:0:0:
291,146,135538,2,0,P|294:189|285:235,1,85.2500026016236,10|0,0:0|0:0,0:0:0:0:
253,362,135838,2,0,P|288:337|333:322,1,85.2500026016236,10|0,0:0|0:0,0:0:0:0:
489,352,136138,6,0,B|500:284|466:250|466:250|474:220|466:185,1,170.500005203247,14|8,0:0|0:0,0:0:0:0:
403,67,136588,1,0,0:0:0:0:
291,146,136738,2,0,B|214:157|217:94|130:107,1,170.500005203247,10|8,0:0|0:0,0:0:0:0:
32,189,137188,1,0,0:0:0:0:
29,192,137263,1,0,0:0:0:0:
26,195,137338,6,0,P|18:242|28:296,2,85.2500026016236,10|0|8,0:0|0:0|0:0,0:0:0:0:
129,107,137788,1,0,0:0:0:0:
150,106,137863,1,0,0:0:0:0:
171,108,137938,6,0,P|191:111|211:120,3,42.6250013008118,10|0|0|0,0:0|0:0|0:0|0:0,0:0:0:0:
247,192,138238,2,0,P|267:199|289:201,3,42.6250013008118,8|0|0|0,0:0|0:0|0:0|0:0,0:0:0:0:
363,133,138538,5,4,0:0:0:0:
256,192,138613,12,2,140338,2:2:0:0:
158,199,141988,6,0,B|138:153|164:90|164:90|112:110,1,155,6|0,0:0|0:0,0:0:0:0:
54,189,142438,1,8,0:0:0:0:
112,278,142588,2,0,P|149:290|187:286,1,77.5,2|0,0:0|0:0,0:0:0:0:
263,207,142888,1,0,0:0:0:0:
281,203,142963,1,0,0:0:0:0:
299,199,143038,2,0,P|316:199|363:209,3,38.75,8|0|0|0,0:0|0:0|0:0|0:0,0:0:0:0:
388,261,143338,6,0,B|359:220|377:168|377:168|403:181|433:174,1,155,6|8,0:0|0:0,0:0:0:0:
423,65,143788,1,2,0:2:0:0:
416,46,143863,1,2,0:2:0:0:
405,27,143938,2,0,B|354:21|354:21|334:38|334:38|299:29|252:38,1,155,2|8,0:0|0:0,0:0:0:0:
191,123,144388,1,0,0:0:0:0:
68,29,144538,6,0,B|60:56|66:78|66:78|53:112|53:112|49:149|58:189,1,155,2|8,0:0|0:0,0:0:0:0:
118,270,144988,1,2,0:2:0:0:
222,238,145138,2,0,L|313:249,1,77.5,2|2,0:0|0:2,0:0:0:0:
389,305,145438,2,0,P|403:270|404:231,1,77.5,10|8,0:0|0:0,0:0:0:0:
400,212,145663,1,8,0:0:0:0:
394,193,145738,6,0,P|388:154|397:116,1,77.5,6|0,0:0|0:0,0:0:0:0:
496,71,146038,2,0,P|501:109|492:146,1,77.5,8|0,0:0|0:0,0:0:0:0:
394,193,146338,2,0,L|294:186,1,77.5,8|0,0:0|0:0,0:0:0:0:
233,118,146638,1,8,0:0:0:0:
214,117,146713,1,0,0:0:0:0:
195,118,146788,1,0,0:0:0:0:
177,124,146863,1,0,0:0:0:0:
159,130,146938,6,0,B|141:135|121:134|121:134|100:124|83:126,1,77.5,10|0,0:0|0:0,0:0:0:0:
22,217,147238,2,0,P|18:239|20:256,3,38.75,10|0|0|0,0:0|0:0|0:0|0:0,0:0:0:0:
70,275,147538,2,0,L|133:280,3,38.75,10|0|0|0,0:0|0:0|0:0|0:0,0:0:0:0:
158,300,147838,2,0,L|221:305,3,38.75,10|8|10|8,0:0|0:0|0:0|0:0,0:0:0:0:
243,330,148138,5,2,0:0:0:0:
357,283,148288,2,0,L|440:295,1,77.5,2|8,0:0|0:0,0:0:0:0:
489,182,148588,2,0,P|493:130|485:99,1,77.5,2|0,0:0|0:0,0:0:0:0:
376,55,148888,2,0,P|372:107|380:138,1,77.5,2|8,0:0|0:0,0:0:0:0:
460,18,149188,6,0,B|427:21|427:21|402:36|402:36|361:26|361:26|294:27,1,155,2|2,0:0|0:0,0:0:0:0:
193,68,149638,2,0,P|151:68|110:56,1,77.5,8|2,0:0|0:0,0:0:0:0:
4,112,149938,2,0,P|100:145|133:203,1,155,0|8,0:0|0:0,0:0:0:0:
166,304,150388,1,2,0:2:0:0:
180,322,150463,1,2,0:2:0:0:
196,335,150538,6,0,P|234:345|272:340,1,77.5,2|2,0:0|0:2,0:0:0:0:
371,267,150838,2,0,P|375:248|371:221,3,38.75,10|0|2|0,0:0|0:0|0:2|0:0,0:0:0:0:
365,207,151138,2,0,L|281:199,1,77.5,2|2,0:0|0:2,0:0:0:0:
197,115,151438,1,10,0:0:0:0:
323,47,151588,6,0,B|405:54|405:54|448:34|508:54,1,155,2|2,0:0|0:0,0:0:0:0:
456,168,152038,2,0,P|456:216|464:260,1,77.5,10|2,0:2|0:0,0:0:0:0:
383,343,152338,2,0,P|377:295|365:252,1,77.5,0|2,0:0|0:2,0:0:0:0:
358,246,152563,1,2,0:2:0:0:
337,234,152638,2,0,P|305:224|281:228,3,38.75,10|8|8|8,0:0|0:0|0:0|0:0,0:0:0:0:
265,294,152938,6,0,P|288:228|222:205,1,155,4|10,0:0|0:0,0:0:0:0:
120,277,153388,1,2,0:2:0:0:
19,202,153538,2,0,B|20:155|20:155|35:107,1,77.5,2|2,0:0|0:2,0:0:0:0:
42,106,153763,1,2,0:2:0:0:
61,93,153838,2,0,B|90:83|90:83|137:82,1,77.5,10|2,0:0|0:2,0:0:0:0:
268,33,154138,6,0,P|287:27|320:27,3,38.75,14|0|2|0,0:0|0:0|0:2|0:0,0:0:0:0:
328,56,154438,2,0,P|347:55|379:63,3,38.75,10|0|2|0,0:0|0:0|0:2|0:0,0:0:0:0:
380,93,154738,2,0,P|385:136|376:182,1,77.5,2|2,0:1|0:2,0:0:0:0:
282,246,155038,1,10,0:1:0:0:
275,268,155113,1,0,0:0:0:0:
277,291,155188,1,2,0:0:0:0:
290,309,155263,1,0,0:0:0:0:
310,320,155338,6,0,B|354:324|354:324|403:320,1,77.5,2|2,0:1|0:0,0:0:0:0:
444,211,155638,2,0,B|408:184|408:184|365:161,1,77.5,2|0,1:0|0:0,0:0:0:0:
356,163,155863,1,0,0:0:0:0:
332,165,155938,2,0,L|231:161,1,77.5,2|2,1:0|0:1,0:0:0:0:
135,195,156238,2,0,L|34:191,1,77.5,2|2,1:0|0:1,0:0:0:0:
40,175,156463,1,0,0:0:0:0:
32,152,156538,6,0,P|33:91|46:59,1,77.5,2|0,1:1|0:0,0:0:0:0:
156,35,156838,2,0,P|182:32|206:37,3,38.75,2|2|2|2,1:1|0:0|0:1|0:0,0:0:0:0:
233,72,157138,2,0,L|282:72,3,38.75,2|2|2|2,1:1|0:0|0:1|0:0,0:0:0:0:
323,89,157438,5,2,1:0:0:0:
332,110,157513,1,2,1:2:0:0:
334,133,157588,1,2,1:1:0:0:
332,156,157663,1,2,1:2:0:0:
325,177,157738,6,0,P|320:216|330:253,1,77.5,6|0,1:2|1:0,0:0:0:0:
436,207,158338,2,0,P|441:168|431:131,1,77.5,0|0,1:0|1:0,0:0:0:0:
323,89,158938,2,0,B|235:86,1,77.5,2|0,1:0|1:0,0:0:0:0:
142,32,159538,1,0,1:0:0:0:
59,114,159838,1,0,1:0:0:0:
148,215,160138,6,0,B|150:246|150:246|144:271|144:271|149:308,1,77.5,2|0,1:2|1:0,0:0:0:0:
262,280,160738,1,0,1:0:0:0:
329,374,161038,1,0,1:0:0:0:
443,362,161338,2,0,B|453:340|453:340|455:286,1,77.5,2|0,1:0|1:0,0:0:0:0:
433,172,161938,1,0,1:0:0:0:
324,134,162238,1,0,1:0:0:0:
247,247,162538,6,0,P|208:253|170:245,1,77.5,2|0,1:2|1:0,0:0:0:0:
133,135,163138,2,0,P|171:129|209:137,1,77.5,0|0,1:0|1:0,0:0:0:0:
170,245,163738,2,0,P|131:250|93:242,1,77.5,2|0,1:0|1:0,0:0:0:0:
133,135,164338,2,0,L|139:50,1,77.5,0|0,1:0|1:0,0:0:0:0:
278,11,164938,6,0,L|284:96,1,77.5,2|0,1:2|1:0,0:0:0:0:
313,200,165538,1,0,1:0:0:0:
430,230,165838,1,2,1:0:0:0:
430,230,165988,1,0,0:0:0:0:
383,308,166138,6,0,B|360:309|360:309|325:304,1,54.2499983444214,2|0,0:3|0:0,0:0:0:0:
234,331,166438,2,0,B|211:332|211:332|176:327,1,54.2499983444214,0|0,0:0|0:0,0:0:0:0:
75,347,166738,6,0,B|68:317|68:317|77:298|72:263,1,77.5,2|0,0:0|0:0,0:0:0:0:
17,174,167038,6,0,B|45:182|45:182|59:178|59:178|87:176|117:186,1,85.2500026016236,2|0,0:0|0:0,0:0:0:0:
220,219,167338,6,0,B|241:149|200:154|226:75,1,139.499995742798,4|8,0:0|0:0,0:0:0:0:
309,21,167788,1,0,0:0:0:0:
393,83,167938,2,0,P|399:117|396:151,1,69.749997871399,2|0,0:2|0:0,0:0:0:0:
323,228,168238,2,0,P|316:262|321:296,1,69.749997871399,10|0,0:0|0:2,0:0:0:0:
327,316,168463,1,0,0:0:0:0:
338,333,168538,6,0,B|297:354|297:354|254:325|206:330,1,139.499995742798,2|8,0:0|0:0,0:0:0:0:
108,359,168988,1,0,0:0:0:0:
49,272,169138,2,0,B|42:234|42:234|51:178,1,69.749997871399,2|0,0:2|0:0,0:0:0:0:
142,159,169438,2,0,B|149:197|149:197|140:253,1,69.749997871399,10|0,0:2|0:0,0:0:0:0:
64,113,169738,6,0,B|87:77|131:71|131:71|195:79,1,139.499995742798,2|10,0:2|0:2,0:0:0:0:
255,159,170188,1,0,0:0:0:0:
336,93,170338,2,0,L|340:18,1,69.749997871399,2|0,0:2|0:0,0:0:0:0:
431,74,170638,2,0,L|435:149,1,69.749997871399,10|0,0:2|0:0,0:0:0:0:
442,163,170863,1,0,0:0:0:0:
448,182,170938,6,0,L|452:257,1,69.749997871399,2|0,0:0|0:0,0:0:0:0:
402,344,171238,1,8,0:0:0:0:
299,328,171388,1,0,0:0:0:0:
282,225,171538,2,0,P|269:187|254:158,1,69.749997871399,0|8,0:0|0:0,0:0:0:0:
239,146,171763,1,8,0:0:0:0:
218,143,171838,2,0,L|126:136,1,69.749997871399,8|8,0:0|0:0,0:0:0:0:
18,92,172138,6,0,P|8:54|18:17,1,77.5,6|0,1:2|0:0,0:0:0:0:
148,63,172438,2,0,P|157:100|147:137,1,77.5,2|0,1:2|0:0,0:0:0:0:
42,226,172738,6,0,L|37:275,3,42.6250013008118,2|0|0|0,1:2|0:0|0:0|0:0,0:0:0:0:
63,302,173038,2,0,P|83:306|112:307,3,42.6250013008118,2|0|0|0,1:2|0:0|0:0|0:0,0:0:0:0:
147,298,173338,6,0,P|189:296|228:311,1,85.2500026016236,8|0,0:0|0:0,0:0:0:0:
255,317,173563,1,0,0:0:0:0:
277,303,173638,2,0,B|287:281|279:256|279:256|279:239|292:207,1,85.2500026016236,8|0,0:0|0:0,0:0:0:0:
321,103,173938,5,8,0:0:0:0:
343,91,174013,1,0,0:0:0:0:
368,89,174088,1,0,0:0:0:0:
391,98,174163,1,0,0:0:0:0:
407,117,174238,2,0,P|410:144|403:172,3,42.6250013008118,8|8|8|8,0:0|0:0|0:0|0:0,0:0:0:0:
367,228,174538,6,0,B|382:196|436:171|436:171|466:230|445:270,1,185.999994323731,4|0,1:0|1:2,0:0:0:0:
364,336,174988,1,0,0:0:0:0:
336,333,175063,1,0,0:0:0:0:
310,322,175138,2,0,B|281:306|262:304|262:304|239:313|196:307,1,92.9999971618653,0|0,0:0|0:0,0:0:0:0:
121,259,175438,2,0,L|121:193,3,46.4999985809327,2|0|2|0,0:0|0:2|0:2|0:2,0:0:0:0:
113,165,175738,6,0,P|158:152|203:160,1,92.9999971618653,8|0,0:0|0:0,0:0:0:0:
225,169,175938,6,0,P|271:177|315:164,1,92.9999971618653,8|0,0:0|0:0,0:0:0:0:
326,142,176138,6,0,P|334:95|321:51,1,92.9999971618653,8|0,0:0|0:0,0:0:0:0:
302,36,176338,6,0,P|255:28|211:41,1,92.9999971618653,8|0,0:0|0:0,0:0:0:0:
190,52,176538,6,0,L|144:47,4,36.1666655629476,8|0|0|0|8,0:0|0:0|0:0|0:0|0:0,0:0:0:0:
193,93,187138,6,0,B|162:119|142:161|170:219|217:235|266:233|303:176|303:176|292:186|273:194|255:192,1,310,2|0,0:0|0:0,0:0:0:0:
256,192,188938,6,0,P|247:260|263:297,1,92.9999971618653,10|0,3:3|0:0,0:0:0:0:
372,372,189238,1,8,0:0:0:0:
496,288,189388,1,0,0:0:0:0:
452,143,189538,2,0,B|391:113|331:144|331:144|313:115|285:108,1,185.999994323731,2|8,0:0|0:0,0:0:0:0:
150,81,189988,1,0,0:0:0:0:
92,229,190138,6,0,P|131:246|173:243,1,85.2500026016236,2|0,0:0|0:0,0:0:0:0:
150,81,190438,2,0,P|111:64|69:67,1,85.2500026016236,10|0,0:0|0:0,0:0:0:0:
92,229,190738,6,0,L|97:328,1,85.2500026016236,2|0,0:0|0:0,0:0:0:0:
253,356,191038,2,0,L|258:257,1,85.2500026016236,10|0,0:0|0:0,0:0:0:0:
254,105,191338,6,0,B|287:184|227:199|258:271,1,170.500005203247,2|8,0:0|0:0,0:0:0:0:
374,341,191788,1,0,0:0:0:0:
476,252,191938,2,0,P|485:199|476:159,1,85.2500026016236,2|0,0:0|0:0,0:0:0:0:
408,50,192238,2,0,L|320:44,1,85.2500026016236,8|8,0:2|0:2,0:0:0:0:
163,86,192538,6,0,B|283:75|283:75|322:44,1,170.500005203247,6|8,0:0|0:0,0:0:0:0:
374,169,192988,1,0,0:0:0:0:
269,257,193138,2,0,B|208:264|208:264|181:250|181:250|136:257|106:235,1,170.500005203247,2|8,0:0|0:0,0:0:0:0:
9,138,193588,1,0,0:0:0:0:
163,86,193738,6,0,B|232:80|232:80|283:68|283:68|336:109,1,170.500005203247,2|8,0:0|0:0,0:0:0:0:
373,224,194188,1,0,0:0:0:0:
457,116,194338,2,0,P|469:51|458:8,1,85.2500026016236,2|0,0:0|0:0,0:0:0:0:
331,15,194638,2,0,P|319:80|330:123,1,85.2500026016236,10|0,0:0|0:0,0:0:0:0:
452,199,194938,6,0,P|455:227|446:255,3,42.6250013008118,8|0|0|0,3:0|3:0|3:0|3:0,0:0:0:0:
399,303,195238,2,0,B|354:305|354:305|313:286,1,85.2500026016236,4|0,3:2|0:0,0:0:0:0:
183,199,195538,6,0,P|180:227|189:255,3,42.6250013008118,8|0|0|0,3:0|3:0|3:0|3:0,0:0:0:0:
236,303,195838,2,0,B|281:305|281:305|322:286,1,85.2500026016236,4|0,3:2|0:0,0:0:0:0:
183,199,196138,6,0,B|146:182|146:182|101:184,1,85.2500026016236,2|0,0:0|0:0,0:0:0:0:
81,192,196363,1,0,0:0:0:0:
61,200,196438,2,0,P|53:155|67:104,1,85.2500026016236,10|0,0:0|0:0,0:0:0:0:
183,199,196738,2,0,P|191:244|177:295,1,85.2500026016236,6|0,1:2|2:0,0:0:0:0:
273,197,197038,5,10,0:0:0:0:
268,177,197113,1,8,0:2:0:0:
262,157,197188,1,10,0:2:0:0:
252,139,197263,1,8,0:2:0:0:
240,122,197338,6,0,B|208:77|227:15|227:15|178:47,1,170.500005203247,6|8,0:0|0:0,0:0:0:0:
60,116,197788,1,0,0:0:0:0:
88,249,197938,2,0,B|121:263|152:256|152:256|173:272|173:272|218:258|268:286,1,170.500005203247,2|8,0:0|0:0,0:0:0:0:
353,366,198388,1,0,0:0:0:0:
440,229,198538,6,0,P|446:186|437:144,1,85.2500026016236,2|0,0:0|0:0,0:0:0:0:
330,58,198838,1,10,0:0:0:0:
309,194,198988,1,0,0:0:0:0:
201,108,199138,2,0,B|144:79|144:79|70:68|35:106,1,170.500005203247,2|8,0:0|0:0,0:0:0:0:
91,227,199588,1,0,0:0:0:0:
201,108,199738,6,0,P|217:68|210:27,1,85.2500026016236,2|0,0:0|0:0,0:0:0:0:
51,18,200038,2,0,P|35:57|42:98,1,85.2500026016236,10|0,0:0|0:0,0:0:0:0:
201,108,200338,6,0,L|305:120,1,85.2500026016236,2|0,0:0|0:0,0:0:0:0:
175,236,200638,2,0,L|71:224,1,85.2500026016236,10|0,0:0|0:0,0:0:0:0:
251,197,200938,6,0,B|277:275|215:289|252:365,1,170.500005203247,2|8,0:0|0:0,0:0:0:0:
379,313,201388,1,0,0:0:0:0:
399,177,201538,2,0,B|401:144|395:120|395:120|378:97,1,85.2500026016236,2|0,0:0|0:0,0:0:0:0:
230,117,201838,2,0,B|228:150|234:174|234:174|250:196,1,85.2500026016236,8|8,0:2|0:2,0:0:0:0:
257,216,202063,1,8,0:2:0:0:
258,237,202138,6,0,B|243:289|243:289|180:330|114:276,1,170.500005203247,6|8,0:0|0:0,0:0:0:0:
49,182,202588,1,0,0:0:0:0:
161,102,202738,6,0,B|239:118,1,69.749997871399,2|0,0:2|0:0,0:0:0:0:
313,134,203038,6,0,B|383:148,1,54.2499983444214,2|0,0:2|0:0,0:0:0:0:
450,163,203338,6,0,P|363:216|368:324,1,216.999993377686,10|8,0:3|0:0,0:0:0:0:
453,266,203788,1,0,0:0:0:0:
327,222,203938,2,0,P|284:213|230:223,1,85.2500026016236,10|0,0:0|0:0,0:0:0:0:
191,335,204238,2,0,P|234:344|288:334,1,85.2500026016236,10|0,0:0|0:0,0:0:0:0:
115,231,204538,6,0,L|95:229,1,19.375,0|0,0:0|0:0,0:0:0:0:
115,231,204838,6,0,P|141:151|126:94,1,133.687502549887,14|0,1:3|0:0,0:0:0:0:
83,44,205138,2,0,B|176:83|176:20|266:48,1,178.250003399849,2|8,0:0|0:0,0:0:0:0:
380,116,205588,1,0,0:0:0:0:
246,217,205738,6,0,B|230:192|230:192|225:133,1,89.1250016999245,2|0,0:0|0:0,0:0:0:0:
338,44,206038,1,10,0:0:0:0:
471,98,206188,1,0,0:0:0:0:
490,240,206338,2,0,B|500:330|446:352|446:352|402:295,1,178.250003399849,2|8,0:0|0:0,0:0:0:0:
334,197,206788,1,0,0:0:0:0:
274,349,206938,6,0,P|232:354|181:336,1,89.1250016999245,2|0,0:0|0:0,0:0:0:0:
248,188,207238,2,0,P|290:183|341:201,1,89.1250016999245,10|0,0:0|0:0,0:0:0:0:
163,237,207538,6,0,B|151:190|151:190|161:136,1,89.1250016999245,2|0,0:0|0:0,0:0:0:0:
329,109,207838,2,0,B|341:156|341:156|331:210,1,89.1250016999245,10|0,0:0|0:0,0:0:0:0:
225,52,208138,6,0,B|255:42|280:42|280:42|318:18|318:18|369:23|397:54,1,178.250003399849,2|8,0:0|0:0,0:0:0:0:
472,163,208588,1,0,0:0:0:0:
333,195,208738,2,0,B|298:198|298:198|274:182|245:187,1,89.1250016999245,2|0,0:0|0:0,0:0:0:0:
172,308,209038,2,0,P|215:300|251:275,1,89.1250016999245,8|8,0:2|0:2,0:0:0:0:
196,109,209338,6,0,B|140:64|77:108|77:108|115:157,1,178.250003399849,6|8,0:0|0:0,0:0:0:0:
246,186,209788,1,0,0:0:0:0:
326,63,209938,2,0,P|407:41|464:104,1,178.250003399849,2|8,0:0|0:0,0:0:0:0:
487,244,210388,1,0,0:0:0:0:
332,164,210538,6,0,P|249:184|232:267,1,178.250003399849,2|8,0:0|0:0,0:0:0:0:
126,362,210988,1,0,0:0:0:0:
3,289,211138,2,0,P|-3:237|14:183,1,89.1250016999245,2|0,0:0|0:0,0:0:0:0:
138,149,211438,2,0,P|146:192|140:236,1,89.1250016999245,10|0,0:0|0:0,0:0:0:0:
40,95,211738,6,0,B|50:69|78:49,3,44.5625008499623,8|0|0|0,3:0|3:0|3:0|3:0,0:0:0:0:
146,31,212038,2,0,L|259:40,1,89.1250016999245,4|0,3:2|0:0,0:0:0:0:
304,193,212338,6,0,B|314:218|342:239,3,44.5625008499623,8|0|0|0,3:0|3:0|3:0|3:0,0:0:0:0:
410,257,212638,2,0,L|523:248,1,89.1250016999245,4|0,3:2|0:0,0:0:0:0:
498,79,212938,6,0,L|385:70,1,89.1250016999245,2|0,0:0|0:0,0:0:0:0:
388,63,213163,1,0,0:0:0:0:
367,53,213238,2,0,L|254:44,1,89.1250016999245,10|0,0:0|0:0,0:0:0:0:
304,193,213538,2,0,P|305:247|284:286,1,77.5,6|0,1:2|2:0,0:0:0:0:
180,284,213838,5,10,0:0:0:0:
160,281,213913,1,8,0:2:0:0:
140,279,213988,1,10,0:2:0:0:
120,277,214063,1,8,0:2:0:0:
97,275,214138,6,0,B|42:221|77:155|77:155|130:145,1,178.250003399849,6|8,0:0|0:0,0:0:0:0:
264,129,214588,1,0,0:0:0:0:
177,14,214738,2,0,B|36:23|36:23|0:73,1,178.250003399849,2|8,0:0|0:0,0:0:0:0:
122,146,215188,1,0,0:0:0:0:
253,47,215338,6,0,P|297:53|336:92,1,89.1250016999245,2|0,0:0|0:0,0:0:0:0:
391,211,215638,1,10,0:0:0:0:
287,310,215788,1,0,0:0:0:0:
160,241,215938,2,0,P|68:243|22:329,1,178.250003399849,2|8,0:0|0:0,0:0:0:0:
27,166,216388,1,0,0:0:0:0:
202,173,216538,6,0,B|230:191|239:226|239:226|260:217,1,89.1250016999245,2|0,0:0|0:0,0:0:0:0:
252,46,216838,2,0,P|209:37|165:41,1,89.1250016999245,10|0,0:0|0:0,0:0:0:0:
260,217,217138,6,0,B|288:235|297:270|297:270|318:261,1,89.1250016999245,2|0,0:0|0:0,0:0:0:0:
340,52,217438,2,0,P|296:42|252:46,1,89.1250016999245,10|0,0:0|0:0,0:0:0:0:
318,261,217738,6,0,B|346:285|386:265|386:265|449:254|482:303,1,178.250003399849,2|8,0:0|0:0,0:0:0:0:
425,168,218188,1,0,0:0:0:0:
318,261,218338,2,0,L|308:351,1,89.1250016999245,2|0,0:0|0:0,0:0:0:0:
165,349,218638,2,0,L|155:260,1,89.1250016999245,8|8,0:2|0:2,0:0:0:0:
138,245,218863,1,8,0:2:0:0:
127,224,218938,6,0,B|124:193|124:193|133:168|133:168|106:107|160:51,1,178.250003399849,6|8,0:0|0:0,0:0:0:0:
291,12,219388,1,0,0:0:0:0:
296,154,219538,2,0,P|252:144|212:127,1,89.1250016999245,2|0,0:0|0:0,0:0:0:0:
349,83,219838,2,0,P|376:118|384:163,1,89.1250016999245,10|0,0:0|0:0,0:0:0:0:
288,302,220138,6,0,P|299:243|385:277,1,178.250003399849,6|8,0:0|0:0,0:0:0:0:
472,159,220588,1,0,0:0:0:0:
349,83,220738,2,0,P|298:80|259:94,1,89.1250016999245,10|0,0:0|0:0,0:0:0:0:
135,157,221038,2,0,P|84:160|45:146,1,89.1250016999245,10|0,0:0|0:0,0:0:0:0:
168,26,221338,6,0,B|228:8|285:39|285:39|262:92,1,178.250003399849,14|8,0:0|0:0,0:0:0:0:
135,157,221788,1,0,0:0:0:0:
157,298,221938,2,0,P|208:332|328:303,1,178.250003399849,10|8,0:0|0:0,0:0:0:0:
381,189,222388,1,0,0:0:0:0:
381,189,222463,1,0,0:0:0:0:
381,189,222538,6,0,P|428:187|485:214,2,89.1250016999245,10|0|8,0:0|0:0|0:0,0:0:0:0:
317,312,222988,1,0,0:0:0:0:
299,325,223063,1,0,0:0:0:0:
278,334,223138,2,0,P|223:336|205:328,3,44.5625008499623,10|0|0|0,0:0|0:0|0:0|0:0,0:0:0:0:
175,284,223438,6,0,L|156:281,1,19.375,2|0,0:0|0:0,0:0:0:0:
256,96,223738,5,14,0:3:0:0:
256,192,223813,12,4,228538,2:2:0:0:
