osu file format v14

[General]
AudioFilename: audio.mp3
AudioLeadIn: 0
PreviewTime: 178138
Countdown: 0
SampleSet: Normal
StackLeniency: 0.3
Mode: 0
LetterboxInBreaks: 0
WidescreenStoryboard: 0

[Editor]
DistanceSpacing: 0.36
BeatDivisor: 4
GridSize: 32
TimelineZoom: 2.000001

[Metadata]
Title:Kakushigoto
TitleUnicode:かくしごと
Artist:yuikonnu
ArtistUnicode:ゆいこんぬ
Creator:Lasse
Version:Abandoned
Source:
Tags:mafumafu secret utaite cover Kalibe sahuang 虹色ショコラティエ Nijiiro Chocolatier
BeatmapID:1072897
BeatmapSetID:504245

[Difficulty]
HPDrainRate:6
CircleSize:4.3
OverallDifficulty:9
ApproachRate:9.4
SliderMultiplier:1.92
SliderTickRate:1

[Events]
//Background and Video events
0,0,"bg.jpg",0,0
//Break Periods
2,72738,74248
2,75138,79198
2,140538,141448
//Storyboard Layer 0 (Background)
//Storyboard Layer 1 (Fail)
//Storyboard Layer 2 (Pass)
//Storyboard Layer 3 (Foreground)
//Storyboard Sound Samples

[TimingPoints]
538,300,4,2,98,60,1,0
538,-142.857142857143,4,2,98,60,0,0
763,-142.857142857143,4,2,12,5,0,0
838,-117.647058823529,4,2,98,60,0,0
1063,-117.647058823529,4,1,1,40,0,0
1138,-100,4,1,1,55,0,0
1738,-100,4,1,1,60,0,0
11338,-200,4,2,97,50,0,0
11413,-100,4,2,12,5,0,0
12538,-142.857142857143,4,2,1,32,0,0
21088,-142.857142857143,4,2,96,43,0,0
21538,-142.857142857143,4,1,1,48,0,0
21838,-142.857142857143,4,1,1,30,0,0
21913,-142.857142857143,4,1,1,48,0,0
22138,-111.111111111111,4,1,1,55,0,0
22363,-111.111111111111,4,2,1,5,0,0
22438,-111.111111111111,4,1,1,55,0,0
31738,-200,4,2,2,40,0,0
40138,-200,4,2,96,45,0,0
40438,-200,4,2,96,47,0,0
40738,-90.9090909090909,4,1,1,50,0,0
40888,-100,4,2,1,30,0,0
40963,-100,4,2,1,45,0,0
41038,-76.9230769230769,4,1,1,60,0,0
41188,-90.9090909090909,4,2,1,25,0,0
41338,-111.111111111111,4,1,1,55,0,0
46138,-99.9999999999999,4,2,1,40,0,0
46438,-99.9999999999999,4,2,1,43,0,0
46738,-90.9090909090909,4,2,1,46,0,0
47038,-90.9090909090909,4,2,1,49,0,0
47338,-90.9090909090909,4,1,1,52,0,0
47638,-90.9090909090909,4,1,1,55,0,0
47938,-90.9090909090909,4,1,1,58,0,0
48238,-90.9090909090909,4,1,1,61,0,0
48538,-83.3333333333333,4,2,1,50,0,0
48988,-83.3333333333333,4,1,1,55,0,0
49438,-83.3333333333333,4,1,1,60,0,0
49888,-83.3333333333333,4,1,3,63,0,0
50188,-83.3333333333333,4,1,3,66,0,0
50338,-333.333333333333,4,2,3,50,0,0
50638,-200,4,2,1,30,0,0
50938,-90.9090909090909,4,1,3,70,0,1
52138,-83.3333333333333,4,1,3,70,0,1
52288,-90.9090909090909,4,1,3,70,0,1
52963,-90.9090909090909,4,2,3,5,0,1
53038,-90.9090909090909,4,1,3,70,0,1
53338,-83.3333333333333,4,1,3,70,0,1
53938,-76.9230769230769,4,1,3,70,0,1
54538,-71.4285714285714,4,1,3,70,0,1
54763,-71.4285714285714,4,2,3,5,0,1
54838,-90.9090909090909,4,1,3,70,0,1
55963,-90.9090909090909,4,2,3,5,0,1
56038,-90.9090909090909,4,1,3,70,0,1
58138,-90.9090909090909,4,1,3,73,0,1
58738,-90.9090909090909,4,1,3,76,0,1
59188,-90.9090909090909,4,1,3,70,0,1
59938,-90.9090909090909,4,1,3,65,0,0
60538,-90.9090909090909,4,1,3,70,0,1
61738,-83.3333333333333,4,1,3,70,0,1
61888,-90.9090909090909,4,1,3,70,0,1
62563,-90.9090909090909,4,2,3,5,0,1
62638,-90.9090909090909,4,1,3,70,0,1
62938,-83.3333333333333,4,1,3,70,0,1
63538,-76.9230769230769,4,1,3,70,0,1
64138,-71.4285714285714,4,1,3,70,0,1
64363,-71.4285714285714,4,2,3,5,0,1
64438,-90.9090909090909,4,1,3,70,0,1
65338,-80,4,1,3,70,0,1
65563,-71.4285714285714,4,2,3,5,0,1
65638,-90.9090909090909,4,1,3,70,0,1
66538,-66.6666666666667,4,1,3,70,0,1
66763,-66.6666666666667,4,2,3,5,0,1
66838,-83.3333333333333,4,1,3,70,0,1
68338,-83.3333333333333,4,1,3,68,0,1
68938,-83.3333333333333,4,1,1,70,0,1
69538,-83.3333333333333,4,1,1,72,0,1
70138,-100,4,1,1,74,0,0
70213,-100,4,1,1,50,0,0
71338,-100,4,1,1,45,0,0
72538,-100,4,1,1,40,0,0
74788,-100,4,2,12,25,0,0
74938,-100,4,2,12,70,0,0
79738,-200,4,2,97,50,0,0
79813,-100,4,2,12,5,0,0
80938,-142.857142857143,4,2,1,32,0,0
89038,-142.857142857143,4,2,96,43,0,0
89338,-142.857142857143,4,2,96,46,0,0
89638,-142.857142857143,4,1,1,48,0,0
89938,-200,4,2,1,32,0,0
89956,-200,4,2,1,10,0,0
90538,-111.111111111111,4,1,1,55,0,0
90763,-111.111111111111,4,2,1,5,0,0
90839,-111.111111111111,4,1,1,55,0,0
100138,-200,4,2,2,40,0,0
108538,-166.666666666667,4,2,96,40,0,0
108613,-166.666666666667,4,2,1,5,0,0
108688,-142.857142857143,4,2,96,42,0,0
108763,-166.666666666667,4,2,1,5,0,0
108838,-125,4,2,96,44,0,0
108913,-166.666666666667,4,2,1,5,0,0
108988,-111.111111111111,4,2,96,46,0,0
109063,-166.666666666667,4,2,1,5,0,0
109138,-83.3333333333333,4,1,1,50,0,0
109288,-100,4,2,1,30,0,0
109363,-100,4,2,1,45,0,0
109438,-71.4285714285714,4,1,1,60,0,0
109588,-90.9090909090909,4,2,1,25,0,0
109738,-111.111111111111,4,1,1,55,0,0
114538,-99.9999999999999,4,2,1,40,0,0
114838,-99.9999999999999,4,2,1,43,0,0
115138,-90.9090909090909,4,2,1,46,0,0
115438,-90.9090909090909,4,2,1,49,0,0
115738,-90.9090909090909,4,1,1,52,0,0
116038,-90.9090909090909,4,1,1,55,0,0
116338,-90.9090909090909,4,1,1,58,0,0
116638,-90.9090909090909,4,1,1,61,0,0
116938,-83.3333333333333,4,2,1,50,0,0
117388,-83.3333333333333,4,1,1,55,0,0
117838,-83.3333333333333,4,1,1,60,0,0
118288,-83.3333333333333,4,1,3,63,0,0
118588,-83.3333333333333,4,1,3,66,0,0
118738,-333.333333333333,4,1,3,50,0,0
118963,-100,4,2,1,5,0,0
119038,-100,4,1,1,50,0,0
119113,-100,4,1,1,55,0,0
119188,-100,4,1,1,60,0,0
119263,-100,4,1,1,65,0,0
119338,-90.9090909090909,4,1,3,70,0,1
120538,-83.3333333333333,4,1,3,70,0,1
120688,-90.9090909090909,4,1,3,70,0,1
121363,-90.9090909090909,4,2,3,5,0,1
121438,-90.9090909090909,4,1,3,70,0,1
121738,-83.3333333333333,4,1,3,70,0,1
122338,-76.9230769230769,4,1,3,70,0,1
122938,-71.4285714285714,4,1,3,70,0,1
123163,-71.4285714285714,4,2,3,5,0,1
123238,-90.9090909090909,4,1,3,70,0,1
124363,-90.9090909090909,4,2,3,5,0,1
124438,-90.9090909090909,4,1,3,70,0,1
126538,-90.9090909090909,4,1,3,73,0,1
127138,-90.9090909090909,4,1,3,76,0,1
127588,-90.9090909090909,4,1,3,70,0,1
128338,-90.9090909090909,4,1,3,65,0,0
128938,-90.9090909090909,4,1,3,70,0,1
130138,-83.3333333333333,4,1,3,70,0,1
130288,-90.9090909090909,4,1,3,70,0,1
130963,-90.9090909090909,4,2,3,5,0,1
131038,-90.9090909090909,4,1,3,70,0,1
131338,-83.3333333333333,4,1,3,70,0,1
131938,-76.9230769230769,4,1,3,70,0,1
132538,-71.4285714285714,4,1,3,70,0,1
132763,-71.4285714285714,4,2,3,5,0,1
132838,-90.9090909090909,4,1,3,70,0,1
133738,-80,4,1,3,70,0,1
133963,-71.4285714285714,4,2,3,5,0,1
134038,-90.9090909090909,4,1,3,70,0,1
134938,-66.6666666666667,4,1,3,70,0,1
135163,-66.6666666666667,4,2,3,5,0,1
135238,-83.3333333333333,4,1,3,70,0,1
136738,-83.3333333333333,4,1,1,68,0,1
137338,-83.3333333333333,4,1,1,70,0,1
137938,-83.3333333333333,4,1,1,72,0,1
138538,-100,4,1,1,74,0,0
138613,-100,4,1,1,50,0,0
139738,-100,4,1,1,45,0,0
140338,-100,4,1,1,40,0,0
141988,-100,4,1,1,62,0,0
142888,-100,4,2,96,62,0,0
143038,-100,4,1,1,62,0,0
143563,-100,4,1,1,5,0,0
143638,-100,4,1,1,62,0,0
146938,-100,4,1,1,55,0,0
147238,-100,4,1,1,58,0,0
147538,-100,4,1,1,61,0,0
147838,-100,4,1,1,64,0,0
148138,-100,4,1,4,65,0,0
152638,-100,4,1,1,65,0,0
152938,-100,4,1,4,65,0,0
154138,-100,4,1,1,65,0,0
154738,-100,4,1,4,65,0,0
155338,-100,4,2,1,65,0,0
156538,-100,4,2,1,65,0,0
156838,-100,4,2,1,55,0,0
156875,-100,4,2,1,22,0,0
156913,-100,4,2,1,55,0,0
156950,-100,4,2,1,22,0,0
156988,-100,4,2,1,55,0,0
157025,-100,4,2,1,44,0,0
157063,-100,4,2,1,55,0,0
157100,-100,4,2,1,44,0,0
157138,-100,4,2,1,55,0,0
157175,-100,4,2,1,22,0,0
157213,-100,4,2,1,55,0,0
157250,-100,4,2,1,22,0,0
157288,-100,4,2,1,55,0,0
157325,-100,4,2,1,22,0,0
157363,-100,4,2,1,55,0,0
157400,-100,4,2,1,22,0,0
157438,-100,4,2,1,55,0,0
157738,-200,4,2,2,40,0,0
166138,-200,4,2,96,45,0,0
166438,-200,4,2,96,47,0,0
166738,-90.9090909090909,4,1,1,50,0,0
166888,-100,4,2,1,30,0,0
166963,-100,4,2,1,45,0,0
167038,-76.9230769230769,4,1,1,60,0,0
167188,-90.9090909090909,4,2,1,25,0,0
167338,-111.111111111111,4,1,1,55,0,0
172138,-99.9999999999999,4,2,1,40,0,0
172438,-99.9999999999999,4,2,1,43,0,0
172738,-90.9090909090909,4,2,1,46,0,0
173038,-90.9090909090909,4,2,1,49,0,0
173338,-90.9090909090909,4,1,1,52,0,0
173638,-90.9090909090909,4,1,1,55,0,0
173938,-90.9090909090909,4,1,1,58,0,0
174238,-90.9090909090909,4,1,1,61,0,0
174538,-83.3333333333333,4,2,1,50,0,0
174988,-83.3333333333333,4,1,1,55,0,0
175438,-83.3333333333333,4,1,1,60,0,0
175738,-83.3333333333333,4,1,1,50,0,0
175888,-76.9230769230769,4,2,1,5,0,0
175938,-76.9230769230769,4,1,1,50,0,0
176088,-76.9230769230769,4,2,1,5,0,0
176138,-71.4285714285714,4,1,1,50,0,0
176288,-76.9230769230769,4,2,1,5,0,0
176338,-66.6666666666667,4,1,1,50,0,0
176488,-76.9230769230769,4,2,1,5,0,0
176538,-62.5,4,1,1,50,0,0
176738,-58.8235294117647,4,1,1,50,0,0
176888,-76.9230769230769,4,2,1,5,0,0
178138,-200,4,2,12,15,0,0
185338,-200,4,2,97,25,0,0
187138,-250,4,2,94,20,0,0
187156,-250,4,2,99,15,0,0
188338,-333.333333333333,4,2,95,15,0,0
188938,-50,4,1,3,80,0,1
189538,-55.5555555555556,4,1,3,80,0,1
189838,-83.3333333333333,4,1,3,70,0,1
190138,-83.3333333333333,4,1,3,70,0,1
190738,-76.9230769230769,4,1,3,70,0,1
191338,-71.4285714285714,4,1,3,70,0,1
191563,-71.4285714285714,4,2,3,5,0,1
191638,-90.9090909090909,4,1,3,70,0,1
192763,-90.9090909090909,4,2,3,5,0,1
192838,-90.9090909090909,4,1,3,70,0,1
194938,-90.9090909090909,4,1,3,73,0,1
195538,-90.9090909090909,4,1,3,76,0,1
195988,-90.9090909090909,4,1,3,70,0,1
196738,-90.9090909090909,4,1,3,65,0,0
197338,-90.9090909090909,4,1,3,70,0,1
198538,-83.3333333333333,4,1,3,70,0,1
198688,-90.9090909090909,4,1,3,70,0,1
199363,-90.9090909090909,4,2,3,5,0,1
199438,-90.9090909090909,4,1,3,70,0,1
199738,-83.3333333333333,4,1,3,70,0,1
200338,-76.9230769230769,4,1,3,70,0,1
200938,-71.4285714285714,4,1,3,70,0,1
201163,-71.4285714285714,4,2,3,5,0,1
201238,-90.9090909090909,4,1,3,70,0,1
202138,-80,4,1,3,70,0,1
202363,-71.4285714285714,4,2,3,5,0,1
202438,-90.9090909090909,4,1,3,70,0,1
202738,-90.9090909090909,4,1,3,60,0,1
202888,-90.9090909090909,4,1,3,55,0,1
203038,-90.9090909090909,4,1,3,50,0,1
203188,-90.9090909090909,4,1,3,45,0,1
203338,-66.6666666666667,4,1,3,75,0,1
203563,-66.6666666666667,4,2,3,5,0,1
203638,-83.3333333333333,4,1,3,70,0,1
204538,-1000,4,2,97,40,0,0
204763,-66.6666666666667,4,2,3,5,0,0
204838,-66.6666666666667,4,1,3,75,0,1
205063,-83.3333333333333,4,1,3,75,0,1
205738,-76.9230769230769,4,1,3,75,0,1
205888,-83.3333333333333,4,1,3,75,0,1
206563,-83.3333333333333,4,2,3,5,0,1
206638,-83.3333333333333,4,1,3,75,0,1
206938,-76.9230769230769,4,1,3,75,0,1
207538,-71.4285714285714,4,1,3,75,0,1
208138,-66.6666666666667,4,1,3,75,0,1
208363,-66.6666666666667,4,2,3,5,0,1
208438,-83.3333333333333,4,1,3,75,0,1
209338,-71.4285714285714,4,1,3,75,0,1
209563,-71.4285714285714,4,2,3,5,0,1
209638,-83.3333333333333,4,1,3,75,0,1
211738,-90.9090909090909,4,1,3,77,0,1
212338,-90.9090909090909,4,1,3,80,0,1
212788,-83.3333333333333,4,1,3,75,0,1
213538,-100,4,1,3,70,0,0
214138,-83.3333333333333,4,1,3,75,0,1
215338,-76.9230769230769,4,1,3,75,0,1
215488,-83.3333333333333,4,1,3,75,0,1
216163,-83.3333333333333,4,2,3,5,0,1
216238,-83.3333333333333,4,1,3,75,0,1
216538,-71.4285714285714,4,1,3,75,0,1
217138,-66.6666666666667,4,1,3,75,0,1
217738,-62.5,4,1,3,75,0,1
217963,-62.5,4,2,3,5,0,1
218038,-83.3333333333333,4,1,3,75,0,1
218938,-66.6666666666667,4,1,3,75,0,1
219163,-66.6666666666667,4,2,3,5,0,1
219238,-90.9090909090909,4,1,3,75,0,1
220138,-58.8235294117647,4,1,3,75,0,1
220363,-58.8235294117647,4,2,3,5,0,1
220438,-83.3333333333333,4,1,3,75,0,1
221938,-83.3333333333333,4,1,3,73,0,1
222538,-83.3333333333333,4,1,1,75,0,1
223138,-83.3333333333333,4,1,1,77,0,1
223438,-200,4,2,97,70,0,0
223663,-58.8235294117647,4,2,12,5,0,0
223738,-100,4,1,3,80,0,1
223813,-100,4,2,1,50,0,0
228238,-100,4,2,12,20,0,0
228388,-100,4,2,12,25,0,0
228538,-100,4,2,12,70,0,0

[Colours]
Combo1 : 166,83,83
Combo2 : 87,111,128
Combo3 : 236,176,87
Combo4 : 82,122,102

[HitObjects]
103,126,538,6,0,B|117:97|96:67|96:67|78:90|88:108,1,100.799996923828
103,126,838,6,0,L|230:114,1,122.400002334595
290,144,1138,6,0,L|242:139,1,48,8|0,0:0|0:0,0:0:0:0:
37,98,1288,2,0,L|84:102,1,48,0|0,0:0|0:0,0:0:0:0:
286,66,1438,5,8,0:0:0:0:
331,78,1513,1,8,0:0:0:0:
361,115,1588,1,8,0:0:0:0:
364,162,1663,1,8,0:0:0:0:
340,202,1738,5,4,0:0:0:0:
242,139,1888,1,2,0:1:0:0:
230,301,2038,1,8,0:0:0:0:
166,179,2188,1,2,0:1:0:0:
316,288,2338,5,2,0:2:0:0:
361,115,2488,1,2,0:2:0:0:
406,101,2563,1,2,0:2:0:0:
453,112,2638,1,10,0:1:0:0:
291,36,2788,6,0,P|242:15|197:18,1,96,2|0,0:0|0:0,0:0:0:0:
75,160,3088,2,0,P|124:181|169:178,1,96,2|8,0:0|0:0,0:0:0:0:
228,133,3313,1,0,0:0:0:0:
228,133,3388,1,2,0:2:0:0:
284,256,3538,1,2,0:2:0:0:
284,256,3613,1,0,0:0:0:0:
284,256,3688,5,2,0:0:0:0:
326,277,3763,1,0,0:0:0:0:
328,325,3838,1,10,0:2:0:0:
288,351,3913,1,0,0:0:0:0:
245,330,3988,1,0,0:0:0:0:
242,282,4063,1,0,0:0:0:0:
283,255,4138,6,0,L|379:264,1,96,2|0,0:0|0:0,0:0:0:0:
228,133,4438,1,10,0:0:0:0:
148,236,4588,1,0,0:1:0:0:
336,158,4738,5,2,0:0:0:0:
181,122,4888,1,2,0:2:0:0:
146,89,4963,1,2,0:2:0:0:
133,43,5038,1,10,0:1:0:0:
42,220,5188,6,0,P|76:187|88:141,1,96,2|0,0:0|0:0,0:0:0:0:
173,323,5488,2,0,P|147:282|148:235,1,96,2|8,0:0|0:0,0:0:0:0:
218,199,5713,1,0,0:0:0:0:
221,202,5788,1,2,0:2:0:0:
88,141,5938,1,2,0:2:0:0:
85,144,6013,1,0,0:0:0:0:
82,147,6088,5,2,0:0:0:0:
48,112,6163,1,0,0:0:0:0:
61,66,6238,1,10,0:2:0:0:
107,54,6313,1,0,0:0:0:0:
140,87,6388,1,2,0:2:0:0:
185,74,6463,1,0,0:0:0:0:
196,28,6538,5,4,0:0:0:0:
163,168,6688,1,2,0:1:0:0:
120,9,6838,1,8,0:0:0:0:
220,107,6988,1,2,0:1:0:0:
0,123,7138,5,2,0:2:0:0:
94,244,7288,1,2,0:2:0:0:
101,291,7363,1,2,0:2:0:0:
109,338,7438,1,10,0:1:0:0:
257,264,7588,6,0,L|272:169,1,96,2|0,0:0|0:0,0:0:0:0:
420,95,7888,2,0,L|435:189,1,96,2|8,0:0|0:0,0:0:0:0:
430,267,8113,1,0,0:0:0:0:
427,270,8188,1,2,0:2:0:0:
257,264,8338,1,2,0:2:0:0:
254,267,8413,1,0,0:0:0:0:
251,270,8488,5,2,0:0:0:0:
221,306,8563,1,0,0:0:0:0:
174,313,8638,1,10,0:2:0:0:
134,288,8713,1,0,0:0:0:0:
121,243,8788,1,0,0:0:0:0:
91,207,8863,1,0,0:0:0:0:
44,200,8938,5,2,0:0:0:0:
56,338,9088,1,0,0:0:0:0:
171,170,9238,1,10,0:2:0:0:
4,227,9388,1,0,0:0:0:0:
174,313,9538,1,2,0:0:0:0:
166,151,9688,5,2,0:2:0:0:
161,132,9763,1,2,0:2:0:0:
156,113,9838,1,10,0:0:0:0:
121,243,9988,1,2,0:2:0:0:
256,101,10138,5,2,0:0:0:0:
80,167,10288,1,2,0:2:0:0:
215,25,10438,5,10,0:0:0:0:
39,91,10588,2,0,B|16:73|27:41|27:41|30:65|45:79,1,96,2|0,0:2|0:0,0:0:0:0:
263,108,10888,5,10,0:0:0:0:
263,108,10963,1,0,0:0:0:0:
263,108,11038,2,0,P|275:139|277:164,1,48,8|0,0:0|0:0,0:0:0:0:
283,253,11188,2,0,P|277:285|267:308,1,48,8|0,0:0|0:0,0:0:0:0:
366,195,11338,6,0,P|377:195|389:197,1,24,0|0,0:0|0:0,0:0:0:0:
454,258,12538,5,2,0:0:0:0:
434,343,12688,1,0,0:0:0:0:
350,368,12838,1,2,0:0:0:0:
286,307,12988,1,0,0:0:0:0:
201,331,13138,5,2,0:0:0:0:
137,269,13438,1,2,0:0:0:0:
51,293,13738,1,2,0:0:0:0:
137,269,14338,5,0,0:0:0:0:
159,182,14638,1,0,0:0:0:0:
94,119,14938,5,2,0:0:0:0:
116,31,15088,1,0,0:0:0:0:
203,7,15238,1,2,0:0:0:0:
267,70,15388,1,0,0:0:0:0:
244,156,15538,5,2,0:0:0:0:
307,219,15838,1,2,0:0:0:0:
394,196,16138,1,2,0:0:0:0:
307,219,16588,5,0,0:0:0:0:
283,305,16738,1,2,0:0:0:0:
345,368,16888,1,0,0:0:0:0:
430,345,17038,1,2,0:0:0:0:
452,259,17188,1,0,0:0:0:0:
367,282,17338,6,0,L|294:302,1,67.1999979492188,2|0,0:0|0:0,0:0:0:0:
307,219,17638,2,0,L|231:219,1,67.1999979492188,2|0,0:0|0:0,0:0:0:0:
265,142,17938,2,0,L|191:122,1,67.1999979492188,2|0,0:0|0:0,0:0:0:0:
244,56,18238,2,0,L|178:18,1,67.1999979492188,2|0,0:0|0:0,0:0:0:0:
328,80,18538,5,2,0:0:0:0:
413,105,18688,1,0,0:0:0:0:
349,167,18838,1,2,0:0:0:0:
328,80,18988,1,0,0:0:0:0:
392,18,19138,5,2,0:0:0:0:
477,42,19288,1,2,0:0:0:0:
413,105,19438,1,2,0:0:0:0:
392,18,19588,1,2,0:0:0:0:
328,80,19738,6,0,P|292:86|242:78,1,67.1999979492188,2|0,0:0|0:0,0:0:0:0:
183,65,20038,2,0,P|148:52|109:20,1,67.1999979492188,0|0,0:0|0:0,0:0:0:0:
31,46,20338,6,0,P|54:74|72:121,1,67.1999979492188,2|0,0:0|0:0,0:0:0:0:
90,179,20638,2,0,P|96:215|88:265,1,67.1999979492188,0|0,0:0|0:0,0:0:0:0:
74,323,20938,1,2,0:0:0:0:
209,355,21088,5,0,0:0:0:0:
93,245,21238,1,0,0:0:0:0:
132,378,21388,1,0,0:0:0:0:
188,143,21538,5,0,0:0:0:0:
74,323,21688,1,8,0:0:0:0:
71,326,21763,2,0,P|54:321|39:314,1,33.5999989746094,8|0,0:0|2:2,0:0:0:0:
209,355,21913,1,8,0:0:0:0:
93,245,22063,1,8,0:0:0:0:
75,225,22138,6,0,B|50:168|76:131|76:131|119:178,1,129.599996044922,4|0,0:0|0:0,0:0:0:0:
188,143,22438,2,0,L|294:151,1,86.3999973632813,8|0,0:0|0:0,0:0:0:0:
132,69,22738,2,0,P|83:48|26:61,2,86.3999973632813,2|0|8,0:0|0:0|0:0,0:0:0:0:
151,228,23188,1,0,0:0:0:0:
225,58,23338,5,2,0:2:0:0:
244,218,23488,1,0,0:0:0:0:
312,24,23638,1,8,0:2:0:0:
331,184,23788,1,0,0:0:0:0:
225,58,23938,1,2,0:1:0:0:
366,99,24088,1,0,0:0:0:0:
190,143,24238,2,0,P|152:111|138:77,1,86.3999973632813,10|0,0:2|0:0,0:0:0:0:
70,263,24538,6,0,P|94:227|100:185,1,86.3999973632813,2|0,0:2|0:0,0:0:0:0:
86,12,24838,2,0,P|104:50|137:77,1,86.3999973632813,10|0,0:2|0:0,0:0:0:0:
295,151,25138,2,0,P|252:147|212:163,2,86.3999973632813,2|0|8,0:0|0:0|0:0,0:0:0:0:
438,257,25588,1,0,0:2:0:0:
265,252,25738,5,2,0:0:0:0:
403,157,25888,2,0,P|423:152|445:152,1,43.1999986816407,2|0,0:2|0:0,0:0:0:0:
295,151,26038,5,10,0:0:0:0:
438,257,26188,2,0,P|454:266|473:285,1,43.1999986816407,2|0,0:2|0:0,0:0:0:0:
265,252,26338,5,2,0:0:0:0:
403,157,26488,1,0,0:0:0:0:
398,135,26563,1,0,0:0:0:0:
389,115,26638,1,10,0:2:0:0:
353,245,26788,1,0,0:2:0:0:
378,96,26938,6,0,B|338:81|338:81|294:81,1,86.3999973632813,2|0,0:2|0:0,0:0:0:0:
181,237,27238,2,0,B|221:252|221:252|264:252,1,86.3999973632813,10|0,0:2|0:0,0:0:0:0:
103,126,27538,2,0,B|70:153|70:153|48:190,2,86.3999973632813,2|0|8,0:1|0:0|0:0,0:0:0:0:
243,160,27988,1,0,0:2:0:0:
83,285,28138,5,2,0:2:0:0:
103,126,28288,1,0,0:0:0:0:
155,310,28438,1,8,0:2:0:0:
48,190,28588,1,0,0:0:0:0:
243,160,28738,1,2,0:1:0:0:
166,291,28888,1,0,0:0:0:0:
93,106,29038,1,10,0:0:0:0:
63,294,29188,1,0,0:0:0:0:
243,160,29338,6,0,P|285:153|323:171,1,86.3999973632813,2|0,0:2|0:0,0:0:0:0:
160,52,29638,2,0,P|128:25|85:20,1,86.3999973632813,10|0,0:2|0:0,0:0:0:0:
165,185,29938,2,0,P|207:184|243:160,1,86.3999973632813,2|0,0:2|0:0,0:0:0:0:
17,73,30238,2,0,P|49:100|92:105,1,86.3999973632813,10|0,0:2|0:0,0:0:0:0:
288,32,30538,5,2,0:0:0:0:
368,130,30688,1,2,0:2:0:0:
367,173,30763,1,2,0:2:0:0:
349,212,30838,1,10,0:0:0:0:
439,245,30988,1,2,0:2:0:0:
416,281,31063,1,2,0:2:0:0:
381,306,31138,1,2,0:0:0:0:
250,214,31288,5,8,0:0:0:0:
224,208,31363,1,8,0:0:0:0:
198,212,31438,1,8,0:0:0:0:
172,235,31513,1,8,0:0:0:0:
137,240,31588,1,8,0:0:0:0:
98,219,31663,1,8,0:0:0:0:
90,176,31738,6,0,L|106:71,1,96,6|0,1:2|1:0,0:0:0:0:
31,28,32188,1,0,0:0:0:0:
17,123,32338,2,0,L|33:18,1,96,0|0,1:0|1:0,0:0:0:0:
104,81,32788,1,0,0:0:0:0:
90,176,32938,6,0,L|106:71,1,96,2|0,1:0|1:0,0:0:0:0:
177,134,33388,1,0,0:0:0:0:
149,258,33538,6,0,L|140:310,1,48,0|0,1:0|0:0,0:0:0:0:
177,134,33838,2,0,L|169:186,1,48,0|0,1:0|0:0,0:0:0:0:
256,96,34138,6,0,L|256:192,1,96,2|0,1:2|1:0,0:0:0:0:
256,288,34588,1,0,0:0:0:0:
363,258,34738,6,0,L|371:310,1,48,0|0,1:0|0:0,0:0:0:0:
335,134,35038,2,0,L|343:186,1,48,0|0,1:0|0:0,0:0:0:0:
407,81,35338,6,0,L|422:176,1,96,2|0,1:0|1:0,0:0:0:0:
480,28,35788,1,0,0:0:0:0:
495,123,35938,6,0,L|505:191,1,48,0|0,1:0|0:0,0:0:0:0:
422,176,36238,2,0,L|432:244,1,48,0|0,1:0|0:0,0:0:0:0:
407,81,36538,6,0,L|422:176,1,96,2|0,1:2|1:0,0:0:0:0:
361,257,36988,1,0,0:0:0:0:
377,352,37138,2,0,L|360:247,1,96,0|0,1:0|1:0,0:0:0:0:
256,288,37588,1,0,0:0:0:0:
256,192,37738,6,0,L|256:288,1,96,2|0,1:0|1:0,0:0:0:0:
149,257,38188,1,0,0:0:0:0:
135,352,38338,2,0,L|149:257,1,96,0|0,1:0|1:0,0:0:0:0:
47,261,38788,1,0,0:0:0:0:
31,355,38938,6,0,L|47:261,1,96,2|0,1:2|1:0,0:0:0:0:
90,176,39388,1,0,0:0:0:0:
104,81,39538,6,0,L|111:33,1,48,0|0,1:0|0:0,0:0:0:0:
177,134,39838,2,0,L|184:86,1,48,2|0,1:0|0:0,0:0:0:0:
335,134,40138,6,0,L|328:86,1,48,2|0,0:3|0:0,0:0:0:0:
408,81,40438,2,0,L|401:33,1,48
256,16,40738,6,0,L|256:128,1,105.600003222656,2|0,0:0|0:0,0:0:0:0:
256,192,40963,1,0,0:0:0:0:
256,208,41038,2,0,L|256:337,1,124.79999428711,2|0,0:0|0:0,0:0:0:0:
139,269,41338,6,0,L|43:260,1,86.3999973632813,4|0,0:0|0:0,0:0:0:0:
166,359,41638,1,8,0:0:0:0:
256,332,41788,1,0,0:0:0:0:
180,198,41938,2,0,L|84:189,1,86.3999973632813,2|0,0:2|0:0,0:0:0:0:
332,198,42238,2,0,L|428:189,1,86.3999973632813,10|0,0:0|0:2,0:0:0:0:
477,139,42463,1,0,0:0:0:0:
486,114,42538,6,0,P|495:66|479:27,1,86.3999973632813,2|0,0:0|0:0,0:0:0:0:
306,25,42838,1,8,0:0:0:0:
422,76,42988,1,0,0:0:0:0:
293,97,43138,2,0,P|270:90|246:67,2,43.1999986816407,2|0|0,0:2|0:0|0:0,0:0:0:0:
306,25,43363,1,0,0:0:0:0:
303,22,43438,2,0,P|256:5|218:15,1,86.3999973632813,10|0,0:2|0:0,0:0:0:0:
115,122,43738,6,0,P|161:138|200:129,1,86.3999973632813,2|0,0:2|0:0,0:0:0:0:
220,223,44038,2,0,P|264:200|284:166,1,86.3999973632813,10|0,0:2|0:0,0:0:0:0:
365,220,44338,2,0,P|380:172|371:134,1,86.3999973632813,2|0,0:2|0:0,0:0:0:0:
220,223,44638,2,0,P|204:270|213:308,1,86.3999973632813,10|0,0:2|0:0,0:0:0:0:
264,360,44863,1,0,0:0:0:0:
334,332,44938,6,0,B|321:299|321:299|278:272,1,86.3999973632813,2|0,0:0|0:0,0:0:0:0:
130,268,45238,1,8,0:0:0:0:
190,378,45388,1,0,0:0:0:0:
61,293,45538,6,0,P|55:272|58:250,1,43.1999986816407
220,223,45688,2,0,P|225:203|223:181,1,43.1999986816407,8|8,0:0|0:0,0:0:0:0:
81,182,45838,6,0,P|60:178|39:181,1,43.1999986816407,8|8,0:0|0:0,0:0:0:0:
199,293,45988,2,0,P|220:296|241:293,1,43.1999986816407,8|8,0:0|0:0,0:0:0:0:
181,108,46138,6,0,L|168:61,3,48,6|0|0|0,1:2|0:0|0:0|0:0,0:0:0:0:
331,108,46438,2,0,L|346:50,3,48,2|0|0|0,1:2|0:0|0:0|0:0,0:0:0:0:
168,61,46738,6,0,L|154:9,3,52.8000016113282,2|0|0|0,1:2|0:0|0:0|0:0,0:0:0:0:
343,61,47038,2,0,L|358:3,3,52.8000016113282,2|0|0|0,1:2|0:0|0:0|0:0,0:0:0:0:
256,80,47338,5,8,0:0:0:0:
250,116,47413,1,0,0:0:0:0:
261,151,47488,1,0,0:0:0:0:
286,177,47563,1,0,0:0:0:0:
321,190,47638,5,8,0:0:0:0:
356,221,47713,1,0,0:0:0:0:
371,266,47788,1,0,0:0:0:0:
361,312,47863,1,0,0:0:0:0:
331,347,47938,5,8,0:0:0:0:
301,303,48013,1,0,0:0:0:0:
254,282,48088,1,0,0:0:0:0:
202,289,48163,1,0,0:0:0:0:
159,320,48238,5,8,0:0:0:0:
189,270,48313,1,8,0:0:0:0:
199,213,48388,1,8,0:0:0:0:
188,157,48463,1,8,0:0:0:0:
157,108,48538,6,0,B|120:83|130:37|130:37|160:52|153:83,2,115.199996484375,4|0|0,1:0|0:0|1:2,0:0:0:0:
278,209,48988,1,0,0:0:0:0:
320,226,49063,1,0,0:0:0:0:
363,208,49138,1,0,0:0:0:0:
380,166,49213,1,0,0:0:0:0:
363,123,49288,1,0,0:0:0:0:
320,106,49363,1,0,0:0:0:0:
277,123,49438,5,2,0:0:0:0:
323,155,49513,1,0,0:2:0:0:
378,146,49588,1,2,0:2:0:0:
412,101,49663,1,0,0:2:0:0:
405,45,49738,1,2,0:2:0:0:
362,10,49813,1,0,0:2:0:0:
306,14,49888,5,12,0:0:0:0:
254,344,50188,5,8,0:0:0:0:
190,123,50338,2,0,L|254:112,1,57.5999982421876,8|0,0:1|0:0,0:0:0:0:
391,100,50938,6,0,B|286:61|292:159|190:123,1,211.200006445313,6|8,0:0|0:0,0:0:0:0:
227,24,51388,1,0,0:0:0:0:
349,198,51538,2,0,P|364:257|339:300,1,105.600003222656,2|0,0:0|0:0,0:0:0:0:
187,220,51838,2,0,P|170:170|191:123,1,105.600003222656,8|0,0:0|0:0,0:0:0:0:
259,152,52063,1,0,0:0:0:0:
244,173,52138,6,0,L|127:169,1,115.199996484375,2|0,0:0|0:0,0:0:0:0:
50,9,52438,1,10,0:0:0:0:
227,24,52588,1,0,0:0:0:0:
48,109,52738,2,0,B|36:174|36:174|44:211|44:211|32:274,1,158.400004833985,2|0,0:0|0:0,0:0:0:0:
52,338,53038,2,0,L|74:227,1,105.600003222656,8|0,0:0|0:0,0:0:0:0:
227,24,53338,6,0,P|313:22|368:78,1,115.199996484375,2|0,0:0|0:0,0:0:0:0:
182,246,53638,2,0,P|96:248|41:192,1,115.199996484375,10|0,0:0|0:0,0:0:0:0:
335,35,53938,6,0,L|360:193,1,124.79999428711,2|0,0:0|0:0,0:0:0:0:
202,369,54238,2,0,L|176:210,1,124.79999428711,10|0,0:0|0:0,0:0:0:0:
89,19,54538,6,0,P|135:86|32:76,1,201.599993847656,2|0,0:0|0:0,0:0:0:0:
70,95,54838,2,0,L|184:106,1,105.600003222656,8|0,0:0|0:0,0:0:0:0:
246,134,55063,1,0,0:0:0:0:
268,149,55138,2,0,L|382:160,1,105.600003222656,2|0,0:0|0:0,0:0:0:0:
424,40,55438,1,8,0:2:0:0:
377,43,55513,1,8,0:2:0:0:
343,76,55588,1,8,0:2:0:0:
343,123,55663,1,8,0:2:0:0:
373,159,55738,6,0,P|409:235|362:276,1,158.400004833985,6|0,0:0|0:0,0:0:0:0:
305,326,56038,2,0,P|364:311|407:336,1,105.600003222656,8|0,0:0|0:0,0:0:0:0:
496,185,56338,1,2,0:0:0:0:
373,159,56488,1,0,0:0:0:0:
401,330,56638,1,8,0:0:0:0:
293,222,56788,1,0,0:0:0:0:
213,357,56938,6,0,B|153:332|145:256|145:256|135:314|94:331,1,211.200006445313,2|8,0:0|0:0,0:0:0:0:
28,236,57388,1,0,0:0:0:0:
174,107,57538,2,0,B|209:103|244:121|244:121|268:157,1,105.600003222656,2|0,0:0|0:0,0:0:0:0:
293,222,57763,1,0,0:0:0:0:
302,246,57838,2,0,B|320:273|320:273|355:291|390:287,1,105.600003222656,10|0,0:0|0:0,0:0:0:0:
453,48,58138,5,8,3:0:0:0:
395,42,58213,1,0,3:0:0:0:
373,96,58288,1,0,3:0:0:0:
418,133,58363,1,0,3:0:0:0:
467,101,58438,1,4,3:2:0:0:
459,38,58738,5,8,3:0:0:0:
390,34,58813,1,0,3:0:0:0:
364,98,58888,1,0,3:0:0:0:
418,141,58963,1,0,3:0:0:0:
477,105,59038,1,4,3:2:0:0:
313,40,59188,5,0,0:0:0:0:
310,43,59263,1,0,0:0:0:0:
307,46,59338,6,0,P|247:37|200:49,1,105.600003222656,2|0,0:0|0:0,0:0:0:0:
174,115,59563,1,0,0:0:0:0:
217,174,59638,2,0,P|227:225|218:277,1,105.600003222656,10|0,0:0|0:0,0:0:0:0:
164,328,59863,1,0,0:0:0:0:
92,306,59938,6,0,L|28:312,3,52.8000016113282,6|0|0|0,1:2|2:0|2:0|2:0,0:0:0:0:
0,247,60238,5,10,0:0:0:0:
0,194,60313,1,8,0:2:0:0:
0,141,60388,1,10,0:2:0:0:
0,88,60463,1,8,0:2:0:0:
35,23,60538,6,0,B|82:44|128:18|128:18|124:88|173:123,1,211.200006445313,6|8,0:0|0:0,0:0:0:0:
242,31,60988,1,0,0:0:0:0:
187,218,61138,2,0,P|135:212|94:179,1,105.600003222656,2|0,0:0|0:0,0:0:0:0:
242,31,61438,2,0,P|294:37|335:70,1,105.600003222656,8|0,0:0|0:0,0:0:0:0:
376,136,61663,1,0,0:0:0:0:
392,160,61738,6,0,L|506:170,1,115.199996484375,2|0,0:0|0:0,0:0:0:0:
334,69,62038,1,10,0:0:0:0:
323,243,62188,1,0,0:0:0:0:
242,31,62338,2,0,B|176:-2|132:31|132:31|157:39|167:53,1,158.400004833985,2|0,0:0|0:0,0:0:0:0:
109,105,62638,2,0,P|154:130|205:121,1,105.600003222656,8|0,0:0|0:0,0:0:0:0:
436,225,62938,6,0,L|316:243,1,115.199996484375,2|0,0:0|0:0,0:0:0:0:
81,315,63238,2,0,L|201:333,1,115.199996484375,10|0,0:0|0:0,0:0:0:0:
454,144,63538,6,0,L|330:162,1,124.79999428711,2|0,0:0|0:0,0:0:0:0:
63,234,63838,2,0,L|186:252,1,124.79999428711,10|0,0:0|0:0,0:0:0:0:
472,63,64138,6,0,B|335:83|335:83|380:39,1,201.599993847656,2|0,0:0|0:0,0:0:0:0:
472,63,64438,2,0,B|469:103|469:103|454:130|454:130|456:170,1,105.600003222656,8|0,0:0|0:0,0:0:0:0:
498,225,64663,1,0,0:0:0:0:
479,206,64738,2,0,L|362:197,1,105.600003222656,2|0,0:0|0:0,0:0:0:0:
349,326,65038,1,8,0:2:0:0:
395,313,65113,1,8,0:2:0:0:
422,274,65188,1,8,0:2:0:0:
411,228,65263,1,8,0:2:0:0:
374,198,65338,6,0,L|190:183,1,180,6|0,0:0|0:0,0:0:0:0:
166,252,65638,2,0,L|282:263,1,105.600003222656,8|0,0:0|0:0,0:0:0:0:
396,105,65938,5,2,0:0:0:0:
219,97,66088,1,0,0:0:0:0:
374,198,66238,5,10,0:0:0:0:
276,34,66388,1,0,0:0:0:0:
166,252,66538,6,0,B|74:299|28:236|28:236|63:198|103:247,1,216.000008239746,6|0,0:0|0:0,0:0:0:0:
166,252,66838,2,0,P|169:322|129:380,1,115.199996484375,8|0,0:0|0:0,0:0:0:0:
145,168,67138,5,10,0:0:0:0:
246,308,67288,1,0,0:0:0:0:
83,228,67438,5,10,0:0:0:0:
255,287,67588,1,0,0:0:0:0:
26,293,67738,5,14,0:0:0:0:
218,212,67888,1,0,0:0:0:0:
60,145,68038,5,8,0:0:0:0:
111,310,68188,1,0,0:0:0:0:
183,92,68338,6,0,P|210:82|238:84,1,57.5999982421876,10|0,0:0|0:0,0:0:0:0:
255,287,68488,2,0,P|217:297|178:285,1,57.5999982421876,0|0,0:0|0:0,0:0:0:0:
305,39,68638,6,0,P|332:29|360:31,1,57.5999982421876,8|0,0:0|0:0,0:0:0:0:
353,215,68788,2,0,P|325:224|297:222,1,57.5999982421876
183,92,68938,5,10,0:0:0:0:
127,112,69013,1,0,0:0:0:0:
105,166,69088,1,0,0:0:0:0:
126,219,69163,1,0,0:0:0:0:
179,241,69238,1,8,0:0:0:0:
199,294,69313,1,0,0:0:0:0:
177,346,69388,1,0,0:0:0:0:
124,367,69463,1,0,0:0:0:0:
70,352,69538,5,10,0:0:0:0:
40,295,69613,1,0,0:0:0:0:
63,236,69688,1,0,0:0:0:0:
126,219,69763,1,0,0:0:0:0:
185,241,69838,1,8,0:0:0:0:
244,219,69913,1,0,0:0:0:0:
274,163,69988,1,0,0:0:0:0:
260,101,70063,1,0,0:0:0:0:
207,66,70138,5,4,0:0:0:0:
256,192,70213,12,2,72538,2:2:0:0:
258,104,74788,6,10,L|163:95,1,96,14|4,0:0|0:0,0:0:0:0:
164,96,79738,6,0,L|126:91,1,24,0|0,0:0|0:0,0:0:0:0:
53,99,80938,5,2,0:0:0:0:
32,183,81088,1,0,0:0:0:0:
105,228,81238,1,2,0:0:0:0:
170,172,81388,1,0,0:0:0:0:
243,216,81538,5,2,0:0:0:0:
223,299,81838,1,2,0:0:0:0:
295,343,82138,1,2,0:0:0:0:
223,299,82738,5,0,0:0:0:0:
243,216,83038,1,0,0:0:0:0:
328,209,83338,5,2,0:0:0:0:
347,125,83488,1,0,0:0:0:0:
272,80,83638,1,2,0:0:0:0:
206,137,83788,1,0,0:0:0:0:
243,216,83938,5,2,0:0:0:0:
179,275,84238,1,2,0:0:0:0:
103,232,84538,1,2,0:0:0:0:
179,275,84988,5,0,0:0:0:0:
243,216,85138,1,2,0:0:0:0:
206,137,85288,1,0,0:0:0:0:
119,147,85438,1,2,0:0:0:0:
103,232,85588,1,0,0:0:0:0:
17,243,85738,6,0,L|4:322,1,67.1999979492188,2|0,0:0|0:0,0:0:0:0:
92,298,86038,2,0,L|105:219,1,67.1999979492188,2|0,0:0|0:0,0:0:0:0:
187,219,86338,2,0,L|177:286,1,67.1999979492188,2|0,0:0|0:0,0:0:0:0:
262,273,86638,2,0,L|273:207,1,67.1999979492188,2|0,0:0|0:0,0:0:0:0:
347,260,86938,5,2,0:0:0:0:
386,337,87088,1,0,0:0:0:0:
472,324,87238,1,2,0:0:0:0:
487,239,87388,1,0,0:0:0:0:
410,199,87538,5,2,0:0:0:0:
487,239,87688,1,2,0:0:0:0:
472,324,87838,1,2,0:0:0:0:
386,337,87988,1,2,0:0:0:0:
347,260,88138,6,0,P|311:254|261:262,1,67.1999979492188,2|0,0:0|0:0,0:0:0:0:
272,169,88438,2,0,P|237:182|198:214,1,67.1999979492188,0|0,0:0|0:0,0:0:0:0:
161,127,88738,2,0,P|137:155|119:202,1,67.1999979492188,2|0,0:0|0:0,0:0:0:0:
236,81,89038,5,0,0:0:0:0:
43,146,89188,1,0,0:0:0:0:
212,199,89338,5,0,0:0:0:0:
31,170,89488,1,0,0:0:0:0:
201,320,89638,5,0,0:0:0:0:
17,193,89788,1,0,0:0:0:0:
236,81,89938,6,0,L|235:70,8,12,2|0|0|0|0|0|0|0|0,0:3|0:0|0:0|0:0|0:0|0:0|0:0|0:0|0:0,0:0:0:0:
394,76,90538,6,0,B|403:171|403:171|384:223,1,129.599996044922,4|0,0:0|0:0,0:0:0:0:
307,174,90838,2,0,B|246:167|246:167|201:182,1,86.3999973632813,8|0,0:0|0:0,0:0:0:0:
389,291,91138,2,0,L|494:302,2,86.3999973632813,2|0|8,0:1|0:0|0:0,0:0:0:0:
247,304,91588,1,0,0:0:0:0:
406,380,91738,5,2,0:2:0:0:
241,320,91888,1,0,0:0:0:0:
391,203,92038,1,8,0:2:0:0:
235,336,92188,1,0,0:0:0:0:
222,174,92338,1,2,0:1:0:0:
230,352,92488,1,0,0:0:0:0:
80,236,92638,2,0,P|64:197|68:141,1,86.3999973632813,10|0,0:2|0:0,0:0:0:0:
206,91,92938,6,0,P|222:130|218:186,1,86.3999973632813,2|0,0:2|0:0,0:0:0:0:
132,301,93238,2,0,P|157:267|208:243,1,86.3999973632813,10|0,0:2|0:0,0:0:0:0:
351,261,93538,2,0,P|309:255|262:223,2,86.3999973632813,2|0|8,0:1|0:0|0:0,0:0:0:0:
358,115,93988,1,0,0:2:0:0:
221,173,94138,5,2,0:0:0:0:
351,261,94288,2,0,L|351:304,1,43.1999986816407,2|0,0:2|0:0,0:0:0:0:
195,246,94438,5,10,0:0:0:0:
392,200,94588,2,0,L|450:234,1,43.1999986816407,2|0,0:2|0:0,0:0:0:0:
281,124,94738,5,2,0:0:0:0:
195,246,94888,1,0,0:0:0:0:
174,239,94963,1,0,0:0:0:0:
156,225,95038,1,10,0:2:0:0:
230,352,95188,1,0,0:2:0:0:
140,210,95338,6,0,B|90:197|55:216,1,86.3999973632813,2|0,0:2|0:0,0:0:0:0:
214,170,95638,2,0,B|250:133|250:94,1,86.3999973632813,10|0,0:2|0:0,0:0:0:0:
211,254,95938,2,0,B|224:303|258:323,2,86.3999973632813,2|0|8,0:1|0:0|0:0,0:0:0:0:
316,234,96388,1,0,0:2:0:0:
250,94,96538,5,2,0:2:0:0:
140,210,96688,1,0,0:0:0:0:
242,73,96838,1,8,0:2:0:0:
211,254,96988,1,0,0:0:0:0:
136,96,97138,1,2,0:1:0:0:
254,175,97288,1,0,0:0:0:0:
39,156,97438,1,10,0:0:0:0:
242,73,97588,1,0,0:0:0:0:
73,270,97738,6,0,L|78:356,1,86.3999973632813,2|0,0:2|0:0,0:0:0:0:
210,253,98038,2,0,L|205:340,1,86.3999973632813,10|0,0:2|0:0,0:0:0:0:
332,242,98338,2,0,L|339:348,1,86.3999973632813,2|0,0:2|0:0,0:0:0:0:
454,220,98638,2,0,L|449:306,1,86.3999973632813,10|0,0:2|0:0,0:0:0:0:
343,103,98938,5,2,0:0:0:0:
217,163,99088,1,2,0:2:0:0:
173,163,99163,1,2,0:2:0:0:
129,163,99238,1,10,0:0:0:0:
187,255,99388,1,2,0:2:0:0:
144,266,99463,1,2,0:2:0:0:
101,277,99538,1,2,0:0:0:0:
233,348,99688,5,8,0:0:0:0:
258,350,99763,1,8,0:0:0:0:
283,345,99838,1,8,0:0:0:0:
304,331,99913,1,8,0:0:0:0:
328,306,99988,1,8,0:0:0:0:
361,298,100063,1,8,0:0:0:0:
394,304,100138,6,0,P|405:258|393:213,1,96,6|0,1:2|1:0,0:0:0:0:
298,171,100588,1,0,0:0:0:0:
299,263,100738,2,0,P|286:217|298:171,1,96,0|0,1:0|1:0,0:0:0:0:
392,120,101188,1,0,0:0:0:0:
392,212,101338,6,0,P|404:166|392:120,1,96,2|0,1:0|1:0,0:0:0:0:
298,171,101788,1,0,0:0:0:0:
255,95,101938,6,0,P|252:72|259:49,1,48,0|0,1:0|0:0,0:0:0:0:
392,120,102238,2,0,P|395:96|388:73,1,48,0|0,1:0|0:0,0:0:0:0:
255,95,102538,6,0,P|242:49|254:3,1,96,2|0,1:2|1:0,0:0:0:0:
175,143,102988,1,0,0:0:0:0:
40,169,103138,6,0,P|36:145|43:122,1,48,0|0,1:0|0:0,0:0:0:0:
178,189,103438,2,0,P|181:165|175:143,1,48,0|0,1:0|0:0,0:0:0:0:
44,214,103738,6,0,P|31:168|42:122,1,96,2|0,1:0|1:0,0:0:0:0:
117,39,104188,1,0,0:0:0:0:
174,142,104338,6,0,P|177:118|170:95,1,48,0|0,1:0|0:0,0:0:0:0:
43,122,104638,2,0,P|39:98|46:75,1,48,0|0,1:0|0:0,0:0:0:0:
43,214,104938,6,0,P|55:168|43:122,1,96,2|0,1:2|1:0,0:0:0:0:
174,142,105388,1,0,0:0:0:0:
175,233,105538,2,0,P|162:187|174:141,1,96,0|0,1:0|1:0,0:0:0:0:
269,186,105988,1,0,0:0:0:0:
269,278,106138,6,0,P|281:232|269:186,1,96,2|0,1:0|1:0,0:0:0:0:
175,233,106588,1,0,0:0:0:0:
176,324,106738,2,0,P|163:278|175:232,1,96,0|0,1:0|1:0,0:0:0:0:
269,278,107188,1,0,0:0:0:0:
268,370,107338,6,0,P|280:324|269:279,1,96,2|0,1:2|1:0,0:0:0:0:
175,232,107788,1,0,0:0:0:0:
269,186,107938,6,0,P|272:162|265:139,1,48,0|0,1:0|0:0,0:0:0:0:
175,232,108238,2,0,P|171:208|178:185,1,48,2|0,1:0|0:0,0:0:0:0:
195,114,108538,6,0,P|174:109|155:112,1,28.7999991210938,2|0,0:1|0:0,0:0:0:0:
193,105,108688,6,0,P|172:100|153:103,1,33.5999989746094,2|0,0:0|0:0,0:0:0:0:
191,96,108838,6,0,P|170:91|151:94,1,38.4,2|0,0:1|0:0,0:0:0:0:
189,87,108988,6,0,P|163:85|146:89,1,43.1999986816407,2|0,0:0|0:0,0:0:0:0:
187,78,109138,6,0,P|142:73|43:62,1,115.199996484375,6|0,0:1|0:0,0:0:0:0:
14,124,109363,1,0,0:0:0:0:
14,140,109438,2,0,B|23:186|23:186|11:216|11:216|14:276,1,134.399995898438,2|0,0:0|0:0,0:0:0:0:
201,339,109738,6,0,L|194:243,1,86.3999973632813,4|0,0:0|0:0,0:0:0:0:
13,271,110038,1,8,0:0:0:0:
201,339,110188,1,0,0:0:0:0:
6,357,110338,2,0,L|13:261,1,86.3999973632813,2|0,0:2|0:0,0:0:0:0:
195,253,110638,2,0,L|202:157,1,86.3999973632813,10|0,0:0|0:2,0:0:0:0:
256,111,110863,1,0,0:0:0:0:
278,123,110938,6,0,P|326:132|365:116,1,86.3999973632813,2|0,0:0|0:0,0:0:0:0:
441,38,111238,1,8,0:0:0:0:
314,56,111388,1,0,0:0:0:0:
437,112,111538,2,0,L|482:120,2,43.1999986816407,2|0|0,0:2|0:0|0:0,0:0:0:0:
360,119,111763,1,0,0:0:0:0:
357,122,111838,2,0,P|377:167|411:188,1,86.3999973632813,10|0,0:2|0:0,0:0:0:0:
466,335,112138,6,0,B|469:280|469:280|450:234,1,86.3999973632813,2|0,0:2|0:0,0:0:0:0:
358,370,112438,2,0,B|388:323|388:323|394:274,1,86.3999973632813,10|0,0:2|0:0,0:0:0:0:
246,346,112738,2,0,B|295:321|295:321|325:281,1,86.3999973632813,2|0,0:2|0:0,0:0:0:0:
161,269,113038,2,0,B|215:272|215:272|261:253,1,86.3999973632813,10|0,0:2|0:0,0:0:0:0:
213,190,113263,1,0,0:0:0:0:
190,176,113338,6,0,B|84:172,1,86.3999973632813,2|0,0:0|0:0,0:0:0:0:
0,273,113638,1,8,0:0:0:0:
0,127,113788,1,0,0:0:0:0:
16,292,113938,6,0,B|59:293,1,43.1999986816407,0|0,0:0|0:0,0:0:0:0:
103,172,114088,2,0,B|146:173,1,43.1999986816407,8|8,0:0|0:0,0:0:0:0:
75,312,114238,6,0,B|118:313,1,43.1999986816407,8|8,0:0|0:0,0:0:0:0:
162,192,114388,2,0,B|205:193,1,43.1999986816407,8|8,0:0|0:0,0:0:0:0:
201,346,114538,6,0,P|225:347|248:341,3,48,6|0|0|0,1:2|0:0|0:0|0:0,0:0:0:0:
205,193,114838,2,0,P|227:185|251:187,3,48,2|0|0|0,1:2|0:0|0:0|0:0,0:0:0:0:
248,341,115138,6,0,P|273:348|299:346,3,52.8000016113282,2|0|0|0,1:2|0:0|0:0|0:0,0:0:0:0:
251,187,115438,2,0,P|276:179|302:181,3,52.8000016113282,2|0|0|0,1:2|0:0|0:0|0:0,0:0:0:0:
371,268,115738,5,8,0:0:0:0:
397,242,115813,1,0,0:0:0:0:
414,209,115888,1,0,0:0:0:0:
417,173,115963,1,0,0:0:0:0:
407,137,116038,5,8,0:0:0:0:
371,109,116113,1,0,0:0:0:0:
362,63,116188,1,0,0:0:0:0:
385,23,116263,1,0,0:0:0:0:
429,8,116338,5,8,0:0:0:0:
419,59,116413,1,0,0:0:0:0:
380,93,116488,1,0,0:0:0:0:
328,94,116563,1,0,0:0:0:0:
287,63,116638,5,8,0:0:0:0:
229,58,116713,1,8,0:0:0:0:
181,91,116788,1,8,0:0:0:0:
168,147,116863,1,8,0:0:0:0:
194,199,116938,6,0,B|196:233|196:233|185:256|185:256|183:282|183:282|158:256,2,115.199996484375,4|0|0,1:0|0:0|1:2,0:0:0:0:
287,63,117388,1,0,0:0:0:0:
329,46,117463,1,0,0:0:0:0:
372,64,117538,1,0,0:0:0:0:
389,106,117613,1,0,0:0:0:0:
372,149,117688,1,0,0:0:0:0:
329,166,117763,1,0,0:0:0:0:
286,149,117838,5,2,0:0:0:0:
332,117,117913,1,0,0:2:0:0:
387,126,117988,1,2,0:2:0:0:
421,171,118063,1,0,0:2:0:0:
414,227,118138,1,2,0:2:0:0:
371,262,118213,1,0,0:2:0:0:
315,258,118288,5,12,0:0:0:0:
161,19,118588,5,8,0:0:0:0:
160,256,118738,2,0,P|139:257|119:251,1,43.1999986816407,8|0,0:0|0:0,0:0:0:0:
189,249,119038,5,8,0:0:0:0:
208,221,119113,1,8,0:0:0:0:
201,183,119188,1,8,0:0:0:0:
167,156,119263,1,8,0:0:0:0:
120,166,119338,6,0,B|50:102|106:24|106:24|139:94,1,211.200006445313,6|8,0:0|0:0,0:0:0:0:
12,128,119788,1,0,0:0:0:0:
185,19,119938,2,0,L|296:28,1,105.600003222656,2|0,0:0|0:0,0:0:0:0:
410,152,120238,2,0,P|345:153|310:199,1,105.600003222656,8|0,0:0|0:0,0:0:0:0:
369,233,120463,1,0,0:0:0:0:
379,214,120538,6,0,B|376:174|376:174|355:144|355:144|342:87,1,115.199996484375,2|0,0:0|0:0,0:0:0:0:
185,19,120838,1,10,0:0:0:0:
240,189,120988,1,0,0:0:0:0:
113,61,121138,2,0,B|73:26|73:26|76:161,1,158.400004833985,2|0,0:0|0:0,0:0:0:0:
66,204,121438,2,0,B|52:179|52:179|49:90,1,105.600003222656,8|0,0:0|0:0,0:0:0:0:
378,213,121738,6,0,P|388:270|367:322,1,115.199996484375,2|0,0:0|0:0,0:0:0:0:
160,324,122038,2,0,P|139:272|149:215,1,115.199996484375,10|0,0:0|0:0,0:0:0:0:
345,106,122338,6,0,P|409:101|465:131,1,124.79999428711,2|0,0:0|0:0,0:0:0:0:
182,108,122638,2,0,P|96:115|47:176,1,124.79999428711,10|0,0:0|0:0,0:0:0:0:
367,320,122938,6,0,B|403:268|383:184|383:184|301:201,1,201.599993847656,2|0,0:0|0:0,0:0:0:0:
321,222,123238,2,0,L|444:243,1,105.600003222656,8|0,0:0|0:0,0:0:0:0:
486,189,123463,1,0,0:0:0:0:
497,165,123538,2,0,B|505:110|505:110|491:42,1,105.600003222656,2|0,0:0|0:0,0:0:0:0:
353,29,123838,1,8,0:2:0:0:
314,57,123913,1,8,0:2:0:0:
271,36,123988,1,8,0:2:0:0:
236,68,124063,1,8,0:2:0:0:
193,47,124138,6,0,P|110:23|59:69,1,158.400004833985,6|0,0:0|0:0,0:0:0:0:
35,136,124438,2,0,P|81:110|133:100,1,105.600003222656,8|0,0:0|0:0,0:0:0:0:
281,183,124738,1,2,0:0:0:0:
193,47,124888,1,0,0:0:0:0:
172,203,125038,1,8,0:0:0:0:
133,100,125188,1,0,0:0:0:0:
300,200,125338,6,0,B|340:226|388:199|388:199|416:222|416:222|466:207|503:246,1,211.200006445313,2|8,0:0|0:0,0:0:0:0:
411,126,125788,1,0,0:0:0:0:
360,287,125938,2,0,B|363:337|329:359|329:359|304:331,1,105.600003222656,2|0,0:0|0:0,0:0:0:0:
263,282,126163,1,0,0:0:0:0:
239,270,126238,2,0,B|209:254|173:254|173:254|119:267,1,105.600003222656,10|0,0:0|0:0,0:0:0:0:
34,145,126538,5,8,3:0:0:0:
66,96,126613,1,0,3:0:0:0:
99,48,126688,1,0,3:0:0:0:
125,100,126763,1,0,3:0:0:0:
151,153,126838,1,4,3:2:0:0:
15,158,127138,5,8,3:0:0:0:
57,95,127213,1,0,3:0:0:0:
100,32,127288,1,0,3:0:0:0:
135,100,127363,1,0,3:0:0:0:
169,169,127438,1,4,3:2:0:0:
178,32,127588,5,0,0:0:0:0:
181,35,127663,1,0,0:0:0:0:
184,38,127738,6,0,B|223:33|223:33|258:47|258:47|295:49,1,105.600003222656,2|0,0:0|0:0,0:0:0:0:
357,24,127963,1,0,0:0:0:0:
401,84,128038,2,0,B|412:134|412:134|390:195,1,105.600003222656,10|0,0:0|0:0,0:0:0:0:
323,212,128263,1,0,0:0:0:0:
275,153,128338,6,0,P|246:147|219:158,3,52.8000016113282,6|0|0|0,1:2|2:0|2:0|2:0,0:0:0:0:
251,224,128638,5,10,0:0:0:0:
242,276,128713,1,8,0:2:0:0:
233,328,128788,1,10,0:2:0:0:
224,380,128863,1,8,0:2:0:0:
162,338,128938,6,0,B|104:304|49:348|12:322|12:322|51:328|76:305,1,211.200006445313,6|8,0:0|0:0,0:0:0:0:
157,247,129388,1,0,0:0:0:0:
37,138,129538,2,0,P|17:187|22:239,1,105.600003222656,2|0,0:0|0:0,0:0:0:0:
189,148,129838,2,0,P|207:98|202:46,1,105.600003222656,8|0,0:0|0:0,0:0:0:0:
122,59,130063,1,0,0:0:0:0:
107,83,130138,6,0,B|85:84|69:62|69:62|33:48|-4:71,1,115.199996484375,2|0,0:0|0:0,0:0:0:0:
157,247,130438,1,10,0:0:0:0:
26,240,130588,1,0,0:0:0:0:
189,148,130738,2,0,B|216:146|242:173|242:173|303:193|339:140,1,158.400004833985,2|0,0:0|0:0,0:0:0:0:
299,214,131038,2,0,P|361:215|399:164,1,105.600003222656,8|0,0:0|0:0,0:0:0:0:
337,320,131338,6,0,L|224:301,1,115.199996484375,2|0,0:0|0:0,0:0:0:0:
28,338,131638,2,0,L|144:358,1,115.199996484375,10|0,0:0|0:0,0:0:0:0:
150,24,131938,6,0,L|28:46,1,124.79999428711,2|0,0:0|0:0,0:0:0:0:
224,83,132238,2,0,L|346:61,1,124.79999428711,10|0,0:0|0:0,0:0:0:0:
209,212,132538,6,0,B|135:209|135:209|93:183|93:183|16:192,1,201.599993847656,2|0,0:0|0:0,0:0:0:0:
5,216,132838,2,0,B|-7:272|-7:272|6:333,1,105.600003222656,8|0,0:0|0:0,0:0:0:0:
75,352,133063,1,0,0:0:0:0:
99,360,133138,2,0,L|222:364,1,105.600003222656,2|0,0:0|0:0,0:0:0:0:
351,336,133438,1,8,0:2:0:0:
369,292,133513,1,8,0:2:0:0:
339,255,133588,1,8,0:2:0:0:
362,214,133663,1,8,0:2:0:0:
334,176,133738,6,0,B|314:166|287:175|287:175|264:160|264:160|223:178|195:173|160:136,1,180,6|0,0:0|0:0,0:0:0:0:
225,99,134038,2,0,B|269:80|303:102|303:102|321:100|336:104,1,105.600003222656,8|0,0:0|0:0,0:0:0:0:
434,246,134338,5,2,0:0:0:0:
405,81,134488,1,0,0:0:0:0:
339,255,134638,5,10,0:0:0:0:
473,154,134788,1,0,0:0:0:0:
225,99,134938,6,0,B|146:52|79:102|79:102|117:78|159:99,1,216.000008239746,6|0,0:0|0:0,0:0:0:0:
225,99,135238,2,0,P|263:31|212:-1,1,115.199996484375,8|0,0:0|0:0,0:0:0:0:
123,162,135538,5,10,0:0:0:0:
247,10,135688,1,0,0:0:0:0:
195,193,135838,5,10,0:0:0:0:
171,0,135988,1,0,0:0:0:0:
50,172,136138,5,14,0:0:0:0:
225,99,136288,1,0,0:0:0:0:
57,68,136438,5,8,0:0:0:0:
195,193,136588,1,0,0:0:0:0:
17,250,136738,5,10,0:0:0:0:
13,260,136813,1,0,0:0:0:0:
12,271,136888,1,0,0:0:0:0:
12,282,136963,1,0,0:0:0:0:
14,293,137038,1,8,0:0:0:0:
15,304,137113,1,0,0:0:0:0:
15,315,137188,1,0,0:0:0:0:
14,326,137263,1,0,0:0:0:0:
12,337,137338,5,10,0:0:0:0:
42,320,137413,1,0,0:0:0:0:
76,314,137488,1,0,0:0:0:0:
110,320,137563,1,0,0:0:0:0:
141,334,137638,1,8,0:0:0:0:
171,352,137713,1,0,0:0:0:0:
203,363,137788,1,0,0:0:0:0:
238,365,137863,1,0,0:0:0:0:
271,358,137938,5,10,0:0:0:0:
224,325,138013,1,0,0:0:0:0:
209,269,138088,1,0,0:0:0:0:
243,222,138163,1,0,0:0:0:0:
300,212,138238,1,8,0:0:0:0:
347,173,138313,1,0,0:0:0:0:
355,113,138388,1,0,0:0:0:0:
320,63,138463,1,0,0:0:0:0:
260,52,138538,5,4,0:0:0:0:
256,192,138613,12,2,140338,2:2:0:0:
66,257,141988,6,0,B|23:201|65:121|65:121|90:163,1,192,6|0,0:0|0:0,0:0:0:0:
155,322,142438,1,8,0:0:0:0:
247,232,142588,2,0,P|302:224|348:250,1,96,2|0,0:0|0:0,0:0:0:0:
408,125,142888,1,0,0:0:0:0:
423,106,142963,1,0,0:0:0:0:
425,82,143038,2,0,P|422:52|415:36,3,48,8|0|0|0,0:0|0:0|0:0|0:0,0:0:0:0:
345,78,143338,6,0,B|294:104|266:92|266:92|246:74|246:74|225:72|205:54,1,144,6|0,0:0|0:0,0:0:0:0:
214,61,143638,1,8,0:0:0:0:
98,26,143788,1,2,0:2:0:0:
74,22,143863,1,2,0:2:0:0:
50,22,143938,1,2,0:0:0:0:
1,114,144088,1,0,0:0:0:0:
138,98,144238,1,8,0:0:0:0:
2,90,144388,1,0,0:0:0:0:
140,121,144538,6,0,B|144:174|144:174|128:218,1,96,2|0,0:0|0:0,0:0:0:0:
0,309,144838,1,8,0:0:0:0:
43,196,144988,1,2,0:2:0:0:
117,333,145138,1,2,0:0:0:0:
212,257,145288,1,2,0:2:0:0:
235,261,145363,1,2,0:2:0:0:
258,267,145438,1,10,0:0:0:0:
284,188,145588,1,8,0:0:0:0:
305,197,145663,1,8,0:0:0:0:
324,210,145738,6,0,P|395:226|436:205,1,96,6|0,0:0|0:0,0:0:0:0:
461,164,145963,1,0,0:0:0:0:
459,92,146038,2,0,P|401:47|355:49,1,96,8|0,0:0|0:0,0:0:0:0:
307,45,146263,1,0,0:0:0:0:
260,99,146338,2,0,P|187:102|150:74,1,96,8|0,0:0|0:0,0:0:0:0:
116,41,146563,1,0,0:0:0:0:
51,8,146638,2,0,P|18:15|2:28,3,48,8|0|0|0,0:0|0:0|0:0|0:0,0:0:0:0:
54,80,146938,5,10,0:0:0:0:
51,99,147013,1,0,0:0:0:0:
48,118,147088,1,0,0:0:0:0:
45,137,147163,1,0,0:0:0:0:
75,164,147238,5,10,0:0:0:0:
77,188,147313,1,0,0:0:0:0:
79,212,147388,1,0,0:0:0:0:
82,237,147463,1,0,0:0:0:0:
61,271,147538,5,10,0:0:0:0:
91,257,147613,1,0,0:0:0:0:
124,260,147688,1,0,0:0:0:0:
150,281,147763,1,0,0:0:0:0:
135,300,147838,5,10,0:0:0:0:
170,332,147913,1,8,0:0:0:0:
217,336,147988,1,10,0:0:0:0:
258,311,148063,1,8,0:0:0:0:
274,265,148138,5,2,0:0:0:0:
172,182,148288,2,0,L|59:189,1,96,2|8,0:0|0:0,0:0:0:0:
217,112,148588,2,0,L|270:192,1,96,2|0,0:0|0:0,0:0:0:0:
134,108,148888,2,0,L|176:22,1,96,2|8,0:0|0:0,0:0:0:0:
172,182,149188,1,2,0:0:0:0:
65,71,149338,5,0,0:0:0:0:
76,187,149488,1,2,0:0:0:0:
217,112,149638,1,8,0:0:0:0:
130,247,149788,1,2,0:0:0:0:
134,108,149938,1,0,0:0:0:0:
248,241,150088,1,2,0:2:0:0:
248,241,150163,1,2,0:2:0:0:
248,241,150238,1,8,0:0:0:0:
295,71,150388,5,2,0:2:0:0:
295,71,150463,1,2,0:2:0:0:
295,71,150538,2,0,P|354:65|393:81,1,96,2|2,0:0|0:2,0:0:0:0:
484,212,150838,1,10,0:0:0:0:
484,212,150913,1,0,0:0:0:0:
484,212,150988,1,2,0:2:0:0:
484,212,151063,1,0,0:0:0:0:
484,212,151138,2,0,L|482:321,1,96,2|2,0:0|0:2,0:0:0:0:
482,307,151363,1,0,0:2:0:0:
482,307,151438,1,10,0:0:0:0:
340,234,151588,6,0,P|280:228|241:244,1,96,2|0,0:0|0:0,0:0:0:0:
151,336,151888,2,0,P|91:341|52:325,1,96,2|10,0:0|0:2,0:0:0:0:
27,258,152113,1,2,0:2:0:0:
27,258,152188,2,0,L|29:149,1,96,2|0,0:0|0:0,0:0:0:0:
137,78,152488,1,2,0:2:0:0:
137,78,152563,1,2,0:2:0:0:
137,78,152638,2,0,P|164:74|187:80,3,48,10|8|8|8,0:0|0:0|0:0|0:0,0:0:0:0:
265,35,152938,6,0,P|270:95|254:134,1,96,4|2,0:0|0:2,0:0:0:0:
257,127,153163,1,2,0:2:0:0:
257,127,153238,1,10,0:0:0:0:
119,185,153388,1,2,0:2:0:0:
183,78,153538,1,2,0:0:0:0:
214,228,153688,5,2,0:2:0:0:
214,228,153763,1,2,0:2:0:0:
214,228,153838,1,10,0:0:0:0:
105,103,153988,1,2,0:2:0:0:
105,103,154063,1,2,0:2:0:0:
105,103,154138,5,14,0:0:0:0:
93,81,154213,1,0,0:0:0:0:
69,74,154288,1,2,0:2:0:0:
45,75,154363,1,0,0:0:0:0:
33,96,154438,1,10,0:0:0:0:
33,119,154513,1,0,0:0:0:0:
39,142,154588,1,2,0:2:0:0:
36,165,154663,1,0,0:0:0:0:
29,188,154738,6,0,P|18:247|31:287,1,96,2|2,0:1|0:2,0:0:0:0:
142,330,155038,1,10,0:1:0:0:
169,327,155113,1,0,0:0:0:0:
197,323,155188,1,2,0:0:0:0:
225,320,155263,1,0,0:0:0:0:
253,317,155338,6,0,B|291:318|291:318|316:326|316:326|361:327,1,96,2|2,0:1|0:0,0:0:0:0:
415,300,155563,1,2,0:0:0:0:
449,236,155638,2,0,P|453:212|452:188,3,48,2|0|0|0,1:0|0:0|0:0|0:0,0:0:0:0:
413,127,155938,5,2,1:0:0:0:
381,104,156013,1,0,0:0:0:0:
344,99,156088,1,2,0:1:0:0:
308,110,156163,1,0,0:0:0:0:
280,136,156238,1,2,1:0:0:0:
247,155,156313,1,0,0:0:0:0:
209,162,156388,1,2,0:1:0:0:
172,154,156463,1,0,0:0:0:0:
139,134,156538,6,0,P|129:104|132:73,3,48,2|0|0|0,1:1|0:0|0:0|0:0,0:0:0:0:
191,33,156838,6,0,L|211:67,1,24,2|0,1:1|0:0,0:0:0:0:
217,25,156913,2,0,L|227:63,1,24,2|0,0:0|0:0,0:0:0:0:
245,21,156988,2,0,L|245:60,1,24,2|0,0:1|0:0,0:0:0:0:
273,23,157063,2,0,L|263:61,1,24,2|0,0:0|0:0,0:0:0:0:
300,31,157138,6,0,L|280:65,1,24,2|0,1:1|0:0,0:0:0:0:
324,44,157213,2,0,L|296:72,1,24,2|0,0:0|0:0,0:0:0:0:
346,61,157288,2,0,L|312:80,1,24,2|0,0:1|0:0,0:0:0:0:
364,83,157363,2,0,L|325:93,1,24,2|0,0:0|0:0,0:0:0:0:
378,107,157438,5,2,1:0:0:0:
386,134,157513,1,2,1:2:0:0:
389,162,157588,1,2,1:1:0:0:
386,190,157663,1,2,1:2:0:0:
378,217,157738,6,0,L|266:207,1,96,6|0,1:2|1:0,0:0:0:0:
185,200,158188,1,0,0:0:0:0:
89,192,158338,2,0,L|200:201,1,96,0|0,1:0|1:0,0:0:0:0:
282,208,158788,1,0,0:0:0:0:
291,112,158938,6,0,L|282:207,1,96,2|0,1:0|1:0,0:0:0:0:
272,303,159388,1,0,0:0:0:0:
178,295,159538,6,0,L|130:290,1,48,0|0,1:0|0:0,0:0:0:0:
185,200,159838,2,0,L|189:152,1,48,0|0,1:0|0:0,0:0:0:0:
94,144,160138,6,0,L|189:152,1,96,2|0,1:2|1:0,0:0:0:0:
286,159,160588,1,0,0:0:0:0:
293,64,160738,6,0,L|297:16,1,48,0|0,1:0|0:0,0:0:0:0:
198,56,161038,2,0,L|150:51,1,48,0|0,1:0|0:0,0:0:0:0:
143,147,161338,6,0,L|151:51,1,96,2|0,1:0|1:0,0:0:0:0:
54,43,161788,1,0,0:0:0:0:
47,139,161938,6,0,L|41:202,1,48,0|0,1:0|0:0,0:0:0:0:
33,283,162238,2,0,L|28:330,1,48,0|0,1:0|0:0,0:0:0:0:
130,290,162538,6,0,L|225:298,1,96,2|0,1:2|1:0,0:0:0:0:
320,308,162988,1,0,0:0:0:0:
415,317,163138,2,0,L|319:308,1,96,0|0,1:0|1:0,0:0:0:0:
225,298,163588,1,0,0:0:0:0:
233,204,163738,6,0,L|241:108,1,96,2|0,1:0|1:0,0:0:0:0:
251,13,164188,1,0,0:0:0:0:
155,4,164338,2,0,L|250:12,1,96,0|0,1:0|1:0,0:0:0:0:
346,21,164788,1,0,0:0:0:0:
442,30,164938,6,0,L|346:21,1,96,2|0,1:2|1:0,0:0:0:0:
338,117,165388,1,0,0:0:0:0:
329,212,165538,6,0,L|324:259,1,48,0|0,1:0|0:0,0:0:0:0:
424,220,165838,2,0,L|471:224,1,48,2|0,1:0|0:0,0:0:0:0:
417,316,166138,6,0,L|464:320,1,48,2|0,0:3|0:0,0:0:0:0:
317,356,166438,2,0,L|269:351,1,48
185,268,166738,6,0,B|173:219|173:219|185:156,1,105.600003222656,2|0,0:0|0:0,0:0:0:0:
241,114,166963,1,0,0:0:0:0:
255,106,167038,2,0,B|222:77|178:75|178:75|111:109,1,124.79999428711,2|0,0:0|0:0,0:0:0:0:
14,141,167338,6,0,P|0:100|7:58,1,86.3999973632813,4|0,0:0|0:0,0:0:0:0:
142,93,167638,1,8,0:0:0:0:
7,58,167788,1,0,0:0:0:0:
149,175,167938,2,0,P|156:132|142:92,1,86.3999973632813,2|0,0:2|0:0,0:0:0:0:
14,141,168238,2,0,P|6:183|20:223,1,86.3999973632813,10|0,0:0|0:2,0:0:0:0:
83,274,168463,1,0,0:0:0:0:
107,284,168538,6,0,L|205:288,1,86.3999973632813,2|0,0:0|0:0,0:0:0:0:
329,328,168838,1,8,0:0:0:0:
201,361,168988,1,0,0:0:0:0:
311,259,169138,2,0,P|332:256|353:261,2,43.1999986816407,2|0|0,0:2|0:0|0:0,0:0:0:0:
329,328,169363,1,0,0:0:0:0:
332,331,169438,2,0,P|382:329|413:304,1,86.3999973632813,10|0,0:2|0:0,0:0:0:0:
439,155,169738,6,0,L|430:260,1,86.3999973632813,2|0,0:2|0:0,0:0:0:0:
374,103,170038,2,0,L|338:202,1,86.3999973632813,10|0,0:2|0:0,0:0:0:0:
257,88,170338,2,0,L|264:174,1,86.3999973632813,2|0,0:2|0:0,0:0:0:0:
180,122,170638,2,0,L|164:207,1,86.3999973632813,10|0,0:2|0:0,0:0:0:0:
86,225,170863,1,0,0:0:0:0:
87,199,170938,6,0,L|71:113,1,86.3999973632813,2|0,0:0|0:0,0:0:0:0:
184,0,171238,1,8,0:0:0:0:
35,2,171388,1,0,0:0:0:0:
180,122,171538,6,0,P|207:123|236:114,1,43.1999986816407,0|0,0:0|0:0,0:0:0:0:
71,113,171688,2,0,P|44:112|15:121,1,43.1999986816407,8|8,0:0|0:0,0:0:0:0:
167,144,171838,6,0,P|192:151|223:150,1,43.1999986816407,8|8,0:0|0:0,0:0:0:0:
84,91,171988,2,0,P|58:83|27:84,1,43.1999986816407,8|8,0:0|0:0,0:0:0:0:
9,201,172138,6,0,L|2:272,3,48,6|0|0|0,1:2|0:0|0:0|0:0,0:0:0:0:
65,312,172438,2,0,L|72:383,3,48,2|0|0|0,1:2|0:0|0:0|0:0,0:0:0:0:
136,230,172738,6,0,L|147:300,3,52.8000016113282,2|0|0|0,1:2|0:0|0:0|0:0,0:0:0:0:
218,322,173038,2,0,L|225:392,3,52.8000016113282,2|0|0|0,1:2|0:0|0:0|0:0,0:0:0:0:
277,262,173338,5,8,0:0:0:0:
307,242,173413,1,0,0:0:0:0:
344,237,173488,1,0,0:0:0:0:
379,248,173563,1,0,0:0:0:0:
406,272,173638,5,8,0:0:0:0:
439,238,173713,1,0,0:0:0:0:
458,194,173788,1,0,0:0:0:0:
461,147,173863,1,0,0:0:0:0:
448,102,173938,5,8,0:0:0:0:
409,137,174013,1,0,0:0:0:0:
359,149,174088,1,0,0:0:0:0:
308,135,174163,1,0,0:0:0:0:
272,97,174238,5,8,0:0:0:0:
228,59,174313,1,8,0:0:0:0:
170,53,174388,1,8,0:0:0:0:
123,87,174463,1,8,0:0:0:0:
107,142,174538,6,0,B|103:189|103:189|114:214|114:214|112:267,2,115.199996484375,4|0|0,1:0|0:0|1:2,0:0:0:0:
228,59,174988,1,0,0:0:0:0:
270,42,175063,1,0,0:0:0:0:
313,60,175138,1,0,0:0:0:0:
330,102,175213,1,0,0:0:0:0:
313,145,175288,1,0,0:0:0:0:
270,162,175363,1,0,0:0:0:0:
227,145,175438,5,2,0:0:0:0:
225,202,175513,1,0,0:2:0:0:
223,259,175588,1,2,0:2:0:0:
221,316,175663,1,0,0:2:0:0:
219,373,175738,6,0,B|70:358,1,115.199996484375,8|0,0:0|0:0,0:0:0:0:
16,338,175938,6,0,P|72:342|115:281,1,124.79999428711,8|0,0:0|0:0,0:0:0:0:
90,159,176138,6,0,B|46:202|46:202|47:275,1,134.399995898438,8|0,0:0|0:0,0:0:0:0:
162,187,176338,6,0,B|174:115|116:89|116:89|64:89,1,144.000005493164,8|0,0:0|0:0,0:0:0:0:
24,118,176538,6,0,P|16:87|27:60,3,51.2,8|0|0|0,0:0|0:0|0:0|0:0,0:0:0:0:
74,18,176738,6,0,B|99:15|99:15|120:19|120:19|147:14|147:14|168:27|168:27|191:20|191:20|213:26|213:26|260:20,1,163.200003112793,8|0,0:0|0:0,0:0:0:0:
230,23,178138,5,2,0:0:0:0:
238,50,178288,1,0,0:0:0:0:
290,113,178438,5,2,0:0:0:0:
282,140,178588,1,0,0:0:0:0:
310,216,178738,5,2,0:0:0:0:
310,216,179038,1,2,0:0:0:0:
310,216,179338,6,0,L|416:220,3,96,2|0|0|0,0:0|0:0|0:0|0:0,0:0:0:0:
511,287,180538,6,0,P|494:313|472:324,3,48,0|0|0|0,0:0|0:0|0:0|0:0,0:0:0:0:
401,345,181138,6,0,L|293:342,3,96
237,298,182188,5,2,0:0:0:0:
234,301,182338,2,0,L|165:299,3,48,2|2|2|2,0:0|0:0|0:0|0:0,0:0:0:0:
110,324,182938,6,0,P|105:299|121:260,1,48,2|0,0:0|0:0,0:0:0:0:
166,176,183238,6,0,P|171:201|155:240,1,48,2|0,0:0|0:0,0:0:0:0:
76,116,183538,5,2,0:0:0:0:
103,124,183688,1,0,0:0:0:0:
166,176,183838,5,2,0:0:0:0:
193,168,183988,1,0,0:0:0:0:
269,196,184138,6,0,L|330:201,3,48,2|0|0|0,0:0|0:0|0:0|0:0,0:0:0:0:
394,175,184738,5,2,0:0:0:0:
422,166,184888,1,0,0:0:0:0:
446,88,185038,5,2,0:0:0:0:
418,79,185188,1,0,0:0:0:0:
363,17,185338,5,2,0:0:0:0:
231,185,187138,6,0,B|231:152|256:134|256:134|277:165|267:208|232:255|232:255|229:286|253:305|253:305|254:284|264:259|283:246,1,307.2,2|0,0:0|0:0,0:0:0:0:
277,252,188938,6,0,B|312:187|287:128|287:128|259:142|225:133,1,192,10|0,3:3|0:0,0:0:0:0:
48,60,189238,1,8,0:0:0:0:
248,60,189388,1,0,0:0:0:0:
38,209,189538,2,0,P|6:132|48:60,1,172.799994726563,2|0,0:0|0:0,0:0:0:0:
168,242,189838,1,8,0:0:0:0:
148,26,189988,1,0,0:0:0:0:
38,209,190138,6,0,B|16:251|40:292|40:292|23:281|3:280,1,115.199996484375,2|0,0:0|0:0,0:0:0:0:
225,133,190438,2,0,B|247:91|223:50|223:50|240:61|260:62,1,115.199996484375,10|0,0:0|0:0,0:0:0:0:
300,261,190738,6,0,B|322:303|298:344|298:344|315:333|335:332,1,124.79999428711,2|0,0:0|0:0,0:0:0:0:
114,181,191038,2,0,B|92:139|116:98|116:98|99:109|79:110,1,124.79999428711,10|0,0:0|0:0,0:0:0:0:
378,141,191338,6,0,B|427:143|457:196|457:196|436:140|455:96,1,201.599993847656,2|0,0:0|0:0,0:0:0:0:
469,76,191638,2,0,P|420:59|367:55,1,105.600003222656,8|0,0:0|0:0,0:0:0:0:
311,113,191863,1,0,0:0:0:0:
288,127,191938,2,0,P|235:123|185:105,1,105.600003222656,2|0,0:0|0:0,0:0:0:0:
91,19,192238,1,8,0:2:0:0:
135,1,192313,1,8,0:2:0:0:
180,16,192388,1,8,0:2:0:0:
198,60,192463,1,8,0:2:0:0:
185,105,192538,6,0,B|175:163|175:163|193:204|193:204|178:238|189:271,1,158.400004833985,6|0,0:0|0:0,0:0:0:0:
231,312,192838,2,0,B|179:294|179:294|128:295,1,105.600003222656,8|0,0:0|0:0,0:0:0:0:
0,352,193138,1,2,0:0:0:0:
171,370,193288,1,0,0:0:0:0:
29,242,193438,1,8,0:0:0:0:
185,257,193588,1,0,0:0:0:0:
28,128,193738,6,0,B|-9:34|55:-3|55:-3|98:86,1,211.200006445313,2|8,0:0|0:0,0:0:0:0:
112,200,194188,1,0,0:0:0:0:
239,74,194338,2,0,B|277:69|277:69|309:83|309:83|346:89,1,105.600003222656,2|0,0:0|0:0,0:0:0:0:
419,69,194563,1,0,0:0:0:0:
436,88,194638,2,0,B|445:122|417:157|417:157|434:167|439:193,1,105.600003222656,10|0,0:0|0:0,0:0:0:0:
386,313,194938,5,8,3:0:0:0:
328,308,195013,1,0,3:0:0:0:
270,303,195088,1,0,3:0:0:0:
212,298,195163,1,0,3:0:0:0:
154,293,195238,1,4,3:2:0:0:
411,330,195538,5,8,3:0:0:0:
341,324,195613,1,0,3:0:0:0:
271,318,195688,1,0,3:0:0:0:
202,312,195763,1,0,3:0:0:0:
132,306,195838,1,4,3:2:0:0:
30,343,195988,5,0,0:0:0:0:
30,343,196063,1,0,0:0:0:0:
30,343,196138,6,0,P|21:283|42:241,1,105.600003222656,2|0,0:0|0:0,0:0:0:0:
94,192,196363,1,0,0:0:0:0:
165,211,196438,2,0,L|289:220,1,105.600003222656,10|0,0:0|0:0,0:0:0:0:
341,194,196663,1,0,0:0:0:0:
360,122,196738,6,0,P|362:95|352:59,3,52.8000016113282,6|0|0|0,1:2|2:0|2:0|2:0,0:0:0:0:
289,101,197038,5,10,0:0:0:0:
236,101,197113,1,8,0:2:0:0:
183,101,197188,1,10,0:2:0:0:
130,101,197263,1,8,0:2:0:0:
58,66,197338,6,0,B|51:42|16:28|16:28|6:98|32:118|32:118|9:146|13:182,1,211.200006445313,6|8,0:0|0:0,0:0:0:0:
17,314,197788,1,0,0:0:0:0:
180,217,197938,2,0,B|156:188|156:188|122:172|122:172|85:170,1,105.600003222656,2|0,0:0|0:0,0:0:0:0:
160,363,198238,2,0,B|197:366|197:366|232:353|232:353|260:329,1,105.600003222656,8|0,0:0|0:0,0:0:0:0:
288,261,198463,1,0,0:0:0:0:
312,245,198538,6,0,B|342:241|342:241|388:264|388:264|428:268,1,115.199996484375,2|0,0:0|0:0,0:0:0:0:
398,56,198838,1,10,0:0:0:0:
312,245,198988,1,0,0:0:0:0:
223,33,199138,2,0,B|194:30|194:30|170:38|148:29|148:29|125:33|109:50|109:50|91:41|72:46,1,158.400004833985,2|0,0:0|0:0,0:0:0:0:
12,84,199438,2,0,B|34:118|77:114|77:114|57:135|53:168,1,105.600003222656,8|0,0:0|0:0,0:0:0:0:
289,358,199738,6,0,L|315:229,1,115.199996484375,2|0,0:0|0:0,0:0:0:0:
83,251,200038,2,0,L|57:122,1,115.199996484375,10|0,0:0|0:0,0:0:0:0:
312,245,200338,6,0,L|336:122,1,124.79999428711,2|0,0:0|0:0,0:0:0:0:
60,138,200638,2,0,L|35:15,1,124.79999428711,10|0,0:0|0:0,0:0:0:0:
336,122,200938,6,0,P|424:142|413:55,1,201.599993847656,2|0,0:0|0:0,0:0:0:0:
412,83,201238,2,0,B|419:122|419:122|435:148|435:148|440:187,1,105.600003222656,8|0,0:0|0:0,0:0:0:0:
437,263,201463,1,0,0:0:0:0:
421,284,201538,2,0,B|393:289|383:283|383:283|361:320|313:315,1,105.600003222656,2|0,0:0|0:0,0:0:0:0:
233,228,201838,1,8,0:2:0:0:
276,211,201913,1,8,0:2:0:0:
321,225,201988,1,8,0:2:0:0:
338,269,202063,1,8,0:2:0:0:
327,315,202138,6,0,B|292:319|272:292|272:292|222:317|182:280|182:280|173:291|180:299,1,180,6|0,0:0|0:0,0:0:0:0:
233,228,202438,2,0,P|247:163|230:121,1,105.600003222656,8|0,0:0|0:0,0:0:0:0:
31,38,202738,5,2,0:2:0:0:
31,38,202888,1,0,0:0:0:0:
56,259,203038,5,2,0:2:0:0:
56,259,203188,1,0,0:0:0:0:
234,127,203338,6,0,B|263:103|298:104|298:104|330:74|330:74|383:91|390:132|362:169,1,216.000008239746,10|0,0:3|0:0,0:0:0:0:
429,192,203638,2,0,L|313:191,1,115.199996484375,8|0,0:0|0:0,0:0:0:0:
107,337,203938,6,0,L|137:288,1,57.5999982421876,10|0,0:0|0:0,0:0:0:0:
264,78,204088,2,0,L|234:127,1,57.5999982421876
235,371,204238,6,0,L|217:316,1,57.5999982421876,10|0,0:0|0:0,0:0:0:0:
130,63,204388,2,0,L|148:118,1,57.5999982421876
303,309,204538,6,0,L|319:309,1,14.4
379,262,204838,6,0,P|352:239|320:311,1,144.000005493164,14|0,1:3|0:0,0:0:0:0:
388,340,205063,1,0,0:0:0:0:
404,352,205138,2,0,P|455:374|508:355,1,115.199996484375,2|0,0:0|0:0,0:0:0:0:
512,157,205438,2,0,P|460:134|406:155,1,115.199996484375,8|0,0:0|0:0,0:0:0:0:
443,221,205663,1,0,0:0:0:0:
458,205,205738,6,0,B|458:154|458:154|467:129|467:129|466:75,1,124.79999428711,2|0,0:0|0:0,0:0:0:0:
281,10,206038,1,10,0:0:0:0:
318,190,206188,1,0,0:0:0:0:
163,45,206338,2,0,B|115:25|115:25|85:77|126:145,1,172.799994726563,2|0,0:0|0:0,0:0:0:0:
69,187,206638,2,0,P|124:174|178:192,1,115.199996484375,8|0,0:0|0:0,0:0:0:0:
420,337,206938,6,0,B|436:294|411:258|411:258|412:289|395:314,1,124.79999428711,2|0,0:0|0:0,0:0:0:0:
178,192,207238,2,0,B|161:149|178:113|178:113|221:73,1,124.79999428711,10|0,0:0|0:0,0:0:0:0:
420,47,207538,6,0,B|436:90|411:126|411:126|412:95|395:70,1,134.399995898438,2|0,0:0|0:0,0:0:0:0:
178,192,207838,2,0,B|161:235|178:271|178:271|221:311,1,134.399995898438,10|0,0:0|0:0,0:0:0:0:
256,24,208138,6,0,B|218:1|178:7|152:36|152:36|126:26|126:26|94:20|76:35|76:35|92:48|105:49,1,216.000008239746,2|0,0:0|0:0,0:0:0:0:
103,116,208438,2,0,B|121:116|136:106|136:106|178:117|210:85,1,115.199996484375,8|0,0:0|0:0,0:0:0:0:
256,24,208663,1,0,0:0:0:0:
284,25,208738,2,0,B|300:23|320:37|320:37|339:34|362:38|362:38|374:50|402:57,1,115.199996484375,2|0,0:0|0:0,0:0:0:0:
451,197,209038,1,8,0:2:0:0:
410,233,209113,1,8,0:2:0:0:
359,214,209188,1,8,0:2:0:0:
319,251,209263,1,8,0:2:0:0:
270,236,209338,6,0,B|183:203|172:306|79:254,1,201.599993847656,6|0,0:0|0:0,0:0:0:0:
22,204,209638,2,0,P|73:179|128:193,1,115.199996484375,8|0,0:0|0:0,0:0:0:0:
243,344,209938,1,2,0:0:0:0:
80,254,210088,1,0,0:0:0:0:
270,236,210238,1,8,0:0:0:0:
134,348,210388,1,0,0:0:0:0:
219,137,210538,6,0,B|234:71|197:31|150:17|110:37|110:37|141:39|160:62,1,230.39999296875,2|8,0:0|0:0,0:0:0:0:
128,193,210988,1,0,0:0:0:0:
325,114,211138,2,0,L|464:130,1,115.199996484375,2|0,0:0|0:0,0:0:0:0:
477,195,211363,1,0,0:0:0:0:
485,222,211438,2,0,B|481:255|481:255|463:275|463:275|465:302|465:302|447:341,1,115.199996484375,10|0,0:0|0:0,0:0:0:0:
269,333,211738,5,8,3:0:0:0:
250,273,211813,1,0,3:0:0:0:
280,218,211888,1,0,3:0:0:0:
341,201,211963,1,0,3:0:0:0:
397,231,212038,1,4,3:2:0:0:
255,346,212338,5,8,3:0:0:0:
233,273,212413,1,0,3:0:0:0:
268,205,212488,1,0,3:0:0:0:
343,183,212563,1,0,3:0:0:0:
409,220,212638,1,4,3:2:0:0:
345,298,212788,5,0,0:0:0:0:
342,301,212863,1,0,0:0:0:0:
339,304,212938,6,0,B|317:284|317:284|291:281|291:281|232:272,1,115.199996484375,2|0,0:0|0:0,0:0:0:0:
156,293,213163,1,0,0:0:0:0:
93,246,213238,2,0,B|79:219|79:219|83:193|83:193|89:134,1,115.199996484375,10|0,0:0|0:0,0:0:0:0:
121,63,213463,1,0,0:0:0:0:
192,33,213538,6,0,B|211:30|211:30|254:33,3,48,6|0|0|0,1:2|2:0|2:0|2:0,0:0:0:0:
217,102,213838,5,10,0:0:0:0:
222,157,213913,1,8,0:2:0:0:
228,215,213988,1,10,0:2:0:0:
232,272,214063,1,8,0:2:0:0:
280,326,214138,6,0,B|347:349|393:316|430:342|430:342|384:369|349:352,1,230.39999296875,6|8,0:0|0:0,0:0:0:0:
210,341,214588,1,0,0:0:0:0:
355,149,214738,2,0,P|412:146|468:158,1,115.199996484375,2|0,0:0|0:0,0:0:0:0:
227,215,215038,2,0,P|170:218|114:206,1,115.199996484375,8|0,0:0|0:0,0:0:0:0:
72,143,215263,1,0,0:0:0:0:
46,159,215338,6,0,B|23:207|40:241|40:241|24:279,1,124.79999428711,2|0,0:0|0:0,0:0:0:0:
197,361,215638,1,10,0:0:0:0:
114,206,215788,1,0,0:0:0:0:
288,136,215938,2,0,B|318:154|326:197|326:197|373:153|432:184,1,172.799994726563,2|0,0:0|0:0,0:0:0:0:
385,248,216238,2,0,P|466:234|485:205,1,115.199996484375,8|0,0:0|0:0,0:0:0:0:
266,26,216538,6,0,B|227:32|204:49|204:49|169:35|137:41,1,134.399995898438,2|0,0:0|0:0,0:0:0:0:
256,255,216838,2,0,B|295:251|319:236|319:236|353:252|385:248,1,134.399995898438,10|0,0:0|0:0,0:0:0:0:
138,41,217138,6,0,B|95:47|69:72|69:72|37:65|1:77,1,144.000005493164,2|0,0:0|0:0,0:0:0:0:
120,279,217438,2,0,B|162:274|190:251|190:251|224:262|258:255,1,144.000005493164,10|0,0:0|0:0,0:0:0:0:
2,76,217738,6,0,B|12:123|12:123|2:156|2:156|19:202|2:231|2:231|25:241|49:236|61:220|34:194,1,230.4,2|0,0:0|0:0,0:0:0:0:
10,271,218038,2,0,B|49:286|85:267|85:267|102:273|133:283,1,115.199996484375,8|0,0:0|0:0,0:0:0:0:
182,320,218263,1,0,0:0:0:0:
188,342,218338,2,0,L|304:341,1,115.199996484375,2|0,0:0|0:0,0:0:0:0:
403,233,218638,1,8,0:2:0:0:
350,217,218713,1,8,0:2:0:0:
300,239,218788,1,8,0:2:0:0:
285,292,218863,1,8,0:2:0:0:
303,341,218938,6,0,B|327:359|353:356|353:356|377:348|377:348|406:358|406:358|434:343|434:343|469:365|518:340,1,216.000008239746,6|0,0:0|0:0,0:0:0:0:
473,280,219238,2,0,B|473:250|473:250|480:218|480:218|473:160,1,105.600003222656,8|0,0:0|0:0,0:0:0:0:
317,62,219538,5,2,0:0:0:0:
300,239,219688,1,0,0:0:0:0:
437,64,219838,5,10,0:0:0:0:
268,150,219988,1,0,0:0:0:0:
418,348,220138,6,0,B|435:355|455:343|461:313|434:306|434:306|389:324|350:297|350:297|311:284|269:311,1,244.80000466919,6|0,0:0|0:0,0:0:0:0:
208,352,220438,2,0,L|85:345,1,115.199996484375,8|0,0:0|0:0,0:0:0:0:
146,111,220738,5,10,0:0:0:0:
272,310,220888,1,0,0:0:0:0:
63,154,221038,5,10,0:0:0:0:
262,289,221188,1,0,0:0:0:0:
211,43,221338,5,14,0:0:0:0:
61,266,221488,1,0,0:0:0:0:
292,90,221638,5,8,0:0:0:0:
72,245,221788,1,0,0:0:0:0:
90,25,221938,5,10,0:0:0:0:
128,24,222013,1,0,0:0:0:0:
165,40,222088,1,0,0:0:0:0:
190,70,222163,1,0,0:0:0:0:
203,108,222238,1,8,0:0:0:0:
219,143,222313,1,0,0:0:0:0:
249,169,222388,1,0,0:0:0:0:
287,182,222463,1,0,0:0:0:0:
328,177,222538,5,10,0:0:0:0:
369,138,222613,1,0,0:0:0:0:
425,128,222688,1,0,0:0:0:0:
477,150,222763,1,0,0:0:0:0:
510,197,222838,1,8,0:0:0:0:
511,253,222913,1,0,0:0:0:0:
482,302,222988,1,0,0:0:0:0:
431,327,223063,1,0,0:0:0:0:
360,315,223138,5,10,0:0:0:0:
344,244,223213,1,0,0:0:0:0:
328,177,223288,1,0,0:0:0:0:
308,105,223363,1,0,0:0:0:0:
292,35,223438,6,0,B|256:26|256:26|219:38,1,72,2|0,0:0|0:0,0:0:0:0:
192,192,223738,5,14,0:3:0:0:
256,192,223813,12,2,228238,2:2:0:0:
248,100,228388,6,0,B|241:75|256:54|256:54|270:75|263:100,1,96,0|4,0:0|0:0,0:0:0:0:
