osu file format v13

[General]
AudioFilename: kakushigoto.mp3
AudioLeadIn: 1000
PreviewTime: 51073
Countdown: 0
SampleSet: Normal
StackLeniency: 0.5
Mode: 1
LetterboxInBreaks: 0
WidescreenStoryboard: 1

[Editor]
Bookmarks: 234073
DistanceSpacing: 0.8
BeatDivisor: 4
GridSize: 4
TimelineZoom: 3.599999

[Metadata]
Title:Kakushigoto
TitleUnicode:かくしごと
Artist:yuikonnu
ArtistUnicode:ゆいこんぬ
Creator:Kin
Version:Oni
Source:
Tags:IA vocaloid mafumafu secret nico douga Kurosanyan Nofool Genocide
BeatmapID:503488
BeatmapSetID:213959

[Difficulty]
HPDrainRate:5
CircleSize:4.5
OverallDifficulty:5
ApproachRate:5
SliderMultiplier:1.4
SliderTickRate:1

[Events]
//Background and Video events
0,0,"37904033.jpg",0,60
//Break Periods
//Storyboard Layer 0 (Background)
//Storyboard Layer 1 (Fail)
//Storyboard Layer 2 (Pass)
//Storyboard Layer 3 (Foreground)
//Storyboard Sound Samples
//Background Colour Transformations
3,100,163,162,255

[TimingPoints]
1273,300,4,1,0,80,1,0
12148,-100,4,1,0,75,0,0
12223,-100,4,1,0,70,0,0
12298,-100,4,1,0,65,0,0
12373,-100,4,1,0,60,0,0
12448,-100,4,1,0,55,0,0
12523,-100,4,1,0,50,0,0
12598,-100,4,1,0,45,0,0
12673,-100,4,1,0,40,0,0
12748,-100,4,1,0,35,0,0
12823,-100,4,1,0,30,0,0
12898,-100,4,1,0,25,0,0
12973,-100,4,1,0,20,0,0
13048,-100,4,1,0,15,0,0
13123,-100,4,1,0,10,0,0
13273,-133.333333333333,4,1,0,20,0,0
21673,-126.582278481013,4,1,0,30,0,0
21823,-120.481927710843,4,1,0,40,0,0
21973,-114.942528735632,4,1,0,50,0,0
22123,-109.89010989011,4,1,0,60,0,0
22273,-105.263157894737,4,1,0,70,0,0
22423,-100,4,1,0,80,0,0
32773,-114.942528735632,4,1,0,80,0,0
33073,-133.333333333333,4,1,0,80,0,0
41023,-123.456790123457,4,1,0,80,0,0
41173,-114.942528735632,4,1,0,80,0,0
41323,-107.52688172043,4,1,0,80,0,0
41473,-100,4,1,0,80,0,0
51673,-100,4,1,0,100,0,1
70873,-100,4,1,0,80,0,0
80548,-100,4,1,0,75,0,0
80623,-101.010101010101,4,1,0,70,0,0
80698,-102.040816326531,4,1,0,65,0,0
80773,-103.092783505155,4,1,0,60,0,0
80848,-104.166666666667,4,1,0,55,0,0
80923,-105.263157894737,4,1,0,50,0,0
80998,-106.382978723404,4,1,0,45,0,0
81073,-107.52688172043,4,1,0,40,0,0
81148,-108.695652173913,4,1,0,35,0,0
81223,-109.89010989011,4,1,0,30,0,0
81298,-111.111111111111,4,1,0,25,0,0
81373,-112.359550561798,4,1,0,20,0,0
81448,-113.636363636364,4,1,0,15,0,0
81523,-114.942528735632,4,1,0,10,0,0
81673,-133.333333333333,4,1,0,20,0,0
89773,-126.582278481013,4,1,0,30,0,0
89923,-120.481927710843,4,1,0,40,0,0
90073,-114.942528735632,4,1,0,50,0,0
90223,-109.89010989011,4,1,0,60,0,0
90373,-105.263157894737,4,1,0,70,0,0
90523,-100,4,1,0,80,0,0
101173,-114.942528735632,4,1,0,80,0,0
101473,-133.333333333333,4,1,0,80,0,0
109273,-100,4,1,0,80,0,0
120073,-100,4,1,0,80,0,1
139273,-100,4,1,0,80,0,0
158773,-114.942528735632,4,1,0,80,0,0
159073,-133.333333333333,4,1,0,80,0,0
166723,-126.582278481013,4,1,0,80,0,0
166873,-120.481927710843,4,1,0,80,0,0
167023,-114.942528735632,4,1,0,80,0,0
167173,-109.89010989011,4,1,0,80,0,0
167323,-105.263157894737,4,1,0,80,0,0
167473,-100,4,1,0,80,0,0
178873,-133.333333333333,4,1,0,20,0,0
189673,-100,4,1,0,80,0,1
205573,-100,4,1,0,80,0,1
224473,-100,4,1,0,80,0,0
234148,-100,4,1,0,75,0,0
234223,-100,4,1,0,70,0,0
234298,-100,4,1,0,65,0,0
234373,-100,4,1,0,60,0,0
234448,-100,4,1,0,55,0,0
234523,-100,4,1,0,50,0,0
234598,-100,4,1,0,45,0,0
234673,-100,4,1,0,40,0,0
234748,-100,4,1,0,35,0,0
234823,-100,4,1,0,30,0,0
234898,-100,4,1,0,25,0,0
234973,-100,4,1,0,20,0,0
235048,-100,4,1,0,15,0,0
235123,-100,4,1,0,10,0,0
235198,-100,4,1,0,5,0,0

[Colours]
Combo1 : 202,202,202
Combo2 : 254,150,252
Combo3 : 185,102,253
Combo4 : 87,199,253
Combo5 : 251,21,21

[HitObjects]
256,188,1273,5,8,0:0:0:0:
256,188,1573,1,8,0:0:0:0:
256,188,1723,1,0,0:0:0:0:
256,188,1873,1,8,0:0:0:0:
256,188,1948,1,8,0:0:0:0:
256,188,2023,1,0,0:0:0:0:
256,188,2098,1,0,0:0:0:0:
256,188,2173,1,8,0:0:0:0:
256,188,2323,1,8,0:0:0:0:
256,188,2398,1,8,0:0:0:0:
256,188,2473,1,0,0:0:0:0:
256,188,2773,1,8,0:0:0:0:
256,188,2923,1,0,0:0:0:0:
256,188,3073,1,8,0:0:0:0:
256,188,3148,1,8,0:0:0:0:
256,188,3223,1,8,0:0:0:0:
256,188,3373,1,8,0:0:0:0:
256,188,3523,1,0,0:0:0:0:
256,188,3823,1,0,0:0:0:0:
256,188,3973,1,8,0:0:0:0:
256,188,4123,1,0,0:0:0:0:
256,188,4273,1,8,0:0:0:0:
256,188,4348,1,8,0:0:0:0:
256,188,4423,1,0,0:0:0:0:
256,188,4573,1,8,0:0:0:0:
256,188,4723,1,0,0:0:0:0:
256,188,4873,1,0,0:0:0:0:
256,188,4948,1,0,0:0:0:0:
256,188,5023,1,8,0:0:0:0:
256,188,5173,1,8,0:0:0:0:
256,188,5473,1,0,0:0:0:0:
256,188,5623,1,8,0:0:0:0:
256,188,5773,1,8,0:0:0:0:
256,188,5923,1,0,0:0:0:0:
256,188,5998,1,8,0:0:0:0:
256,188,6073,1,0,0:0:0:0:
256,188,6223,1,0,0:0:0:0:
256,188,6373,1,8,0:0:0:0:
256,188,6523,1,8,0:0:0:0:
256,188,6673,1,0,0:0:0:0:
252,192,6973,1,8,0:0:0:0:
256,188,7048,1,8,0:0:0:0:
256,188,7123,1,8,0:0:0:0:
256,188,7198,1,8,0:0:0:0:
256,188,7273,1,0,0:0:0:0:
248,188,7573,1,8,0:0:0:0:
240,192,7723,1,0,0:0:0:0:
256,188,7798,1,8,0:0:0:0:
248,184,7873,1,0,0:0:0:0:
244,180,8023,1,8,0:0:0:0:
256,188,8173,1,8,0:0:0:0:
244,184,8323,1,0,0:0:0:0:
236,176,8473,1,0,0:0:0:0:
236,176,8623,1,0,0:0:0:0:
236,176,8698,1,0,0:0:0:0:
256,176,8773,1,8,0:0:0:0:
264,180,9073,1,0,0:0:0:0:
264,180,9223,1,0,0:0:0:0:
264,180,9298,1,0,0:0:0:0:
256,188,9373,1,8,0:0:0:0:
264,192,9523,1,0,0:0:0:0:
264,176,9673,1,8,0:0:0:0:
264,176,9748,1,8,0:0:0:0:
264,176,9823,1,8,0:0:0:0:
256,184,9973,1,8,0:0:0:0:
256,184,10123,1,0,0:0:0:0:
256,184,10273,1,0,0:0:0:0:
256,184,10423,1,0,0:0:0:0:
256,184,10498,1,0,0:0:0:0:
240,184,10573,1,8,0:0:0:0:
240,184,10723,1,8,0:0:0:0:
256,184,10798,1,8,0:0:0:0:
256,188,10873,1,0,0:0:0:0:
260,180,11023,1,0,0:0:0:0:
248,188,11173,1,8,0:0:0:0:
248,188,11323,1,8,0:0:0:0:
248,192,11473,1,0,0:0:0:0:
256,196,11623,1,8,0:0:0:0:
256,196,11773,1,8,0:0:0:0:
256,196,11848,1,8,0:0:0:0:
256,196,11923,1,8,0:0:0:0:
224,200,12073,2,0,P|84:184|252:128,1,490
392,160,13273,1,0,0:0:0:0:
392,160,13423,1,0,0:0:0:0:
392,160,13573,1,8,0:0:0:0:
392,160,13723,1,8,0:0:0:0:
392,160,13873,1,0,0:0:0:0:
392,160,14173,1,8,0:0:0:0:
392,160,14473,1,0,0:0:0:0:
392,160,15073,1,0,0:0:0:0:
388,156,15373,1,8,0:0:0:0:
388,156,15673,1,0,0:0:0:0:
392,160,15823,1,8,0:0:0:0:
392,160,15973,1,8,0:0:0:0:
392,160,16123,1,8,0:0:0:0:
408,156,16273,1,0,0:0:0:0:
388,168,16573,1,8,0:0:0:0:
416,164,16873,1,0,0:0:0:0:
388,180,17323,1,8,0:0:0:0:
420,160,17473,1,0,0:0:0:0:
384,168,17623,1,8,0:0:0:0:
384,168,17773,1,8,0:0:0:0:
388,168,17923,1,8,0:0:0:0:
416,176,18073,1,0,0:0:0:0:
384,172,18223,1,0,0:0:0:0:
336,168,18373,1,8,0:0:0:0:
396,176,18523,1,8,0:0:0:0:
416,176,18673,1,0,0:0:0:0:
384,172,18823,1,0,0:0:0:0:
336,168,18973,1,8,0:0:0:0:
396,176,19123,1,8,0:0:0:0:
416,176,19273,1,0,0:0:0:0:
384,172,19423,1,0,0:0:0:0:
336,168,19573,1,8,0:0:0:0:
396,176,19723,1,8,0:0:0:0:
372,196,19873,1,0,0:0:0:0:
292,168,20023,1,8,0:0:0:0:
368,168,20173,1,8,0:0:0:0:
292,168,20323,1,8,0:0:0:0:
292,168,20473,1,0,0:0:0:0:
292,168,20773,1,8,0:0:0:0:
292,168,21073,1,8,0:0:0:0:
292,168,21373,1,0,0:0:0:0:
292,168,21673,1,8,0:0:0:0:
292,168,21823,1,8,0:0:0:0:
292,168,21973,1,8,0:0:0:0:
292,168,22123,1,8,0:0:0:0:
292,168,22273,1,8,0:0:0:0:
292,168,22423,1,8,0:0:0:0:
292,168,22498,1,8,0:0:0:0:
292,168,22573,1,0,0:0:0:0:
288,168,22723,1,8,0:0:0:0:
292,168,22873,1,4,0:0:0:0:
292,168,23173,1,8,0:0:0:0:
292,168,23323,1,0,0:0:0:0:
292,168,23398,1,0,0:0:0:0:
292,168,23473,1,0,0:0:0:0:
292,168,23623,1,8,0:0:0:0:
292,168,23773,1,8,0:0:0:0:
280,168,24073,1,0,0:0:0:0:
280,168,24223,1,0,0:0:0:0:
280,168,24298,1,0,0:0:0:0:
276,168,24373,1,8,0:0:0:0:
276,168,24523,1,8,0:0:0:0:
276,168,24598,1,8,0:0:0:0:
276,168,24673,1,8,0:0:0:0:
280,164,24823,1,0,0:0:0:0:
280,168,24973,1,8,0:0:0:0:
280,168,25123,1,8,0:0:0:0:
284,168,25273,1,0,0:0:0:0:
280,168,25423,1,0,0:0:0:0:
280,168,25498,1,0,0:0:0:0:
288,176,25573,1,8,0:0:0:0:
288,172,25723,1,0,0:0:0:0:
284,168,25873,1,0,0:0:0:0:
280,168,26023,1,0,0:0:0:0:
280,168,26098,1,0,0:0:0:0:
288,176,26173,1,8,0:0:0:0:
288,172,26473,1,8,0:0:0:0:
280,168,26623,1,8,0:0:0:0:
280,168,26698,1,8,0:0:0:0:
284,168,26773,1,8,0:0:0:0:
280,176,26923,1,0,0:0:0:0:
280,176,26998,1,0,0:0:0:0:
280,176,27073,1,0,0:0:0:0:
272,172,27373,1,8,0:0:0:0:
272,172,27523,1,8,0:0:0:0:
280,176,27673,1,0,0:0:0:0:
280,176,27823,1,0,0:0:0:0:
272,172,27973,1,8,0:0:0:0:
280,168,28123,1,0,0:0:0:0:
280,168,28198,1,8,0:0:0:0:
280,168,28273,1,0,0:0:0:0:
276,168,28423,1,8,0:0:0:0:
276,168,28573,1,8,0:0:0:0:
272,172,28873,1,0,0:0:0:0:
284,176,29023,1,0,0:0:0:0:
280,168,29098,1,0,0:0:0:0:
280,176,29173,1,8,0:0:0:0:
280,176,29323,1,8,0:0:0:0:
280,164,29473,1,0,0:0:0:0:
296,160,29623,1,8,0:0:0:0:
296,160,29773,1,8,0:0:0:0:
296,168,30073,1,0,0:0:0:0:
284,176,30223,1,0,0:0:0:0:
272,172,30373,1,8,0:0:0:0:
280,168,30523,1,0,0:0:0:0:
284,176,30598,1,8,0:0:0:0:
280,168,30673,1,0,0:0:0:0:
280,176,30823,1,8,0:0:0:0:
284,168,30973,1,8,0:0:0:0:
280,180,31273,1,0,0:0:0:0:
280,176,31423,1,0,0:0:0:0:
280,188,31498,1,8,0:0:0:0:
280,176,31573,1,0,0:0:0:0:
284,188,31723,1,8,0:0:0:0:
284,188,31798,1,8,0:0:0:0:
280,176,31873,1,0,0:0:0:0:
284,188,32023,1,8,0:0:0:0:
284,188,32098,1,8,0:0:0:0:
280,176,32173,1,0,0:0:0:0:
292,168,32248,1,0,0:0:0:0:
292,168,32323,1,0,0:0:0:0:
292,168,32398,1,0,0:0:0:0:
296,176,32473,1,8,0:0:0:0:
280,172,32773,1,0,0:0:0:0:
284,176,33073,1,0,0:0:0:0:
284,188,33373,1,0,0:0:0:0:
288,184,33523,1,0,0:0:0:0:
288,184,33673,1,8,0:0:0:0:
280,172,33973,1,8,0:0:0:0:
284,176,34273,1,0,0:0:0:0:
284,188,34573,1,8,0:0:0:0:
288,184,34723,1,8,0:0:0:0:
288,184,34873,1,8,0:0:0:0:
288,184,35173,1,8,0:0:0:0:
284,188,35473,1,0,0:0:0:0:
288,184,35773,1,0,0:0:0:0:
284,188,35923,1,0,0:0:0:0:
284,188,36073,1,8,0:0:0:0:
288,184,36373,1,0,0:0:0:0:
288,184,36673,1,8,0:0:0:0:
284,188,36973,1,8,0:0:0:0:
284,188,37123,1,8,0:0:0:0:
284,184,37273,1,8,0:0:0:0:
284,188,37573,1,0,0:0:0:0:
284,188,37873,1,0,0:0:0:0:
284,188,38173,1,0,0:0:0:0:
284,188,38323,1,0,0:0:0:0:
284,188,38473,1,8,0:0:0:0:
284,192,38773,1,0,0:0:0:0:
284,188,39073,1,8,0:0:0:0:
288,196,39373,1,8,0:0:0:0:
288,196,39523,1,8,0:0:0:0:
288,192,39673,1,8,0:0:0:0:
292,192,39973,1,0,0:0:0:0:
284,192,40273,1,8,0:0:0:0:
284,188,40573,1,0,0:0:0:0:
280,188,40873,1,8,0:0:0:0:
280,192,41023,1,8,0:0:0:0:
280,192,41173,1,8,0:0:0:0:
280,192,41323,1,8,0:0:0:0:
280,192,41473,1,4,0:0:0:0:
280,192,41773,1,14,0:0:0:0:
280,192,42073,1,4,0:0:0:0:
280,192,42373,1,8,0:0:0:0:
280,192,42523,1,8,0:0:0:0:
280,192,42598,1,8,0:0:0:0:
280,192,42673,1,0,0:0:0:0:
280,192,42823,1,0,0:0:0:0:
280,184,42973,1,8,0:0:0:0:
280,184,43123,1,8,0:0:0:0:
280,192,43273,1,0,0:0:0:0:
280,192,43423,1,0,0:0:0:0:
280,192,43573,1,8,0:0:0:0:
284,184,43723,1,0,0:0:0:0:
284,184,43798,1,0,0:0:0:0:
284,184,43873,1,0,0:0:0:0:
288,184,44023,1,8,0:0:0:0:
288,184,44173,1,8,0:0:0:0:
280,184,44473,1,0,0:0:0:0:
276,184,44623,1,0,0:0:0:0:
280,184,44773,1,8,0:0:0:0:
288,172,44923,1,0,0:0:0:0:
288,172,44998,1,8,0:0:0:0:
288,172,45073,1,0,0:0:0:0:
288,172,45223,1,8,0:0:0:0:
288,172,45373,1,8,0:0:0:0:
288,172,45523,1,0,0:0:0:0:
280,172,45673,1,0,0:0:0:0:
280,172,45823,1,0,0:0:0:0:
280,172,45898,1,0,0:0:0:0:
284,172,45973,1,8,0:0:0:0:
284,172,46123,1,8,0:0:0:0:
284,172,46273,1,0,0:0:0:0:
276,172,46423,1,8,0:0:0:0:
276,172,46498,1,8,0:0:0:0:
288,180,46573,1,8,0:0:0:0:
276,176,46723,1,8,0:0:0:0:
288,184,46873,1,4,0:0:0:0:
264,168,47173,1,0,0:0:0:0:
264,168,47473,1,0,0:0:0:0:
264,172,47773,1,8,0:0:0:0:
264,172,48073,1,8,0:0:0:0:
268,176,48223,1,8,0:0:0:0:
256,176,48298,1,8,0:0:0:0:
260,176,48373,1,0,0:0:0:0:
260,176,48448,1,0,0:0:0:0:
272,176,48523,1,8,0:0:0:0:
268,176,48673,1,0,0:0:0:0:
260,184,48823,1,8,0:0:0:0:
260,184,48898,1,8,0:0:0:0:
260,184,48973,1,8,0:0:0:0:
260,184,49123,1,8,0:0:0:0:
272,172,49273,1,4,0:0:0:0:
268,176,49573,1,0,0:0:0:0:
268,176,49723,1,8,0:0:0:0:
268,176,49798,1,8,0:0:0:0:
260,176,49873,1,8,0:0:0:0:
272,176,50023,1,8,0:0:0:0:
272,176,50098,1,8,0:0:0:0:
268,176,50173,1,0,0:0:0:0:
268,176,50248,1,0,0:0:0:0:
260,184,50323,1,8,0:0:0:0:
260,184,50398,1,8,0:0:0:0:
260,184,50473,1,0,0:0:0:0:
260,184,50548,1,0,0:0:0:0:
260,184,50623,1,8,0:0:0:0:
260,176,50923,1,4,0:0:0:0:
260,176,51073,1,4,0:0:0:0:
272,176,51673,1,4,0:0:0:0:
260,184,51973,1,8,0:0:0:0:
260,184,52123,1,0,0:0:0:0:
260,176,52198,1,8,0:0:0:0:
260,176,52273,1,0,0:0:0:0:
260,176,52423,1,8,0:0:0:0:
260,176,52573,1,8,0:0:0:0:
272,176,52723,1,8,0:0:0:0:
260,184,52873,1,0,0:0:0:0:
260,184,53023,1,0,0:0:0:0:
260,184,53098,1,0,0:0:0:0:
260,184,53173,1,8,0:0:0:0:
260,184,53323,1,8,0:0:0:0:
260,184,53473,1,0,0:0:0:0:
260,184,53623,1,0,0:0:0:0:
260,184,53698,1,0,0:0:0:0:
260,176,53773,1,8,0:0:0:0:
260,176,53923,1,8,0:0:0:0:
260,176,54073,1,0,0:0:0:0:
260,184,54373,1,8,0:0:0:0:
260,184,54523,1,8,0:0:0:0:
260,184,54598,1,8,0:0:0:0:
260,184,54673,1,0,0:0:0:0:
260,184,54823,1,0,0:0:0:0:
260,184,54973,1,8,0:0:0:0:
260,184,55123,1,8,0:0:0:0:
260,184,55273,1,0,0:0:0:0:
260,176,55573,1,8,0:0:0:0:
260,176,55723,1,0,0:0:0:0:
260,184,55873,1,0,0:0:0:0:
260,184,56023,1,8,0:0:0:0:
260,184,56173,1,8,0:0:0:0:
260,184,56248,1,8,0:0:0:0:
260,184,56323,1,8,0:0:0:0:
260,184,56398,1,8,0:0:0:0:
260,184,56473,1,0,0:0:0:0:
260,184,56623,1,0,0:0:0:0:
260,184,56773,1,8,0:0:0:0:
260,176,56923,1,0,0:0:0:0:
260,184,56998,1,8,0:0:0:0:
260,176,57073,1,0,0:0:0:0:
260,176,57223,1,0,0:0:0:0:
260,184,57373,1,8,0:0:0:0:
260,184,57673,1,0,0:0:0:0:
260,184,57823,1,8,0:0:0:0:
260,184,57973,1,8,0:0:0:0:
260,184,58123,1,8,0:0:0:0:
260,184,58198,1,8,0:0:0:0:
260,184,58273,1,0,0:0:0:0:
260,184,58348,1,0,0:0:0:0:
260,176,58423,1,8,0:0:0:0:
260,184,58573,1,8,0:0:0:0:
260,176,58723,1,8,0:0:0:0:
308,204,58873,1,0,0:0:0:0:
260,184,58948,1,0,0:0:0:0:
260,184,59023,1,0,0:0:0:0:
260,184,59098,1,0,0:0:0:0:
288,176,59173,1,8,0:0:0:0:
308,204,59473,1,0,0:0:0:0:
260,184,59548,1,0,0:0:0:0:
260,184,59623,1,0,0:0:0:0:
260,184,59698,1,0,0:0:0:0:
288,176,59773,1,8,0:0:0:0:
340,196,59923,1,8,0:0:0:0:
340,196,59998,1,8,0:0:0:0:
368,196,60073,1,0,0:0:0:0:
340,196,60223,1,8,0:0:0:0:
340,196,60298,1,8,0:0:0:0:
368,196,60373,1,0,0:0:0:0:
368,196,60523,1,0,0:0:0:0:
324,164,60673,1,8,0:0:0:0:
324,164,60748,1,8,0:0:0:0:
324,164,60823,1,8,0:0:0:0:
324,164,60973,1,8,0:0:0:0:
340,196,61123,1,0,0:0:0:0:
364,144,61273,1,4,0:0:0:0:
340,196,61573,1,8,0:0:0:0:
348,176,61723,1,8,0:0:0:0:
344,184,61798,1,8,0:0:0:0:
344,184,61873,1,0,0:0:0:0:
344,184,62023,1,0,0:0:0:0:
344,168,62173,1,8,0:0:0:0:
348,176,62323,1,8,0:0:0:0:
304,168,62473,1,0,0:0:0:0:
304,180,62623,1,0,0:0:0:0:
304,180,62698,1,0,0:0:0:0:
256,180,62773,1,8,0:0:0:0:
304,176,62923,1,8,0:0:0:0:
304,176,62998,1,8,0:0:0:0:
304,176,63073,1,0,0:0:0:0:
336,176,63223,1,0,0:0:0:0:
288,168,63373,1,8,0:0:0:0:
360,160,63523,1,8,0:0:0:0:
360,160,63673,1,0,0:0:0:0:
312,180,63973,1,8,0:0:0:0:
312,180,64123,1,8,0:0:0:0:
312,172,64273,1,0,0:0:0:0:
312,172,64423,1,0,0:0:0:0:
324,172,64573,1,8,0:0:0:0:
324,176,64873,1,0,0:0:0:0:
324,180,65023,1,0,0:0:0:0:
320,176,65173,1,8,0:0:0:0:
320,176,65323,1,8,0:0:0:0:
320,176,65398,1,8,0:0:0:0:
320,176,65473,1,0,0:0:0:0:
340,192,65623,1,0,0:0:0:0:
332,184,65773,1,8,0:0:0:0:
332,184,65848,1,8,0:0:0:0:
332,184,65923,1,8,0:0:0:0:
332,184,65998,1,8,0:0:0:0:
324,172,66073,1,0,0:0:0:0:
312,172,66373,1,8,0:0:0:0:
328,176,66523,1,0,0:0:0:0:
328,176,66598,1,0,0:0:0:0:
328,176,66673,1,0,0:0:0:0:
304,184,66823,1,8,0:0:0:0:
320,184,66973,1,8,0:0:0:0:
320,184,67123,1,8,0:0:0:0:
304,176,67273,1,4,0:0:0:0:
280,188,67573,1,8,0:0:0:0:
296,188,67723,1,0,0:0:0:0:
296,188,67798,1,8,0:0:0:0:
296,184,67873,1,0,0:0:0:0:
292,184,68023,1,8,0:0:0:0:
292,184,68173,1,8,0:0:0:0:
296,192,68323,1,0,0:0:0:0:
272,168,68473,1,4,0:0:0:0:
280,176,68773,1,8,0:0:0:0:
280,180,68923,1,0,0:0:0:0:
280,180,68998,1,0,0:0:0:0:
300,184,69073,1,8,0:0:0:0:
300,184,69148,1,8,0:0:0:0:
260,180,69223,1,0,0:0:0:0:
260,184,69373,1,8,0:0:0:0:
260,184,69523,1,8,0:0:0:0:
260,184,69598,1,8,0:0:0:0:
292,184,69673,1,0,0:0:0:0:
292,180,69823,1,0,0:0:0:0:
208,176,69973,1,8,0:0:0:0:
244,180,70123,1,8,0:0:0:0:
244,180,70198,1,8,0:0:0:0:
244,180,70273,1,8,0:0:0:0:
264,172,70423,1,0,0:0:0:0:
296,184,70573,1,8,0:0:0:0:
300,184,70648,1,8,0:0:0:0:
300,184,70723,1,8,0:0:0:0:
296,184,70798,1,8,0:0:0:0:
304,172,70873,1,0,0:0:0:0:
268,184,71173,1,8,0:0:0:0:
304,184,71323,1,0,0:0:0:0:
256,212,71398,1,8,0:0:0:0:
304,184,71473,1,0,0:0:0:0:
284,168,71623,1,0,0:0:0:0:
284,168,71773,1,8,0:0:0:0:
284,168,71923,1,8,0:0:0:0:
272,184,72073,1,0,0:0:0:0:
264,192,72223,1,0,0:0:0:0:
264,192,72298,1,0,0:0:0:0:
348,200,72373,1,8,0:0:0:0:
268,184,72673,1,0,0:0:0:0:
264,188,72823,1,0,0:0:0:0:
264,188,72898,1,0,0:0:0:0:
296,192,72973,1,8,0:0:0:0:
264,204,73123,1,8,0:0:0:0:
304,196,73273,1,0,0:0:0:0:
296,176,73348,1,0,0:0:0:0:
280,188,73423,1,8,0:0:0:0:
252,180,73573,1,8,0:0:0:0:
256,188,73723,1,8,0:0:0:0:
256,188,73798,1,8,0:0:0:0:
256,188,73873,1,0,0:0:0:0:
292,180,74023,1,0,0:0:0:0:
224,172,74173,1,8,0:0:0:0:
248,176,74323,1,8,0:0:0:0:
264,180,74473,1,0,0:0:0:0:
268,176,74773,1,8,0:0:0:0:
252,180,74923,1,0,0:0:0:0:
252,180,74998,1,0,0:0:0:0:
252,180,75073,1,0,0:0:0:0:
252,180,75223,1,8,0:0:0:0:
252,180,75373,1,8,0:0:0:0:
252,180,75448,1,8,0:0:0:0:
248,176,75523,1,8,0:0:0:0:
248,176,75598,1,8,0:0:0:0:
264,184,75673,1,0,0:0:0:0:
260,176,75973,1,8,0:0:0:0:
268,180,76123,1,0,0:0:0:0:
272,184,76273,1,0,0:0:0:0:
272,184,76348,1,0,0:0:0:0:
272,184,76423,1,8,0:0:0:0:
272,184,76498,1,0,0:0:0:0:
272,184,76573,1,8,0:0:0:0:
280,192,76723,1,0,0:0:0:0:
280,192,77023,1,0,0:0:0:0:
284,192,77173,1,8,0:0:0:0:
304,188,77323,1,8,0:0:0:0:
304,188,77398,1,8,0:0:0:0:
304,188,77473,1,8,0:0:0:0:
268,180,77623,1,0,0:0:0:0:
292,196,77773,1,8,0:0:0:0:
296,188,77923,1,0,0:0:0:0:
300,180,78073,1,8,0:0:0:0:
304,184,78148,1,8,0:0:0:0:
288,184,78223,1,8,0:0:0:0:
300,180,78373,1,8,0:0:0:0:
272,172,78673,1,0,0:0:0:0:
272,172,78823,1,0,0:0:0:0:
296,180,78973,1,8,0:0:0:0:
296,180,79123,1,8,0:0:0:0:
300,176,79273,1,0,0:0:0:0:
292,176,79423,1,0,0:0:0:0:
292,176,79498,1,0,0:0:0:0:
300,180,79573,1,8,0:0:0:0:
296,288,79723,1,0,0:0:0:0:
332,264,79873,1,0,0:0:0:0:
340,216,80023,1,8,0:0:0:0:
336,220,80098,1,8,0:0:0:0:
336,224,80173,1,0,0:0:0:0:
300,260,80248,1,0,0:0:0:0:
368,224,80323,1,8,0:0:0:0:
224,252,80473,2,0,P|64:144|264:116,1,490
252,196,81673,1,0,0:0:0:0:
252,196,81823,1,0,0:0:0:0:
256,192,81973,1,8,0:0:0:0:
256,192,82123,1,0,0:0:0:0:
252,196,82273,1,8,0:0:0:0:
252,196,82573,1,0,0:0:0:0:
252,196,82873,1,8,0:0:0:0:
252,196,83473,1,0,0:0:0:0:
252,196,83773,1,8,0:0:0:0:
252,196,84073,1,0,0:0:0:0:
252,196,84223,1,0,0:0:0:0:
260,204,84373,1,8,0:0:0:0:
260,204,84523,1,8,0:0:0:0:
256,188,84673,1,0,0:0:0:0:
280,188,84973,1,8,0:0:0:0:
252,196,85273,1,0,0:0:0:0:
272,188,85723,1,8,0:0:0:0:
272,188,85873,1,8,0:0:0:0:
272,188,86023,1,0,0:0:0:0:
272,196,86173,1,8,0:0:0:0:
264,192,86323,1,8,0:0:0:0:
264,192,86473,1,0,0:0:0:0:
272,188,86623,1,0,0:0:0:0:
272,188,86773,1,8,0:0:0:0:
272,188,86923,1,8,0:0:0:0:
264,192,87073,1,0,0:0:0:0:
272,188,87223,1,0,0:0:0:0:
272,188,87373,1,8,0:0:0:0:
272,188,87523,1,8,0:0:0:0:
264,192,87673,1,0,0:0:0:0:
264,192,87823,1,0,0:0:0:0:
272,188,87973,1,8,0:0:0:0:
272,188,88123,1,8,0:0:0:0:
272,188,88273,1,0,0:0:0:0:
272,188,88423,1,8,0:0:0:0:
264,192,88573,1,8,0:0:0:0:
272,188,88723,1,8,0:0:0:0:
264,192,88873,1,0,0:0:0:0:
264,192,89173,1,0,0:0:0:0:
272,188,89323,1,0,0:0:0:0:
224,192,89473,1,8,0:0:0:0:
272,188,89773,1,8,0:0:0:0:
272,188,89923,1,8,0:0:0:0:
264,192,90073,1,8,0:0:0:0:
272,188,90223,1,8,0:0:0:0:
272,188,90373,1,8,0:0:0:0:
264,192,90523,1,8,0:0:0:0:
264,192,91273,1,4,0:0:0:0:
272,196,91573,1,8,0:0:0:0:
272,188,91873,1,0,0:0:0:0:
272,184,92023,1,0,0:0:0:0:
272,184,92098,1,0,0:0:0:0:
288,184,92173,1,8,0:0:0:0:
288,184,92323,1,8,0:0:0:0:
288,184,92473,1,0,0:0:0:0:
272,176,92623,1,0,0:0:0:0:
280,176,92773,1,8,0:0:0:0:
272,180,93073,1,0,0:0:0:0:
272,168,93223,1,0,0:0:0:0:
264,172,93373,1,8,0:0:0:0:
280,176,93523,1,0,0:0:0:0:
264,172,93598,1,8,0:0:0:0:
272,176,93673,1,0,0:0:0:0:
272,176,93823,1,0,0:0:0:0:
268,164,93973,1,8,0:0:0:0:
268,164,94123,1,8,0:0:0:0:
280,176,94273,1,0,0:0:0:0:
276,176,94423,1,8,0:0:0:0:
276,176,94498,1,0,0:0:0:0:
264,176,94573,1,8,0:0:0:0:
260,180,94873,1,0,0:0:0:0:
260,180,95023,1,8,0:0:0:0:
256,172,95098,1,8,0:0:0:0:
280,176,95173,1,8,0:0:0:0:
272,176,95323,1,0,0:0:0:0:
272,176,95398,1,0,0:0:0:0:
272,176,95473,1,0,0:0:0:0:
256,172,95773,1,8,0:0:0:0:
256,188,96073,1,0,0:0:0:0:
256,188,96223,1,0,0:0:0:0:
256,188,96298,1,0,0:0:0:0:
256,188,96373,1,8,0:0:0:0:
256,188,96523,1,8,0:0:0:0:
256,188,96673,1,0,0:0:0:0:
256,188,96823,1,0,0:0:0:0:
256,188,96973,1,8,0:0:0:0:
256,184,97123,1,8,0:0:0:0:
256,188,97273,1,0,0:0:0:0:
256,188,97573,1,8,0:0:0:0:
256,188,97723,1,8,0:0:0:0:
256,188,97798,1,8,0:0:0:0:
256,188,97873,1,0,0:0:0:0:
256,188,98023,1,0,0:0:0:0:
260,192,98173,1,8,0:0:0:0:
260,192,98323,1,8,0:0:0:0:
248,184,98473,1,0,0:0:0:0:
252,184,98623,1,0,0:0:0:0:
248,192,98698,1,0,0:0:0:0:
252,184,98773,1,8,0:0:0:0:
248,188,98923,1,8,0:0:0:0:
240,200,99073,1,0,0:0:0:0:
248,196,99223,1,0,0:0:0:0:
240,196,99373,1,8,0:0:0:0:
240,196,99673,1,8,0:0:0:0:
240,196,99823,1,8,0:0:0:0:
240,196,99898,1,8,0:0:0:0:
236,196,99973,1,0,0:0:0:0:
232,196,100123,1,0,0:0:0:0:
232,196,100198,1,0,0:0:0:0:
236,192,100273,1,8,0:0:0:0:
228,188,100423,1,8,0:0:0:0:
228,188,100498,1,8,0:0:0:0:
232,200,100573,1,0,0:0:0:0:
232,200,100648,1,0,0:0:0:0:
232,200,100723,1,0,0:0:0:0:
232,200,100798,1,0,0:0:0:0:
228,192,100873,1,8,0:0:0:0:
228,192,101173,1,0,0:0:0:0:
224,192,101473,1,0,0:0:0:0:
224,192,101773,1,0,0:0:0:0:
224,192,101923,1,0,0:0:0:0:
224,196,102073,1,8,0:0:0:0:
216,200,102373,1,0,0:0:0:0:
220,204,102673,1,0,0:0:0:0:
220,204,102973,1,0,0:0:0:0:
220,204,103123,1,0,0:0:0:0:
224,204,103273,1,8,0:0:0:0:
216,208,103573,1,8,0:0:0:0:
224,200,103873,1,0,0:0:0:0:
224,200,104173,1,8,0:0:0:0:
224,200,104323,1,8,0:0:0:0:
224,200,104473,1,8,0:0:0:0:
224,204,104773,1,8,0:0:0:0:
232,200,105073,1,0,0:0:0:0:
224,200,105373,1,8,0:0:0:0:
224,200,105523,1,8,0:0:0:0:
224,200,105673,1,14,0:0:0:0:
232,204,105973,1,0,0:0:0:0:
232,204,106273,1,0,0:0:0:0:
232,200,106573,1,0,0:0:0:0:
232,204,106723,1,0,0:0:0:0:
220,200,106873,1,8,0:0:0:0:
224,200,107173,1,0,0:0:0:0:
228,200,107473,1,0,0:0:0:0:
228,200,107773,1,0,0:0:0:0:
232,200,107923,1,0,0:0:0:0:
216,200,108073,1,8,0:0:0:0:
224,204,108373,1,8,0:0:0:0:
224,200,108673,1,0,0:0:0:0:
228,200,108973,1,8,0:0:0:0:
228,200,109273,1,0,0:0:0:0:
224,208,109423,1,8,0:0:0:0:
224,208,109498,1,8,0:0:0:0:
228,196,109573,1,0,0:0:0:0:
224,196,109648,1,0,0:0:0:0:
220,200,109723,1,8,0:0:0:0:
212,200,109873,1,4,0:0:0:0:
208,200,110173,1,14,0:0:0:0:
216,196,110473,1,4,0:0:0:0:
224,204,110773,1,8,0:0:0:0:
224,208,110923,1,0,0:0:0:0:
224,208,110998,1,8,0:0:0:0:
240,200,111073,1,0,0:0:0:0:
240,200,111223,1,0,0:0:0:0:
244,200,111373,1,8,0:0:0:0:
240,200,111523,1,8,0:0:0:0:
240,200,111598,1,8,0:0:0:0:
216,196,111673,1,0,0:0:0:0:
216,196,111823,1,0,0:0:0:0:
224,204,111973,1,8,0:0:0:0:
224,204,112123,1,8,0:0:0:0:
248,184,112273,1,0,0:0:0:0:
236,188,112423,1,0,0:0:0:0:
224,208,112498,1,0,0:0:0:0:
228,192,112573,1,8,0:0:0:0:
224,208,112873,1,0,0:0:0:0:
224,208,113023,1,0,0:0:0:0:
224,204,113173,1,8,0:0:0:0:
216,196,113323,1,0,0:0:0:0:
216,196,113398,1,8,0:0:0:0:
224,204,113473,1,0,0:0:0:0:
224,204,113623,1,0,0:0:0:0:
236,188,113773,1,8,0:0:0:0:
224,208,113923,1,8,0:0:0:0:
224,208,114073,1,0,0:0:0:0:
224,208,114373,1,8,0:0:0:0:
224,208,114523,1,0,0:0:0:0:
224,204,114673,1,0,0:0:0:0:
224,208,114823,1,8,0:0:0:0:
216,196,114898,1,8,0:0:0:0:
216,196,114973,1,0,0:0:0:0:
224,204,115048,1,0,0:0:0:0:
224,204,115123,1,8,0:0:0:0:
224,208,115273,1,4,0:0:0:0:
224,208,115573,1,0,0:0:0:0:
224,208,115873,1,8,0:0:0:0:
224,204,116173,1,8,0:0:0:0:
224,204,116473,1,0,0:0:0:0:
224,204,116623,1,8,0:0:0:0:
224,204,116698,1,8,0:0:0:0:
224,208,116773,1,0,0:0:0:0:
224,208,116848,1,0,0:0:0:0:
224,208,116923,1,8,0:0:0:0:
224,208,116998,1,8,0:0:0:0:
224,208,117073,1,0,0:0:0:0:
224,208,117223,1,8,0:0:0:0:
224,208,117298,1,8,0:0:0:0:
224,208,117373,1,8,0:0:0:0:
224,204,117523,1,8,0:0:0:0:
224,204,117673,1,4,0:0:0:0:
224,204,117973,1,0,0:0:0:0:
224,204,118123,1,8,0:0:0:0:
224,204,118198,1,8,0:0:0:0:
224,204,118273,1,0,0:0:0:0:
224,208,118348,1,0,0:0:0:0:
224,208,118423,1,0,0:0:0:0:
224,208,118498,1,0,0:0:0:0:
224,208,118573,1,0,0:0:0:0:
224,208,118648,1,8,0:0:0:0:
224,208,118723,1,8,0:0:0:0:
224,208,118798,1,8,0:0:0:0:
224,208,118873,1,0,0:0:0:0:
224,204,119023,1,14,0:0:0:0:
224,204,119323,1,4,0:0:0:0:
224,204,119473,1,4,0:0:0:0:
224,204,119773,1,8,0:0:0:0:
224,204,119848,1,8,0:0:0:0:
224,208,119923,1,8,0:0:0:0:
224,208,119998,1,8,0:0:0:0:
224,204,120073,1,0,0:0:0:0:
224,204,120223,1,0,0:0:0:0:
224,204,120373,1,8,0:0:0:0:
224,204,120673,1,0,0:0:0:0:
224,208,120823,1,0,0:0:0:0:
224,208,120898,1,0,0:0:0:0:
224,204,120973,1,8,0:0:0:0:
224,204,121123,1,8,0:0:0:0:
224,204,121273,1,0,0:0:0:0:
224,204,121423,1,0,0:0:0:0:
224,208,121573,1,8,0:0:0:0:
224,204,121723,1,8,0:0:0:0:
224,204,121798,1,8,0:0:0:0:
224,204,121873,1,0,0:0:0:0:
224,204,122023,1,0,0:0:0:0:
224,204,122173,1,8,0:0:0:0:
224,204,122323,1,8,0:0:0:0:
224,204,122473,1,0,0:0:0:0:
224,204,122773,1,8,0:0:0:0:
224,204,122923,1,8,0:0:0:0:
224,208,123073,1,0,0:0:0:0:
224,204,123223,1,0,0:0:0:0:
224,204,123298,1,0,0:0:0:0:
224,204,123373,1,8,0:0:0:0:
224,204,123523,1,8,0:0:0:0:
224,204,123673,1,0,0:0:0:0:
224,204,123973,1,8,0:0:0:0:
224,204,124123,1,8,0:0:0:0:
224,204,124198,1,8,0:0:0:0:
224,204,124273,1,8,0:0:0:0:
224,204,124423,1,0,0:0:0:0:
224,208,124573,1,8,0:0:0:0:
224,208,124648,1,8,0:0:0:0:
224,204,124723,1,8,0:0:0:0:
224,204,124798,1,8,0:0:0:0:
224,204,124873,1,0,0:0:0:0:
224,204,125023,1,0,0:0:0:0:
224,204,125173,1,8,0:0:0:0:
224,204,125473,1,0,0:0:0:0:
224,204,125623,1,0,0:0:0:0:
224,204,125698,1,0,0:0:0:0:
224,204,125773,1,8,0:0:0:0:
224,204,125923,1,0,0:0:0:0:
224,204,125998,1,8,0:0:0:0:
224,208,126073,1,0,0:0:0:0:
224,208,126223,1,0,0:0:0:0:
224,204,126373,1,8,0:0:0:0:
224,204,126523,1,8,0:0:0:0:
224,204,126598,1,8,0:0:0:0:
224,204,126673,1,0,0:0:0:0:
224,204,126823,1,0,0:0:0:0:
224,208,126973,1,8,0:0:0:0:
224,204,127123,1,8,0:0:0:0:
224,204,127273,1,0,0:0:0:0:
224,204,127348,1,0,0:0:0:0:
224,204,127423,1,0,0:0:0:0:
224,204,127498,1,0,0:0:0:0:
224,204,127573,1,8,0:0:0:0:
224,204,127873,1,0,0:0:0:0:
224,204,127948,1,0,0:0:0:0:
224,204,128023,1,0,0:0:0:0:
224,204,128098,1,0,0:0:0:0:
224,204,128173,1,8,0:0:0:0:
224,204,128323,1,0,0:0:0:0:
224,204,128398,1,0,0:0:0:0:
224,208,128473,1,8,0:0:0:0:
224,204,128623,1,8,0:0:0:0:
224,204,128698,1,8,0:0:0:0:
224,204,128773,1,8,0:0:0:0:
224,204,128923,1,0,0:0:0:0:
224,204,129073,1,8,0:0:0:0:
224,204,129223,1,0,0:0:0:0:
224,204,129373,1,8,0:0:0:0:
224,204,129448,1,8,0:0:0:0:
224,204,129523,1,8,0:0:0:0:
224,204,129598,1,8,0:0:0:0:
224,204,129673,1,0,0:0:0:0:
224,208,129973,1,8,0:0:0:0:
224,204,130123,1,0,0:0:0:0:
224,204,130198,1,0,0:0:0:0:
224,204,130273,1,0,0:0:0:0:
224,204,130423,1,0,0:0:0:0:
224,204,130573,1,8,0:0:0:0:
224,204,130723,1,8,0:0:0:0:
224,204,130873,1,0,0:0:0:0:
224,204,131023,1,0,0:0:0:0:
224,204,131098,1,0,0:0:0:0:
224,204,131173,1,8,0:0:0:0:
224,204,131473,1,0,0:0:0:0:
224,204,131623,1,0,0:0:0:0:
224,204,131698,1,0,0:0:0:0:
224,204,131773,1,8,0:0:0:0:
224,204,131923,1,8,0:0:0:0:
224,204,132073,1,0,0:0:0:0:
224,204,132223,1,0,0:0:0:0:
224,204,132373,1,8,0:0:0:0:
224,204,132523,1,0,0:0:0:0:
224,204,132598,1,8,0:0:0:0:
224,204,132673,1,0,0:0:0:0:
224,204,132823,1,0,0:0:0:0:
224,204,132973,1,8,0:0:0:0:
224,204,133273,1,0,0:0:0:0:
224,204,133423,1,0,0:0:0:0:
224,204,133573,1,8,0:0:0:0:
224,204,133723,1,8,0:0:0:0:
224,204,133798,1,8,0:0:0:0:
224,204,133873,1,8,0:0:0:0:
224,204,134023,1,0,0:0:0:0:
224,204,134173,1,8,0:0:0:0:
224,204,134248,1,8,0:0:0:0:
224,204,134323,1,8,0:0:0:0:
224,204,134398,1,8,0:0:0:0:
224,204,134473,1,0,0:0:0:0:
224,204,134773,1,8,0:0:0:0:
224,204,134923,1,0,0:0:0:0:
224,204,135073,1,0,0:0:0:0:
224,204,135223,1,0,0:0:0:0:
224,204,135298,1,0,0:0:0:0:
224,204,135373,1,8,0:0:0:0:
224,204,135523,1,8,0:0:0:0:
224,204,135673,1,4,0:0:0:0:
224,204,135973,1,8,0:0:0:0:
224,204,136123,1,0,0:0:0:0:
224,204,136198,1,8,0:0:0:0:
224,204,136273,1,0,0:0:0:0:
224,204,136423,1,0,0:0:0:0:
224,204,136573,1,8,0:0:0:0:
224,204,136723,1,8,0:0:0:0:
224,204,136873,1,4,0:0:0:0:
224,204,137173,1,8,0:0:0:0:
276,220,137323,1,8,0:0:0:0:
224,204,137398,1,8,0:0:0:0:
224,204,137473,1,0,0:0:0:0:
224,204,137548,1,0,0:0:0:0:
224,204,137623,1,8,0:0:0:0:
224,204,137773,1,8,0:0:0:0:
224,204,137923,1,0,0:0:0:0:
224,204,137998,1,0,0:0:0:0:
224,204,138073,1,0,0:0:0:0:
224,204,138223,1,0,0:0:0:0:
224,204,138373,1,8,0:0:0:0:
224,204,138523,1,8,0:0:0:0:
224,204,138673,1,0,0:0:0:0:
224,204,138748,1,0,0:0:0:0:
224,204,138823,1,8,0:0:0:0:
224,204,138898,1,8,0:0:0:0:
224,204,138973,1,0,0:0:0:0:
224,204,139048,1,0,0:0:0:0:
224,204,139123,1,8,0:0:0:0:
224,204,139273,1,4,0:0:0:0:
224,204,139573,1,8,0:0:0:0:
256,192,139873,1,0,0:0:0:0:
256,192,140023,1,0,0:0:0:0:
256,192,140173,1,8,0:0:0:0:
256,192,140323,1,0,0:0:0:0:
256,192,140398,1,8,0:0:0:0:
256,192,140473,1,0,0:0:0:0:
256,192,140623,1,0,0:0:0:0:
256,192,140773,1,8,0:0:0:0:
256,192,140923,1,0,0:0:0:0:
256,192,141073,1,0,0:0:0:0:
256,192,141223,1,0,0:0:0:0:
256,192,141298,1,0,0:0:0:0:
256,192,141373,1,8,0:0:0:0:
248,192,141673,1,0,0:0:0:0:
248,192,141823,1,0,0:0:0:0:
256,192,141973,1,8,0:0:0:0:
256,192,142123,1,8,0:0:0:0:
256,192,142198,1,8,0:0:0:0:
256,192,142273,1,0,0:0:0:0:
256,192,142348,1,0,0:0:0:0:
256,192,142423,1,8,0:0:0:0:
256,192,142573,1,8,0:0:0:0:
256,192,142723,1,4,0:0:0:0:
256,192,143023,1,0,0:0:0:0:
256,192,143173,1,8,0:0:0:0:
256,192,143323,1,0,0:0:0:0:
256,192,143473,1,8,0:0:0:0:
256,192,143623,1,8,0:0:0:0:
256,192,143698,1,8,0:0:0:0:
256,192,143773,1,8,0:0:0:0:
256,192,143848,1,8,0:0:0:0:
256,192,143923,1,8,0:0:0:0:
256,192,143998,1,8,0:0:0:0:
256,192,144073,1,0,0:0:0:0:
256,192,144223,1,0,0:0:0:0:
256,192,144373,1,8,0:0:0:0:
256,192,144673,1,0,0:0:0:0:
256,192,144823,1,0,0:0:0:0:
256,192,144898,1,0,0:0:0:0:
256,192,144973,1,8,0:0:0:0:
256,192,145123,1,8,0:0:0:0:
256,192,145273,1,0,0:0:0:0:
256,192,145423,1,0,0:0:0:0:
256,192,145573,1,8,0:0:0:0:
252,196,145723,1,8,0:0:0:0:
252,196,145798,1,8,0:0:0:0:
252,196,145873,1,8,0:0:0:0:
248,196,146023,1,0,0:0:0:0:
256,196,146173,1,8,0:0:0:0:
256,196,146323,1,8,0:0:0:0:
256,192,146473,1,4,0:0:0:0:
256,192,146773,1,8,0:0:0:0:
256,192,147073,1,8,0:0:0:0:
252,196,147373,1,8,0:0:0:0:
184,248,147673,2,0,P|184:144|280:276,1,420
252,196,148723,1,8,0:0:0:0:
252,196,148873,1,4,0:0:0:0:
252,196,149173,1,8,0:0:0:0:
248,196,149323,1,0,0:0:0:0:
252,192,149623,1,8,0:0:0:0:
252,196,149923,1,8,0:0:0:0:
252,196,150073,1,0,0:0:0:0:
248,196,150223,1,8,0:0:0:0:
248,196,150373,1,8,0:0:0:0:
252,196,150523,1,0,0:0:0:0:
248,196,150673,1,8,0:0:0:0:
248,196,150823,1,8,0:0:0:0:
248,196,150898,1,8,0:0:0:0:
248,196,150973,1,0,0:0:0:0:
248,200,151123,1,0,0:0:0:0:
252,196,151198,1,0,0:0:0:0:
252,196,151273,1,8,0:0:0:0:
252,196,151423,1,8,0:0:0:0:
256,200,151573,1,0,0:0:0:0:
256,200,151723,1,0,0:0:0:0:
256,200,151798,1,0,0:0:0:0:
248,196,151873,1,8,0:0:0:0:
252,196,152023,1,0,0:0:0:0:
256,200,152098,1,8,0:0:0:0:
256,192,152173,1,0,0:0:0:0:
256,196,152323,1,8,0:0:0:0:
256,196,152623,1,0,0:0:0:0:
252,196,152923,1,0,0:0:0:0:
252,196,152998,1,0,0:0:0:0:
256,200,153073,1,8,0:0:0:0:
256,200,153223,1,0,0:0:0:0:
256,192,153373,1,8,0:0:0:0:
256,192,153448,1,8,0:0:0:0:
252,196,153523,1,8,0:0:0:0:
252,196,153598,1,8,0:0:0:0:
248,200,153673,1,0,0:0:0:0:
244,200,153823,1,0,0:0:0:0:
248,188,153973,1,8,0:0:0:0:
248,188,154273,1,8,0:0:0:0:
244,192,154423,1,0,0:0:0:0:
244,192,154498,1,0,0:0:0:0:
252,196,154573,1,8,0:0:0:0:
256,200,154723,1,8,0:0:0:0:
256,200,154798,1,8,0:0:0:0:
264,200,154873,1,0,0:0:0:0:
264,200,154948,1,0,0:0:0:0:
264,200,155023,1,0,0:0:0:0:
264,200,155098,1,0,0:0:0:0:
240,192,155173,1,8,0:0:0:0:
248,192,155248,1,8,0:0:0:0:
224,192,155323,1,0,0:0:0:0:
232,212,155398,1,0,0:0:0:0:
224,192,155473,1,8,0:0:0:0:
236,188,155623,1,0,0:0:0:0:
236,188,155698,1,0,0:0:0:0:
232,192,155773,1,8,0:0:0:0:
232,192,155848,1,8,0:0:0:0:
244,192,155923,1,0,0:0:0:0:
244,192,155998,1,0,0:0:0:0:
248,212,156073,1,8,0:0:0:0:
96,276,156373,2,0,B|144:240|84:152|84:152|224:136|224:136|192:204|192:204|224:204,1,385
256,192,157273,12,0,158323,0:0:0:0:
256,196,158473,5,4,0:0:0:0:
256,196,158773,1,0,0:0:0:0:
256,196,159073,1,0,0:0:0:0:
256,196,159373,1,0,0:0:0:0:
256,196,159523,1,0,0:0:0:0:
256,196,159673,1,8,0:0:0:0:
256,196,159973,1,0,0:0:0:0:
256,196,160273,1,0,0:0:0:0:
256,196,160573,1,0,0:0:0:0:
256,196,160723,1,0,0:0:0:0:
256,196,160873,1,8,0:0:0:0:
256,196,161173,1,0,0:0:0:0:
256,196,161473,1,0,0:0:0:0:
256,196,161773,1,8,0:0:0:0:
256,196,161923,1,8,0:0:0:0:
256,196,162073,1,8,0:0:0:0:
256,196,162373,1,0,0:0:0:0:
256,196,162673,1,0,0:0:0:0:
256,196,162973,1,8,0:0:0:0:
256,196,163123,1,8,0:0:0:0:
256,196,163273,1,14,0:0:0:0:
252,192,163573,1,0,0:0:0:0:
256,196,163873,1,0,0:0:0:0:
256,196,164173,1,0,0:0:0:0:
256,196,164323,1,0,0:0:0:0:
256,196,164473,1,8,0:0:0:0:
252,192,164773,1,0,0:0:0:0:
256,196,165073,1,0,0:0:0:0:
256,196,165373,1,0,0:0:0:0:
256,196,165523,1,0,0:0:0:0:
256,196,165673,1,8,0:0:0:0:
256,196,165973,1,8,0:0:0:0:
264,192,166273,1,0,0:0:0:0:
264,192,166573,1,0,0:0:0:0:
268,200,166723,1,8,0:0:0:0:
264,196,166873,1,8,0:0:0:0:
264,196,167023,1,8,0:0:0:0:
264,196,167173,1,8,0:0:0:0:
264,196,167323,1,8,0:0:0:0:
272,188,167473,1,4,0:0:0:0:
256,192,167773,1,14,0:0:0:0:
256,188,168073,1,4,0:0:0:0:
264,188,168373,1,8,0:0:0:0:
276,184,168523,1,8,0:0:0:0:
276,184,168598,1,8,0:0:0:0:
284,184,168673,1,0,0:0:0:0:
284,184,168823,1,0,0:0:0:0:
280,184,168973,1,8,0:0:0:0:
288,192,169123,1,0,0:0:0:0:
288,192,169198,1,0,0:0:0:0:
288,192,169273,1,0,0:0:0:0:
288,192,169423,1,0,0:0:0:0:
248,180,169573,1,8,0:0:0:0:
288,180,169873,1,0,0:0:0:0:
288,180,170023,1,0,0:0:0:0:
288,180,170098,1,0,0:0:0:0:
292,168,170173,1,8,0:0:0:0:
296,176,170323,1,8,0:0:0:0:
236,184,170473,1,0,0:0:0:0:
256,180,170623,1,0,0:0:0:0:
256,192,170773,1,8,0:0:0:0:
276,184,170923,1,0,0:0:0:0:
256,192,170998,1,8,0:0:0:0:
276,184,171073,1,0,0:0:0:0:
304,180,171223,1,0,0:0:0:0:
280,184,171373,1,8,0:0:0:0:
280,184,171523,1,8,0:0:0:0:
280,184,171598,1,8,0:0:0:0:
248,184,171673,1,0,0:0:0:0:
248,184,171823,1,0,0:0:0:0:
252,192,171973,1,8,0:0:0:0:
280,188,172273,1,0,0:0:0:0:
296,188,172423,1,8,0:0:0:0:
292,188,172498,1,8,0:0:0:0:
312,184,172573,1,0,0:0:0:0:
312,184,172648,1,0,0:0:0:0:
292,188,172723,1,8,0:0:0:0:
240,176,172873,1,4,0:0:0:0:
280,192,173173,1,0,0:0:0:0:
280,188,173473,1,0,0:0:0:0:
280,188,173773,1,8,0:0:0:0:
296,168,174073,1,8,0:0:0:0:
272,180,174373,1,0,0:0:0:0:
276,184,174523,1,8,0:0:0:0:
276,184,174598,1,8,0:0:0:0:
280,184,174673,1,0,0:0:0:0:
276,180,174748,1,0,0:0:0:0:
280,188,174823,1,8,0:0:0:0:
288,184,174973,1,0,0:0:0:0:
264,192,175123,1,8,0:0:0:0:
264,192,175198,1,8,0:0:0:0:
268,184,175273,1,0,0:0:0:0:
256,192,175573,1,0,0:0:0:0:
288,192,175723,1,8,0:0:0:0:
288,192,175798,1,8,0:0:0:0:
288,192,175873,1,8,0:0:0:0:
272,200,176023,1,0,0:0:0:0:
232,184,176173,1,8,0:0:0:0:
232,184,176248,1,8,0:0:0:0:
232,184,176323,1,8,0:0:0:0:
232,184,176398,1,8,0:0:0:0:
284,176,176473,1,0,0:0:0:0:
252,192,176673,1,0,0:0:0:0:
252,192,176873,1,0,0:0:0:0:
256,192,176973,1,8,0:0:0:0:
256,192,177073,1,0,0:0:0:0:
240,192,177273,1,8,0:0:0:0:
244,192,177373,1,8,0:0:0:0:
272,184,177473,1,0,0:0:0:0:
256,192,178873,1,0,0:0:0:0:
256,192,179023,1,0,0:0:0:0:
256,192,179173,1,8,0:0:0:0:
256,192,179323,1,8,0:0:0:0:
256,192,179473,1,0,0:0:0:0:
256,192,179773,1,8,0:0:0:0:
256,192,180073,1,0,0:0:0:0:
256,192,180673,1,0,0:0:0:0:
256,192,180973,1,8,0:0:0:0:
256,192,181273,1,8,0:0:0:0:
256,192,181423,1,0,0:0:0:0:
256,192,181573,1,8,0:0:0:0:
256,192,181723,1,8,0:0:0:0:
256,192,181873,1,0,0:0:0:0:
256,192,182173,1,8,0:0:0:0:
256,192,182473,1,0,0:0:0:0:
256,192,182923,1,8,0:0:0:0:
256,192,183073,1,0,0:0:0:0:
256,192,183223,1,8,0:0:0:0:
256,192,183373,1,8,0:0:0:0:
256,192,183523,1,8,0:0:0:0:
256,192,183673,1,0,0:0:0:0:
268,192,183823,1,0,0:0:0:0:
272,184,183973,1,8,0:0:0:0:
256,192,184273,1,0,0:0:0:0:
268,192,184423,1,0,0:0:0:0:
272,184,184573,1,8,0:0:0:0:
256,192,184873,1,0,0:0:0:0:
268,192,185023,1,0,0:0:0:0:
272,184,185173,1,8,0:0:0:0:
268,192,185323,1,8,0:0:0:0:
275,189,185473,1,0,0:0:0:0:
276,188,185623,1,8,0:0:0:0:
292,196,185773,1,0,0:0:0:0:
268,192,185923,1,8,0:0:0:0:
268,192,186073,1,8,0:0:0:0:
292,196,187873,1,0,0:0:0:0:
292,196,188173,1,8,0:0:0:0:
292,196,188473,1,0,0:0:0:0:
292,196,189073,1,8,0:0:0:0:
292,196,189673,1,4,0:0:0:0:
292,196,189973,1,8,0:0:0:0:
292,196,190123,1,0,0:0:0:0:
292,196,190198,1,0,0:0:0:0:
292,196,190273,1,8,0:0:0:0:
292,196,190423,1,0,0:0:0:0:
292,196,190573,1,8,0:0:0:0:
292,196,190723,1,8,0:0:0:0:
292,196,190873,1,0,0:0:0:0:
292,196,191173,1,8,0:0:0:0:
292,196,191323,1,0,0:0:0:0:
292,196,191398,1,0,0:0:0:0:
292,196,191473,1,0,0:0:0:0:
292,196,191623,1,0,0:0:0:0:
292,196,191773,1,8,0:0:0:0:
292,196,191923,1,8,0:0:0:0:
292,196,192073,1,0,0:0:0:0:
292,196,192373,1,8,0:0:0:0:
292,196,192523,1,8,0:0:0:0:
296,192,192673,1,0,0:0:0:0:
304,188,192823,1,0,0:0:0:0:
300,192,192973,1,8,0:0:0:0:
300,192,193048,1,8,0:0:0:0:
300,192,193123,1,8,0:0:0:0:
300,192,193198,1,8,0:0:0:0:
304,188,193273,1,0,0:0:0:0:
304,188,193423,1,0,0:0:0:0:
316,192,193573,1,8,0:0:0:0:
308,188,193873,1,0,0:0:0:0:
308,188,194023,1,0,0:0:0:0:
308,188,194098,1,0,0:0:0:0:
304,192,194173,1,8,0:0:0:0:
304,188,194323,1,8,0:0:0:0:
276,192,194473,1,0,0:0:0:0:
296,188,194623,1,0,0:0:0:0:
296,188,194773,1,8,0:0:0:0:
304,192,194923,1,8,0:0:0:0:
304,192,194998,1,8,0:0:0:0:
304,184,195073,1,0,0:0:0:0:
288,184,195223,1,0,0:0:0:0:
304,192,195373,1,8,0:0:0:0:
288,184,195673,1,0,0:0:0:0:
288,184,195748,1,0,0:0:0:0:
288,184,195823,1,0,0:0:0:0:
288,184,195898,1,0,0:0:0:0:
304,184,195973,1,8,0:0:0:0:
288,184,196273,1,0,0:0:0:0:
288,184,196348,1,0,0:0:0:0:
288,184,196423,1,0,0:0:0:0:
288,184,196498,1,0,0:0:0:0:
304,184,196573,1,8,0:0:0:0:
288,184,196723,1,0,0:0:0:0:
312,180,196873,1,8,0:0:0:0:
312,180,196948,1,8,0:0:0:0:
288,184,197023,1,0,0:0:0:0:
304,184,197098,1,0,0:0:0:0:
312,180,197173,1,8,0:0:0:0:
312,180,197248,1,8,0:0:0:0:
308,192,197323,1,0,0:0:0:0:
328,188,197473,1,8,0:0:0:0:
328,188,197623,1,8,0:0:0:0:
328,188,197698,1,8,0:0:0:0:
328,188,197773,1,8,0:0:0:0:
328,188,197923,1,8,0:0:0:0:
332,184,198073,1,4,0:0:0:0:
304,192,198373,1,8,0:0:0:0:
304,192,198523,1,8,0:0:0:0:
304,192,198598,1,8,0:0:0:0:
304,192,198673,1,8,0:0:0:0:
332,184,198823,1,0,0:0:0:0:
312,184,198973,1,8,0:0:0:0:
312,184,199123,1,8,0:0:0:0:
312,184,199198,1,8,0:0:0:0:
320,188,199273,1,0,0:0:0:0:
320,188,199348,1,0,0:0:0:0:
336,184,199423,1,8,0:0:0:0:
332,184,199573,1,8,0:0:0:0:
332,184,199723,1,8,0:0:0:0:
324,176,199873,1,0,0:0:0:0:
312,172,200023,1,0,0:0:0:0:
312,172,200098,1,0,0:0:0:0:
308,180,200173,1,8,0:0:0:0:
312,184,200473,1,0,0:0:0:0:
312,184,200623,1,0,0:0:0:0:
312,184,200773,1,8,0:0:0:0:
316,180,200923,1,8,0:0:0:0:
312,172,200998,1,8,0:0:0:0:
312,184,201073,1,0,0:0:0:0:
332,184,201223,1,0,0:0:0:0:
312,184,201373,1,8,0:0:0:0:
336,184,201673,1,0,0:0:0:0:
308,200,201973,1,8,0:0:0:0:
328,180,202123,1,8,0:0:0:0:
336,188,202273,1,0,0:0:0:0:
324,200,202423,1,0,0:0:0:0:
296,184,202573,1,8,0:0:0:0:
296,184,202648,1,8,0:0:0:0:
296,184,202723,1,8,0:0:0:0:
296,184,202798,1,8,0:0:0:0:
296,180,202873,1,0,0:0:0:0:
296,180,203023,1,0,0:0:0:0:
296,184,203173,1,8,0:0:0:0:
296,188,203473,1,0,0:0:0:0:
296,188,203623,1,8,0:0:0:0:
296,188,203698,1,8,0:0:0:0:
296,188,203773,1,8,0:0:0:0:
300,192,203923,1,8,0:0:0:0:
304,184,204073,1,4,0:0:0:0:
296,184,204223,1,0,0:0:0:0:
296,184,204373,1,8,0:0:0:0:
296,180,204523,1,8,0:0:0:0:
296,180,204598,1,8,0:0:0:0:
308,184,204673,1,0,0:0:0:0:
308,184,204823,1,0,0:0:0:0:
296,188,204973,1,8,0:0:0:0:
296,188,205123,1,8,0:0:0:0:
296,188,205198,1,8,0:0:0:0:
296,188,205273,1,8,0:0:0:0:
288,180,205573,1,4,0:0:0:0:
288,180,205873,1,8,0:0:0:0:
292,188,206023,1,0,0:0:0:0:
292,188,206098,1,0,0:0:0:0:
292,188,206173,1,8,0:0:0:0:
272,184,206323,1,8,0:0:0:0:
292,184,206473,1,0,0:0:0:0:
292,184,206623,1,0,0:0:0:0:
280,180,206773,1,8,0:0:0:0:
288,180,206923,1,0,0:0:0:0:
280,180,206998,1,8,0:0:0:0:
288,180,207073,1,0,0:0:0:0:
288,180,207223,1,0,0:0:0:0:
300,180,207373,1,8,0:0:0:0:
292,180,207523,1,8,0:0:0:0:
304,180,207673,1,0,0:0:0:0:
288,180,207973,1,8,0:0:0:0:
288,180,208123,1,8,0:0:0:0:
288,180,208198,1,8,0:0:0:0:
324,176,208273,1,0,0:0:0:0:
316,180,208348,1,0,0:0:0:0:
288,180,208423,1,8,0:0:0:0:
328,192,208573,1,8,0:0:0:0:
328,192,208723,1,8,0:0:0:0:
316,176,208873,1,0,0:0:0:0:
264,164,209173,1,8,0:0:0:0:
280,168,209323,1,8,0:0:0:0:
308,176,209473,1,0,0:0:0:0:
308,176,209623,1,0,0:0:0:0:
312,180,209773,1,8,0:0:0:0:
308,180,209848,1,8,0:0:0:0:
308,180,209923,1,8,0:0:0:0:
308,180,209998,1,8,0:0:0:0:
292,172,210073,1,0,0:0:0:0:
292,172,210223,1,0,0:0:0:0:
308,168,210373,1,8,0:0:0:0:
296,176,210673,1,0,0:0:0:0:
296,176,210823,1,0,0:0:0:0:
296,176,210898,1,0,0:0:0:0:
292,184,210973,1,8,0:0:0:0:
292,176,211123,1,8,0:0:0:0:
240,176,211273,1,0,0:0:0:0:
268,176,211423,1,0,0:0:0:0:
284,176,211573,1,8,0:0:0:0:
308,176,211723,1,0,0:0:0:0:
280,176,211798,1,8,0:0:0:0:
308,176,211873,1,0,0:0:0:0:
308,176,212023,1,0,0:0:0:0:
284,184,212173,1,8,0:0:0:0:
308,180,212473,1,0,0:0:0:0:
308,180,212548,1,0,0:0:0:0:
308,180,212623,1,0,0:0:0:0:
308,180,212698,1,0,0:0:0:0:
308,180,212773,1,8,0:0:0:0:
308,180,213073,1,0,0:0:0:0:
308,180,213148,1,0,0:0:0:0:
308,180,213223,1,0,0:0:0:0:
308,180,213298,1,0,0:0:0:0:
308,180,213373,1,8,0:0:0:0:
296,176,213523,1,0,0:0:0:0:
272,188,213673,1,8,0:0:0:0:
288,176,213823,1,8,0:0:0:0:
288,176,213898,1,8,0:0:0:0:
288,176,213973,1,8,0:0:0:0:
296,184,214123,1,0,0:0:0:0:
288,184,214273,1,8,0:0:0:0:
292,184,214348,1,8,0:0:0:0:
300,192,214423,1,0,0:0:0:0:
300,192,214498,1,0,0:0:0:0:
292,184,214573,1,8,0:0:0:0:
296,184,214723,1,8,0:0:0:0:
300,184,214873,1,4,0:0:0:0:
288,176,215173,1,8,0:0:0:0:
288,176,215323,1,8,0:0:0:0:
288,176,215398,1,8,0:0:0:0:
288,176,215473,1,8,0:0:0:0:
308,188,215623,1,0,0:0:0:0:
288,184,215773,1,8,0:0:0:0:
292,184,215923,1,8,0:0:0:0:
304,180,216073,1,0,0:0:0:0:
304,180,216223,1,0,0:0:0:0:
304,180,216298,1,0,0:0:0:0:
272,188,216373,1,8,0:0:0:0:
272,188,216523,1,8,0:0:0:0:
292,188,216673,1,0,0:0:0:0:
296,192,216823,1,0,0:0:0:0:
264,184,216973,1,8,0:0:0:0:
264,188,217273,1,8,0:0:0:0:
264,188,217423,1,8,0:0:0:0:
264,188,217498,1,8,0:0:0:0:
264,188,217573,1,8,0:0:0:0:
256,192,217723,1,0,0:0:0:0:
272,192,217873,1,8,0:0:0:0:
260,192,218023,1,0,0:0:0:0:
260,192,218098,1,0,0:0:0:0:
272,192,218173,1,8,0:0:0:0:
264,184,218323,1,8,0:0:0:0:
264,184,218473,1,0,0:0:0:0:
264,192,218773,1,8,0:0:0:0:
272,184,218923,1,0,0:0:0:0:
272,184,218998,1,0,0:0:0:0:
272,184,219073,1,0,0:0:0:0:
272,184,219223,1,0,0:0:0:0:
272,184,219373,1,8,0:0:0:0:
272,184,219448,1,8,0:0:0:0:
272,184,219523,1,8,0:0:0:0:
272,184,219598,1,8,0:0:0:0:
276,188,219673,1,0,0:0:0:0:
272,176,219823,1,0,0:0:0:0:
264,184,219973,1,8,0:0:0:0:
276,184,220273,1,0,0:0:0:0:
276,184,220423,1,0,0:0:0:0:
276,184,220498,1,0,0:0:0:0:
272,184,220573,1,8,0:0:0:0:
272,184,220723,1,8,0:0:0:0:
272,184,220873,1,4,0:0:0:0:
272,184,221173,1,8,0:0:0:0:
260,184,221323,1,0,0:0:0:0:
272,184,221398,1,8,0:0:0:0:
264,184,221473,1,0,0:0:0:0:
276,184,221623,1,0,0:0:0:0:
268,184,221773,1,8,0:0:0:0:
268,184,221923,1,8,0:0:0:0:
264,180,222073,1,4,0:0:0:0:
260,184,222373,1,8,0:0:0:0:
260,184,222673,1,8,0:0:0:0:
260,184,222973,1,8,0:0:0:0:
264,184,223048,1,8,0:0:0:0:
264,184,223123,1,0,0:0:0:0:
264,184,223198,1,0,0:0:0:0:
256,180,223273,1,8,0:0:0:0:
256,184,223423,1,0,0:0:0:0:
164,264,223573,2,0,P|304:280|352:144,1,280
248,188,224473,1,4,0:0:0:0:
268,200,224773,1,8,0:0:0:0:
264,204,224923,1,0,0:0:0:0:
264,204,224998,1,0,0:0:0:0:
264,204,225073,1,0,0:0:0:0:
248,204,225223,1,8,0:0:0:0:
248,204,225373,1,8,0:0:0:0:
276,200,225523,1,0,0:0:0:0:
276,200,225673,1,0,0:0:0:0:
276,200,225823,1,0,0:0:0:0:
276,200,225898,1,0,0:0:0:0:
280,204,225973,1,8,0:0:0:0:
296,184,226273,1,0,0:0:0:0:
292,184,226423,1,0,0:0:0:0:
284,188,226573,1,8,0:0:0:0:
284,188,226723,1,8,0:0:0:0:
284,188,226798,1,8,0:0:0:0:
312,188,226873,1,0,0:0:0:0:
312,188,227023,1,0,0:0:0:0:
264,188,227173,1,8,0:0:0:0:
264,188,227323,1,8,0:0:0:0:
264,188,227398,1,8,0:0:0:0:
264,188,227473,1,8,0:0:0:0:
284,196,227623,1,0,0:0:0:0:
284,184,227773,1,8,0:0:0:0:
296,184,228073,1,0,0:0:0:0:
296,184,228223,1,0,0:0:0:0:
208,192,228298,1,0,0:0:0:0:
288,184,228373,1,8,0:0:0:0:
252,192,228523,1,0,0:0:0:0:
264,188,228673,1,8,0:0:0:0:
264,188,228823,1,0,0:0:0:0:
260,192,228973,1,8,0:0:0:0:
260,192,229048,1,8,0:0:0:0:
260,192,229123,1,8,0:0:0:0:
260,192,229198,1,8,0:0:0:0:
264,184,229273,1,0,0:0:0:0:
276,184,229573,1,8,0:0:0:0:
276,192,229723,1,0,0:0:0:0:
272,184,229798,1,8,0:0:0:0:
276,192,229873,1,0,0:0:0:0:
260,184,230023,1,8,0:0:0:0:
264,188,230173,1,8,0:0:0:0:
292,196,230323,1,0,0:0:0:0:
276,200,230398,1,0,0:0:0:0:
276,200,230473,1,0,0:0:0:0:
252,196,230623,1,8,0:0:0:0:
252,196,230773,1,8,0:0:0:0:
280,204,231073,1,0,0:0:0:0:
280,204,231223,1,0,0:0:0:0:
280,204,231298,1,0,0:0:0:0:
256,192,231373,1,8,0:0:0:0:
256,192,231523,1,0,0:0:0:0:
272,208,231673,1,8,0:0:0:0:
272,208,231748,1,8,0:0:0:0:
272,208,231823,1,8,0:0:0:0:
252,200,231973,1,8,0:0:0:0:
252,196,232123,1,8,0:0:0:0:
248,204,232273,1,0,0:0:0:0:
248,204,232423,1,0,0:0:0:0:
248,204,232498,1,0,0:0:0:0:
288,196,232573,1,8,0:0:0:0:
244,196,232873,1,0,0:0:0:0:
244,200,233023,1,0,0:0:0:0:
232,196,233173,1,8,0:0:0:0:
236,184,233323,1,0,0:0:0:0:
276,192,233473,1,8,0:0:0:0:
236,184,233548,1,0,0:0:0:0:
276,192,233623,1,8,0:0:0:0:
236,168,233773,1,0,0:0:0:0:
276,168,233923,1,8,0:0:0:0:
168,288,234073,2,8,B|136:192|136:192|280:276|280:276|288:160|288:160|100:180,1,560
