osu file format v14

[General]
AudioFilename: kakushigoto.mp3
AudioLeadIn: 1000
PreviewTime: 51073
Countdown: 0
SampleSet: Normal
StackLeniency: 0.5
Mode: 1
LetterboxInBreaks: 0
WidescreenStoryboard: 1

[Editor]
Bookmarks: 234073
DistanceSpacing: 0.8
BeatDivisor: 4
GridSize: 4
TimelineZoom: 3.599999

[Metadata]
Title:Kakushigoto
TitleUnicode:かくしごと
Artist:yuikonnu
ArtistUnicode:ゆいこんぬ
Creator:Kin
Version:Inner Oni
Source:
Tags:IA vocaloid mafumafu secret nico douga Kurosanyan Nofool Genocide
BeatmapID:502809
BeatmapSetID:213959

[Difficulty]
HPDrainRate:6
CircleSize:4.5
OverallDifficulty:6
ApproachRate:5
SliderMultiplier:1.4
SliderTickRate:1

[Events]
//Background and Video events
0,0,"37904033.jpg",0,60
//Break Periods
//Storyboard Layer 0 (Background)
//Storyboard Layer 1 (Fail)
//Storyboard Layer 2 (Pass)
//Storyboard Layer 3 (Foreground)
//Storyboard Sound Samples

[TimingPoints]
1273,300,4,1,0,80,1,0
12148,-100,4,1,0,75,0,0
12223,-101.010101010101,4,1,0,70,0,0
12298,-102.040816326531,4,1,0,65,0,0
12373,-103.092783505155,4,1,0,60,0,0
12448,-104.166666666667,4,1,0,55,0,0
12523,-105.263157894737,4,1,0,50,0,0
12598,-106.382978723404,4,1,0,45,0,0
12673,-107.52688172043,4,1,0,40,0,0
12748,-108.695652173913,4,1,0,35,0,0
12823,-109.89010989011,4,1,0,30,0,0
12898,-111.111111111111,4,1,0,25,0,0
12973,-112.359550561798,4,1,0,20,0,0
13048,-113.636363636364,4,1,0,15,0,0
13123,-114.942528735632,4,1,0,10,0,0
13273,-133.333333333333,4,1,0,20,0,0
21673,-126.582278481013,4,1,0,30,0,0
21823,-120.481927710843,4,1,0,40,0,0
21973,-114.942528735632,4,1,0,50,0,0
22123,-109.89010989011,4,1,0,60,0,0
22273,-105.263157894737,4,1,0,70,0,0
22423,-100,4,1,0,80,0,0
32773,-114.942528735632,4,1,0,80,0,0
33073,-133.333333333333,4,1,0,80,0,0
40723,-126.582278481013,4,1,0,80,0,0
40873,-120.481927710843,4,1,0,80,0,0
41023,-114.942528735632,4,1,0,80,0,0
41173,-109.89010989011,4,1,0,80,0,0
41323,-105.263157894737,4,1,0,80,0,0
41473,-100,4,1,0,80,0,0
51673,-100,4,1,0,100,0,1
70873,-100,4,1,0,80,0,0
80548,-100,4,1,0,75,0,0
80623,-101.010101010101,4,1,0,70,0,0
80698,-102.040816326531,4,1,0,65,0,0
80773,-103.092783505155,4,1,0,60,0,0
80848,-104.166666666667,4,1,0,55,0,0
80923,-105.263157894737,4,1,0,50,0,0
80998,-106.382978723404,4,1,0,45,0,0
81073,-107.52688172043,4,1,0,40,0,0
81148,-108.695652173913,4,1,0,35,0,0
81223,-109.89010989011,4,1,0,30,0,0
81298,-111.111111111111,4,1,0,25,0,0
81373,-112.359550561798,4,1,0,20,0,0
81448,-113.636363636364,4,1,0,15,0,0
81523,-114.942528735632,4,1,0,10,0,0
81673,-133.333333333333,4,1,0,20,0,0
89773,-126.582278481013,4,1,0,30,0,0
89923,-120.481927710843,4,1,0,40,0,0
90073,-114.942528735632,4,1,0,50,0,0
90223,-109.89010989011,4,1,0,60,0,0
90373,-105.263157894737,4,1,0,70,0,0
90523,-100,4,1,0,80,0,0
101173,-114.942528735632,4,1,0,80,0,0
101473,-133.333333333333,4,1,0,80,0,0
109273,-125,4,1,0,80,0,0
109423,-117.647058823529,4,1,0,80,0,0
109498,-114.942528735632,4,1,0,80,0,0
109573,-111.111111111111,4,1,0,80,0,0
109648,-108.695652173913,4,1,0,80,0,0
109723,-105.263157894737,4,1,0,80,0,0
109873,-100,4,1,0,80,0,0
120073,-100,4,1,0,80,0,1
139273,-100,4,1,0,80,0,0
158773,-114.942528735632,4,1,0,80,0,0
159073,-133.333333333333,4,1,0,80,0,0
166873,-125,4,1,0,80,0,0
167023,-117.647058823529,4,1,0,80,0,0
167098,-114.942528735632,4,1,0,80,0,0
167173,-111.111111111111,4,1,0,80,0,0
167248,-108.695652173913,4,1,0,80,0,0
167323,-105.263157894737,4,1,0,80,0,0
167473,-100,4,1,0,80,0,0
178873,-133.333333333333,4,1,0,20,0,0
186373,-144.927536231884,4,1,0,16,0,0
186673,-161.290322580645,4,1,0,12,0,0
186973,-178.571428571429,4,1,0,9,0,0
187273,-200,4,1,0,5,0,0
187873,-133.333333333333,4,1,0,20,0,0
189673,-80,4,1,0,80,0,1
205573,-80,4,1,0,80,0,1
224473,-100,4,1,0,80,0,0
234148,-101.010101010101,4,1,0,75,0,0
234223,-102.040816326531,4,1,0,70,0,0
234298,-103.092783505155,4,1,0,65,0,0
234373,-104.166666666667,4,1,0,60,0,0
234448,-105.263157894737,4,1,0,55,0,0
234523,-106.382978723404,4,1,0,50,0,0
234598,-107.52688172043,4,1,0,45,0,0
234673,-108.695652173913,4,1,0,40,0,0
234748,-109.89010989011,4,1,0,35,0,0
234823,-111.111111111111,4,1,0,30,0,0
234898,-112.359550561798,4,1,0,25,0,0
234973,-113.636363636364,4,1,0,20,0,0
235048,-114.942528735632,4,1,0,15,0,0
235123,-116.279069767442,4,1,0,10,0,0
235198,-117.647058823529,4,1,0,5,0,0
235273,-119.047619047619,4,1,0,5,0,0

[Colours]
Combo1 : 202,202,202
Combo2 : 254,150,252
Combo3 : 185,102,253
Combo4 : 87,199,253
Combo5 : 251,21,21

[HitObjects]
256,192,1272,5,8,0:0:0:0:
256,192,1573,1,8,0:0:0:0:
256,192,1723,1,0,0:0:0:0:
260,184,1798,1,8,0:0:0:0:
248,200,1873,1,8,0:0:0:0:
264,188,1948,1,0,0:0:0:0:
256,192,2023,1,0,0:0:0:0:
256,192,2098,1,0,0:0:0:0:
264,184,2173,1,8,0:0:0:0:
264,184,2248,1,8,0:0:0:0:
264,184,2323,1,8,0:0:0:0:
256,192,2398,1,8,0:0:0:0:
260,188,2473,1,4,0:0:0:0:
256,184,2623,1,0,0:0:0:0:
252,184,2773,1,8,0:0:0:0:
264,184,2923,1,8,0:0:0:0:
264,184,2998,1,8,0:0:0:0:
264,184,3073,1,0,0:0:0:0:
264,192,3223,1,0,0:0:0:0:
264,192,3298,1,0,0:0:0:0:
260,180,3373,1,8,0:0:0:0:
260,184,3523,1,0,0:0:0:0:
260,184,3673,1,0,0:0:0:0:
264,184,3748,1,0,0:0:0:0:
264,184,3823,1,8,0:0:0:0:
264,188,3973,1,8,0:0:0:0:
256,184,4123,1,0,0:0:0:0:
264,184,4273,1,8,0:0:0:0:
264,184,4423,1,8,0:0:0:0:
264,184,4498,1,8,0:0:0:0:
260,180,4573,1,0,0:0:0:0:
264,184,4648,1,8,0:0:0:0:
264,184,4723,1,0,0:0:0:0:
264,184,4873,1,0,0:0:0:0:
264,184,4923,1,0,0:0:0:0:
244,164,4973,1,0,0:0:0:0:
264,192,5023,1,8,0:0:0:0:
256,176,5173,1,8,0:0:0:0:
264,184,5323,1,0,0:0:0:0:
264,184,5398,1,0,0:0:0:0:
264,188,5473,1,8,0:0:0:0:
264,188,5548,1,0,0:0:0:0:
264,184,5623,1,8,0:0:0:0:
252,176,5773,1,8,0:0:0:0:
276,172,5923,1,0,0:0:0:0:
264,176,6073,1,0,0:0:0:0:
264,176,6148,1,0,0:0:0:0:
240,180,6223,1,8,0:0:0:0:
256,180,6373,1,8,0:0:0:0:
252,180,6523,1,0,0:0:0:0:
252,180,6598,1,0,0:0:0:0:
252,180,6673,1,0,0:0:0:0:
256,176,6823,1,8,0:0:0:0:
264,164,6973,1,8,0:0:0:0:
264,164,7048,1,8,0:0:0:0:
264,164,7123,1,8,0:0:0:0:
264,164,7198,1,8,0:0:0:0:
268,176,7273,1,0,0:0:0:0:
264,168,7423,1,0,0:0:0:0:
264,168,7498,1,0,0:0:0:0:
272,184,7573,1,8,0:0:0:0:
264,176,7723,1,8,0:0:0:0:
256,172,7873,1,8,0:0:0:0:
256,172,7948,1,0,0:0:0:0:
308,176,8023,1,0,0:0:0:0:
288,176,8098,1,8,0:0:0:0:
296,176,8173,1,0,0:0:0:0:
272,176,8323,1,8,0:0:0:0:
272,176,8473,1,0,0:0:0:0:
272,176,8623,1,0,0:0:0:0:
272,176,8698,1,0,0:0:0:0:
272,176,8773,1,8,0:0:0:0:
272,180,8923,1,8,0:0:0:0:
272,180,8998,1,8,0:0:0:0:
276,176,9073,1,0,0:0:0:0:
276,176,9148,1,0,0:0:0:0:
284,180,9223,1,8,0:0:0:0:
280,180,9373,1,8,0:0:0:0:
256,172,9523,1,0,0:0:0:0:
264,176,9673,1,8,0:0:0:0:
264,176,9748,1,8,0:0:0:0:
264,176,9823,1,8,0:0:0:0:
264,176,9973,1,8,0:0:0:0:
280,180,10123,1,0,0:0:0:0:
280,184,10273,1,0,0:0:0:0:
280,184,10348,1,0,0:0:0:0:
280,184,10423,1,8,0:0:0:0:
280,184,10498,1,8,0:0:0:0:
272,176,10573,1,0,0:0:0:0:
276,176,10723,1,8,0:0:0:0:
280,180,10873,1,8,0:0:0:0:
280,180,10948,1,8,0:0:0:0:
264,176,11023,1,0,0:0:0:0:
264,176,11098,1,0,0:0:0:0:
280,176,11173,1,8,0:0:0:0:
272,180,11323,1,0,0:0:0:0:
268,172,11473,1,8,0:0:0:0:
272,176,11623,1,8,0:0:0:0:
272,176,11698,1,8,0:0:0:0:
272,176,11773,1,0,0:0:0:0:
272,176,11848,1,0,0:0:0:0:
280,184,11923,1,8,0:0:0:0:
276,176,12073,1,0,0:0:0:0:
284,180,12148,1,8,0:0:0:0:
284,180,12223,1,0,0:0:0:0:
284,180,12298,1,0,0:0:0:0:
280,180,12373,1,8,0:0:0:0:
280,180,12448,1,0,0:0:0:0:
280,180,12523,1,0,0:0:0:0:
284,180,12598,1,8,0:0:0:0:
284,180,12673,1,8,0:0:0:0:
284,180,12748,1,0,0:0:0:0:
284,180,12823,1,8,0:0:0:0:
284,180,12898,1,0,0:0:0:0:
284,180,12973,1,8,0:0:0:0:
284,180,13048,1,0,0:0:0:0:
284,180,13123,1,8,0:0:0:0:
280,180,13273,1,0,0:0:0:0:
280,180,13423,1,0,0:0:0:0:
292,184,13573,1,0,0:0:0:0:
292,184,13723,1,8,0:0:0:0:
300,172,13873,1,0,0:0:0:0:
284,180,14173,1,8,0:0:0:0:
276,160,14473,1,0,0:0:0:0:
288,160,15073,1,0,0:0:0:0:
288,168,15373,1,8,0:0:0:0:
296,168,15673,1,0,0:0:0:0:
276,168,15823,1,0,0:0:0:0:
280,168,15973,1,0,0:0:0:0:
292,172,16123,1,8,0:0:0:0:
280,176,16273,1,0,0:0:0:0:
292,168,16573,1,8,0:0:0:0:
284,164,16873,1,0,0:0:0:0:
292,164,17323,1,8,0:0:0:0:
292,164,17473,1,8,0:0:0:0:
272,160,17623,1,0,0:0:0:0:
280,160,17773,1,0,0:0:0:0:
288,172,17923,1,8,0:0:0:0:
296,168,18073,1,0,0:0:0:0:
292,160,18223,1,8,0:0:0:0:
296,168,18373,1,8,0:0:0:0:
292,160,18523,1,8,0:0:0:0:
296,168,18673,1,0,0:0:0:0:
300,168,18823,1,0,0:0:0:0:
276,168,18973,1,8,0:0:0:0:
280,172,19123,1,8,0:0:0:0:
284,168,19273,1,0,0:0:0:0:
284,168,19423,1,8,0:0:0:0:
284,168,19573,1,0,0:0:0:0:
284,168,19723,1,0,0:0:0:0:
300,180,19873,1,8,0:0:0:0:
280,168,20023,1,0,0:0:0:0:
296,180,20173,1,8,0:0:0:0:
288,160,20323,1,8,0:0:0:0:
272,176,20473,1,0,0:0:0:0:
280,176,20623,1,0,0:0:0:0:
312,168,20773,1,8,0:0:0:0:
248,180,21073,1,8,0:0:0:0:
268,180,21373,1,0,0:0:0:0:
288,184,21673,1,8,0:0:0:0:
288,184,21823,1,8,0:0:0:0:
288,184,21973,1,8,0:0:0:0:
288,184,22123,1,8,0:0:0:0:
288,184,22273,1,8,0:0:0:0:
284,176,22423,1,8,0:0:0:0:
284,176,22498,1,8,0:0:0:0:
256,200,22573,1,0,0:0:0:0:
284,176,22648,1,8,0:0:0:0:
340,176,22798,1,8,0:0:0:0:
244,184,22873,1,0,0:0:0:0:
304,192,23023,1,0,0:0:0:0:
300,192,23098,1,0,0:0:0:0:
280,172,23173,1,8,0:0:0:0:
212,152,23323,1,0,0:0:0:0:
216,184,23473,1,0,0:0:0:0:
308,216,23623,1,0,0:0:0:0:
308,216,23698,1,0,0:0:0:0:
340,176,23773,1,8,0:0:0:0:
284,168,23923,1,8,0:0:0:0:
284,168,23998,1,8,0:0:0:0:
288,164,24073,1,0,0:0:0:0:
288,164,24223,1,0,0:0:0:0:
296,168,24373,1,8,0:0:0:0:
368,160,24523,1,8,0:0:0:0:
296,168,24598,1,8,0:0:0:0:
380,160,24673,1,0,0:0:0:0:
336,148,24748,1,0,0:0:0:0:
316,152,24823,1,8,0:0:0:0:
316,152,24973,1,8,0:0:0:0:
316,152,25123,1,8,0:0:0:0:
304,168,25273,1,0,0:0:0:0:
304,168,25423,1,0,0:0:0:0:
304,168,25498,1,0,0:0:0:0:
340,156,25573,1,8,0:0:0:0:
272,220,25723,1,0,0:0:0:0:
268,232,25873,1,0,0:0:0:0:
404,184,26023,1,0,0:0:0:0:
404,184,26098,1,0,0:0:0:0:
404,184,26173,1,8,0:0:0:0:
300,172,26323,1,0,0:0:0:0:
300,172,26398,1,0,0:0:0:0:
300,172,26473,1,0,0:0:0:0:
300,176,26623,1,0,0:0:0:0:
416,176,26773,1,8,0:0:0:0:
392,192,26923,1,8,0:0:0:0:
344,224,26998,1,8,0:0:0:0:
344,224,27073,1,0,0:0:0:0:
436,168,27148,1,0,0:0:0:0:
436,168,27223,1,8,0:0:0:0:
380,160,27373,1,8,0:0:0:0:
308,164,27523,1,8,0:0:0:0:
416,160,27673,1,0,0:0:0:0:
416,160,27823,1,0,0:0:0:0:
416,160,27898,1,0,0:0:0:0:
376,152,27973,1,8,0:0:0:0:
360,176,28123,1,8,0:0:0:0:
360,176,28198,1,8,0:0:0:0:
360,176,28273,1,8,0:0:0:0:
380,168,28423,1,0,0:0:0:0:
384,212,28573,1,8,0:0:0:0:
248,224,28723,1,8,0:0:0:0:
248,224,28798,1,8,0:0:0:0:
220,68,28873,1,0,0:0:0:0:
320,172,29023,1,0,0:0:0:0:
380,176,29173,1,8,0:0:0:0:
256,216,29323,1,0,0:0:0:0:
344,192,29398,1,8,0:0:0:0:
256,220,29473,1,0,0:0:0:0:
256,220,29623,1,8,0:0:0:0:
352,168,29773,1,8,0:0:0:0:
264,160,29923,1,0,0:0:0:0:
264,160,30073,1,0,0:0:0:0:
328,188,30223,1,0,0:0:0:0:
328,188,30298,1,0,0:0:0:0:
264,176,30373,1,8,0:0:0:0:
276,148,30523,1,8,0:0:0:0:
328,172,30673,1,0,0:0:0:0:
328,160,30823,1,0,0:0:0:0:
308,176,30898,1,0,0:0:0:0:
280,172,30973,1,8,0:0:0:0:
328,180,31123,1,0,0:0:0:0:
304,184,31273,1,8,0:0:0:0:
308,176,31423,1,0,0:0:0:0:
396,168,31498,1,0,0:0:0:0:
304,184,31573,1,8,0:0:0:0:
304,184,31723,1,8,0:0:0:0:
328,160,31873,1,0,0:0:0:0:
340,168,32023,1,8,0:0:0:0:
340,168,32098,1,8,0:0:0:0:
340,168,32173,1,0,0:0:0:0:
340,168,32248,1,0,0:0:0:0:
340,168,32323,1,8,0:0:0:0:
372,168,32398,1,8,0:0:0:0:
368,152,32473,1,0,0:0:0:0:
216,172,32773,1,0,0:0:0:0:
244,176,33073,1,0,0:0:0:0:
288,184,33373,1,0,0:0:0:0:
330,144,33523,1,0,0:0:0:0:
348,180,33673,1,8,0:0:0:0:
316,160,33973,1,0,0:0:0:0:
316,160,34273,1,0,0:0:0:0:
296,156,34573,1,0,0:0:0:0:
356,164,34723,1,0,0:0:0:0:
300,168,34873,1,8,0:0:0:0:
275,171,35173,1,0,0:0:0:0:
274,153,35473,1,8,0:0:0:0:
297,169,35773,1,0,0:0:0:0:
316,173,36073,1,8,0:0:0:0:
316,173,36223,1,8,0:0:0:0:
288,171,36373,1,0,0:0:0:0:
288,171,36673,1,8,0:0:0:0:
325,161,36973,1,0,0:0:0:0:
326,161,37273,1,8,0:0:0:0:
328,188,37423,1,8,0:0:0:0:
343,164,37573,1,0,0:0:0:0:
292,168,37873,1,8,0:0:0:0:
292,168,38173,1,0,0:0:0:0:
336,180,38323,1,0,0:0:0:0:
320,176,38473,1,8,0:0:0:0:
292,168,38773,1,0,0:0:0:0:
292,168,39073,1,8,0:0:0:0:
292,168,39373,1,0,0:0:0:0:
292,168,39523,1,0,0:0:0:0:
292,168,39673,1,8,0:0:0:0:
292,168,39973,1,0,0:0:0:0:
284,176,40273,1,8,0:0:0:0:
284,168,40573,1,0,0:0:0:0:
276,180,40723,1,8,0:0:0:0:
276,180,40873,1,8,0:0:0:0:
276,180,41023,1,8,0:0:0:0:
276,180,41173,1,8,0:0:0:0:
288,176,41323,1,8,0:0:0:0:
272,180,41473,1,4,0:0:0:0:
272,180,41773,1,14,0:0:0:0:
272,176,42073,1,4,0:0:0:0:
276,180,42223,1,0,0:0:0:0:
276,180,42298,1,0,0:0:0:0:
268,184,42373,1,8,0:0:0:0:
264,184,42523,1,8,0:0:0:0:
268,172,42673,1,0,0:0:0:0:
268,172,42748,1,0,0:0:0:0:
268,172,42823,1,0,0:0:0:0:
272,180,42973,1,8,0:0:0:0:
272,180,43123,1,0,0:0:0:0:
272,180,43273,1,0,0:0:0:0:
272,176,43423,1,0,0:0:0:0:
272,176,43498,1,0,0:0:0:0:
272,176,43573,1,8,0:0:0:0:
260,176,43723,1,8,0:0:0:0:
260,200,43873,1,0,0:0:0:0:
260,168,43948,1,0,0:0:0:0:
292,192,44023,1,8,0:0:0:0:
264,188,44173,1,8,0:0:0:0:
264,188,44323,1,8,0:0:0:0:
256,172,44398,1,8,0:0:0:0:
324,192,44473,1,0,0:0:0:0:
264,192,44623,1,0,0:0:0:0:
316,176,44773,1,8,0:0:0:0:
284,204,44923,1,0,0:0:0:0:
276,180,45073,1,0,0:0:0:0:
272,176,45223,1,0,0:0:0:0:
272,172,45298,1,0,0:0:0:0:
276,180,45373,1,8,0:0:0:0:
292,172,45523,1,8,0:0:0:0:
300,176,45598,1,8,0:0:0:0:
300,172,45673,1,0,0:0:0:0:
300,172,45823,1,0,0:0:0:0:
300,176,45973,1,8,0:0:0:0:
268,180,46123,1,0,0:0:0:0:
268,184,46273,1,8,0:0:0:0:
264,184,46348,1,0,0:0:0:0:
268,184,46423,1,8,0:0:0:0:
268,184,46498,1,8,0:0:0:0:
276,180,46573,1,0,0:0:0:0:
276,180,46648,1,0,0:0:0:0:
304,176,46723,1,8,0:0:0:0:
304,176,46798,1,8,0:0:0:0:
288,176,46873,1,0,0:0:0:0:
256,184,47173,1,0,0:0:0:0:
256,184,47473,1,8,0:0:0:0:
232,200,47773,1,8,0:0:0:0:
256,180,47848,1,8,0:0:0:0:
248,192,47923,1,8,0:0:0:0:
252,192,47998,1,8,0:0:0:0:
252,192,48073,1,0,0:0:0:0:
236,184,48148,1,0,0:0:0:0:
236,184,48223,1,0,0:0:0:0:
236,184,48298,1,0,0:0:0:0:
244,196,48373,1,8,0:0:0:0:
244,196,48448,1,8,0:0:0:0:
256,192,48523,1,0,0:0:0:0:
248,188,48598,1,0,0:0:0:0:
248,188,48673,1,8,0:0:0:0:
248,184,48748,1,8,0:0:0:0:
260,192,48823,1,0,0:0:0:0:
260,192,48898,1,0,0:0:0:0:
232,184,48973,1,8,0:0:0:0:
236,184,49048,1,8,0:0:0:0:
236,184,49123,1,8,0:0:0:0:
236,184,49198,1,8,0:0:0:0:
256,192,49273,1,0,0:0:0:0:
248,196,49573,1,0,0:0:0:0:
260,184,49723,1,8,0:0:0:0:
260,184,49798,1,8,0:0:0:0:
260,184,49873,1,0,0:0:0:0:
256,180,49948,1,0,0:0:0:0:
256,180,50023,1,8,0:0:0:0:
252,188,50098,1,0,0:0:0:0:
248,188,50173,1,8,0:0:0:0:
248,188,50248,1,8,0:0:0:0:
248,184,50323,1,0,0:0:0:0:
280,176,50398,1,8,0:0:0:0:
260,184,50473,1,0,0:0:0:0:
256,192,50623,1,14,0:0:0:0:
280,188,50923,1,4,0:0:0:0:
264,200,51073,1,4,0:0:0:0:
264,176,51673,1,4,0:0:0:0:
276,184,51823,1,0,0:0:0:0:
276,184,51898,1,0,0:0:0:0:
272,176,51973,1,8,0:0:0:0:
272,176,52123,1,8,0:0:0:0:
288,176,52198,1,8,0:0:0:0:
272,184,52273,1,0,0:0:0:0:
272,160,52348,1,0,0:0:0:0:
268,164,52423,1,8,0:0:0:0:
272,172,52573,1,8,0:0:0:0:
284,180,52723,1,8,0:0:0:0:
280,180,52873,1,0,0:0:0:0:
276,176,52948,1,8,0:0:0:0:
276,176,53023,1,0,0:0:0:0:
276,176,53098,1,0,0:0:0:0:
272,168,53173,1,8,0:0:0:0:
272,168,53323,1,8,0:0:0:0:
276,176,53473,1,0,0:0:0:0:
272,176,53623,1,0,0:0:0:0:
272,176,53698,1,0,0:0:0:0:
280,184,53773,1,8,0:0:0:0:
272,168,53923,1,8,0:0:0:0:
276,176,54073,1,0,0:0:0:0:
272,176,54223,1,0,0:0:0:0:
272,176,54298,1,0,0:0:0:0:
280,184,54373,1,8,0:0:0:0:
288,176,54523,1,8,0:0:0:0:
284,176,54598,1,8,0:0:0:0:
284,176,54673,1,0,0:0:0:0:
284,176,54823,1,8,0:0:0:0:
280,172,54973,1,8,0:0:0:0:
280,168,55123,1,0,0:0:0:0:
280,168,55198,1,0,0:0:0:0:
280,168,55273,1,0,0:0:0:0:
280,180,55423,1,8,0:0:0:0:
280,180,55573,1,8,0:0:0:0:
280,176,55723,1,8,0:0:0:0:
272,176,55798,1,8,0:0:0:0:
288,180,55873,1,0,0:0:0:0:
288,176,56023,1,8,0:0:0:0:
284,176,56173,1,8,0:0:0:0:
296,168,56248,1,8,0:0:0:0:
292,172,56323,1,8,0:0:0:0:
292,172,56398,1,8,0:0:0:0:
288,164,56473,1,0,0:0:0:0:
304,176,56623,1,0,0:0:0:0:
304,172,56698,1,0,0:0:0:0:
288,176,56773,1,8,0:0:0:0:
288,172,56923,1,8,0:0:0:0:
288,176,56998,1,8,0:0:0:0:
288,176,57073,1,0,0:0:0:0:
280,180,57148,1,0,0:0:0:0:
280,176,57223,1,0,0:0:0:0:
304,176,57373,1,8,0:0:0:0:
296,168,57523,1,0,0:0:0:0:
296,168,57673,1,0,0:0:0:0:
296,168,57823,1,0,0:0:0:0:
296,168,57898,1,0,0:0:0:0:
288,164,57973,1,8,0:0:0:0:
280,168,58123,1,0,0:0:0:0:
288,172,58198,1,8,0:0:0:0:
288,172,58273,1,0,0:0:0:0:
288,172,58423,1,0,0:0:0:0:
288,172,58498,1,0,0:0:0:0:
272,168,58573,1,8,0:0:0:0:
292,168,58723,1,8,0:0:0:0:
296,172,58873,1,0,0:0:0:0:
296,172,58948,1,0,0:0:0:0:
296,168,59023,1,0,0:0:0:0:
296,168,59098,1,0,0:0:0:0:
256,168,59173,1,8,0:0:0:0:
300,168,59323,1,8,0:0:0:0:
296,172,59473,1,0,0:0:0:0:
296,172,59548,1,0,0:0:0:0:
296,168,59623,1,0,0:0:0:0:
296,168,59698,1,0,0:0:0:0:
256,168,59773,1,8,0:0:0:0:
280,176,59923,1,8,0:0:0:0:
280,176,59998,1,8,0:0:0:0:
292,168,60073,1,0,0:0:0:0:
296,168,60148,1,0,0:0:0:0:
256,176,60223,1,8,0:0:0:0:
324,176,60298,1,8,0:0:0:0:
256,168,60373,1,0,0:0:0:0:
280,180,60523,1,8,0:0:0:0:
280,180,60673,1,8,0:0:0:0:
280,180,60748,1,8,0:0:0:0:
280,180,60823,1,8,0:0:0:0:
280,180,60973,1,8,0:0:0:0:
280,180,61048,1,8,0:0:0:0:
280,180,61123,1,8,0:0:0:0:
280,180,61198,1,8,0:0:0:0:
292,180,61273,1,0,0:0:0:0:
272,184,61423,1,0,0:0:0:0:
288,184,61573,1,8,0:0:0:0:
272,176,61723,1,0,0:0:0:0:
272,176,61873,1,0,0:0:0:0:
272,176,62023,1,0,0:0:0:0:
272,176,62098,1,0,0:0:0:0:
284,176,62173,1,8,0:0:0:0:
252,176,62323,1,0,0:0:0:0:
252,176,62473,1,0,0:0:0:0:
280,180,62623,1,0,0:0:0:0:
280,180,62698,1,0,0:0:0:0:
272,176,62773,1,8,0:0:0:0:
280,184,62923,1,8,0:0:0:0:
280,184,62998,1,8,0:0:0:0:
288,184,63073,1,0,0:0:0:0:
280,188,63223,1,0,0:0:0:0:
276,184,63373,1,8,0:0:0:0:
268,184,63523,1,8,0:0:0:0:
268,184,63598,1,8,0:0:0:0:
272,176,63673,1,0,0:0:0:0:
268,184,63748,1,8,0:0:0:0:
288,180,63823,1,0,0:0:0:0:
268,184,63898,1,0,0:0:0:0:
280,180,63973,1,8,0:0:0:0:
280,180,64123,1,8,0:0:0:0:
280,180,64273,1,0,0:0:0:0:
280,184,64423,1,0,0:0:0:0:
280,184,64498,1,0,0:0:0:0:
296,176,64573,1,8,0:0:0:0:
280,176,64723,1,0,0:0:0:0:
280,180,64798,1,0,0:0:0:0:
280,180,64873,1,0,0:0:0:0:
272,176,65023,1,8,0:0:0:0:
272,176,65173,1,8,0:0:0:0:
272,176,65323,1,8,0:0:0:0:
272,176,65398,1,8,0:0:0:0:
284,192,65473,1,0,0:0:0:0:
284,192,65623,1,0,0:0:0:0:
288,192,65773,1,8,0:0:0:0:
288,188,65848,1,8,0:0:0:0:
288,184,65923,1,8,0:0:0:0:
288,184,65998,1,8,0:0:0:0:
276,172,66073,1,0,0:0:0:0:
288,180,66223,1,0,0:0:0:0:
288,180,66298,1,0,0:0:0:0:
292,192,66373,1,8,0:0:0:0:
272,188,66523,1,8,0:0:0:0:
272,188,66673,1,0,0:0:0:0:
272,188,66823,1,0,0:0:0:0:
272,188,66898,1,0,0:0:0:0:
272,188,66973,1,8,0:0:0:0:
264,192,67123,1,8,0:0:0:0:
272,188,67273,1,4,0:0:0:0:
280,200,67423,1,0,0:0:0:0:
268,180,67498,1,0,0:0:0:0:
272,192,67573,1,8,0:0:0:0:
280,200,67723,1,0,0:0:0:0:
276,192,67873,1,0,0:0:0:0:
280,192,67948,1,0,0:0:0:0:
280,192,68023,1,0,0:0:0:0:
256,180,68173,1,8,0:0:0:0:
240,160,68323,1,8,0:0:0:0:
216,176,68473,1,4,0:0:0:0:
216,184,68623,1,0,0:0:0:0:
216,184,68773,1,8,0:0:0:0:
240,168,68923,1,0,0:0:0:0:
240,168,68998,1,0,0:0:0:0:
248,176,69073,1,8,0:0:0:0:
248,176,69223,1,0,0:0:0:0:
248,176,69373,1,8,0:0:0:0:
248,200,69448,1,8,0:0:0:0:
240,176,69523,1,0,0:0:0:0:
240,176,69598,1,0,0:0:0:0:
240,184,69673,1,8,0:0:0:0:
236,180,69748,1,8,0:0:0:0:
236,184,69823,1,0,0:0:0:0:
236,180,69898,1,0,0:0:0:0:
236,180,69973,1,8,0:0:0:0:
236,180,70048,1,8,0:0:0:0:
236,180,70123,1,0,0:0:0:0:
236,180,70198,1,0,0:0:0:0:
236,180,70273,1,8,0:0:0:0:
236,180,70348,1,8,0:0:0:0:
236,180,70423,1,8,0:0:0:0:
236,180,70498,1,8,0:0:0:0:
236,180,70573,1,0,0:0:0:0:
236,180,70648,1,0,0:0:0:0:
236,180,70723,1,8,0:0:0:0:
236,180,70798,1,8,0:0:0:0:
236,176,70873,1,0,0:0:0:0:
240,176,71173,1,8,0:0:0:0:
228,176,71323,1,0,0:0:0:0:
240,176,71473,1,8,0:0:0:0:
240,176,71548,1,8,0:0:0:0:
232,176,71623,1,0,0:0:0:0:
232,176,71698,1,0,0:0:0:0:
240,176,71773,1,8,0:0:0:0:
232,192,71923,1,0,0:0:0:0:
240,196,72073,1,8,0:0:0:0:
240,196,72223,1,0,0:0:0:0:
240,196,72298,1,0,0:0:0:0:
252,180,72373,1,8,0:0:0:0:
252,180,72523,1,8,0:0:0:0:
244,188,72673,1,0,0:0:0:0:
244,188,72823,1,0,0:0:0:0:
244,188,72898,1,0,0:0:0:0:
256,176,72973,1,8,0:0:0:0:
248,184,73123,1,8,0:0:0:0:
252,180,73273,1,0,0:0:0:0:
252,180,73323,1,0,0:0:0:0:
252,180,73373,1,0,0:0:0:0:
248,184,73423,1,8,0:0:0:0:
236,188,73573,1,8,0:0:0:0:
248,176,73723,1,8,0:0:0:0:
248,176,73798,1,8,0:0:0:0:
248,176,73873,1,0,0:0:0:0:
248,176,73948,1,8,0:0:0:0:
248,176,74023,1,0,0:0:0:0:
248,176,74098,1,0,0:0:0:0:
248,176,74173,1,8,0:0:0:0:
248,176,74323,1,0,0:0:0:0:
256,184,74473,1,8,0:0:0:0:
256,184,74623,1,8,0:0:0:0:
256,184,74698,1,8,0:0:0:0:
252,180,74773,1,8,0:0:0:0:
248,180,74923,1,0,0:0:0:0:
256,180,75073,1,8,0:0:0:0:
248,176,75223,1,0,0:0:0:0:
248,176,75373,1,8,0:0:0:0:
248,176,75448,1,8,0:0:0:0:
248,176,75523,1,8,0:0:0:0:
248,176,75598,1,8,0:0:0:0:
248,176,75673,1,0,0:0:0:0:
248,176,75823,1,0,0:0:0:0:
256,184,75973,1,8,0:0:0:0:
252,180,76123,1,8,0:0:0:0:
252,180,76198,1,8,0:0:0:0:
256,184,76273,1,0,0:0:0:0:
284,176,76348,1,8,0:0:0:0:
248,180,76423,1,0,0:0:0:0:
248,180,76498,1,0,0:0:0:0:
256,180,76573,1,8,0:0:0:0:
248,176,76723,1,0,0:0:0:0:
248,176,76873,1,8,0:0:0:0:
248,176,77023,1,0,0:0:0:0:
248,176,77098,1,0,0:0:0:0:
248,176,77173,1,8,0:0:0:0:
248,176,77323,1,0,0:0:0:0:
256,184,77473,1,8,0:0:0:0:
256,184,77548,1,8,0:0:0:0:
252,180,77623,1,0,0:0:0:0:
252,180,77698,1,0,0:0:0:0:
252,180,77773,1,8,0:0:0:0:
256,180,77923,1,0,0:0:0:0:
248,180,78073,1,8,0:0:0:0:
256,180,78148,1,8,0:0:0:0:
248,176,78223,1,8,0:0:0:0:
248,176,78373,1,8,0:0:0:0:
256,180,78523,1,0,0:0:0:0:
256,180,78598,1,0,0:0:0:0:
248,176,78673,1,8,0:0:0:0:
248,176,78823,1,0,0:0:0:0:
256,184,78973,1,8,0:0:0:0:
256,184,79123,1,8,0:0:0:0:
252,180,79198,1,8,0:0:0:0:
252,180,79273,1,0,0:0:0:0:
256,180,79423,1,0,0:0:0:0:
256,180,79498,1,0,0:0:0:0:
248,180,79573,1,8,0:0:0:0:
256,180,79723,1,8,0:0:0:0:
248,176,79873,1,0,0:0:0:0:
248,176,80023,1,8,0:0:0:0:
256,180,80098,1,8,0:0:0:0:
256,180,80173,1,8,0:0:0:0:
248,176,80323,1,8,0:0:0:0:
276,176,80473,1,0,0:0:0:0:
284,180,80548,1,8,0:0:0:0:
284,180,80623,1,0,0:0:0:0:
284,180,80698,1,0,0:0:0:0:
280,180,80773,1,8,0:0:0:0:
280,180,80848,1,0,0:0:0:0:
280,180,80923,1,0,0:0:0:0:
284,180,80998,1,8,0:0:0:0:
284,180,81073,1,8,0:0:0:0:
284,180,81148,1,0,0:0:0:0:
284,180,81223,1,8,0:0:0:0:
284,180,81298,1,0,0:0:0:0:
284,180,81373,1,8,0:0:0:0:
284,180,81448,1,0,0:0:0:0:
284,180,81523,1,8,0:0:0:0:
276,176,81673,1,0,0:0:0:0:
276,176,81823,1,0,0:0:0:0:
276,176,81973,1,8,0:0:0:0:
284,180,82123,1,8,0:0:0:0:
284,180,82273,1,0,0:0:0:0:
284,180,82573,1,8,0:0:0:0:
284,180,82873,1,0,0:0:0:0:
284,180,83473,1,0,0:0:0:0:
284,180,83773,1,8,0:0:0:0:
284,180,84073,1,0,0:0:0:0:
284,180,84223,1,0,0:0:0:0:
284,180,84373,1,0,0:0:0:0:
284,180,84523,1,8,0:0:0:0:
284,180,84673,1,0,0:0:0:0:
284,180,84973,1,8,0:0:0:0:
284,180,85273,1,0,0:0:0:0:
284,180,85723,1,0,0:0:0:0:
284,180,85873,1,8,0:0:0:0:
284,180,86023,1,0,0:0:0:0:
284,180,86173,1,0,0:0:0:0:
284,180,86323,1,8,0:0:0:0:
284,180,86473,1,0,0:0:0:0:
284,180,86623,1,0,0:0:0:0:
284,180,86773,1,8,0:0:0:0:
284,180,86923,1,8,0:0:0:0:
284,180,87073,1,0,0:0:0:0:
284,180,87223,1,0,0:0:0:0:
284,180,87373,1,8,0:0:0:0:
284,180,87523,1,8,0:0:0:0:
284,180,87673,1,0,0:0:0:0:
284,180,87823,1,0,0:0:0:0:
284,180,87973,1,8,0:0:0:0:
284,180,88123,1,8,0:0:0:0:
284,180,88273,1,0,0:0:0:0:
284,180,88423,1,8,0:0:0:0:
284,180,88573,1,8,0:0:0:0:
284,180,88723,1,8,0:0:0:0:
284,180,88873,1,0,0:0:0:0:
284,180,89173,1,0,0:0:0:0:
284,180,89473,1,8,0:0:0:0:
284,180,89773,1,8,0:0:0:0:
284,180,89923,1,8,0:0:0:0:
284,180,90073,1,8,0:0:0:0:
284,180,90223,1,8,0:0:0:0:
284,180,90373,1,8,0:0:0:0:
284,180,90523,1,8,0:0:0:0:
256,192,90673,12,0,91123,0:0:0:0:
284,180,91273,5,4,0:0:0:0:
284,180,91423,1,0,0:0:0:0:
284,180,91498,1,0,0:0:0:0:
284,180,91573,1,8,0:0:0:0:
284,180,91723,1,8,0:0:0:0:
284,180,91873,1,0,0:0:0:0:
284,180,92023,1,8,0:0:0:0:
284,180,92098,1,8,0:0:0:0:
284,180,92173,1,8,0:0:0:0:
284,180,92323,1,0,0:0:0:0:
284,180,92473,1,0,0:0:0:0:
284,180,92623,1,0,0:0:0:0:
284,180,92698,1,0,0:0:0:0:
284,180,92773,1,8,0:0:0:0:
284,180,92923,1,8,0:0:0:0:
284,180,92998,1,8,0:0:0:0:
284,180,93073,1,8,0:0:0:0:
284,180,93223,1,0,0:0:0:0:
284,180,93373,1,8,0:0:0:0:
284,180,93523,1,8,0:0:0:0:
284,180,93598,1,8,0:0:0:0:
284,180,93673,1,0,0:0:0:0:
284,180,93748,1,0,0:0:0:0:
284,180,93823,1,8,0:0:0:0:
284,180,93973,1,8,0:0:0:0:
284,180,94123,1,0,0:0:0:0:
284,180,94273,1,0,0:0:0:0:
284,180,94423,1,8,0:0:0:0:
284,180,94498,1,8,0:0:0:0:
284,180,94573,1,8,0:0:0:0:
284,180,94723,1,8,0:0:0:0:
284,180,94873,1,0,0:0:0:0:
284,180,95023,1,0,0:0:0:0:
284,180,95098,1,0,0:0:0:0:
284,180,95173,1,8,0:0:0:0:
284,180,95248,1,8,0:0:0:0:
284,180,95323,1,0,0:0:0:0:
284,180,95473,1,8,0:0:0:0:
284,180,95623,1,0,0:0:0:0:
284,180,95773,1,8,0:0:0:0:
284,180,95923,1,0,0:0:0:0:
284,180,95998,1,0,0:0:0:0:
284,180,96073,1,0,0:0:0:0:
284,180,96223,1,0,0:0:0:0:
284,180,96373,1,8,0:0:0:0:
284,180,96523,1,0,0:0:0:0:
284,180,96598,1,8,0:0:0:0:
284,180,96673,1,0,0:0:0:0:
284,180,96823,1,0,0:0:0:0:
284,180,96973,1,8,0:0:0:0:
284,180,97123,1,0,0:0:0:0:
284,180,97273,1,0,0:0:0:0:
284,180,97423,1,0,0:0:0:0:
284,180,97498,1,0,0:0:0:0:
284,180,97573,1,8,0:0:0:0:
284,180,97723,1,8,0:0:0:0:
284,180,97798,1,8,0:0:0:0:
284,180,97873,1,8,0:0:0:0:
284,180,98023,1,0,0:0:0:0:
284,180,98173,1,8,0:0:0:0:
284,180,98323,1,8,0:0:0:0:
284,180,98473,1,0,0:0:0:0:
284,180,98623,1,0,0:0:0:0:
284,180,98698,1,0,0:0:0:0:
284,180,98773,1,8,0:0:0:0:
252,180,98923,1,0,0:0:0:0:
252,180,98998,1,0,0:0:0:0:
252,180,99073,1,0,0:0:0:0:
260,188,99223,1,8,0:0:0:0:
260,188,99373,1,8,0:0:0:0:
216,180,99523,1,0,0:0:0:0:
236,164,99673,1,8,0:0:0:0:
252,152,99823,1,0,0:0:0:0:
252,152,99898,1,0,0:0:0:0:
236,160,99973,1,8,0:0:0:0:
236,160,100123,1,8,0:0:0:0:
236,160,100198,1,8,0:0:0:0:
252,152,100273,1,0,0:0:0:0:
188,176,100423,1,8,0:0:0:0:
188,176,100498,1,8,0:0:0:0:
252,180,100573,1,0,0:0:0:0:
252,180,100648,1,0,0:0:0:0:
256,176,100723,1,0,0:0:0:0:
256,176,100798,1,0,0:0:0:0:
224,180,100873,1,8,0:0:0:0:
180,184,101173,1,0,0:0:0:0:
180,184,101473,1,0,0:0:0:0:
180,184,101773,1,0,0:0:0:0:
164,256,101923,1,0,0:0:0:0:
328,228,102073,1,8,0:0:0:0:
180,184,102373,1,0,0:0:0:0:
180,184,102673,1,0,0:0:0:0:
180,184,102973,1,0,0:0:0:0:
164,256,103123,1,0,0:0:0:0:
328,228,103273,1,8,0:0:0:0:
248,168,103573,1,0,0:0:0:0:
248,176,103873,1,0,0:0:0:0:
392,136,104173,1,8,0:0:0:0:
392,136,104323,1,8,0:0:0:0:
252,176,104473,1,0,0:0:0:0:
264,168,104773,1,0,0:0:0:0:
264,176,105073,1,0,0:0:0:0:
120,136,105373,1,8,0:0:0:0:
120,136,105523,1,8,0:0:0:0:
260,176,105673,1,4,0:0:0:0:
180,184,105973,1,0,0:0:0:0:
180,184,106273,1,0,0:0:0:0:
180,184,106573,1,0,0:0:0:0:
164,256,106723,1,0,0:0:0:0:
328,228,106873,1,8,0:0:0:0:
180,184,107173,1,0,0:0:0:0:
180,184,107473,1,0,0:0:0:0:
180,184,107773,1,0,0:0:0:0:
164,256,107923,1,0,0:0:0:0:
328,228,108073,1,8,0:0:0:0:
220,136,108373,1,0,0:0:0:0:
296,236,108673,1,0,0:0:0:0:
296,236,108973,1,0,0:0:0:0:
308,160,109273,1,0,0:0:0:0:
420,168,109423,1,8,0:0:0:0:
420,168,109498,1,8,0:0:0:0:
352,168,109573,1,0,0:0:0:0:
352,168,109648,1,0,0:0:0:0:
344,172,109723,1,8,0:0:0:0:
344,172,109873,1,4,0:0:0:0:
368,168,110173,1,14,0:0:0:0:
264,136,110473,1,4,0:0:0:0:
284,160,110623,1,0,0:0:0:0:
284,160,110698,1,0,0:0:0:0:
408,60,110773,1,8,0:0:0:0:
372,120,110923,1,8,0:0:0:0:
184,236,111073,1,0,0:0:0:0:
436,248,111223,1,0,0:0:0:0:
436,248,111298,1,0,0:0:0:0:
232,168,111373,1,8,0:0:0:0:
264,224,111523,1,8,0:0:0:0:
264,224,111598,1,8,0:0:0:0:
284,196,111673,1,0,0:0:0:0:
284,196,111823,1,0,0:0:0:0:
336,216,111973,1,8,0:0:0:0:
336,216,112123,1,8,0:0:0:0:
336,216,112198,1,8,0:0:0:0:
336,216,112273,1,8,0:0:0:0:
328,160,112423,1,0,0:0:0:0:
288,144,112573,1,8,0:0:0:0:
284,152,112723,1,8,0:0:0:0:
204,168,112873,1,0,0:0:0:0:
204,168,113023,1,0,0:0:0:0:
204,168,113098,1,0,0:0:0:0:
256,160,113173,1,8,0:0:0:0:
236,168,113323,1,0,0:0:0:0:
240,144,113398,1,0,0:0:0:0:
236,168,113473,1,0,0:0:0:0:
236,168,113623,1,0,0:0:0:0:
400,172,113773,1,8,0:0:0:0:
260,160,113923,1,8,0:0:0:0:
256,160,113998,1,8,0:0:0:0:
268,156,114073,1,0,0:0:0:0:
268,156,114148,1,0,0:0:0:0:
260,156,114223,1,8,0:0:0:0:
260,156,114373,1,8,0:0:0:0:
260,156,114523,1,0,0:0:0:0:
324,184,114673,1,8,0:0:0:0:
340,176,114748,1,0,0:0:0:0:
300,176,114823,1,8,0:0:0:0:
300,176,114898,1,8,0:0:0:0:
316,176,114973,1,0,0:0:0:0:
316,176,115048,1,0,0:0:0:0:
300,176,115123,1,8,0:0:0:0:
300,176,115198,1,8,0:0:0:0:
320,176,115273,1,0,0:0:0:0:
260,168,115573,1,8,0:0:0:0:
308,184,115873,1,0,0:0:0:0:
320,192,116173,1,8,0:0:0:0:
320,192,116248,1,8,0:0:0:0:
320,192,116323,1,8,0:0:0:0:
320,192,116398,1,8,0:0:0:0:
328,184,116473,1,0,0:0:0:0:
328,184,116548,1,0,0:0:0:0:
328,184,116623,1,0,0:0:0:0:
328,184,116698,1,0,0:0:0:0:
344,172,116773,1,8,0:0:0:0:
340,176,116848,1,8,0:0:0:0:
368,208,116923,1,0,0:0:0:0:
300,168,116998,1,0,0:0:0:0:
304,168,117073,1,8,0:0:0:0:
304,168,117148,1,0,0:0:0:0:
312,204,117223,1,8,0:0:0:0:
312,204,117298,1,8,0:0:0:0:
352,196,117373,1,0,0:0:0:0:
348,196,117448,1,0,0:0:0:0:
304,184,117523,1,8,0:0:0:0:
304,188,117598,1,8,0:0:0:0:
304,176,117673,1,0,0:0:0:0:
320,184,117973,1,0,0:0:0:0:
284,184,118123,1,8,0:0:0:0:
284,184,118198,1,8,0:0:0:0:
284,184,118273,1,0,0:0:0:0:
284,184,118348,1,0,0:0:0:0:
284,184,118423,1,8,0:0:0:0:
284,184,118498,1,0,0:0:0:0:
284,184,118573,1,8,0:0:0:0:
284,184,118648,1,8,0:0:0:0:
284,184,118723,1,8,0:0:0:0:
284,184,118798,1,8,0:0:0:0:
316,188,118873,1,0,0:0:0:0:
328,180,119023,1,14,0:0:0:0:
272,184,119323,1,4,0:0:0:0:
280,176,119473,1,4,0:0:0:0:
260,180,119773,1,8,0:0:0:0:
264,180,119848,1,8,0:0:0:0:
264,180,119923,1,8,0:0:0:0:
264,180,119998,1,8,0:0:0:0:
280,172,120073,1,4,0:0:0:0:
284,184,120223,1,0,0:0:0:0:
284,184,120298,1,0,0:0:0:0:
284,184,120373,1,8,0:0:0:0:
272,184,120523,1,0,0:0:0:0:
272,184,120598,1,8,0:0:0:0:
216,176,120673,1,0,0:0:0:0:
272,184,120748,1,0,0:0:0:0:
272,184,120823,1,8,0:0:0:0:
280,176,120973,1,8,0:0:0:0:
264,180,121123,1,8,0:0:0:0:
264,180,121198,1,8,0:0:0:0:
260,180,121273,1,0,0:0:0:0:
264,180,121423,1,0,0:0:0:0:
208,180,121573,1,8,0:0:0:0:
264,180,121723,1,0,0:0:0:0:
272,184,121798,1,0,0:0:0:0:
264,180,121873,1,0,0:0:0:0:
272,184,122023,1,0,0:0:0:0:
260,180,122173,1,8,0:0:0:0:
272,184,122323,1,8,0:0:0:0:
272,184,122398,1,8,0:0:0:0:
280,176,122473,1,0,0:0:0:0:
272,184,122548,1,0,0:0:0:0:
272,184,122623,1,8,0:0:0:0:
272,184,122773,1,8,0:0:0:0:
264,180,122923,1,0,0:0:0:0:
264,180,122998,1,0,0:0:0:0:
264,180,123073,1,0,0:0:0:0:
264,180,123223,1,8,0:0:0:0:
272,184,123373,1,8,0:0:0:0:
272,184,123523,1,8,0:0:0:0:
272,184,123598,1,8,0:0:0:0:
260,180,123673,1,0,0:0:0:0:
272,184,123823,1,0,0:0:0:0:
280,176,123973,1,8,0:0:0:0:
272,184,124123,1,0,0:0:0:0:
272,184,124198,1,0,0:0:0:0:
272,184,124273,1,8,0:0:0:0:
272,184,124423,1,8,0:0:0:0:
272,184,124573,1,8,0:0:0:0:
272,184,124648,1,8,0:0:0:0:
272,184,124723,1,8,0:0:0:0:
272,184,124798,1,8,0:0:0:0:
272,184,124873,1,0,0:0:0:0:
272,184,125023,1,0,0:0:0:0:
272,184,125173,1,8,0:0:0:0:
272,184,125323,1,0,0:0:0:0:
272,184,125398,1,0,0:0:0:0:
280,176,125473,1,8,0:0:0:0:
272,184,125623,1,8,0:0:0:0:
272,184,125773,1,0,0:0:0:0:
272,184,125923,1,0,0:0:0:0:
272,184,125998,1,0,0:0:0:0:
272,184,126073,1,8,0:0:0:0:
272,184,126223,1,0,0:0:0:0:
272,184,126373,1,8,0:0:0:0:
272,184,126523,1,8,0:0:0:0:
272,184,126598,1,8,0:0:0:0:
280,176,126673,1,0,0:0:0:0:
272,184,126748,1,0,0:0:0:0:
280,176,126823,1,0,0:0:0:0:
280,176,126898,1,0,0:0:0:0:
272,184,126973,1,8,0:0:0:0:
272,184,127123,1,8,0:0:0:0:
272,184,127273,1,0,0:0:0:0:
272,184,127348,1,0,0:0:0:0:
272,184,127423,1,0,0:0:0:0:
272,184,127498,1,0,0:0:0:0:
272,184,127573,1,8,0:0:0:0:
272,184,127723,1,8,0:0:0:0:
272,184,127873,1,0,0:0:0:0:
272,184,127948,1,0,0:0:0:0:
272,184,128023,1,0,0:0:0:0:
272,184,128098,1,0,0:0:0:0:
272,184,128173,1,8,0:0:0:0:
272,184,128323,1,0,0:0:0:0:
280,176,128398,1,0,0:0:0:0:
280,176,128473,1,8,0:0:0:0:
272,184,128548,1,8,0:0:0:0:
272,184,128623,1,0,0:0:0:0:
272,184,128698,1,0,0:0:0:0:
272,184,128773,1,8,0:0:0:0:
272,184,128848,1,8,0:0:0:0:
272,184,128923,1,0,0:0:0:0:
272,184,128998,1,0,0:0:0:0:
272,184,129073,1,0,0:0:0:0:
272,184,129148,1,8,0:0:0:0:
272,184,129223,1,8,0:0:0:0:
272,184,129298,1,0,0:0:0:0:
272,184,129373,1,8,0:0:0:0:
272,184,129448,1,0,0:0:0:0:
272,184,129523,1,8,0:0:0:0:
272,184,129598,1,8,0:0:0:0:
272,184,129673,1,0,0:0:0:0:
272,184,129973,1,8,0:0:0:0:
272,184,130123,1,8,0:0:0:0:
272,184,130198,1,8,0:0:0:0:
272,184,130273,1,0,0:0:0:0:
272,184,130348,1,8,0:0:0:0:
272,184,130423,1,0,0:0:0:0:
272,184,130573,1,8,0:0:0:0:
272,184,130723,1,8,0:0:0:0:
272,184,130798,1,8,0:0:0:0:
272,184,130873,1,0,0:0:0:0:
272,184,131023,1,0,0:0:0:0:
272,184,131173,1,8,0:0:0:0:
272,184,131323,1,8,0:0:0:0:
272,184,131473,1,0,0:0:0:0:
272,184,131623,1,0,0:0:0:0:
272,184,131698,1,0,0:0:0:0:
272,184,131773,1,8,0:0:0:0:
272,184,131923,1,8,0:0:0:0:
272,184,131998,1,8,0:0:0:0:
272,184,132073,1,0,0:0:0:0:
272,184,132148,1,0,0:0:0:0:
272,184,132223,1,8,0:0:0:0:
272,184,132373,1,8,0:0:0:0:
272,184,132523,1,8,0:0:0:0:
272,184,132673,1,0,0:0:0:0:
272,184,132823,1,0,0:0:0:0:
272,184,132898,1,0,0:0:0:0:
272,184,132973,1,8,0:0:0:0:
272,184,133123,1,0,0:0:0:0:
272,184,133198,1,0,0:0:0:0:
272,184,133273,1,0,0:0:0:0:
272,184,133423,1,8,0:0:0:0:
272,184,133573,1,8,0:0:0:0:
272,184,133723,1,8,0:0:0:0:
272,184,133798,1,8,0:0:0:0:
272,184,133873,1,0,0:0:0:0:
272,184,134023,1,8,0:0:0:0:
272,184,134173,1,8,0:0:0:0:
272,184,134248,1,8,0:0:0:0:
272,184,134323,1,8,0:0:0:0:
272,184,134398,1,8,0:0:0:0:
272,184,134473,1,0,0:0:0:0:
272,184,134623,1,0,0:0:0:0:
272,184,134773,1,8,0:0:0:0:
272,184,134923,1,0,0:0:0:0:
272,184,134998,1,0,0:0:0:0:
272,184,135073,1,8,0:0:0:0:
272,184,135223,1,0,0:0:0:0:
272,184,135373,1,8,0:0:0:0:
272,184,135448,1,8,0:0:0:0:
272,184,135523,1,8,0:0:0:0:
272,184,135673,1,4,0:0:0:0:
272,184,135823,1,0,0:0:0:0:
272,184,135973,1,8,0:0:0:0:
272,184,136123,1,8,0:0:0:0:
272,184,136198,1,8,0:0:0:0:
272,184,136273,1,0,0:0:0:0:
272,184,136348,1,0,0:0:0:0:
272,184,136423,1,8,0:0:0:0:
272,184,136573,1,8,0:0:0:0:
272,184,136723,1,8,0:0:0:0:
272,184,136873,1,4,0:0:0:0:
272,184,137023,1,8,0:0:0:0:
272,184,137098,1,8,0:0:0:0:
272,184,137173,1,8,0:0:0:0:
272,184,137323,1,8,0:0:0:0:
272,184,137473,1,0,0:0:0:0:
272,184,137623,1,8,0:0:0:0:
272,184,137698,1,8,0:0:0:0:
272,184,137773,1,0,0:0:0:0:
272,184,137848,1,0,0:0:0:0:
272,184,137923,1,8,0:0:0:0:
272,184,137998,1,8,0:0:0:0:
272,184,138073,1,0,0:0:0:0:
272,184,138148,1,8,0:0:0:0:
272,184,138223,1,8,0:0:0:0:
272,184,138298,1,0,0:0:0:0:
272,184,138373,1,0,0:0:0:0:
272,184,138448,1,8,0:0:0:0:
272,184,138523,1,0,0:0:0:0:
272,184,138598,1,8,0:0:0:0:
272,184,138673,1,8,0:0:0:0:
272,184,138748,1,0,0:0:0:0:
272,184,138823,1,0,0:0:0:0:
272,184,138898,1,8,0:0:0:0:
272,184,138973,1,8,0:0:0:0:
272,184,139048,1,0,0:0:0:0:
272,184,139123,1,0,0:0:0:0:
272,184,139198,1,0,0:0:0:0:
272,184,139273,1,8,0:0:0:0:
272,184,139573,1,8,0:0:0:0:
272,184,139723,1,8,0:0:0:0:
272,184,139798,1,8,0:0:0:0:
272,184,139873,1,0,0:0:0:0:
272,184,140023,1,0,0:0:0:0:
272,184,140173,1,8,0:0:0:0:
272,184,140323,1,0,0:0:0:0:
272,184,140398,1,8,0:0:0:0:
272,184,140473,1,0,0:0:0:0:
272,184,140623,1,8,0:0:0:0:
272,184,140773,1,8,0:0:0:0:
272,184,140923,1,8,0:0:0:0:
272,184,141073,1,0,0:0:0:0:
272,184,141223,1,0,0:0:0:0:
272,184,141298,1,0,0:0:0:0:
272,184,141373,1,8,0:0:0:0:
272,184,141523,1,8,0:0:0:0:
272,184,141598,1,8,0:0:0:0:
272,184,141673,1,0,0:0:0:0:
272,184,141748,1,0,0:0:0:0:
272,184,141823,1,8,0:0:0:0:
272,184,141973,1,8,0:0:0:0:
272,184,142123,1,0,0:0:0:0:
272,184,142198,1,0,0:0:0:0:
272,184,142273,1,8,0:0:0:0:
272,184,142423,1,0,0:0:0:0:
272,184,142573,1,8,0:0:0:0:
272,184,142723,1,4,0:0:0:0:
272,184,143023,1,0,0:0:0:0:
272,184,143098,1,0,0:0:0:0:
272,184,143173,1,0,0:0:0:0:
272,184,143323,1,8,0:0:0:0:
272,184,143473,1,0,0:0:0:0:
272,184,143623,1,8,0:0:0:0:
272,184,143698,1,8,0:0:0:0:
272,184,143773,1,8,0:0:0:0:
272,184,143848,1,8,0:0:0:0:
272,184,143923,1,8,0:0:0:0:
272,184,143998,1,8,0:0:0:0:
272,184,144073,1,0,0:0:0:0:
272,184,144223,1,0,0:0:0:0:
272,184,144373,1,8,0:0:0:0:
272,184,144523,1,0,0:0:0:0:
272,184,144598,1,8,0:0:0:0:
272,184,144673,1,0,0:0:0:0:
272,184,144823,1,8,0:0:0:0:
272,184,144973,1,8,0:0:0:0:
272,184,145123,1,8,0:0:0:0:
272,184,145198,1,8,0:0:0:0:
272,184,145273,1,0,0:0:0:0:
272,184,145348,1,0,0:0:0:0:
272,184,145423,1,8,0:0:0:0:
272,184,145573,1,8,0:0:0:0:
272,184,145723,1,8,0:0:0:0:
272,184,145873,1,0,0:0:0:0:
272,184,146023,1,0,0:0:0:0:
272,184,146098,1,0,0:0:0:0:
272,184,146173,1,8,0:0:0:0:
272,184,146323,1,8,0:0:0:0:
272,184,146398,1,8,0:0:0:0:
272,184,146473,1,0,0:0:0:0:
272,184,146623,1,0,0:0:0:0:
272,184,146773,1,8,0:0:0:0:
272,184,146923,1,0,0:0:0:0:
272,184,147073,1,8,0:0:0:0:
272,184,147223,1,0,0:0:0:0:
272,184,147298,1,0,0:0:0:0:
272,184,147373,1,8,0:0:0:0:
272,184,147523,1,0,0:0:0:0:
272,184,147673,1,8,0:0:0:0:
272,184,147748,1,8,0:0:0:0:
272,184,147823,1,0,0:0:0:0:
276,188,147898,1,0,0:0:0:0:
272,184,147973,1,8,0:0:0:0:
272,184,148048,1,0,0:0:0:0:
272,184,148123,1,8,0:0:0:0:
272,184,148198,1,8,0:0:0:0:
272,184,148273,1,0,0:0:0:0:
272,184,148348,1,0,0:0:0:0:
272,184,148423,1,8,0:0:0:0:
272,184,148498,1,0,0:0:0:0:
272,184,148573,1,8,0:0:0:0:
272,184,148648,1,0,0:0:0:0:
276,184,148723,1,8,0:0:0:0:
272,184,148798,1,8,0:0:0:0:
272,184,148873,1,0,0:0:0:0:
272,184,149173,1,8,0:0:0:0:
272,184,149323,1,0,0:0:0:0:
272,184,149398,1,0,0:0:0:0:
272,184,149473,1,0,0:0:0:0:
272,184,149623,1,8,0:0:0:0:
272,184,149773,1,8,0:0:0:0:
272,184,149923,1,0,0:0:0:0:
272,184,150073,1,8,0:0:0:0:
272,184,150223,1,8,0:0:0:0:
276,184,150298,1,8,0:0:0:0:
272,184,150373,1,0,0:0:0:0:
272,184,150523,1,8,0:0:0:0:
272,184,150673,1,0,0:0:0:0:
276,184,150823,1,0,0:0:0:0:
276,184,150898,1,0,0:0:0:0:
272,184,150973,1,8,0:0:0:0:
272,184,151123,1,8,0:0:0:0:
272,184,151198,1,8,0:0:0:0:
272,184,151273,1,8,0:0:0:0:
272,184,151423,1,0,0:0:0:0:
272,184,151573,1,8,0:0:0:0:
272,176,151723,1,8,0:0:0:0:
272,184,151798,1,8,0:0:0:0:
276,184,151873,1,0,0:0:0:0:
272,184,151948,1,8,0:0:0:0:
276,176,152023,1,0,0:0:0:0:
276,176,152098,1,0,0:0:0:0:
272,184,152173,1,8,0:0:0:0:
268,184,152323,1,0,0:0:0:0:
264,180,152473,1,8,0:0:0:0:
280,184,152623,1,0,0:0:0:0:
280,184,152698,1,0,0:0:0:0:
272,184,152773,1,8,0:0:0:0:
272,184,152923,1,8,0:0:0:0:
272,184,153073,1,0,0:0:0:0:
268,184,153223,1,0,0:0:0:0:
272,184,153373,1,8,0:0:0:0:
276,184,153448,1,8,0:0:0:0:
272,184,153523,1,8,0:0:0:0:
276,184,153598,1,8,0:0:0:0:
280,188,153673,1,0,0:0:0:0:
276,176,153823,1,0,0:0:0:0:
264,180,153973,1,8,0:0:0:0:
280,184,154123,1,0,0:0:0:0:
272,188,154198,1,8,0:0:0:0:
280,184,154273,1,0,0:0:0:0:
272,184,154423,1,8,0:0:0:0:
272,184,154573,1,8,0:0:0:0:
264,192,154723,1,0,0:0:0:0:
264,192,154798,1,0,0:0:0:0:
264,176,154873,1,8,0:0:0:0:
272,184,154948,1,0,0:0:0:0:
276,184,155023,1,8,0:0:0:0:
272,184,155098,1,0,0:0:0:0:
264,176,155173,1,8,0:0:0:0:
264,176,155248,1,8,0:0:0:0:
272,188,155323,1,8,0:0:0:0:
260,192,155398,1,0,0:0:0:0:
264,184,155473,1,0,0:0:0:0:
264,184,155623,1,0,0:0:0:0:
272,180,155698,1,8,0:0:0:0:
264,184,155773,1,0,0:0:0:0:
276,184,155848,1,8,0:0:0:0:
272,184,155923,1,8,0:0:0:0:
272,184,155998,1,0,0:0:0:0:
272,184,156073,1,8,0:0:0:0:
272,176,156223,1,0,0:0:0:0:
272,176,156298,1,0,0:0:0:0:
280,180,156373,1,8,0:0:0:0:
284,180,156448,1,8,0:0:0:0:
272,184,156523,1,0,0:0:0:0:
288,192,156598,1,0,0:0:0:0:
272,176,156673,1,8,0:0:0:0:
272,176,156748,1,8,0:0:0:0:
276,184,156823,1,0,0:0:0:0:
272,176,156898,1,8,0:0:0:0:
272,184,156973,1,0,0:0:0:0:
272,184,157048,1,0,0:0:0:0:
288,180,157123,1,8,0:0:0:0:
288,180,157198,1,0,0:0:0:0:
288,180,157273,1,8,0:0:0:0:
288,180,157348,1,8,0:0:0:0:
288,184,157423,1,8,0:0:0:0:
272,184,157498,1,0,0:0:0:0:
280,176,157573,1,8,0:0:0:0:
280,180,157648,1,0,0:0:0:0:
280,176,157723,1,8,0:0:0:0:
280,180,157798,1,8,0:0:0:0:
280,176,157873,1,0,0:0:0:0:
284,184,157948,1,0,0:0:0:0:
268,172,158023,1,8,0:0:0:0:
268,172,158098,1,8,0:0:0:0:
268,172,158173,1,8,0:0:0:0:
272,176,158248,1,0,0:0:0:0:
272,176,158323,1,0,0:0:0:0:
272,176,158398,1,0,0:0:0:0:
272,176,158473,1,8,0:0:0:0:
272,184,158773,1,0,0:0:0:0:
272,184,159073,1,0,0:0:0:0:
272,184,159373,1,0,0:0:0:0:
272,184,159523,1,0,0:0:0:0:
272,184,159673,1,8,0:0:0:0:
272,184,159973,1,0,0:0:0:0:
272,184,160273,1,0,0:0:0:0:
272,184,160573,1,0,0:0:0:0:
272,184,160723,1,0,0:0:0:0:
272,184,160873,1,8,0:0:0:0:
272,176,161173,1,0,0:0:0:0:
272,176,161473,1,0,0:0:0:0:
272,176,161773,1,8,0:0:0:0:
256,176,161923,1,0,0:0:0:0:
264,180,162073,1,8,0:0:0:0:
264,180,162373,1,8,0:0:0:0:
264,176,162673,1,8,0:0:0:0:
264,176,162973,1,8,0:0:0:0:
264,176,163123,1,8,0:0:0:0:
260,172,163273,1,4,0:0:0:0:
272,176,163573,1,8,0:0:0:0:
272,176,163873,1,8,0:0:0:0:
272,176,164173,1,8,0:0:0:0:
272,176,164323,1,8,0:0:0:0:
272,176,164473,1,0,0:0:0:0:
272,176,164773,1,0,0:0:0:0:
272,176,165073,1,0,0:0:0:0:
272,176,165373,1,0,0:0:0:0:
272,176,165523,1,0,0:0:0:0:
272,176,165673,1,8,0:0:0:0:
272,176,165973,1,0,0:0:0:0:
272,176,166273,1,0,0:0:0:0:
272,176,166573,1,0,0:0:0:0:
272,176,166873,1,0,0:0:0:0:
272,176,167023,1,8,0:0:0:0:
272,176,167098,1,8,0:0:0:0:
272,176,167173,1,0,0:0:0:0:
272,176,167248,1,0,0:0:0:0:
272,176,167323,1,8,0:0:0:0:
272,176,167473,1,4,0:0:0:0:
272,176,167773,1,14,0:0:0:0:
272,176,168073,1,4,0:0:0:0:
272,176,168223,1,0,0:0:0:0:
272,176,168298,1,0,0:0:0:0:
272,176,168373,1,8,0:0:0:0:
272,176,168523,1,8,0:0:0:0:
272,176,168673,1,8,0:0:0:0:
272,176,168823,1,0,0:0:0:0:
272,176,168973,1,8,0:0:0:0:
272,176,169123,1,8,0:0:0:0:
272,176,169198,1,8,0:0:0:0:
272,176,169273,1,0,0:0:0:0:
272,176,169348,1,8,0:0:0:0:
272,176,169423,1,0,0:0:0:0:
272,176,169573,1,8,0:0:0:0:
272,176,169723,1,8,0:0:0:0:
272,176,169873,1,0,0:0:0:0:
272,176,170023,1,0,0:0:0:0:
272,176,170098,1,0,0:0:0:0:
272,176,170173,1,8,0:0:0:0:
272,176,170323,1,0,0:0:0:0:
272,176,170398,1,0,0:0:0:0:
272,176,170473,1,0,0:0:0:0:
272,176,170623,1,8,0:0:0:0:
272,176,170773,1,8,0:0:0:0:
272,176,170923,1,0,0:0:0:0:
272,176,170998,1,8,0:0:0:0:
272,176,171073,1,0,0:0:0:0:
272,176,171223,1,0,0:0:0:0:
272,176,171373,1,8,0:0:0:0:
272,176,171523,1,8,0:0:0:0:
272,176,171598,1,8,0:0:0:0:
272,176,171673,1,0,0:0:0:0:
272,176,171748,1,0,0:0:0:0:
272,176,171823,1,8,0:0:0:0:
272,176,171973,1,8,0:0:0:0:
272,176,172123,1,0,0:0:0:0:
272,176,172273,1,0,0:0:0:0:
272,176,172348,1,0,0:0:0:0:
272,176,172423,1,8,0:0:0:0:
272,176,172498,1,8,0:0:0:0:
272,176,172573,1,0,0:0:0:0:
272,176,172648,1,0,0:0:0:0:
272,176,172723,1,8,0:0:0:0:
272,176,172798,1,0,0:0:0:0:
272,176,172873,1,8,0:0:0:0:
272,176,173173,1,8,0:0:0:0:
272,176,173473,1,8,0:0:0:0:
272,176,173773,1,8,0:0:0:0:
272,184,173848,1,8,0:0:0:0:
272,176,173923,1,0,0:0:0:0:
272,176,173998,1,0,0:0:0:0:
272,176,174073,1,8,0:0:0:0:
268,172,174148,1,0,0:0:0:0:
268,172,174223,1,8,0:0:0:0:
284,184,174298,1,8,0:0:0:0:
284,184,174373,1,0,0:0:0:0:
284,184,174448,1,0,0:0:0:0:
272,172,174523,1,8,0:0:0:0:
288,188,174598,1,8,0:0:0:0:
280,188,174673,1,8,0:0:0:0:
280,188,174748,1,8,0:0:0:0:
284,184,174823,1,0,0:0:0:0:
284,184,174898,1,0,0:0:0:0:
284,184,174973,1,8,0:0:0:0:
284,184,175048,1,0,0:0:0:0:
272,176,175123,1,8,0:0:0:0:
272,176,175198,1,8,0:0:0:0:
280,176,175273,1,0,0:0:0:0:
288,188,175573,1,0,0:0:0:0:
272,184,175723,1,8,0:0:0:0:
272,184,175798,1,8,0:0:0:0:
296,196,175873,1,0,0:0:0:0:
320,196,175948,1,0,0:0:0:0:
272,184,176023,1,8,0:0:0:0:
296,196,176098,1,0,0:0:0:0:
284,196,176173,1,8,0:0:0:0:
296,196,176248,1,0,0:0:0:0:
296,196,176323,1,0,0:0:0:0:
296,196,176398,1,0,0:0:0:0:
300,204,176473,1,8,0:0:0:0:
296,200,176673,1,8,0:0:0:0:
288,204,176873,1,0,0:0:0:0:
292,192,176973,1,8,0:0:0:0:
308,196,177073,1,0,0:0:0:0:
276,204,177273,1,8,0:0:0:0:
276,204,177323,1,8,0:0:0:0:
276,204,177373,1,8,0:0:0:0:
276,204,177473,1,0,0:0:0:0:
276,204,178873,1,8,0:0:0:0:
276,204,179023,1,0,0:0:0:0:
272,200,179173,1,8,0:0:0:0:
272,200,179323,1,8,0:0:0:0:
276,204,179473,1,0,0:0:0:0:
276,204,179773,1,8,0:0:0:0:
276,204,180073,1,0,0:0:0:0:
276,204,180673,1,0,0:0:0:0:
276,204,180973,1,8,0:0:0:0:
276,204,181273,1,0,0:0:0:0:
276,204,181423,1,0,0:0:0:0:
276,204,181573,1,8,0:0:0:0:
276,204,181723,1,8,0:0:0:0:
276,204,181873,1,0,0:0:0:0:
276,204,182173,1,8,0:0:0:0:
276,204,182473,1,0,0:0:0:0:
276,204,182923,1,8,0:0:0:0:
304,188,183073,1,0,0:0:0:0:
304,188,183223,1,0,0:0:0:0:
304,188,183373,1,0,0:0:0:0:
324,188,183523,1,8,0:0:0:0:
420,168,183673,1,0,0:0:0:0:
404,200,183823,1,0,0:0:0:0:
416,184,183973,1,8,0:0:0:0:
420,168,184123,1,0,0:0:0:0:
404,200,184273,1,8,0:0:0:0:
416,184,184423,1,8,0:0:0:0:
220,148,184573,1,0,0:0:0:0:
336,180,184723,1,8,0:0:0:0:
252,156,184873,1,0,0:0:0:0:
344,156,185173,1,8,0:0:0:0:
344,156,185323,1,8,0:0:0:0:
328,176,185473,1,0,0:0:0:0:
328,176,185623,1,0,0:0:0:0:
312,168,185773,1,0,0:0:0:0:
328,176,185923,1,8,0:0:0:0:
336,156,186073,1,8,0:0:0:0:
312,168,186373,1,8,0:0:0:0:
312,168,186673,1,8,0:0:0:0:
312,168,186973,1,8,0:0:0:0:
312,168,187273,1,8,0:0:0:0:
220,168,187873,1,0,0:0:0:0:
416,168,188173,1,8,0:0:0:0:
240,176,188473,1,0,0:0:0:0:
320,168,189073,1,8,0:0:0:0:
256,192,189673,1,4,0:0:0:0:
288,176,189823,1,0,0:0:0:0:
340,172,189973,1,8,0:0:0:0:
340,168,190123,1,8,0:0:0:0:
344,180,190198,1,0,0:0:0:0:
340,168,190273,1,8,0:0:0:0:
336,180,190423,1,0,0:0:0:0:
372,176,190573,1,8,0:0:0:0:
360,176,190723,1,8,0:0:0:0:
356,176,190798,1,8,0:0:0:0:
328,176,190873,1,0,0:0:0:0:
328,176,190948,1,0,0:0:0:0:
328,176,191023,1,0,0:0:0:0:
340,172,191173,1,8,0:0:0:0:
340,172,191323,1,8,0:0:0:0:
340,172,191398,1,8,0:0:0:0:
340,172,191473,1,8,0:0:0:0:
332,176,191623,1,0,0:0:0:0:
336,172,191773,1,8,0:0:0:0:
332,176,191923,1,0,0:0:0:0:
332,176,191998,1,0,0:0:0:0:
332,176,192073,1,0,0:0:0:0:
320,168,192223,1,8,0:0:0:0:
320,168,192373,1,8,0:0:0:0:
332,172,192523,1,8,0:0:0:0:
332,172,192598,1,8,0:0:0:0:
332,168,192673,1,0,0:0:0:0:
332,172,192748,1,8,0:0:0:0:
336,168,192823,1,0,0:0:0:0:
332,168,192898,1,0,0:0:0:0:
332,172,192973,1,8,0:0:0:0:
328,172,193048,1,8,0:0:0:0:
332,176,193123,1,8,0:0:0:0:
332,176,193198,1,8,0:0:0:0:
320,168,193273,1,0,0:0:0:0:
336,168,193423,1,0,0:0:0:0:
304,168,193573,1,8,0:0:0:0:
340,168,193723,1,0,0:0:0:0:
304,168,193798,1,8,0:0:0:0:
340,168,193873,1,0,0:0:0:0:
320,172,194023,1,8,0:0:0:0:
316,172,194173,1,8,0:0:0:0:
316,172,194323,1,8,0:0:0:0:
316,172,194398,1,8,0:0:0:0:
324,168,194473,1,0,0:0:0:0:
324,168,194548,1,0,0:0:0:0:
316,168,194623,1,8,0:0:0:0:
324,164,194773,1,8,0:0:0:0:
328,184,194923,1,0,0:0:0:0:
328,184,194998,1,0,0:0:0:0:
328,168,195073,1,8,0:0:0:0:
312,156,195223,1,0,0:0:0:0:
328,168,195373,1,8,0:0:0:0:
320,172,195523,1,8,0:0:0:0:
320,172,195598,1,8,0:0:0:0:
328,168,195673,1,0,0:0:0:0:
328,168,195748,1,0,0:0:0:0:
328,168,195823,1,0,0:0:0:0:
328,168,195898,1,0,0:0:0:0:
288,172,195973,1,8,0:0:0:0:
292,168,196123,1,8,0:0:0:0:
312,176,196273,1,0,0:0:0:0:
312,176,196348,1,0,0:0:0:0:
312,176,196423,1,0,0:0:0:0:
312,176,196498,1,0,0:0:0:0:
304,176,196573,1,8,0:0:0:0:
312,176,196723,1,8,0:0:0:0:
312,176,196798,1,0,0:0:0:0:
312,176,196873,1,8,0:0:0:0:
300,180,197023,1,8,0:0:0:0:
300,180,197098,1,8,0:0:0:0:
340,176,197173,1,0,0:0:0:0:
320,184,197248,1,0,0:0:0:0:
304,176,197323,1,8,0:0:0:0:
380,176,197398,1,8,0:0:0:0:
340,180,197473,1,0,0:0:0:0:
340,176,197548,1,0,0:0:0:0:
340,188,197623,1,8,0:0:0:0:
380,176,197773,1,0,0:0:0:0:
380,176,197848,1,0,0:0:0:0:
340,188,197923,1,8,0:0:0:0:
368,184,197998,1,8,0:0:0:0:
380,176,198073,1,0,0:0:0:0:
352,168,198223,1,0,0:0:0:0:
396,164,198373,1,8,0:0:0:0:
396,164,198523,1,8,0:0:0:0:
396,164,198598,1,8,0:0:0:0:
356,168,198673,1,0,0:0:0:0:
356,168,198823,1,0,0:0:0:0:
348,176,198973,1,8,0:0:0:0:
360,180,199123,1,0,0:0:0:0:
348,176,199198,1,8,0:0:0:0:
360,180,199273,1,0,0:0:0:0:
348,176,199348,1,0,0:0:0:0:
360,180,199423,1,8,0:0:0:0:
352,176,199573,1,8,0:0:0:0:
336,176,199723,1,8,0:0:0:0:
336,176,199798,1,8,0:0:0:0:
360,168,199873,1,0,0:0:0:0:
360,172,200023,1,0,0:0:0:0:
344,164,200173,1,8,0:0:0:0:
352,192,200323,1,8,0:0:0:0:
352,192,200398,1,8,0:0:0:0:
360,192,200473,1,0,0:0:0:0:
360,192,200548,1,0,0:0:0:0:
352,192,200623,1,8,0:0:0:0:
360,192,200698,1,0,0:0:0:0:
352,192,200773,1,8,0:0:0:0:
348,196,200923,1,8,0:0:0:0:
336,188,201073,1,0,0:0:0:0:
336,188,201223,1,0,0:0:0:0:
336,188,201298,1,0,0:0:0:0:
336,188,201373,1,8,0:0:0:0:
348,192,201523,1,0,0:0:0:0:
336,200,201598,1,8,0:0:0:0:
352,192,201673,1,0,0:0:0:0:
352,192,201823,1,0,0:0:0:0:
336,200,201973,1,8,0:0:0:0:
336,200,202123,1,8,0:0:0:0:
336,200,202198,1,8,0:0:0:0:
348,196,202273,1,0,0:0:0:0:
348,196,202423,1,0,0:0:0:0:
336,200,202573,1,8,0:0:0:0:
336,200,202648,1,8,0:0:0:0:
336,200,202723,1,8,0:0:0:0:
336,200,202798,1,8,0:0:0:0:
336,196,202873,1,0,0:0:0:0:
336,200,203023,1,0,0:0:0:0:
336,200,203173,1,8,0:0:0:0:
344,200,203323,1,8,0:0:0:0:
344,200,203473,1,0,0:0:0:0:
344,200,203623,1,0,0:0:0:0:
344,200,203698,1,0,0:0:0:0:
336,200,203773,1,8,0:0:0:0:
348,196,203923,1,8,0:0:0:0:
348,192,204073,1,4,0:0:0:0:
344,196,204223,1,8,0:0:0:0:
344,196,204373,1,8,0:0:0:0:
344,196,204523,1,8,0:0:0:0:
344,196,204598,1,8,0:0:0:0:
328,196,204673,1,0,0:0:0:0:
332,196,204748,1,0,0:0:0:0:
344,200,204823,1,8,0:0:0:0:
344,200,204973,1,8,0:0:0:0:
344,200,205048,1,8,0:0:0:0:
344,200,205123,1,8,0:0:0:0:
408,304,205273,1,8,0:0:0:0:
252,224,205573,1,4,0:0:0:0:
328,192,205723,1,8,0:0:0:0:
328,192,205798,1,8,0:0:0:0:
404,192,205873,1,0,0:0:0:0:
384,192,206023,1,8,0:0:0:0:
336,204,206173,1,8,0:0:0:0:
292,200,206323,1,0,0:0:0:0:
292,200,206398,1,0,0:0:0:0:
292,200,206473,1,0,0:0:0:0:
292,200,206623,1,0,0:0:0:0:
292,200,206698,1,0,0:0:0:0:
444,188,206773,1,8,0:0:0:0:
444,188,206923,1,8,0:0:0:0:
368,172,207073,1,0,0:0:0:0:
368,172,207223,1,0,0:0:0:0:
368,172,207298,1,0,0:0:0:0:
416,168,207373,1,8,0:0:0:0:
296,128,207523,1,8,0:0:0:0:
444,144,207598,1,8,0:0:0:0:
444,144,207673,1,8,0:0:0:0:
368,160,207823,1,0,0:0:0:0:
368,172,207973,1,8,0:0:0:0:
368,172,208123,1,8,0:0:0:0:
396,168,208198,1,8,0:0:0:0:
464,168,208273,1,0,0:0:0:0:
368,172,208348,1,8,0:0:0:0:
464,168,208423,1,0,0:0:0:0:
464,168,208498,1,0,0:0:0:0:
368,172,208573,1,8,0:0:0:0:
396,164,208723,1,8,0:0:0:0:
376,168,208873,1,0,0:0:0:0:
376,168,209023,1,0,0:0:0:0:
376,168,209098,1,0,0:0:0:0:
396,168,209173,1,8,0:0:0:0:
360,164,209323,1,8,0:0:0:0:
344,156,209473,1,0,0:0:0:0:
344,156,209623,1,0,0:0:0:0:
344,156,209698,1,0,0:0:0:0:
356,168,209773,1,8,0:0:0:0:
352,168,209848,1,8,0:0:0:0:
352,168,209923,1,8,0:0:0:0:
356,168,209998,1,8,0:0:0:0:
412,168,210073,1,0,0:0:0:0:
412,164,210223,1,0,0:0:0:0:
424,164,210373,1,8,0:0:0:0:
404,168,210523,1,0,0:0:0:0:
392,164,210598,1,8,0:0:0:0:
404,168,210673,1,0,0:0:0:0:
384,160,210823,1,8,0:0:0:0:
384,160,210973,1,8,0:0:0:0:
384,152,211123,1,0,0:0:0:0:
384,152,211198,1,0,0:0:0:0:
384,152,211273,1,0,0:0:0:0:
392,168,211423,1,8,0:0:0:0:
392,168,211573,1,8,0:0:0:0:
392,168,211723,1,8,0:0:0:0:
392,168,211798,1,8,0:0:0:0:
392,168,211873,1,0,0:0:0:0:
392,168,211948,1,0,0:0:0:0:
392,164,212023,1,8,0:0:0:0:
392,164,212173,1,8,0:0:0:0:
408,168,212323,1,8,0:0:0:0:
376,164,212473,1,0,0:0:0:0:
368,168,212548,1,0,0:0:0:0:
376,164,212623,1,0,0:0:0:0:
372,168,212698,1,0,0:0:0:0:
340,172,212773,1,8,0:0:0:0:
352,172,212923,1,8,0:0:0:0:
376,164,213073,1,0,0:0:0:0:
368,168,213148,1,0,0:0:0:0:
376,164,213223,1,0,0:0:0:0:
372,168,213298,1,0,0:0:0:0:
340,172,213373,1,8,0:0:0:0:
368,176,213448,1,8,0:0:0:0:
384,164,213523,1,0,0:0:0:0:
384,168,213598,1,0,0:0:0:0:
368,172,213673,1,8,0:0:0:0:
392,188,213823,1,8,0:0:0:0:
388,188,213898,1,8,0:0:0:0:
356,172,213973,1,0,0:0:0:0:
364,176,214123,1,8,0:0:0:0:
364,176,214273,1,8,0:0:0:0:
364,176,214348,1,8,0:0:0:0:
364,176,214423,1,8,0:0:0:0:
384,196,214498,1,8,0:0:0:0:
388,176,214573,1,0,0:0:0:0:
352,176,214648,1,0,0:0:0:0:
400,168,214723,1,8,0:0:0:0:
400,168,214798,1,8,0:0:0:0:
368,176,214873,1,0,0:0:0:0:
384,188,215023,1,0,0:0:0:0:
404,168,215173,1,8,0:0:0:0:
404,168,215323,1,8,0:0:0:0:
404,168,215398,1,8,0:0:0:0:
356,172,215473,1,0,0:0:0:0:
364,176,215623,1,0,0:0:0:0:
364,176,215773,1,8,0:0:0:0:
364,168,215923,1,8,0:0:0:0:
364,168,215998,1,8,0:0:0:0:
400,184,216073,1,8,0:0:0:0:
372,180,216223,1,0,0:0:0:0:
344,168,216373,1,8,0:0:0:0:
396,176,216523,1,0,0:0:0:0:
400,184,216598,1,8,0:0:0:0:
396,176,216673,1,0,0:0:0:0:
400,184,216748,1,8,0:0:0:0:
336,176,216823,1,0,0:0:0:0:
336,168,216973,1,8,0:0:0:0:
340,168,217123,1,8,0:0:0:0:
356,184,217273,1,0,0:0:0:0:
356,184,217423,1,0,0:0:0:0:
356,184,217498,1,0,0:0:0:0:
376,188,217573,1,8,0:0:0:0:
360,176,217723,1,8,0:0:0:0:
360,176,217798,1,8,0:0:0:0:
424,176,217873,1,0,0:0:0:0:
424,176,218023,1,0,0:0:0:0:
344,176,218173,1,8,0:0:0:0:
404,184,218323,1,0,0:0:0:0:
404,184,218398,1,0,0:0:0:0:
404,184,218473,1,0,0:0:0:0:
408,200,218623,1,8,0:0:0:0:
408,200,218773,1,8,0:0:0:0:
404,196,218923,1,8,0:0:0:0:
384,188,218998,1,8,0:0:0:0:
384,168,219073,1,0,0:0:0:0:
384,172,219148,1,0,0:0:0:0:
376,188,219223,1,8,0:0:0:0:
400,204,219373,1,8,0:0:0:0:
400,204,219448,1,8,0:0:0:0:
400,204,219523,1,8,0:0:0:0:
400,204,219598,1,8,0:0:0:0:
420,192,219673,1,0,0:0:0:0:
228,144,219823,1,0,0:0:0:0:
256,168,219973,1,8,0:0:0:0:
256,168,220123,1,8,0:0:0:0:
256,168,220198,1,8,0:0:0:0:
360,164,220273,1,0,0:0:0:0:
360,164,220423,1,0,0:0:0:0:
280,160,220573,1,8,0:0:0:0:
276,160,220723,1,8,0:0:0:0:
276,160,220873,1,4,0:0:0:0:
224,160,221023,1,0,0:0:0:0:
224,160,221098,1,0,0:0:0:0:
320,152,221173,1,8,0:0:0:0:
320,152,221323,1,8,0:0:0:0:
336,168,221398,1,8,0:0:0:0:
256,168,221473,1,0,0:0:0:0:
320,152,221623,1,0,0:0:0:0:
336,168,221773,1,8,0:0:0:0:
336,168,221923,1,8,0:0:0:0:
300,164,222073,1,4,0:0:0:0:
308,160,222223,1,0,0:0:0:0:
288,168,222373,1,8,0:0:0:0:
288,168,222523,1,8,0:0:0:0:
284,168,222598,1,8,0:0:0:0:
288,168,222673,1,0,0:0:0:0:
376,164,222748,1,0,0:0:0:0:
376,164,222823,1,8,0:0:0:0:
376,164,222898,1,0,0:0:0:0:
360,172,222973,1,8,0:0:0:0:
360,172,223048,1,8,0:0:0:0:
376,164,223123,1,0,0:0:0:0:
376,164,223198,1,0,0:0:0:0:
360,172,223273,1,8,0:0:0:0:
360,172,223348,1,8,0:0:0:0:
352,168,223423,1,8,0:0:0:0:
352,168,223498,1,8,0:0:0:0:
352,168,223573,1,0,0:0:0:0:
384,172,223648,1,0,0:0:0:0:
316,168,223723,1,8,0:0:0:0:
316,168,223798,1,8,0:0:0:0:
304,152,223873,1,0,0:0:0:0:
300,172,223948,1,0,0:0:0:0:
284,164,224023,1,8,0:0:0:0:
336,188,224473,1,4,0:0:0:0:
344,160,224623,1,0,0:0:0:0:
344,160,224698,1,0,0:0:0:0:
308,168,224773,1,8,0:0:0:0:
308,168,224923,1,8,0:0:0:0:
308,168,224998,1,8,0:0:0:0:
364,180,225073,1,0,0:0:0:0:
316,168,225223,1,8,0:0:0:0:
316,168,225373,1,8,0:0:0:0:
336,188,225523,1,0,0:0:0:0:
336,188,225598,1,0,0:0:0:0:
336,188,225673,1,0,0:0:0:0:
308,176,225823,1,8,0:0:0:0:
308,176,225973,1,8,0:0:0:0:
344,180,226123,1,0,0:0:0:0:
332,176,226273,1,8,0:0:0:0:
332,176,226423,1,8,0:0:0:0:
332,176,226498,1,8,0:0:0:0:
332,176,226573,1,8,0:0:0:0:
332,176,226723,1,8,0:0:0:0:
348,188,226873,1,0,0:0:0:0:
348,188,226948,1,0,0:0:0:0:
356,176,227023,1,8,0:0:0:0:
352,176,227173,1,8,0:0:0:0:
352,176,227323,1,8,0:0:0:0:
344,180,227398,1,8,0:0:0:0:
344,180,227473,1,0,0:0:0:0:
360,184,227623,1,0,0:0:0:0:
332,176,227773,1,8,0:0:0:0:
328,168,227923,1,0,0:0:0:0:
332,176,227998,1,8,0:0:0:0:
328,168,228073,1,0,0:0:0:0:
332,176,228148,1,8,0:0:0:0:
328,168,228223,1,0,0:0:0:0:
336,184,228373,1,8,0:0:0:0:
320,176,228523,1,0,0:0:0:0:
320,176,228598,1,8,0:0:0:0:
320,176,228673,1,0,0:0:0:0:
312,176,228823,1,8,0:0:0:0:
312,176,228973,1,8,0:0:0:0:
312,176,229048,1,8,0:0:0:0:
312,176,229123,1,8,0:0:0:0:
312,176,229198,1,8,0:0:0:0:
332,168,229273,1,0,0:0:0:0:
344,180,229423,1,0,0:0:0:0:
352,176,229573,1,8,0:0:0:0:
352,176,229723,1,8,0:0:0:0:
352,176,229798,1,8,0:0:0:0:
336,172,229873,1,0,0:0:0:0:
328,172,229948,1,0,0:0:0:0:
308,168,230023,1,8,0:0:0:0:
308,168,230173,1,8,0:0:0:0:
316,168,230323,1,0,0:0:0:0:
312,164,230473,1,0,0:0:0:0:
316,164,230623,1,0,0:0:0:0:
320,164,230698,1,0,0:0:0:0:
288,168,230773,1,8,0:0:0:0:
288,168,230923,1,8,0:0:0:0:
288,168,230998,1,8,0:0:0:0:
300,176,231073,1,0,0:0:0:0:
300,176,231223,1,0,0:0:0:0:
296,176,231373,1,8,0:0:0:0:
304,168,231523,1,0,0:0:0:0:
328,168,231673,1,8,0:0:0:0:
308,168,231748,1,0,0:0:0:0:
328,168,231823,1,8,0:0:0:0:
328,168,231898,1,0,0:0:0:0:
328,168,231973,1,8,0:0:0:0:
292,168,232123,1,0,0:0:0:0:
280,164,232273,1,8,0:0:0:0:
276,168,232423,1,0,0:0:0:0:
276,168,232498,1,0,0:0:0:0:
280,164,232573,1,8,0:0:0:0:
280,168,232723,1,8,0:0:0:0:
280,168,232798,1,8,0:0:0:0:
280,168,232873,1,0,0:0:0:0:
288,176,233023,1,0,0:0:0:0:
316,152,233173,1,8,0:0:0:0:
316,152,233323,1,8,0:0:0:0:
332,172,233398,1,8,0:0:0:0:
332,172,233473,1,0,0:0:0:0:
332,176,233548,1,0,0:0:0:0:
316,152,233623,1,8,0:0:0:0:
284,180,233773,1,0,0:0:0:0:
296,176,233923,1,8,0:0:0:0:
296,176,233998,1,8,0:0:0:0:
276,176,234073,1,0,0:0:0:0:
284,180,234148,1,8,0:0:0:0:
284,180,234223,1,0,0:0:0:0:
284,180,234298,1,0,0:0:0:0:
280,180,234373,1,8,0:0:0:0:
280,180,234448,1,0,0:0:0:0:
280,180,234523,1,0,0:0:0:0:
284,180,234598,1,8,0:0:0:0:
284,180,234673,1,8,0:0:0:0:
284,180,234748,1,0,0:0:0:0:
284,180,234823,1,8,0:0:0:0:
284,180,234898,1,0,0:0:0:0:
284,180,234973,1,8,0:0:0:0:
284,180,235048,1,0,0:0:0:0:
284,180,235123,1,8,0:0:0:0:
300,172,235198,1,0,0:0:0:0:
308,180,235273,1,8,0:0:0:0:
