osu file format v14

[General]
AudioFilename: audio.mp3
AudioLeadIn: 0
PreviewTime: 187010
Countdown: 0
SampleSet: Soft
StackLeniency: 0.7
Mode: 0
LetterboxInBreaks: 0
WidescreenStoryboard: 0

[Editor]
DistanceSpacing: 0.9
BeatDivisor: 4
GridSize: 16
TimelineZoom: 2.6

[Metadata]
Title:Kakushigoto
TitleUnicode:かくしごと
Artist:yuikonnu
ArtistUnicode:ゆいこんぬ
Creator:Hikaru Rose
Version:Secret
Source:
Tags:
BeatmapID:1269218
BeatmapSetID:600670

[Difficulty]
HPDrainRate:5
CircleSize:4
OverallDifficulty:9
ApproachRate:9.6
SliderMultiplier:1.7
SliderTickRate:1

[Events]
//Background and Video events
0,0,"BG.png",0,0
//Break Periods
2,178160,185960
//Storyboard Layer 0 (Background)
//Storyboard Layer 1 (Fail)
//Storyboard Layer 2 (Pass)
//Storyboard Layer 3 (Foreground)
//Storyboard Sound Samples

[TimingPoints]
560,300,4,2,1,70,1,0
560,-83.3333333333333,4,2,1,70,0,0
1760,-66.6666666666667,4,2,1,70,0,1
1835,-66.6666666666667,4,2,1,70,0,0
2960,-83.3333333333333,4,2,1,70,0,0
3560,-55.5555555555556,4,2,1,70,0,0
4160,-66.6666666666667,4,2,1,70,0,0
4760,-83.3333333333333,4,2,1,70,0,0
5360,-55.5555555555556,4,2,1,70,0,0
6560,-66.6666666666667,4,2,1,70,0,0
7760,-83.3333333333333,4,2,1,70,0,0
8360,-55.5555555555556,4,2,1,70,0,0
11360,-133.333333333333,4,2,1,30,0,0
11660,-133.333333333333,4,2,1,20,0,0
11960,-133.333333333333,4,2,1,10,0,0
12260,-133.333333333333,4,2,1,5,0,0
12560,-100,4,2,1,50,0,0
22160,-83.3333333333333,4,2,1,70,0,0
25760,-66.6666666666667,4,2,1,70,0,0
31760,-100,4,2,1,70,0,0
31985,-100,4,2,1,5,0,0
32060,-100,4,2,1,70,0,0
36785,-100,4,2,1,5,0,0
36860,-100,4,2,1,70,0,0
40310,-100,4,2,1,30,0,0
40460,-100,4,2,1,50,0,0
40610,-100,4,2,1,70,0,0
41360,-83.3333333333333,4,2,1,70,0,0
46160,-83.3333333333333,4,2,1,40,0,0
46760,-83.3333333333333,4,2,1,50,0,0
47360,-83.3333333333333,4,2,1,60,0,0
47960,-83.3333333333333,4,2,1,70,0,0
50960,-55.5555555555556,4,2,1,70,0,1
53360,-45.4545454545455,4,2,1,70,0,1
53960,-50,4,2,1,70,0,1
54560,-55.5555555555556,4,2,1,70,0,1
58160,-55.5555555555556,4,2,1,70,0,0
58460,-55.5555555555556,4,2,1,70,0,1
58760,-55.5555555555556,4,2,1,70,0,0
59060,-55.5555555555556,4,2,1,70,0,1
59210,-55.5555555555556,4,2,1,70,0,0
59360,-55.5555555555556,4,2,1,70,0,1
59435,-55.5555555555556,4,2,1,70,0,0
59660,-55.5555555555556,4,2,1,70,0,1
59735,-55.5555555555556,4,2,1,70,0,0
59960,-55.5555555555556,4,2,1,70,0,1
60035,-55.5555555555556,4,2,1,70,0,0
60560,-55.5555555555556,4,2,1,70,0,1
62960,-50,4,2,1,70,0,1
63260,-47.6190476190476,4,2,1,70,0,1
63560,-45.4545454545455,4,2,1,70,0,1
63860,-47.6190476190476,4,2,1,70,0,1
64160,-50,4,2,1,70,0,1
67760,-50,4,2,1,70,0,0
69860,-55.5555555555556,4,2,1,70,0,0
70160,-62.5,4,2,1,70,0,1
70235,-62.5,4,2,1,70,0,0
71360,-76.9230769230769,4,2,1,70,0,0
71960,-55.5555555555556,4,2,1,70,0,0
72560,-62.5,4,2,1,70,0,0
73760,-76.9230769230769,4,2,1,70,0,0
74360,-55.5555555555556,4,2,1,70,0,0
75185,-62.5,4,2,1,70,0,0
76160,-76.9230769230769,4,2,1,70,0,0
76760,-55.5555555555556,4,2,1,70,0,0
79760,-133.333333333333,4,2,1,30,0,0
80060,-133.333333333333,4,2,1,20,0,0
80360,-133.333333333333,4,2,1,10,0,0
80660,-133.333333333333,4,2,1,5,0,0
80960,-100,4,2,1,50,0,0
90560,-76.9230769230769,4,2,1,70,0,0
94160,-66.6666666666667,4,2,1,70,0,0
100160,-100,4,2,1,70,0,0
100385,-100,4,2,1,5,0,0
100460,-100,4,2,1,70,0,0
105185,-100,4,2,1,5,0,0
105260,-100,4,2,1,70,0,0
108560,-100,4,2,1,40,0,0
108710,-100,4,2,1,50,0,0
108860,-100,4,2,1,60,0,0
109160,-100,4,2,1,70,0,0
109760,-83.3333333333333,4,2,1,70,0,0
114560,-83.3333333333333,4,2,1,40,0,0
115160,-83.3333333333333,4,2,1,50,0,0
115760,-83.3333333333333,4,2,1,60,0,0
116360,-83.3333333333333,4,2,1,70,0,0
118835,-83.3333333333333,4,2,1,10,0,0
119060,-83.3333333333333,4,2,1,20,0,0
119360,-55.5555555555556,4,2,1,70,0,1
121760,-43.4782608695652,4,2,1,70,0,1
122360,-47.6190476190476,4,2,1,70,0,1
122960,-55.5555555555556,4,2,1,70,0,1
126560,-55.5555555555556,4,2,1,70,0,0
126860,-55.5555555555556,4,2,1,70,0,1
126935,-55.5555555555556,4,2,1,70,0,0
127460,-55.5555555555556,4,2,1,70,0,1
127535,-55.5555555555556,4,2,1,70,0,0
127760,-55.5555555555556,4,2,1,70,0,1
127835,-55.5555555555556,4,2,1,70,0,0
128060,-55.5555555555556,4,2,1,70,0,1
128135,-55.5555555555556,4,2,1,70,0,0
128360,-55.5555555555556,4,2,1,70,0,1
128435,-55.5555555555556,4,2,1,70,0,0
128960,-55.5555555555556,4,2,1,70,0,1
131360,-47.6190476190476,4,2,1,70,0,1
131660,-45.4545454545455,4,2,1,70,0,1
131960,-43.4782608695652,4,2,1,70,0,1
132260,-45.4545454545455,4,2,1,70,0,1
132560,-50,4,2,1,70,0,1
136160,-50,4,2,1,70,0,0
138260,-55.5555555555556,4,2,1,70,0,0
138560,-58.8235294117647,4,2,1,70,0,1
138635,-58.8235294117647,4,2,1,70,0,0
139760,-71.4285714285714,4,2,1,70,0,0
140360,-52.6315789473684,4,2,1,70,0,0
140960,-58.8235294117647,4,2,1,70,0,0
145760,-58.8235294117647,4,2,1,30,0,0
146360,-58.8235294117647,4,2,1,40,0,0
146960,-58.8235294117647,4,2,1,50,0,0
147560,-58.8235294117647,4,2,1,60,0,0
148160,-58.8235294117647,4,2,1,70,0,1
155360,-100,4,2,1,40,0,0
155660,-83.3333333333333,4,2,1,40,0,0
155960,-58.8235294117647,4,2,1,70,0,1
157460,-58.8235294117647,4,2,1,70,0,0
157760,-90.9090909090909,4,2,1,60,0,1
157835,-90.9090909090909,4,2,1,60,0,0
157985,-90.9090909090909,4,2,1,5,0,0
158060,-90.9090909090909,4,2,1,60,0,0
162785,-90.9090909090909,4,2,1,5,0,0
162860,-90.9090909090909,4,2,1,60,0,0
166460,-76.9230769230769,4,2,1,60,0,0
166610,-66.6666666666667,4,2,1,60,0,0
167360,-71.4285714285714,4,2,1,60,0,0
172160,-71.4285714285714,4,2,1,30,0,0
172760,-71.4285714285714,4,2,1,40,0,0
173360,-71.4285714285714,4,2,1,50,0,0
173960,-71.4285714285714,4,2,1,60,0,0
174560,-71.4285714285714,4,2,1,70,0,0
175760,-71.4285714285714,4,2,1,70,0,1
176610,-71.4285714285714,4,2,1,30,0,0
176760,-71.4285714285714,4,2,1,70,0,1
176810,-71.4285714285714,4,2,1,70,0,0
187160,-200,4,2,1,40,0,0
188285,-200,4,2,1,5,0,0
188360,-200,4,2,1,40,0,0
188435,-200,4,2,1,5,0,0
188960,-50,4,2,1,70,0,1
190160,-40,4,2,1,70,0,1
190760,-43.4782608695652,4,2,1,70,0,1
191360,-50,4,2,1,70,0,1
194960,-50,4,2,1,70,0,0
195260,-50,4,2,1,70,0,1
195335,-50,4,2,1,70,0,0
195860,-50,4,2,1,70,0,1
195935,-50,4,2,1,70,0,0
196160,-50,4,2,1,70,0,1
196235,-50,4,2,1,70,0,0
196460,-50,4,2,1,70,0,1
196535,-50,4,2,1,70,0,0
196760,-50,4,2,1,70,0,1
196835,-50,4,2,1,70,0,0
197360,-50,4,2,1,70,0,1
199760,-45.4545454545455,4,2,1,70,0,1
200060,-41.6666666666667,4,2,1,70,0,1
200360,-40,4,2,1,70,0,1
200660,-41.6666666666667,4,2,1,70,0,1
200960,-50,4,2,1,70,0,1
203360,-50,4,2,1,40,0,1
203960,-50,4,2,1,70,0,1
204560,-50,4,2,1,70,0,0
204860,-50,4,2,1,70,0,1
206960,-40,4,2,1,70,0,1
207560,-43.4782608695652,4,2,1,70,0,1
208160,-50,4,2,1,70,0,1
211760,-50,4,2,1,70,0,0
212060,-50,4,2,1,70,0,1
212135,-50,4,2,1,70,0,0
212660,-50,4,2,1,70,0,1
212735,-50,4,2,1,70,0,0
212960,-50,4,2,1,70,0,1
213035,-50,4,2,1,70,0,0
213260,-50,4,2,1,70,0,1
213335,-50,4,2,1,70,0,0
213560,-50,4,2,1,70,0,1
213635,-50,4,2,1,70,0,0
214160,-50,4,2,1,70,0,1
216560,-45.4545454545455,4,2,1,70,0,1
216860,-41.6666666666667,4,2,1,70,0,1
217160,-38.4615384615385,4,2,1,70,0,1
217460,-41.6666666666667,4,2,1,70,0,1
217760,-50,4,2,1,70,0,1
223160,-50,4,2,1,70,0,0
223760,-50,4,2,1,70,0,1
223835,-50,4,2,1,70,0,0

[Colours]
Combo1 : 247,23,140
Combo2 : 138,114,163
Combo3 : 163,109,148
Combo4 : 121,64,179
Combo5 : 200,66,139
Combo6 : 185,32,236

[HitObjects]
51,207,560,6,0,P|104:185|176:176,1,101.999996887207,2|0,0:0|0:0,0:0:0:0:
423,309,860,2,0,P|349:287|314:265,1,101.999996887207,2|0,0:0|0:0,0:0:0:0:
331,287,1085,1,0,1:0:0:0:
286,261,1160,5,0,1:0:0:0:
264,214,1235,1,0,0:0:0:0:
262,163,1310,1,0,0:0:0:0:
292,122,1385,1,0,0:0:0:0:
353,74,1460,1,0,1:0:0:0:
297,84,1535,1,0,1:0:0:0:
241,93,1610,1,0,1:0:0:0:
185,102,1685,1,0,1:0:0:0:
116,59,1760,6,0,P|135:83|139:196,1,127.500004863739,4|2,0:0|0:0,0:0:0:0:
77,250,1985,1,0,0:0:0:0:
50,267,2060,2,0,L|127:278,1,63.7500024318696,8|0,0:0|0:0,0:0:0:0:
306,323,2210,1,2,0:0:0:0:
296,292,2285,1,0,0:0:0:0:
286,261,2360,1,2,3:2:0:0:
160,363,2510,2,0,L|240:344,1,63.7500024318696,2|0,0:0|0:0,0:0:0:0:
443,362,2660,2,0,L|377:311,1,63.7500024318696,8|0,0:0|0:0,0:0:0:0:
301,118,2810,2,0,L|277:196,1,63.7500024318696,2|0,0:0|0:0,0:0:0:0:
286,261,2960,5,0,3:0:0:0:
286,261,3035,1,0,0:0:0:0:
286,261,3110,2,0,P|333:250|380:244,1,50.9999984436036,2|0,0:0|0:0,0:0:0:0:
432,131,3260,1,8,0:0:0:0:
432,131,3335,1,0,0:0:0:0:
432,131,3410,2,0,P|479:136|526:147,1,50.9999984436036,2|0,0:0|0:0,0:0:0:0:
179,186,3560,69,2,3:2:0:0:
158,193,3635,1,0,0:0:0:0:
137,199,3710,2,0,P|167:204|225:222,1,76.4999976654054,2|0,0:0|0:0,0:0:0:0:
341,27,3860,1,8,0:0:0:0:
359,41,3935,1,0,0:0:0:0:
378,54,4010,2,0,P|415:41|452:32,1,76.4999976654054,2|0,0:0|0:0,0:0:0:0:
148,18,4160,6,0,P|208:70|205:129,1,127.500004863739,0|2,3:0|0:0,0:0:0:0:
137,199,4385,1,0,0:0:0:0:
114,221,4460,2,0,P|127:257|128:305,1,63.7500024318696,8|0,0:0|0:0,0:0:0:0:
110,366,4610,1,2,0:0:0:0:
110,366,4685,1,0,0:0:0:0:
110,366,4760,2,0,P|141:357|180:355,1,50.9999984436036,0|0,3:0|0:0,0:0:0:0:
211,216,4910,2,0,P|243:218|280:229,1,50.9999984436036,2|0,0:0|0:0,0:0:0:0:
9,334,5060,2,0,P|35:314|71:299,1,50.9999984436036,8|0,0:0|0:0,0:0:0:0:
266,305,5210,2,0,P|295:318|326:341,1,50.9999984436036,2|0,0:0|0:0,0:0:0:0:
46,166,5360,69,0,3:0:0:0:
38,183,5435,1,0,0:0:0:0:
30,200,5510,2,0,P|25:155|1:95,1,76.4999976654053,2|0,0:0|0:0,0:0:0:0:
194,79,5660,1,10,0:0:0:0:
202,96,5735,1,0,0:0:0:0:
210,113,5810,2,0,P|215:68|239:8,1,76.4999976654053,2|0,0:0|0:0,0:0:0:0:
349,256,5960,6,0,P|354:217|338:165,1,76.4999976654053,2|0,3:2|0:0,0:0:0:0:
409,5,6110,2,0,P|404:44|413:97,1,76.4999976654053,2|0,0:0|0:0,0:0:0:0:
442,279,6260,1,8,0:0:0:0:
398,339,6335,1,8,0:0:0:0:
324,349,6410,1,8,0:0:0:0:
265,304,6485,1,8,0:0:0:0:
261,227,6560,70,0,L|297:78,1,127.500004863739,4|0,3:2|0:0,0:0:0:0:
408,80,6785,1,0,0:0:0:0:
435,97,6860,2,0,P|402:109|354:95,1,63.7500024318696,8|0,0:0|0:0,0:0:0:0:
162,55,7010,1,2,0:0:0:0:
193,47,7085,1,0,0:0:0:0:
224,38,7160,1,0,3:0:0:0:
404,203,7310,2,0,P|371:186|322:181,1,63.7500024318696,2|0,0:0|0:0,0:0:0:0:
225,155,7460,2,0,P|190:169|141:169,1,63.7500024318696,8|0,0:0|0:0,0:0:0:0:
63,224,7610,2,0,P|27:212|-21:216,1,63.7500024318696,2|0,0:0|0:0,0:0:0:0:
192,346,7760,5,0,3:0:0:0:
192,346,7835,1,0,0:0:0:0:
192,346,7910,2,0,P|149:357|121:369,1,50.9999984436036,2|0,0:0|0:0,0:0:0:0:
321,265,8060,1,8,0:0:0:0:
321,265,8135,1,0,0:0:0:0:
321,265,8210,2,0,P|287:253|261:238,1,50.9999984436036,2|0,0:0|0:0,0:0:0:0:
28,327,8360,69,0,3:0:0:0:
15,305,8435,1,0,0:0:0:0:
1,283,8510,2,0,P|36:299|72:313,1,76.4999976654053,2|0,0:0|0:0,0:0:0:0:
249,120,8660,1,8,0:0:0:0:
272,122,8735,1,0,0:0:0:0:
295,125,8810,2,0,P|260:138|216:159,1,76.4999976654053,2|0,0:0|0:0,0:0:0:0:
7,121,8960,5,4,3:2:0:0:
27,130,9035,1,0,0:0:0:0:
49,133,9110,1,0,0:0:0:0:
71,128,9185,1,0,0:0:0:0:
136,89,9260,1,8,0:0:0:0:
153,74,9335,1,0,0:0:0:0:
174,66,9410,1,0,0:0:0:0:
196,64,9485,1,0,0:0:0:0:
231,32,9560,69,0,3:0:0:0:
251,42,9635,1,0,0:0:0:0:
273,46,9710,1,2,0:0:0:0:
295,44,9785,1,0,0:0:0:0:
368,87,9860,1,8,0:0:0:0:
378,105,9935,1,0,0:0:0:0:
382,127,10010,1,2,0:0:0:0:
375,148,10085,1,0,0:0:0:0:
413,229,10160,5,4,3:2:0:0:
360,198,10235,1,0,0:0:0:0:
298,200,10310,1,2,0:0:0:0:
247,235,10385,1,0,0:0:0:0:
190,257,10460,1,8,0:0:0:0:
130,242,10535,1,0,0:0:0:0:
99,188,10610,1,2,0:0:0:0:
115,128,10685,1,0,0:0:0:0:
164,91,10760,6,0,P|174:122|174:180,1,76.4999976654053,0|0,3:0|0:0,0:0:0:0:
297,356,10910,2,0,P|315:329|332:273,1,76.4999976654053,8|0,0:0|0:0,0:0:0:0:
247,29,11060,6,0,P|290:71|309:114,1,76.4999976654053,0|0,3:0|1:0,0:0:0:0:
474,340,11210,2,0,P|483:299|484:247,1,76.4999976654053,8|0,0:0|1:0,0:0:0:0:
454,141,11360,6,0,L|467:105,15,31.8750012159348,2|2|2|2|2|2|2|2|2|2|2|2|2|2|2|2,0:0|0:0|0:0|0:0|0:0|0:0|0:0|0:0|0:0|0:0|0:0|0:0|0:0|0:0|0:0|0:0,0:0:0:0:
457,168,12560,6,0,B|414:152|378:174|378:174|335:198|270:167,1,170,2|2,0:0|0:0,0:0:0:0:
178,256,13010,1,2,0:0:0:0:
207,165,13160,2,0,P|199:122|177:65,1,85,2|0,0:0|0:0,0:0:0:0:
292,176,13460,2,0,P|279:233|279:286,1,85,2|0,0:0|0:0,0:0:0:0:
374,136,13760,1,2,0:0:0:0:
374,136,14360,1,0,0:0:0:0:
96,58,14660,1,2,0:0:0:0:
83,66,14960,70,0,B|65:110|94:152|94:152|117:191|101:238,1,170,2|2,0:0|0:0,0:0:0:0:
48,296,15410,1,2,0:0:0:0:
117,352,15560,2,0,P|165:339|219:336,1,85,2|0,0:0|0:0,0:0:0:0:
355,352,15860,2,0,P|305:327|277:302,1,85,2|0,0:0|0:0,0:0:0:0:
216,83,16160,2,0,B|192:125|213:166|213:166|235:204|211:262,1,170,2|0,0:0|0:0,0:0:0:0:
200,335,16610,5,2,0:0:0:0:
284,308,16760,1,2,0:0:0:0:
134,213,16910,1,0,0:0:0:0:
303,226,17060,1,2,0:0:0:0:
118,298,17210,1,0,0:0:0:0:
370,350,17360,70,0,B|389:309|371:268|371:268|350:222|388:165,1,170,2|0,0:0|0:0,0:0:0:0:
434,115,17810,1,2,0:0:0:0:
372,41,17960,2,0,P|311:66|259:79,1,85,2|0,0:0|0:0,0:0:0:0:
158,133,18260,2,0,P|214:150|259:172,1,85,0|2,0:0|0:0,0:0:0:0:
446,234,18560,6,0,P|404:209|364:175,1,85,2|0,0:0|0:0,0:0:0:0:
208,61,18860,2,0,P|250:63|306:75,1,85,0|2,0:0|0:0,0:0:0:0:
466,118,19160,1,2,0:0:0:0:
381,104,19310,1,0,0:0:0:0:
238,160,19460,1,2,0:0:0:0:
158,133,19610,1,0,0:0:0:0:
378,238,19760,70,0,P|308:256|271:272,1,85,2|0,0:0|0:0,0:0:0:0:
217,304,20060,1,2,0:0:0:0:
295,347,20210,1,0,0:0:0:0:
321,173,20360,2,0,P|262:161|209:160,1,85,2|0,0:0|0:0,0:0:0:0:
143,222,20660,1,2,0:0:0:0:
217,304,20810,1,0,0:0:0:0:
295,87,20960,5,2,0:0:0:0:
155,134,21110,1,0,1:0:0:0:
296,260,21260,69,0,1:0:0:0:
74,168,21410,1,0,1:0:0:0:
363,21,21560,5,8,0:0:0:0:
84,85,21710,1,8,0:0:0:0:
55,75,21785,1,8,0:0:0:0:
242,192,21935,1,8,0:0:0:0:
236,159,22010,2,0,L|224:90,1,42.5,8|8,0:0|0:0,0:0:0:0:
186,45,22160,6,0,P|266:99|241:191,1,203.999993774414,4|8,3:2|0:0,0:0:0:0:
190,128,22610,1,0,0:0:0:0:
366,157,22760,2,0,P|394:212|369:277,1,101.999996887207,0|2,3:0|0:0,0:0:0:0:
140,198,23060,2,0,P|104:128|128:75,1,101.999996887207,8|0,0:0|0:0,0:0:0:0:
313,221,23360,5,0,3:0:0:0:
305,254,23435,1,0,0:0:0:0:
297,287,23510,1,2,0:0:0:0:
289,320,23585,1,0,0:0:0:0:
299,360,23660,1,8,0:0:0:0:
270,318,23735,1,0,0:0:0:0:
224,298,23810,1,2,0:0:0:0:
174,305,23885,1,0,0:0:0:0:
139,342,23960,70,0,P|118:290|64:280,1,101.999996887207,0|0,3:0|0:0,0:0:0:0:
20,334,24185,1,0,0:0:0:0:
12,358,24260,2,0,P|6:324|13:276,1,50.9999984436036,8|0,0:0|0:0,0:0:0:0:
14,231,24410,2,0,P|17:206|18:181,1,50.9999984436036,2|0,0:0|0:0,0:0:0:0:
2,90,24560,5,0,3:0:0:0:
22,104,24635,1,0,0:0:0:0:
47,111,24710,1,0,0:0:0:0:
72,109,24785,1,0,0:0:0:0:
97,100,24860,2,0,P|127:68|123:-3,1,101.999996887207,8|0,0:0|0:0,0:0:0:0:
209,169,25160,70,0,P|240:182|326:162,1,101.999996887207,0|0,3:0|0:0,0:0:0:0:
376,51,25385,1,0,0:0:0:0:
380,76,25460,2,0,P|390:145|395:193,1,101.999996887207,8|0,0:0|0:0,0:0:0:0:
365,251,25685,1,0,0:0:0:0:
382,278,25760,6,0,L|296:264,1,63.7500024318696,2|0,3:2|0:0,0:0:0:0:
186,302,25910,1,2,0:0:0:0:
168,308,25985,1,0,0:0:0:0:
150,314,26060,2,0,L|205:246,1,63.7500024318696,8|0,0:0|0:0,0:0:0:0:
227,132,26210,1,2,0:0:0:0:
231,113,26285,1,0,0:0:0:0:
234,95,26360,70,0,L|264:176,1,63.7500024318696,0|0,3:0|0:0,0:0:0:0:
319,267,26510,1,0,0:0:0:0:
380,76,26660,2,0,B|373:50|373:50|375:37|375:37|369:2,1,63.7500024318696,8|0,0:0|0:0,0:0:0:0:
475,213,26810,2,0,B|482:239|482:239|480:252|480:252|486:287,1,63.7500024318696,2|0,0:0|0:0,0:0:0:0:
256,154,26960,6,0,B|127:140|127:140|185:166,1,191.250007295609,4|0,3:2|0:0,0:0:0:0:
71,74,27260,2,0,P|44:123|70:204,1,127.500004863739,8|0,0:0|0:0,0:0:0:0:
120,251,27485,1,0,0:0:0:0:
135,237,27560,2,0,P|140:272|131:303,1,63.7500024318696,0|0,3:0|0:0,0:0:0:0:
17,373,27710,2,0,P|28:347|66:308,1,63.7500024318696,2|0,0:0|0:0,0:0:0:0:
209,342,27860,2,0,B|262:320|303:342|303:342|353:364|411:333,1,191.250007295609,8|0,0:0|0:0,0:0:0:0:
470,299,28160,69,0,3:0:0:0:
341,261,28310,2,0,L|330:176,1,63.7500024318696,2|0,0:0|0:0,0:0:0:0:
473,277,28460,1,8,0:0:0:0:
403,167,28610,2,0,L|414:82,1,63.7500024318696,2|0,0:0|0:0,0:0:0:0:
457,33,28760,2,0,B|410:9|361:37|361:37|320:59|272:43,1,191.250007295609,0|0,3:0|0:0,0:0:0:0:
254,31,29060,2,0,P|260:70|244:112,1,63.7500024318696,8|0,0:0|0:0,0:0:0:0:
201,216,29210,2,0,P|193:178|197:136,1,63.7500024318696,2|0,0:0|0:0,0:0:0:0:
87,65,29360,5,0,3:0:0:0:
66,89,29435,1,2,0:0:0:0:
63,121,29510,1,2,0:0:0:0:
78,148,29585,1,2,0:0:0:0:
99,172,29660,1,8,0:0:0:0:
114,199,29735,1,2,0:0:0:0:
112,230,29810,1,2,0:0:0:0:
94,256,29885,1,2,0:0:0:0:
26,304,29960,70,0,P|101:296|144:332,1,127.500004863739,0|0,3:0|0:0,0:0:0:0:
249,285,30185,1,0,0:0:0:0:
249,285,30260,2,0,P|298:319|380:288,1,127.500004863739,8|0,0:0|0:0,0:0:0:0:
476,345,30485,1,0,0:0:0:0:
476,345,30560,6,0,B|465:277,1,63.7500024318696,2|0,0:0|0:0,0:0:0:0:
512,126,30710,1,2,0:0:0:0:
512,126,30785,1,0,0:0:0:0:
512,126,30860,2,0,B|458:169,1,63.7500024318696,10|0,0:0|0:0,0:0:0:0:
303,198,31010,1,2,0:0:0:0:
303,198,31085,1,0,0:0:0:0:
303,198,31160,2,0,B|367:222,1,63.7500024318696,2|0,3:2|0:0,0:0:0:0:
393,85,31310,69,8,0:0:0:0:
330,97,31385,1,8,0:0:0:0:
266,94,31460,1,8,0:0:0:0:
216,83,31535,1,0,3:0:0:0:
181,98,31610,1,0,3:0:0:0:
143,90,31685,1,0,3:0:0:0:
120,59,31760,70,0,L|132:196,1,127.5,4|0,3:2|0:0,0:0:0:0:
72,264,32060,2,0,P|88:308|90:363,1,85,0|0,3:0|0:0,0:0:0:0:
265,307,32360,2,0,P|215:288|178:266,1,85,0|0,3:0|0:0,0:0:0:0:
374,249,32660,2,0,P|429:208|470:190,1,85,0|0,3:0|0:0,0:0:0:0:
424,52,32960,70,0,B|378:34|339:50|339:50|294:74|239:54,2,170,0|0|0,3:0|3:0|3:0,0:0:0:0:
378,132,33710,1,0,0:0:0:0:
285,189,33860,2,0,P|231:173|184:168,1,85,0|0,3:0|0:0,0:0:0:0:
48,148,34160,6,0,P|100:116|79:9,1,170,2|0,3:2|3:0,0:0:0:0:
8,38,34610,1,0,0:0:0:0:
197,86,34760,2,0,P|245:76|294:71,1,85,0|0,3:0|0:0,0:0:0:0:
115,251,35060,2,0,P|67:234|19:221,1,85,0|0,3:0|0:0,0:0:0:0:
309,312,35360,70,0,B|358:297|395:317|395:317|436:341|496:313,1,170,2|0,3:2|3:0,0:0:0:0:
436,241,35810,1,0,0:0:0:0:
360,140,35960,2,0,P|350:199|350:236,1,85,0|0,3:0|0:0,0:0:0:0:
497,99,36260,2,0,P|483:47|466:3,1,85,0|0,3:0|0:0,0:0:0:0:
238,41,36560,6,0,P|225:106|285:156,1,127.5,2|0,3:2|0:0,0:0:0:0:
253,235,36860,2,0,P|188:216|146:211,1,85,0|0,3:0|0:0,0:0:0:0:
89,91,37160,2,0,P|21:114|0:124,1,85,0|0,3:0|0:0,0:0:0:0:
238,41,37460,2,0,P|289:65|336:80,1,85,0|0,3:0|0:0,0:0:0:0:
467,30,37760,70,0,B|443:68|461:112|461:112|481:159|451:204,1,170,2|0,3:2|3:0,0:0:0:0:
381,150,38210,1,0,0:0:0:0:
501,351,38360,2,0,P|462:335|406:320,1,85,0|0,3:0|0:0,0:0:0:0:
295,255,38660,2,0,P|366:244|407:233,1,85,0|0,3:0|0:0,0:0:0:0:
214,352,38960,6,0,P|185:287|71:301,1,170,2|0,3:2|3:0,0:0:0:0:
29,344,39410,1,0,0:0:0:0:
0,170,39560,2,0,P|52:188|95:211,1,85,0|0,3:0|0:0,0:0:0:0:
245,152,39860,2,0,P|197:172|157:185,1,85,0|0,3:0|0:0,0:0:0:0:
90,78,40160,70,0,P|100:109|104:137,1,42.5,0|0,3:0|0:0,0:0:0:0:
180,88,40310,2,0,P|191:70|212:46,1,42.5,0|0,1:0|0:0,0:0:0:0:
283,79,40460,2,0,P|313:104|337:114,1,42.5,0|0,1:0|0:0,0:0:0:0:
387,58,40610,2,0,P|409:50|434:48,1,42.5
506,83,40760,5,8,0:0:0:0:
19,31,41060,1,12,0:0:0:0:
506,83,41360,6,0,P|458:147|492:236,1,152.999995330811,4|0,3:2|0:0,0:0:0:0:
500,299,41660,2,0,L|395:276,1,101.999996887207,8|0,0:0|0:0,0:0:0:0:
294,342,41960,1,0,3:0:0:0:
229,161,42110,2,0,L|296:173,1,50.9999984436036,2|0,0:0|0:0,0:0:0:0:
400,277,42260,2,0,L|289:252,1,101.999996887207,8|2,0:0|0:0,0:0:0:0:
215,271,42485,1,0,0:0:0:0:
194,283,42560,6,0,L|118:262,1,50.9999984436036,2|0,3:2|0:0,0:0:0:0:
36,193,42710,2,0,L|112:172,1,50.9999984436036,2|0,0:0|0:0,0:0:0:0:
275,44,42860,2,0,P|204:85|127:52,1,152.999995330811,8|0,0:0|0:0,0:0:0:0:
9,58,43160,1,0,3:0:0:0:
9,58,43235,1,0,0:0:0:0:
9,58,43310,2,0,P|52:55|95:38,1,50.9999984436036,2|0,0:0|0:0,0:0:0:0:
229,161,43460,2,0,P|271:145|340:163,1,101.999996887207,8|0,0:0|0:0,0:0:0:0:
418,141,43685,1,0,0:0:0:0:
440,123,43760,70,0,L|422:240,1,101.999996887207,0|2,3:0|0:0,0:0:0:0:
229,372,44060,2,0,L|214:265,2,101.999996887207,8|2|0,0:0|0:0|3:0,0:0:0:0:
119,292,44510,2,0,L|110:224,1,50.9999984436036
59,53,44660,1,8,0:0:0:0:
46,75,44735,1,0,0:0:0:0:
40,99,44810,1,0,0:0:0:0:
42,124,44885,1,0,0:0:0:0:
51,147,44960,6,0,L|119:136,1,50.9999984436036,0|0,3:0|0:0,0:0:0:0:
193,30,45110,2,0,L|126:18,1,50.9999984436036,2|0,0:0|0:0,0:0:0:0:
210,186,45260,1,8,0:0:0:0:
315,28,45410,2,0,L|323:97,1,50.9999984436036,2|0,0:0|0:0,0:0:0:0:
331,166,45560,69,0,3:0:0:0:
333,191,45635,1,0,0:0:0:0:
335,216,45710,2,0,P|349:181|354:138,1,50.9999984436036,8|0,0:0|0:0,0:0:0:0:
462,59,45860,1,0,3:0:0:0:
450,36,45935,1,0,0:0:0:0:
439,12,46010,2,0,P|430:44|430:82,1,50.9999984436036,8|0,0:0|0:0,0:0:0:0:
427,230,46160,53,8,0:0:0:0:
420,243,46235,1,0,1:0:0:0:
416,257,46310,1,0,1:0:0:0:
418,272,46385,1,0,1:0:0:0:
437,314,46460,1,8,0:0:0:0:
414,302,46535,1,0,1:0:0:0:
389,296,46610,1,0,1:0:0:0:
363,298,46685,1,0,1:0:0:0:
297,337,46760,5,8,0:0:0:0:
260,354,46835,1,0,1:0:0:0:
219,353,46910,1,0,1:0:0:0:
184,331,46985,1,0,1:0:0:0:
148,287,47060,1,8,0:0:0:0:
105,259,47135,1,0,1:0:0:0:
54,264,47210,1,0,1:0:0:0:
21,303,47285,1,0,1:0:0:0:
5,378,47360,5,8,0:0:0:0:
49,336,47435,1,8,0:0:0:0:
63,276,47510,1,0,1:0:0:0:
44,217,47585,1,0,1:0:0:0:
8,166,47660,1,8,0:0:0:0:
9,104,47735,1,8,0:0:0:0:
39,51,47810,1,0,1:0:0:0:
97,33,47885,1,0,1:0:0:0:
180,8,47960,5,8,0:0:0:0:
236,43,48035,1,8,0:0:0:0:
301,51,48110,1,8,0:0:0:0:
364,32,48185,1,0,1:0:0:0:
429,41,48260,1,8,0:0:0:0:
468,94,48335,1,8,0:0:0:0:
462,160,48410,1,8,0:0:0:0:
408,199,48485,1,0,1:0:0:0:
342,188,48560,38,0,B|232:145|260:243|131:198,1,203.999993774414,4|0,3:2|0:0,0:0:0:0:
50,248,49010,5,0,3:0:0:0:
46,233,49085,1,0,3:0:0:0:
42,218,49160,1,8,0:0:0:0:
28,147,49235,1,8,0:0:0:0:
50,79,49310,1,0,1:0:0:0:
111,43,49385,1,0,1:0:0:0:
181,50,49460,5,8,3:0:0:0:
226,73,49535,1,8,3:0:0:0:
276,76,49610,1,0,3:0:0:0:
325,65,49685,1,0,3:0:0:0:
362,30,49760,1,2,0:0:0:0:
350,52,49835,1,2,0:0:0:0:
334,137,49910,2,0,L|346:215,1,50.9999984436036,12|0,0:0|0:0,0:0:0:0:
387,260,50210,5,8,0:0:0:0:
50,79,50360,1,8,0:0:0:0:
50,79,50960,6,0,B|105:58|155:97|155:97|213:140|292:99,1,229.499992996216,4|0,3:2|0:0,0:0:0:0:
380,15,51260,2,0,P|372:62|365:137,1,76.4999976654053,8|0,0:0|0:0,0:0:0:0:
411,334,51410,1,2,0:0:0:0:
399,297,51485,1,0,0:0:0:0:
387,260,51560,2,0,P|388:232|408:166,1,76.4999976654053,0|0,3:0|0:0,0:0:0:0:
471,20,51710,2,0,P|479:64|479:115,1,76.4999976654053,2|0,0:0|0:0,0:0:0:0:
311,309,51860,2,0,B|304:283|304:283|306:264|306:264|295:211,1,76.4999976654053,8|0,0:0|0:0,0:0:0:0:
480,95,52010,2,0,B|487:121|487:121|485:140|485:140|496:193,1,76.4999976654053,2|0,0:0|0:0,0:0:0:0:
240,358,52160,6,0,P|206:282|112:287,1,152.999995330811,0|2,3:0|0:0,0:0:0:0:
62,325,52385,1,0,0:0:0:0:
62,325,52460,2,0,P|47:264|55:229,1,76.4999976654053,8|0,0:0|0:0,0:0:0:0:
165,122,52610,2,0,P|134:170|109:185,1,76.4999976654053,2|0,0:0|0:0,0:0:0:0:
3,71,52760,1,0,3:0:0:0:
3,71,52835,1,0,0:0:0:0:
3,71,52910,2,0,P|46:86|105:97,1,76.4999976654053,2|0,0:0|0:0,0:0:0:0:
251,161,53060,1,8,0:0:0:0:
251,161,53135,1,0,0:0:0:0:
251,161,53210,2,0,P|299:141|358:125,1,76.4999976654053,2|0,0:0|0:0,0:0:0:0:
488,44,53360,69,4,3:2:0:0:
488,44,53435,1,0,0:0:0:0:
488,44,53510,2,0,B|446:40|446:40|432:44|432:44|370:40,1,93.5000028533936,2|0,0:0|0:0,0:0:0:0:
26,182,53660,1,12,0:0:0:0:
26,182,53735,1,0,0:0:0:0:
26,182,53810,2,0,B|68:178|68:178|82:182|82:182|144:178,1,93.5000028533936,2|0,0:0|0:0,0:0:0:0:
453,233,53960,53,4,3:2:0:0:
453,233,54035,1,0,0:0:0:0:
453,233,54110,2,0,B|411:229|411:229|397:233|397:233|335:229,1,85,2|0,0:0|0:0,0:0:0:0:
101,345,54260,1,12,0:0:0:0:
101,345,54335,1,0,0:0:0:0:
101,345,54410,2,0,B|143:341|143:341|157:345|157:345|219:341,1,85,2|0,0:0|0:0,0:0:0:0:
479,211,54560,38,0,B|422:203|422:203|390:217|390:217|299:207,1,152.999995330811,4|0,3:2|0:0,0:0:0:0:
230,245,54785,1,0,0:0:0:0:
206,276,54860,2,0,P|193:238|209:189,1,76.4999976654053,8|0,0:0|0:0,0:0:0:0:
195,45,55010,2,0,P|172:95|150:109,1,76.4999976654053,2|0,0:0|0:0,0:0:0:0:
33,197,55160,70,0,L|142:180,1,76.4999976654053,0|0,3:0|0:0,0:0:0:0:
379,154,55310,1,2,0:0:0:0:
400,145,55385,1,0,0:0:0:0:
429,135,55460,1,8,0:0:0:0:
396,186,55535,1,8,0:0:0:0:
397,247,55610,1,8,0:0:0:0:
436,293,55685,1,8,0:0:0:0:
512,312,55760,6,0,B|449:291|399:324|399:324|330:360|252:321,1,229.499992996216,4|0,3:2|0:0,0:0:0:0:
154,382,56060,2,0,P|172:305|111:255,1,152.999995330811,8|2,0:0|0:0,0:0:0:0:
20,296,56285,1,0,0:0:0:0:
20,296,56360,2,0,P|15:254|23:209,1,76.4999976654053
130,26,56510,1,2,0:0:0:0:
116,61,56585,1,0,0:0:0:0:
103,97,56660,2,0,P|131:129|168:194,1,76.4999976654053,8|0,0:0|0:0,0:0:0:0:
283,51,56810,2,0,P|226:72|189:97,1,76.4999976654053,2|0,0:0|0:0,0:0:0:0:
124,258,56960,70,0,B|178:235|230:271|230:271|290:309|378:269,1,229.499992996216,4|0,3:2|0:0,0:0:0:0:
445,344,57260,2,0,P|460:255|410:184,1,152.999995330811,8|2,0:0|0:0,0:0:0:0:
293,178,57485,1,0,0:0:0:0:
260,165,57560,2,0,P|295:146|360:150,1,76.4999976654053
481,31,57710,2,0,P|441:57|386:65,1,76.4999976654053,2|0,0:0|0:0,0:0:0:0:
339,262,57860,2,0,B|286:241|234:273|234:273|176:303|120:276,1,229.499992996216,8|0,0:0|0:0,0:0:0:0:
32,349,58160,5,0,3:0:0:0:
43,273,58235,1,0,3:0:0:0:
54,197,58310,1,0,3:0:0:0:
65,121,58385,1,0,3:0:0:0:
78,45,58460,1,12,0:0:0:0:
63,53,58760,69,0,3:0:0:0:
50,129,58835,1,0,3:0:0:0:
39,205,58910,1,0,3:0:0:0:
28,281,58985,1,0,3:0:0:0:
17,357,59060,2,0,P|91:286|161:307,1,152.999995330811,12|0,0:0|3:0,0:0:0:0:
206,353,59285,1,8,0:0:0:0:
218,368,59360,6,0,P|208:312|224:270,1,76.4999976654053,12|0,0:0|0:0,0:0:0:0:
415,258,59510,1,8,0:0:0:0:
422,272,59585,1,0,1:0:0:0:
429,286,59660,2,0,P|432:255|373:179,1,76.4999976654053,12|0,0:0|0:0,0:0:0:0:
189,194,59810,1,8,0:0:0:0:
182,208,59885,1,0,1:0:0:0:
175,222,59960,2,0,P|172:191|231:115,1,76.4999976654053,12|0,0:0|1:0,0:0:0:0:
396,29,60110,2,0,P|349:56|299:53,1,76.4999976654053,8|0,0:0|1:0,0:0:0:0:
43,93,60260,2,0,P|81:120|118:173,1,76.4999976654053,8|0,0:0|1:0,0:0:0:0:
291,325,60410,2,0,P|301:278|319:238,1,76.4999976654053,8|0,0:0|1:0,0:0:0:0:
467,86,60560,70,0,B|404:59|353:91|353:91|290:128|205:69,1,229.499992996216,4|0,3:2|0:0,0:0:0:0:
157,3,60860,2,0,P|133:32|119:68,1,76.4999976654053,8|0,0:0|0:0,0:0:0:0:
113,291,61010,1,2,0:0:0:0:
102,254,61085,1,0,0:0:0:0:
91,217,61160,2,0,P|90:182|105:131,1,76.4999976654053,0|0,3:0|0:0,0:0:0:0:
239,17,61310,2,0,P|247:68|243:116,1,76.4999976654053,2|0,0:0|0:0,0:0:0:0:
207,319,61460,2,0,B|209:292|209:292|204:275|204:275|208:221,1,76.4999976654053,8|0,0:0|0:0,0:0:0:0:
384,116,61610,2,0,B|382:143|382:143|387:160|387:160|383:214,1,76.4999976654053,2|0,0:0|0:0,0:0:0:0:
491,379,61760,6,0,P|460:288|364:300,1,152.999995330811,0|2,3:0|0:0,0:0:0:0:
319,339,61985,1,0,0:0:0:0:
319,339,62060,2,0,P|301:283|314:234,1,76.4999976654053,8|0,0:0|0:0,0:0:0:0:
512,143,62210,2,0,P|492:190|467:221,1,76.4999976654053,2|0,0:0|0:0,0:0:0:0:
208,158,62360,1,0,3:0:0:0:
208,158,62435,1,0,0:0:0:0:
208,158,62510,2,0,P|257:171|299:191,1,76.4999976654053,2|0,0:0|0:0,0:0:0:0:
419,41,62660,1,8,0:0:0:0:
419,41,62735,1,0,0:0:0:0:
419,41,62810,2,0,P|462:26|507:1,1,76.4999976654053,2|0,0:0|0:0,0:0:0:0:
274,7,62960,69,4,3:2:0:0:
274,7,63035,1,0,0:0:0:0:
274,7,63110,2,0,B|269:42|269:42|275:60|275:60|269:100,1,85,2|0,0:0|0:0,0:0:0:0:
221,339,63260,1,12,0:0:0:0:
221,339,63335,1,0,0:0:0:0:
221,339,63410,2,0,B|226:304|226:304|220:286|220:286|226:246,1,89.2499972763062,2|0,0:0|0:0,0:0:0:0:
138,23,63560,5,4,3:2:0:0:
138,23,63635,1,0,0:0:0:0:
138,23,63710,2,0,B|133:58|133:58|139:76|139:76|133:116,1,93.5000028533936,2|0,0:0|0:0,0:0:0:0:
127,299,63860,1,12,0:0:0:0:
127,299,63935,1,0,0:0:0:0:
127,299,64010,2,0,B|132:264|132:264|126:246|126:246|132:206,1,89.2499972763062,2|0,0:0|0:0,0:0:0:0:
51,154,64160,70,0,B|104:157|104:157|134:169|134:169|167:161|167:161|240:165,1,170,4|2,3:2|0:0,0:0:0:0:
295,235,64385,1,0,0:0:0:0:
319,270,64460,2,0,P|330:229|295:179,1,85,8|0,0:0|0:0,0:0:0:0:
317,22,64610,2,0,P|287:65|289:109,1,85,2|0,0:0|0:0,0:0:0:0:
471,132,64760,1,0,3:0:0:0:
471,132,64835,1,0,0:0:0:0:
471,132,64910,2,0,B|435:127|435:127|414:130|414:130|376:124,1,85,2|0,0:0|0:0,0:0:0:0:
168,5,65060,1,8,0:0:0:0:
105,0,65135,1,8,0:0:0:0:
53,34,65210,1,8,0:0:0:0:
31,93,65285,1,8,0:0:0:0:
50,153,65360,6,0,B|61:212|61:212|59:240|59:240|74:263|74:263|88:342,1,170,4|2,3:2|0:0,0:0:0:0:
180,357,65585,1,0,0:0:0:0:
206,377,65660,2,0,P|205:335|162:294,1,85,8|0,0:0|0:0,0:0:0:0:
159,129,65810,2,0,P|150:159|167:222,1,85,2|0,0:0|0:0,0:0:0:0:
340,235,65960,1,0,3:0:0:0:
340,235,66035,1,0,0:0:0:0:
340,235,66110,2,0,B|301:227|301:227|278:232|278:232|229:223,1,85,2|0,0:0|0:0,0:0:0:0:
75,135,66260,1,8,0:0:0:0:
75,135,66335,1,0,0:0:0:0:
75,135,66410,2,0,B|114:127|114:127|137:132|137:132|186:123,1,85,2|0,0:0|0:0,0:0:0:0:
362,28,66560,70,0,P|287:92|321:168,1,170,4|2,3:2|0:0,0:0:0:0:
450,231,66785,1,0,0:0:0:0:
491,220,66860,2,0,P|470:197|394:201,1,85,8|0,0:0|0:0,0:0:0:0:
331,328,67010,2,0,P|385:314|417:274,1,85,2|0,0:0|0:0,0:0:0:0:
446,104,67160,1,0,3:0:0:0:
446,104,67235,1,0,0:0:0:0:
446,104,67310,2,0,B|401:94|401:94|344:111,1,85,2|0,0:0|0:0,0:0:0:0:
77,211,67460,1,8,0:0:0:0:
77,211,67535,1,0,0:0:0:0:
77,211,67610,2,0,B|122:221|122:221|179:204,1,85,2|0,0:0|0:0,0:0:0:0:
252,21,67760,69,8,0:0:0:0:
245,36,67835,1,0,1:0:0:0:
241,52,67910,1,0,1:0:0:0:
240,68,67985,1,0,1:0:0:0:
258,125,68060,1,8,0:0:0:0:
263,141,68135,1,0,1:0:0:0:
265,157,68210,1,0,1:0:0:0:
265,174,68285,1,0,1:0:0:0:
238,236,68360,69,8,0:0:0:0:
271,209,68435,1,0,1:0:0:0:
312,202,68510,1,0,1:0:0:0:
353,212,68585,1,0,1:0:0:0:
395,266,68660,1,8,0:0:0:0:
436,274,68735,1,0,1:0:0:0:
475,258,68810,1,0,1:0:0:0:
497,221,68885,1,0,1:0:0:0:
490,149,68960,37,8,0:0:0:0:
436,123,69035,1,0,1:0:0:0:
379,142,69110,1,0,1:0:0:0:
355,196,69185,1,0,1:0:0:0:
308,284,69260,1,8,0:0:0:0:
259,317,69335,1,0,1:0:0:0:
199,310,69410,1,0,1:0:0:0:
160,264,69485,1,0,1:0:0:0:
155,184,69560,5,8,0:0:0:0:
166,143,69635,1,0,1:0:0:0:
177,102,69710,1,0,1:0:0:0:
189,61,69785,1,0,1:0:0:0:
201,20,69860,2,0,P|209:48|198:108,1,76.4999976654053,8|8,3:0|3:0,0:0:0:0:
40,286,70010,2,0,P|64:251|108:213,1,76.4999976654053,8|8,3:0|3:0,0:0:0:0:
428,199,70160,22,0,B|376:178|326:208|326:208|280:231|221:211,1,204,4|0,3:2|0:0,0:0:0:0:
139,319,70460,2,0,P|169:307|204:299,1,68,8|0,0:0|0:0,0:0:0:0:
344,361,70610,1,2,0:0:0:0:
316,341,70685,1,0,0:0:0:0:
290,318,70760,1,2,3:2:0:0:
276,131,70910,2,0,L|291:65,1,68,2|0,0:0|0:0,0:0:0:0:
386,278,71060,2,0,L|436:323,1,68,8|0,0:0|0:0,0:0:0:0:
204,299,71210,2,0,L|139:319,1,68,2|0,0:0|0:0,0:0:0:0:
287,229,71360,5,0,3:0:0:0:
287,229,71435,1,0,0:0:0:0:
287,229,71510,2,0,P|243:219|201:212,1,55.2499974708558,2|0,0:0|0:0,0:0:0:0:
115,115,71660,1,8,0:0:0:0:
115,115,71735,1,0,0:0:0:0:
115,115,71810,2,0,P|73:126|32:141,1,55.2499974708558,2|0,0:0|0:0,0:0:0:0:
291,64,71960,69,0,3:0:0:0:
291,64,72035,1,0,0:0:0:0:
291,64,72110,2,0,P|243:57|169:54,1,76.4999976654053,2|0,0:0|0:0,0:0:0:0:
104,205,72260,1,8,0:0:0:0:
104,205,72335,1,0,0:0:0:0:
104,205,72410,2,0,P|61:225|22:248,1,76.4999976654053,2|0,0:0|0:0,0:0:0:0:
295,341,72560,6,0,P|321:304|285:228,1,136,4|0,3:2|0:0,0:0:0:0:
219,154,72785,1,0,0:0:0:0:
191,144,72860,2,0,P|222:128|256:135,1,68,8|0,0:0|0:0,0:0:0:0:
396,122,73010,1,2,0:0:0:0:
363,133,73085,1,0,0:0:0:0:
331,146,73160,1,2,3:2:0:0:
383,270,73310,2,0,L|402:174,1,68,2|0,0:0|0:0,0:0:0:0:
450,22,73460,2,0,L|357:53,1,68,8|0,0:0|0:0,0:0:0:0:
202,88,73610,2,0,L|275:152,1,68,2|0,0:0|0:0,0:0:0:0:
286,228,73760,69,0,3:0:0:0:
286,228,73835,1,0,0:0:0:0:
286,228,73910,2,0,P|240:239|215:240,1,55.2499974708558,2|0,0:0|0:0,0:0:0:0:
156,334,74060,1,8,0:0:0:0:
156,334,74135,1,0,0:0:0:0:
156,334,74210,2,0,P|120:319|90:312,1,55.2499974708558,2|0,0:0|0:0,0:0:0:0:
309,349,74360,6,0,P|248:321|183:306,1,76.4999976654053,0|0,3:0|0:0,0:0:0:0:
48,218,74510,2,0,P|86:214|123:206,1,76.4999976654053,2|0,0:0|0:0,0:0:0:0:
355,149,74660,1,8,0:0:0:0:
415,192,74735,1,8,0:0:0:0:
428,265,74810,1,8,0:0:0:0:
386,326,74885,1,8,0:0:0:0:
309,349,74960,70,0,L|141:333,1,152.999995330811,4|2,3:2|0:0,0:0:0:0:
31,342,75185,1,0,0:0:0:0:
9,360,75260,2,0,P|19:329|-22:256,1,68,8|0,0:0|0:0,0:0:0:0:
31,89,75410,1,2,0:0:0:0:
52,116,75485,1,0,0:0:0:0:
72,145,75560,1,2,3:2:0:0:
148,345,75710,6,0,P|150:310|135:263,1,68,2|0,0:0|0:0,0:0:0:0:
250,227,75860,2,0,P|243:185|249:150,1,68,8|0,0:0|0:0,0:0:0:0:
138,56,76010,2,0,P|150:101|154:140,1,68,2|0,0:0|0:0,0:0:0:0:
333,191,76160,69,0,3:0:0:0:
333,191,76235,1,0,0:0:0:0:
333,191,76310,2,0,P|376:185|414:177,1,55.2499974708558,2|0,0:0|0:0,0:0:0:0:
443,68,76460,1,8,0:0:0:0:
443,68,76535,1,0,0:0:0:0:
443,68,76610,2,0,P|473:83|499:93,1,55.2499974708558,2|0,0:0|0:0,0:0:0:0:
280,73,76760,5,0,3:0:0:0:
280,73,76835,1,0,0:0:0:0:
280,73,76910,2,0,P|332:89|375:111,1,76.4999976654053,2|0,0:0|0:0,0:0:0:0:
491,223,77060,1,8,0:0:0:0:
491,223,77135,1,0,0:0:0:0:
491,223,77210,2,0,P|448:245|401:273,1,76.4999976654053,2|0,0:0|0:0,0:0:0:0:
254,347,77360,69,0,3:0:0:0:
232,336,77435,1,0,0:0:0:0:
208,334,77510,1,2,0:0:0:0:
186,338,77585,1,0,0:0:0:0:
116,369,77660,1,8,0:0:0:0:
93,369,77735,1,0,0:0:0:0:
71,361,77810,1,2,0:0:0:0:
55,343,77885,1,0,0:0:0:0:
9,309,77960,5,0,3:0:0:0:
21,289,78035,1,0,0:0:0:0:
24,266,78110,1,2,0:0:0:0:
20,243,78185,1,0,0:0:0:0:
49,172,78260,1,8,0:0:0:0:
40,150,78335,1,0,0:0:0:0:
43,127,78410,1,2,0:0:0:0:
56,108,78485,1,0,0:0:0:0:
20,32,78560,69,0,3:0:0:0:
73,61,78635,1,0,0:0:0:0:
134,63,78710,1,2,0:0:0:0:
192,45,78785,1,0,0:0:0:0:
244,12,78860,1,8,0:0:0:0:
304,5,78935,1,0,0:0:0:0:
361,26,79010,1,2,0:0:0:0:
394,77,79085,1,0,0:0:0:0:
389,138,79160,38,0,P|382:186|384:232,1,76.4999976654053,0|0,3:0|0:0,0:0:0:0:
269,371,79310,2,0,P|261:325|259:279,1,76.4999976654053,8|0,0:0|0:0,0:0:0:0:
510,53,79460,70,0,P|488:95|472:132,1,76.4999976654053,0|0,3:0|1:0,0:0:0:0:
126,287,79610,2,0,P|140:242|164:194,1,76.4999976654053,8|0,0:0|1:0,0:0:0:0:
302,139,79760,22,0,L|293:106,15,31.8750012159348,2|2|2|2|2|2|2|2|2|2|2|2|2|2|2|2,0:0|0:0|0:0|0:0|0:0|0:0|0:0|0:0|0:0|0:0|0:0|0:0|0:0|0:0|0:0|0:0,0:0:0:0:
309,162,80960,6,0,B|272:145|227:169|227:169|188:193|118:169,1,170,2|2,0:0|0:0,0:0:0:0:
63,231,81410,1,2,0:0:0:0:
9,150,81560,2,0,P|24:107|66:69,1,85,2|0,0:0|0:0,0:0:0:0:
145,176,81860,2,0,P|159:233|152:271,1,85,2|0,0:0|0:0,0:0:0:0:
16,311,82160,1,2,0:0:0:0:
16,311,82760,1,0,0:0:0:0:
315,257,83060,1,2,0:0:0:0:
323,266,83360,70,0,B|337:219|314:181|314:181|290:140|311:86,1,170,2|2,0:0|0:0,0:0:0:0:
372,29,83810,1,0,0:0:0:0:
236,43,83960,2,0,P|184:36|145:25,1,85,2|0,0:0|0:0,0:0:0:0:
388,130,84260,2,0,P|452:114|487:110,1,85,2|0,0:0|0:0,0:0:0:0:
238,232,84560,2,0,B|196:213|157:234|157:234|115:255|60:235,1,170,2|0,0:0|0:0,0:0:0:0:
26,309,85010,5,2,0:0:0:0:
21,170,85160,1,2,0:0:0:0:
162,348,85310,1,0,0:0:0:0:
154,121,85460,1,2,0:0:0:0:
238,232,85610,1,0,0:0:0:0:
306,67,85760,70,0,P|246:35|195:27,1,85,2|0,0:0|0:0,0:0:0:0:
154,248,86060,2,0,P|228:234|265:221,1,85,0|2,0:0|0:0,0:0:0:0:
418,84,86360,2,0,P|398:38|367:0,1,85,2|0,0:0|0:0,0:0:0:0:
96,60,86660,2,0,P|124:98|188:135,1,85,0|2,0:0|0:0,0:0:0:0:
344,177,86960,5,2,0:0:0:0:
338,186,87110,1,0,0:0:0:0:
284,71,87260,2,0,P|241:51|185:40,1,85,2|0,0:0|0:0,0:0:0:0:
333,195,87560,1,2,0:0:0:0:
395,123,87710,1,0,0:0:0:0:
368,274,87860,1,0,0:0:0:0:
483,111,88010,1,0,0:0:0:0:
249,176,88160,70,0,P|193:175|129:182,1,85,2|0,0:0|0:0,0:0:0:0:
68,227,88460,1,2,0:0:0:0:
172,78,88610,1,0,0:0:0:0:
282,269,88760,2,0,P|223:300|187:325,1,85,2|0,0:0|0:0,0:0:0:0:
140,369,89060,1,2,0:0:0:0:
68,227,89210,1,0,1:0:0:0:
249,176,89360,5,0,1:0:0:0:
48,323,89510,1,0,1:0:0:0:
282,269,89660,5,8,0:0:0:0:
0,165,89810,1,8,0:0:0:0:
0,165,90560,6,0,B|54:149|88:175|88:175|138:207|196:180,1,165.749992412568,4|0,3:2|0:0,0:0:0:0:
255,225,90860,2,0,P|301:177|362:186,1,110.499994941712,8|0,0:0|0:0,0:0:0:0:
428,218,91085,1,0,0:0:0:0:
450,232,91160,2,0,P|433:175|463:121,1,110.499994941712,0|0,3:0|3:0,0:0:0:0:
507,322,91460,2,0,B|457:313|457:313|425:323|425:323|361:315,1,110.499994941712,8|0,0:0|0:0,0:0:0:0:
264,347,91760,69,0,3:0:0:0:
227,342,91835,1,0,0:0:0:0:
191,337,91910,1,2,0:0:0:0:
154,331,91985,1,0,0:0:0:0:
112,367,92060,1,8,0:0:0:0:
136,318,92135,1,0,0:0:0:0:
119,267,92210,1,2,0:0:0:0:
72,242,92285,1,0,0:0:0:0:
20,258,92360,6,0,L|33:136,1,110.499994941712,0|0,3:0|0:0,0:0:0:0:
185,80,92660,1,8,0:0:0:0:
51,5,92810,1,0,0:0:0:0:
129,169,92960,69,0,3:0:0:0:
167,183,93035,1,0,0:0:0:0:
208,183,93110,1,0,0:0:0:0:
247,168,93185,1,0,0:0:0:0:
277,140,93260,2,0,L|260:16,1,110.499994941712,8|0,0:0|0:0,0:0:0:0:
363,52,93485,1,0,0:0:0:0:
388,35,93560,6,0,P|367:102|395:160,1,110.499994941712,0|2,3:0|0:0,0:0:0:0:
434,219,93785,1,0,0:0:0:0:
454,242,93860,2,0,L|360:233,1,55.2499974708558,8|0,0:0|0:0,0:0:0:0:
252,307,94010,2,0,L|317:297,1,55.2499974708558
467,334,94160,70,0,L|373:325,1,63.7500024318696,0|0,3:0|0:0,0:0:0:0:
234,211,94310,1,2,0:0:0:0:
234,211,94385,1,0,0:0:0:0:
234,211,94460,2,0,L|299:201,1,63.7500024318696,8|0,0:0|0:0,0:0:0:0:
145,339,94610,1,2,0:0:0:0:
145,339,94685,1,0,0:0:0:0:
145,339,94760,6,0,L|51:330,1,63.7500024318696,0|0,3:0|0:0,0:0:0:0:
20,249,94910,1,0,3:0:0:0:
179,148,95060,2,0,P|145:142|106:139,1,63.7500024318696,8|0,0:0|0:0,0:0:0:0:
22,57,95210,2,0,P|56:52|94:44,1,63.7500024318696
257,110,95360,70,0,B|396:93|396:93|336:123,1,191.250007295609,4|0,3:2|0:0,0:0:0:0:
179,148,95660,2,0,P|176:72|238:27,1,127.500004863739,8|0,0:0|0:0,0:0:0:0:
347,143,95885,1,0,0:0:0:0:
344,165,95960,2,0,L|331:251,1,63.7500024318696,0|0,3:0|0:0,0:0:0:0:
456,291,96110,2,0,L|438:223,1,63.7500024318696
328,327,96260,2,0,B|281:307|240:332|240:332|193:360|133:334,1,191.250007295609,8|0,0:0|0:0,0:0:0:0:
54,280,96560,5,0,3:0:0:0:
187,252,96710,2,0,L|205:191,1,63.7500024318696,2|0,0:0|0:0,0:0:0:0:
64,292,96860,1,8,0:0:0:0:
117,160,97010,2,0,L|103:97,1,63.7500024318696,2|0,0:0|0:0,0:0:0:0:
51,32,97160,2,0,B|97:5|149:29|149:29|193:52|249:29,1,191.250007295609,0|0,3:0|0:0,0:0:0:0:
323,15,97460,2,0,P|312:58|307:99,1,63.7500024318696,8|0,0:0|0:0,0:0:0:0:
431,124,97610,2,0,P|410:87|385:61,1,63.7500024318696
339,161,97760,69,0,3:0:0:0:
326,190,97835,1,0,0:0:0:0:
325,221,97910,1,2,0:0:0:0:
337,250,97985,1,0,0:0:0:0:
360,271,98060,1,8,0:0:0:0:
389,282,98135,1,0,0:0:0:0:
420,280,98210,1,2,0:0:0:0:
448,266,98285,1,0,0:0:0:0:
468,241,98360,6,0,P|409:214|353:244,1,127.500004863739,0|0,3:0|0:0,0:0:0:0:
247,191,98585,1,0,0:0:0:0:
247,191,98660,2,0,P|181:223|100:180,1,127.500004863739,8|0,0:0|0:0,0:0:0:0:
35,43,98885,1,0,0:0:0:0:
22,26,98960,70,0,L|34:114,1,63.7500024318696,0|0,3:0|0:0,0:0:0:0:
5,217,99110,1,2,0:0:0:0:
5,217,99185,1,0,0:0:0:0:
5,217,99260,2,0,L|75:162,1,63.7500024318696,8|0,0:0|0:0,0:0:0:0:
179,136,99410,1,2,0:0:0:0:
179,136,99485,1,0,0:0:0:0:
179,136,99560,2,0,L|96:102,1,63.7500024318696,0|0,3:0|0:0,0:0:0:0:
131,210,99710,5,8,0:0:0:0:
194,222,99785,1,8,0:0:0:0:
258,219,99860,1,8,0:0:0:0:
308,208,99935,1,0,3:0:0:0:
343,223,100010,1,0,3:0:0:0:
381,215,100085,1,0,3:0:0:0:
404,184,100160,38,0,L|392:321,1,127.5,4|0,3:2|0:0,0:0:0:0:
475,366,100460,2,0,P|492:304|474:257,1,85,0|0,3:0|0:0,0:0:0:0:
501,114,100760,2,0,P|485:154|489:196,1,85,0|0,3:0|0:0,0:0:0:0:
390,17,101060,2,0,P|412:71|400:110,1,85,0|0,3:0|0:0,0:0:0:0:
238,181,101360,6,0,B|284:165|321:180|321:180|360:199|406:183,2,170,0|0|0,3:0|3:0|3:0,0:0:0:0:
285,263,102110,1,0,0:0:0:0:
149,156,102260,2,0,P|141:101|140:59,1,85,0|0,3:0|0:0,0:0:0:0:
67,224,102560,70,0,P|101:311|29:353,1,170,2|0,3:2|3:0,0:0:0:0:
194,280,103010,1,0,0:0:0:0:
397,356,103160,2,0,P|380:294|376:250,1,85,0|0,3:0|0:0,0:0:0:0:
434,104,103460,2,0,P|413:163|389:207,1,85,0|0,3:0|0:0,0:0:0:0:
188,162,103760,6,0,P|273:140|309:216,1,170,2|0,3:2|3:0,0:0:0:0:
283,279,104210,1,0,0:0:0:0:
403,182,104360,2,0,P|457:166|500:161,1,85,0|0,3:0|0:0,0:0:0:0:
349,75,104660,2,0,P|300:57|256:35,1,85,0|0,3:0|0:0,0:0:0:0:
85,129,104960,70,0,P|160:124|189:186,1,127.5,2|0,3:2|0:0,0:0:0:0:
283,279,105260,2,0,P|299:223|318:187,1,85,0|0,3:0|0:0,0:0:0:0:
135,243,105560,2,0,P|147:297|152:346,1,85,0|0,3:0|0:0,0:0:0:0:
85,129,105860,2,0,P|101:65|114:28,1,85,0|0,3:0|0:0,0:0:0:0:
311,199,106160,6,0,B|358:175|397:192|397:192|439:212|496:188,1,170,2|0,3:2|3:0,0:0:0:0:
512,116,106610,1,0,0:0:0:0:
361,266,106760,2,0,P|375:318|379:361,1,85,0|0,3:0|0:0,0:0:0:0:
259,133,107060,2,0,P|285:75|303:44,1,85,0|0,3:0|0:0,0:0:0:0:
135,243,107360,70,0,P|186:218|215:321,1,170,2|0,3:2|3:0,0:0:0:0:
168,373,107810,1,0,0:0:0:0:
28,298,107960,2,0,P|39:242|57:189,1,85,0|0,3:0|0:0,0:0:0:0:
12,33,108260,2,0,P|29:85|39:134,1,85,0|0,3:0|0:0,0:0:0:0:
129,148,108560,6,0,L|191:137,1,42.5,0|0,1:0|0:0,0:0:0:0:
253,115,108710,1,0,1:0:0:0:
274,117,108785,1,0,1:0:0:0:
307,109,108860,1,8,0:0:0:0:
341,111,108935,1,8,0:0:0:0:
391,102,109010,1,8,0:0:0:0:
442,106,109085,1,8,0:0:0:0:
505,99,109160,5,12,0:0:0:0:
12,33,109460,1,12,0:0:0:0:
505,99,109760,6,0,P|444:149|464:240,1,152.999995330811,4|0,3:2|0:0,0:0:0:0:
491,319,110060,2,0,L|349:300,1,101.999996887207,10|0,0:0|0:0,0:0:0:0:
313,218,110360,1,0,3:0:0:0:
209,355,110510,2,0,L|199:290,1,50.9999984436036,2|0,0:0|0:0,0:0:0:0:
185,210,110660,1,8,0:0:0:0:
70,296,110810,1,2,0:0:0:0:
70,296,110885,1,0,0:0:0:0:
70,296,110960,70,0,L|61:227,1,50.9999984436036,0|0,3:0|0:0,0:0:0:0:
102,154,111110,2,0,L|93:85,1,50.9999984436036,2|0,0:0|0:0,0:0:0:0:
39,35,111260,2,0,P|88:15|183:87,1,152.999995330811,8|0,0:0|0:0,0:0:0:0:
185,210,111560,1,0,3:0:0:0:
185,210,111635,1,0,0:0:0:0:
185,210,111710,2,0,P|189:177|198:145,1,50.9999984436036,2|0,0:0|0:0,0:0:0:0:
261,14,111860,2,0,P|256:75|283:114,1,101.999996887207,8|0,0:0|0:0,0:0:0:0:
382,153,112160,5,0,3:0:0:0:
171,58,112310,1,0,0:0:0:0:
403,140,112460,2,0,P|396:197|392:264,1,101.999996887207,8|0,0:0|0:0,0:0:0:0:
143,360,112760,1,0,3:0:0:0:
169,328,112835,1,0,0:0:0:0:
208,316,112910,1,2,0:0:0:0:
248,321,112985,1,0,0:0:0:0:
281,343,113060,2,0,L|406:332,1,101.999996887207,8|2,0:0|0:0,0:0:0:0:
470,305,113285,1,0,0:0:0:0:
488,323,113360,70,0,L|493:238,1,50.9999984436036,0|0,3:0|0:0,0:0:0:0:
403,140,113510,2,0,L|400:190,1,50.9999984436036
382,334,113660,1,8,0:0:0:0:
492,112,113810,2,0,L|489:162,1,50.9999984436036,2|0,0:0|0:0,0:0:0:0:
312,209,113960,5,0,3:0:0:0:
287,216,114035,1,0,0:0:0:0:
262,223,114110,2,0,P|277:198|308:173,1,50.9999984436036,8|0,0:0|0:0,0:0:0:0:
379,21,114260,1,0,3:0:0:0:
397,39,114335,1,0,0:0:0:0:
416,57,114410,2,0,P|386:56|349:42,1,50.9999984436036,8|0,0:0|0:0,0:0:0:0:
231,107,114560,37,8,0:0:0:0:
218,115,114635,1,0,1:0:0:0:
203,120,114710,1,0,1:0:0:0:
188,123,114785,1,0,1:0:0:0:
142,123,114860,1,8,0:0:0:0:
117,117,114935,1,0,1:0:0:0:
94,105,115010,1,0,1:0:0:0:
76,86,115085,1,0,1:0:0:0:
47,15,115160,5,8,0:0:0:0:
74,45,115235,1,0,1:0:0:0:
88,83,115310,1,0,1:0:0:0:
84,123,115385,1,0,1:0:0:0:
54,170,115460,1,8,0:0:0:0:
36,217,115535,1,0,1:0:0:0:
44,267,115610,1,0,1:0:0:0:
76,306,115685,1,0,1:0:0:0:
148,344,115760,5,8,0:0:0:0:
196,306,115835,1,8,0:0:0:0:
256,299,115910,1,0,1:0:0:0:
307,332,115985,1,0,1:0:0:0:
364,352,116060,1,8,0:0:0:0:
422,332,116135,1,8,0:0:0:0:
452,278,116210,1,0,1:0:0:0:
445,217,116285,1,0,1:0:0:0:
478,137,116360,5,8,0:0:0:0:
421,171,116435,1,8,0:0:0:0:
357,152,116510,1,8,0:0:0:0:
331,90,116585,1,0,1:0:0:0:
363,32,116660,1,8,0:0:0:0:
372,97,116735,1,8,0:0:0:0:
333,150,116810,1,8,0:0:0:0:
266,146,116885,1,0,1:0:0:0:
220,97,116960,38,0,B|110:57|130:135|8:102,1,203.999993774414,4|0,3:2|0:0,0:0:0:0:
44,267,117410,5,0,1:0:0:0:
59,264,117485,1,0,1:0:0:0:
74,261,117560,1,8,0:0:0:0:
136,304,117635,1,8,0:0:0:0:
211,318,117710,1,8,0:0:0:0:
283,294,117785,1,8,0:0:0:0:
331,235,117860,5,8,3:0:0:0:
347,181,117935,1,8,3:0:0:0:
386,141,118010,1,0,3:0:0:0:
439,125,118085,1,0,3:0:0:0:
493,138,118160,1,0,3:0:0:0:
484,156,118235,1,0,3:0:0:0:
439,231,118310,2,0,L|453:301,1,50.9999984436036,8|0,0:0|0:0,0:0:0:0:
467,366,118610,5,8,0:0:0:0:
44,267,118760,1,8,0:0:0:0:
59,264,118835,1,0,1:0:0:0:
84,259,118910,1,0,1:0:0:0:
109,254,118985,1,0,1:0:0:0:
149,246,119060,1,0,1:0:0:0:
189,238,119135,1,0,1:0:0:0:
239,228,119210,1,0,1:0:0:0:
289,218,119285,1,0,1:0:0:0:
351,265,119360,6,0,B|386:209|340:153|340:153|299:102|328:38,1,229.499992996216,4|0,3:2|0:0,0:0:0:0:
468,48,119660,2,0,P|431:78|390:93,1,76.4999976654053,8|0,0:0|0:0,0:0:0:0:
54,122,119810,1,2,0:0:0:0:
113,107,119885,1,0,0:0:0:0:
173,98,119960,2,0,P|207:115|235:142,1,76.4999976654053,0|0,3:0|0:0,0:0:0:0:
350,264,120110,2,0,P|386:252|420:234,1,76.4999976654053,2|0,0:0|0:0,0:0:0:0:
243,20,120260,2,0,B|217:16|217:16|203:20|203:20|168:14,1,76.4999976654053,8|0,0:0|0:0,0:0:0:0:
437,160,120410,2,0,B|472:154|472:154|486:158|486:158|524:152,1,76.4999976654053,2|0,0:0|0:0,0:0:0:0:
269,325,120560,6,0,P|228:251|142:271,1,152.999995330811,0|2,3:0|0:0,0:0:0:0:
80,324,120785,1,0,0:0:0:0:
56,343,120860,2,0,P|76:298|82:245,1,76.4999976654053,8|0,0:0|0:0,0:0:0:0:
54,122,121010,2,0,P|90:168|129:199,1,76.4999976654053,2|0,0:0|0:0,0:0:0:0:
269,325,121160,1,0,3:0:0:0:
269,325,121235,1,0,0:0:0:0:
269,325,121310,2,0,P|279:272|261:217,1,76.4999976654053,2|0,0:0|0:0,0:0:0:0:
235,142,121460,1,8,0:0:0:0:
235,142,121535,1,0,0:0:0:0:
235,142,121610,2,0,P|225:89|247:32,1,76.4999976654053
24,37,121760,69,4,3:2:0:0:
24,37,121835,1,0,0:0:0:0:
24,37,121910,2,0,B|63:33|63:33|84:39|84:39|128:34,1,97.7500018644333,2|0,0:0|0:0,0:0:0:0:
477,72,122060,1,12,0:0:0:0:
477,72,122135,1,0,0:0:0:0:
477,72,122210,2,0,B|438:68|438:68|417:74|417:74|373:69,1,97.7500018644333,2|0,0:0|0:0,0:0:0:0:
44,209,122360,53,4,3:2:0:0:
44,209,122435,1,0,0:0:0:0:
44,209,122510,2,0,B|83:205|83:205|104:211|104:211|148:206,1,89.2499972763062,2|0,0:0|0:0,0:0:0:0:
421,173,122660,1,12,0:0:0:0:
421,173,122735,1,0,0:0:0:0:
421,173,122810,2,0,B|382:169|382:169|361:175|361:175|317:170,1,89.2499972763062,2|0,0:0|0:0,0:0:0:0:
18,238,122960,38,0,B|73:232|73:232|108:241|108:241|184:230,1,152.999995330811,4|0,3:2|0:0,0:0:0:0:
235,311,123185,1,0,0:0:0:0:
252,331,123260,2,0,P|264:279|258:229,1,76.4999976654053,8|0,0:0|0:0,0:0:0:0:
210,88,123410,2,0,P|217:126|241:177,1,76.4999976654053,2|0,0:0|0:0,0:0:0:0:
431,278,123560,2,0,P|388:263|322:254,1,76.4999976654053,0|0,3:0|0:0,0:0:0:0:
144,145,123710,1,2,0:0:0:0:
114,152,123785,1,0,0:0:0:0:
77,161,123860,1,8,0:0:0:0:
45,108,123935,1,8,0:0:0:0:
57,48,124010,1,8,0:0:0:0:
106,11,124085,1,8,0:0:0:0:
166,19,124160,70,0,B|226:-5|279:37|279:37|329:72|396:48,1,229.499992996216,4|0,3:2|0:0,0:0:0:0:
497,23,124460,2,0,P|455:108|530:158,1,152.999995330811,8|2,0:0|0:0,0:0:0:0:
357,256,124685,1,0,0:0:0:0:
357,256,124760,2,0,P|334:211|301:168,1,76.4999976654053,0|0,3:0|0:0,0:0:0:0:
132,92,124910,1,2,0:0:0:0:
168,102,124985,1,0,0:0:0:0:
204,112,125060,2,0,P|243:106|291:97,1,76.4999976654053,8|0,0:0|0:0,0:0:0:0:
474,160,125210,2,0,P|440:149|378:136,1,76.4999976654053,2|0,0:0|0:0,0:0:0:0:
391,351,125360,6,0,B|333:322|278:355|278:355|224:381|166:357,1,229.499992996216,4|0,3:2|0:0,0:0:0:0:
42,373,125660,2,0,P|82:318|28:232,1,152.999995330811,8|2,0:0|0:0,0:0:0:0:
62,155,125885,1,0,0:0:0:0:
55,134,125960,2,0,P|85:155|140:170,1,76.4999976654053,0|0,3:0|0:0,0:0:0:0:
220,273,126110,2,0,P|236:230|267:188,1,76.4999976654053,2|0,0:0|0:0,0:0:0:0:
292,22,126260,2,0,P|251:127|371:175,1,229.499992996216,8|0,0:0|0:0,0:0:0:0:
419,28,126560,69,0,3:0:0:0:
408,112,126635,1,0,3:0:0:0:
437,191,126710,1,0,3:0:0:0:
399,267,126785,1,0,3:0:0:0:
391,351,126860,1,12,0:0:0:0:
405,361,127160,5,0,3:0:0:0:
413,277,127235,1,0,3:0:0:0:
451,201,127310,1,0,3:0:0:0:
422,122,127385,1,0,3:0:0:0:
433,38,127460,2,0,P|380:92|284:69,1,152.999995330811,12|0,0:0|0:0,0:0:0:0:
175,68,127685,1,8,0:0:0:0:
149,84,127760,70,0,P|192:83|232:100,1,76.4999976654053,8|0,0:0|0:0,0:0:0:0:
332,184,127910,1,8,0:0:0:0:
346,190,127985,1,0,1:0:0:0:
360,196,128060,2,0,P|320:206|274:198,1,76.4999976654053,8|0,0:0|0:0,0:0:0:0:
74,191,128210,1,8,0:0:0:0:
59,187,128285,1,0,1:0:0:0:
44,184,128360,2,0,P|81:167|128:167,1,76.4999976654053,8|0,0:0|1:0,0:0:0:0:
229,307,128510,2,0,P|208:268|177:234,1,76.4999976654053,8|0,0:0|1:0,0:0:0:0:
56,84,128660,2,0,P|38:51|25:11,1,76.4999976654053,8|0,0:0|1:0,0:0:0:0:
49,342,128810,2,0,P|75:308|104:255,1,76.4999976654053,8|0,0:0|1:0,0:0:0:0:
178,16,128960,6,0,B|235:-4|285:31|285:31|337:75|408:44,1,229.499992996216,4|0,3:2|0:0,0:0:0:0:
509,12,129260,2,0,P|496:63|489:113,1,76.4999976654053,8|0,0:0|0:0,0:0:0:0:
452,296,129410,1,2,0:0:0:0:
446,257,129485,1,0,0:0:0:0:
440,218,129560,2,0,P|426:182|396:130,1,76.4999976654053,0|0,3:0|0:0,0:0:0:0:
223,94,129710,2,0,P|261:116|314:131,1,76.4999976654053,2|0,0:0|0:0,0:0:0:0:
367,359,129860,2,0,B|372:330|372:330|368:306|368:306|372:272,1,76.4999976654053,8|0,0:0|0:0,0:0:0:0:
503,92,130010,2,0,B|498:121|498:121|502:145|502:145|498:179,1,76.4999976654053,2|0,0:0|0:0,0:0:0:0:
290,314,130160,70,0,P|243:241|166:249,1,152.999995330811,0|0,3:0|0:0,0:0:0:0:
59,271,130385,1,0,0:0:0:0:
29,289,130460,2,0,P|34:251|52:217,1,76.4999976654053,8|0,0:0|0:0,0:0:0:0:
76,99,130610,2,0,P|102:126|123:158,1,76.4999976654053,2|0,0:0|0:0,0:0:0:0:
139,338,130760,1,0,3:0:0:0:
139,338,130835,1,0,0:0:0:0:
139,338,130910,2,0,P|174:323|211:312,1,76.4999976654053,2|0,0:0|0:0,0:0:0:0:
223,94,131060,1,8,0:0:0:0:
223,94,131135,1,0,0:0:0:0:
223,94,131210,2,0,P|258:107|306:137,1,76.4999976654053,2|0,0:0|0:0,0:0:0:0:
451,365,131360,5,4,3:2:0:0:
451,365,131435,1,0,0:0:0:0:
451,365,131510,2,0,B|446:339|446:339|452:314|452:314|439:249,1,89.2499972763062,2|0,0:0|0:0,0:0:0:0:
448,12,131660,1,12,0:0:0:0:
448,12,131735,1,0,0:0:0:0:
448,12,131810,2,0,B|443:38|443:38|449:63|449:63|436:128,1,93.5000028533936,2|0,0:0|0:0,0:0:0:0:
303,326,131960,69,4,3:2:0:0:
303,326,132035,1,0,0:0:0:0:
303,326,132110,2,0,B|298:300|298:300|304:275|304:275|291:210,1,97.7500018644333,2|0,0:0|0:0,0:0:0:0:
299,34,132260,1,12,0:0:0:0:
299,34,132335,1,0,0:0:0:0:
299,34,132410,2,0,B|294:60|294:60|300:85|300:85|287:150,1,93.5000028533936,2|0,0:0|0:0,0:0:0:0:
374,167,132560,6,0,B|317:173|317:173|292:182|292:182|266:175|266:175|201:180,1,170,4|2,3:2|0:0,0:0:0:0:
133,267,132785,1,0,0:0:0:0:
113,294,132860,2,0,P|102:243|139:186,1,85,8|0,0:0|0:0,0:0:0:0:
117,27,133010,2,0,P|135:77|127:125,1,85,2|0,0:0|0:0,0:0:0:0:
291,182,133160,1,0,3:0:0:0:
291,182,133235,1,0,0:0:0:0:
291,182,133310,2,0,B|259:177|259:177|241:182|241:182|179:174,1,85,2|0,0:0|0:0,0:0:0:0:
32,321,133460,1,8,0:0:0:0:
68,367,133535,1,8,0:0:0:0:
126,379,133610,1,8,0:0:0:0:
180,356,133685,1,8,0:0:0:0:
211,284,133760,70,0,L|424:271,1,170,4|0,3:2|0:0,0:0:0:0:
462,323,133985,1,0,0:0:0:0:
480,345,134060,2,0,P|488:301|469:249,1,85,8|0,0:0|0:0,0:0:0:0:
381,118,134210,2,0,P|389:159|437:207,1,85,2|0,0:0|0:0,0:0:0:0:
512,51,134360,1,0,3:0:0:0:
512,51,134435,1,0,0:0:0:0:
512,51,134510,2,0,B|471:43|471:43|452:49|452:49|411:42,1,85,2|0,0:0|0:0,0:0:0:0:
250,97,134660,1,8,0:0:0:0:
250,97,134735,1,0,0:0:0:0:
250,97,134810,2,0,B|209:105|209:105|190:99|190:99|149:106,1,85,2|0,0:0|0:0,0:0:0:0:
2,232,134960,6,0,P|88:195|161:265,1,170,4|0,3:2|0:0,0:0:0:0:
160,331,135185,1,0,0:0:0:0:
179,347,135260,2,0,P|142:358|77:329,1,85,8|0,0:0|0:0,0:0:0:0:
215,172,135410,2,0,P|236:212|225:271,1,85,2|0,0:0|0:0,0:0:0:0:
357,326,135560,1,0,3:0:0:0:
357,326,135635,1,0,0:0:0:0:
357,326,135710,2,0,B|313:341|313:341|258:332,1,85,2|0,0:0|0:0,0:0:0:0:
2,232,135860,1,8,0:0:0:0:
2,232,135935,1,0,0:0:0:0:
2,232,136010,2,0,B|33:203|33:203|108:191,1,85,2|0,0:0|0:0,0:0:0:0:
270,105,136160,37,8,0:0:0:0:
285,111,136235,1,0,1:0:0:0:
301,114,136310,1,0,1:0:0:0:
317,112,136385,1,0,1:0:0:0:
371,89,136460,1,8,0:0:0:0:
386,82,136535,1,0,1:0:0:0:
402,79,136610,1,0,1:0:0:0:
418,80,136685,1,0,1:0:0:0:
484,65,136760,5,8,0:0:0:0:
453,95,136835,1,0,1:0:0:0:
449,137,136910,1,0,1:0:0:0:
464,176,136985,1,0,1:0:0:0:
491,237,137060,1,8,0:0:0:0:
491,279,137135,1,0,1:0:0:0:
465,312,137210,1,0,1:0:0:0:
423,320,137285,1,0,1:0:0:0:
345,355,137360,5,8,0:0:0:0:
298,318,137435,1,0,1:0:0:0:
240,302,137510,1,0,1:0:0:0:
181,313,137585,1,0,1:0:0:0:
104,368,137660,1,8,0:0:0:0:
128,313,137735,1,0,1:0:0:0:
117,254,137810,1,0,1:0:0:0:
73,213,137885,1,0,1:0:0:0:
1,249,137960,21,8,3:0:0:0:
50,237,138035,1,8,3:0:0:0:
99,225,138110,1,8,3:0:0:0:
148,213,138185,1,8,3:0:0:0:
197,201,138260,2,0,P|228:185|287:132,1,76.4999976654053,0|0,3:0|3:0,0:0:0:0:
440,13,138410,2,0,P|424:57|408:117,1,76.4999976654053,0|0,3:0|3:0,0:0:0:0:
423,320,138560,38,0,B|374:301|321:330|321:330|271:356|206:337,1,216.750004134178,4|0,3:2|0:0,0:0:0:0:
71,384,138860,2,0,P|64:346|33:297,1,72.2500013780594,8|0,0:0|0:0,0:0:0:0:
43,97,139010,1,2,0:0:0:0:
30,130,139085,1,0,0:0:0:0:
17,162,139160,1,2,3:2:0:0:
213,338,139310,2,0,L|245:242,1,72.2500013780594,2|0,0:0|0:0,0:0:0:0:
331,145,139460,2,0,L|231:165,1,72.2500013780594,8|0,0:0|0:0,0:0:0:0:
105,140,139610,2,0,L|172:215,1,72.2500013780594,2|0,0:0|0:0,0:0:0:0:
337,254,139760,69,0,3:0:0:0:
337,254,139835,1,0,0:0:0:0:
337,254,139910,2,0,P|376:243|428:236,1,59.4999981842042,2|0,0:0|0:0,0:0:0:0:
415,85,140060,1,8,0:0:0:0:
415,85,140135,1,0,0:0:0:0:
415,85,140210,2,0,P|455:88|506:99,1,59.4999981842042,2|0,0:0|0:0,0:0:0:0:
412,329,140360,5,0,3:0:0:0:
412,329,140435,1,0,0:0:0:0:
411,329,140511,2,0,P|371:335|332:345,1,80.7499978437424,2|0,0:0|0:0,0:0:0:0:
259,158,140660,1,8,0:0:0:0:
259,158,140735,1,0,0:0:0:0:
259,158,140811,2,0,P|221:143|182:133,1,80.7499978437424,2|0,0:0|0:0,0:0:0:0:
33,355,140960,70,0,P|37:267|125:272,1,144.500002756119,0|2,3:0|0:0,0:0:0:0:
163,293,141185,1,0,0:0:0:0:
176,314,141260,2,0,P|201:263|187:210,1,72.2500013780594,8|0,0:0|0:0,0:0:0:0:
77,92,141410,1,2,0:0:0:0:
87,130,141485,1,0,0:0:0:0:
98,168,141560,1,0,3:0:0:0:
256,356,141710,1,2,0:0:0:0:
266,318,141785,1,0,0:0:0:0:
277,280,141860,1,8,0:0:0:0:
512,102,142010,6,0,P|462:184|323:133,1,216.750004134178,4|0,3:2|0:0,0:0:0:0:
307,44,142310,1,0,3:0:0:0:
307,44,142385,1,0,0:0:0:0:
307,44,142460,2,0,P|291:75|297:134,1,72.2500013780594,8|0,0:0|0:0,0:0:0:0:
341,350,142610,70,0,P|287:245|157:298,1,216.750004134178,4|0,3:2|0:0,0:0:0:0:
117,320,142910,1,0,1:0:0:0:
106,285,142985,1,0,1:0:0:0:
93,251,143060,1,8,0:0:0:0:
81,194,143135,1,8,0:0:0:0:
100,139,143210,1,0,3:0:0:0:
151,112,143285,1,0,3:0:0:0:
205,131,143360,6,0,B|258:107|311:139|311:139|377:175|460:124,1,216.750004134178,4|0,3:2|0:0,0:0:0:0:
502,44,143660,2,0,L|494:206,1,144.500002756119,8|2,0:0|0:0,0:0:0:0:
412,235,143885,1,0,0:0:0:0:
388,239,143960,2,0,P|437:265|487:254,1,72.2500013780594,0|0,3:0|0:0,0:0:0:0:
271,285,144110,2,0,P|223:314|208:363,1,72.2500013780594,2|0,0:0|0:0,0:0:0:0:
289,152,144260,2,0,P|287:96|252:58,1,72.2500013780594,8|0,0:0|0:0,0:0:0:0:
139,307,144410,2,0,P|140:362|175:400,1,72.2500013780594,2|0,0:0|0:0,0:0:0:0:
15,93,144560,69,0,3:0:0:0:
190,232,144710,1,2,0:0:0:0:
190,232,144785,1,0,0:0:0:0:
190,232,144860,2,0,L|180:145,1,72.2500013780594,8|0,0:0|0:0,0:0:0:0:
169,60,145010,1,2,0:0:0:0:
66,268,145160,1,0,3:0:0:0:
360,140,145310,2,0,L|274:154,1,72.2500013780594,2|0,0:0|0:0,0:0:0:0:
101,126,145460,1,8,0:0:0:0:
304,267,145610,1,8,0:0:0:0:
296,209,145685,1,8,0:0:0:0:
288,151,145760,69,8,0:0:0:0:
285,129,145835,1,0,1:0:0:0:
291,108,145910,1,0,1:0:0:0:
303,90,145985,1,0,1:0:0:0:
340,66,146060,1,8,0:0:0:0:
360,63,146135,1,0,1:0:0:0:
381,67,146210,1,0,1:0:0:0:
399,76,146285,1,0,1:0:0:0:
445,142,146360,69,8,0:0:0:0:
431,175,146435,1,0,1:0:0:0:
424,210,146510,1,0,1:0:0:0:
428,245,146585,1,0,1:0:0:0:
453,288,146660,1,8,0:0:0:0:
420,272,146735,1,0,1:0:0:0:
384,276,146810,1,0,1:0:0:0:
351,292,146885,1,0,1:0:0:0:
293,344,146960,37,0,3:0:0:0:
242,371,147035,1,0,1:0:0:0:
184,371,147110,1,0,1:0:0:0:
132,344,147185,1,0,1:0:0:0:
110,290,147260,1,8,0:0:0:0:
111,232,147335,1,8,0:0:0:0:
144,184,147410,1,8,0:0:0:0:
146,126,147485,1,8,0:0:0:0:
72,90,147560,5,8,0:0:0:0:
125,138,147635,1,8,0:0:0:0:
195,153,147710,1,8,0:0:0:0:
266,141,147785,1,8,0:0:0:0:
318,81,147860,1,8,0:0:0:0:
395,62,147935,1,8,0:0:0:0:
464,100,148010,1,8,0:0:0:0:
481,177,148085,1,8,0:0:0:0:
440,245,148160,6,0,B|386:216|336:249|336:249|289:287|207:257,1,216.750004134178,4|0,3:2|0:0,0:0:0:0:
117,343,148460,2,0,P|121:296|120:248,1,72.2500013780594,8|0,0:0|0:0,0:0:0:0:
72,90,148610,1,2,0:0:0:0:
72,90,148685,1,0,0:0:0:0:
72,90,148760,2,0,P|124:77|178:68,1,72.2500013780594,0|0,3:0|0:0,0:0:0:0:
381,161,148910,1,2,0:0:0:0:
381,161,148985,1,0,0:0:0:0:
381,161,149060,2,0,P|329:148|275:139,1,72.2500013780594,8|0,0:0|0:0,0:0:0:0:
27,294,149210,1,2,0:0:0:0:
27,294,149285,1,0,0:0:0:0:
27,294,149360,70,0,P|36:252|54:202,1,72.2500013780594,0|0,3:0|0:0,0:0:0:0:
253,13,149510,2,0,P|240:66|217:115,1,72.2500013780594,2|0,0:0|0:0,0:0:0:0:
234,265,149660,1,8,0:0:0:0:
72,90,149810,2,0,P|87:128|115:170,1,72.2500013780594,2|0,0:0|0:0,0:0:0:0:
243,283,149960,2,0,L|388:273,1,144.500002756119,0|2,3:0|0:0,0:0:0:0:
392,286,150185,1,0,0:0:0:0:
397,299,150260,1,8,0:0:0:0:
434,255,150335,1,0,0:0:0:0:
428,197,150410,1,2,0:0:0:0:
385,157,150485,1,0,0:0:0:0:
327,158,150560,6,0,P|284:165|228:159,1,72.2500013780594,0|0,3:0|0:0,0:0:0:0:
441,41,150710,2,0,P|468:74|491:126,1,72.2500013780594,2|0,0:0|0:0,0:0:0:0:
276,69,150860,1,8,0:0:0:0:
238,35,150935,1,0,0:0:0:0:
188,27,151010,1,2,0:0:0:0:
141,46,151085,1,0,0:0:0:0:
106,82,151160,2,0,L|113:187,1,72.2500013780594,0|0,3:0|0:0,0:0:0:0:
62,318,151310,1,2,0:0:0:0:
62,318,151385,1,0,0:0:0:0:
62,318,151460,2,0,P|63:278|51:241,1,72.2500013780594,8|0,0:0|0:0,0:0:0:0:
10,71,151610,2,0,P|17:108|38:159,1,72.2500013780594,2|0,0:0|0:0,0:0:0:0:
177,321,151760,69,0,3:0:0:0:
196,112,151910,2,0,P|204:146|224:187,1,72.2500013780594,2|0,0:0|0:0,0:0:0:0:
350,282,152060,1,8,0:0:0:0:
350,282,152135,1,0,0:0:0:0:
350,282,152210,2,0,P|350:235|358:184,1,72.2500013780594,2|0,0:0|0:0,0:0:0:0:
370,78,152360,2,0,P|392:119|422:148,1,72.2500013780594,0|0,3:0|0:0,0:0:0:0:
478,259,152510,2,0,P|494:214|496:176,1,72.2500013780594,2|0,0:0|0:0,0:0:0:0:
374,358,152660,1,8,0:0:0:0:
302,348,152735,1,8,0:0:0:0:
230,338,152810,1,8,0:0:0:0:
158,329,152885,1,8,0:0:0:0:
80,340,152960,6,0,L|102:175,1,144.500002756119,4|2,3:2|0:0,0:0:0:0:
79,76,153185,1,0,0:0:0:0:
82,47,153260,2,0,P|90:83|119:136,1,72.2500013780594,8|0,0:0|0:0,0:0:0:0:
185,243,153410,2,0,P|203:201|233:165,1,72.2500013780594,2|0,0:0|0:0,0:0:0:0:
368,105,153560,1,0,3:0:0:0:
321,124,153635,1,0,0:0:0:0:
270,119,153710,1,2,0:0:0:0:
232,84,153785,1,0,0:0:0:0:
220,34,153860,2,0,P|244:58|256:102,1,72.2500013780594,8|0,0:0|0:0,0:0:0:0:
185,243,154010,1,0,0:0:0:0:
190,264,154085,1,0,0:0:0:0:
195,285,154160,69,0,3:0:0:0:
233,345,154235,1,0,0:0:0:0:
303,362,154310,1,2,0:0:0:0:
374,349,154385,1,0,0:0:0:0:
424,287,154460,1,8,0:0:0:0:
436,208,154535,1,0,0:0:0:0:
449,129,154610,1,2,0:0:0:0:
454,71,154685,1,0,0:0:0:0:
459,35,154760,6,0,P|432:59|420:109,1,72.2500013780594,0|2,3:0|0:0,0:0:0:0:
310,246,154910,1,0,0:0:0:0:
313,210,154985,1,0,0:0:0:0:
316,174,155060,1,8,0:0:0:0:
301,103,155135,1,0,0:0:0:0:
240,63,155210,1,0,0:0:0:0:
167,66,155285,1,0,0:0:0:0:
110,111,155360,6,0,L|122:169,3,42.5,12|0|0|0,0:2|1:0|1:0|1:0,0:0:0:0:
13,245,155660,2,0,L|25:187,3,50.9999984436036,12|0|0|0,0:2|1:0|1:0|1:0,0:0:0:0:
119,344,155960,5,8,0:0:0:0:
154,307,156035,1,0,1:0:0:0:
201,289,156110,1,0,1:0:0:0:
251,291,156185,1,0,1:0:0:0:
318,349,156260,1,8,0:0:0:0:
300,286,156335,1,0,1:0:0:0:
319,223,156410,1,0,1:0:0:0:
368,180,156485,1,0,1:0:0:0:
449,185,156560,37,8,0:0:0:0:
383,214,156635,1,8,0:0:0:0:
313,193,156710,1,0,1:0:0:0:
273,132,156785,1,0,1:0:0:0:
210,83,156860,1,8,0:0:0:0:
131,72,156935,1,8,0:0:0:0:
63,113,157010,1,0,1:0:0:0:
30,185,157085,1,0,1:0:0:0:
44,263,157160,5,8,0:0:0:0:
90,327,157235,1,8,0:0:0:0:
168,340,157310,1,8,0:0:0:0:
241,310,157385,1,8,0:0:0:0:
314,339,157460,1,8,3:0:0:0:
291,285,157535,1,8,3:0:0:0:
302,228,157610,1,0,3:0:0:0:
343,187,157685,1,0,3:0:0:0:
400,178,157760,6,0,L|238:156,1,140.25000428009,4|0,3:2|0:0,0:0:0:0:
194,246,158060,2,0,P|156:211|98:195,1,93.5000028533936,0|0,3:0|0:0,0:0:0:0:
70,9,158360,2,0,P|45:80|59:118,1,93.5000028533936,0|0,3:0|0:0,0:0:0:0:
4,334,158660,2,0,P|42:279|37:234,1,93.5000028533936,0|0,3:0|0:0,0:0:0:0:
161,92,158960,6,0,B|205:78|246:102|246:102|289:128|345:106,2,187.000005706787,0|0|0,3:0|3:0|3:0,0:0:0:0:
293,27,159710,1,0,0:0:0:0:
364,245,159860,2,0,P|382:191|408:145,1,93.5000028533936,0|0,3:0|0:0,0:0:0:0:
161,92,160160,70,0,P|132:155|236:220,1,187.000005706787,2|0,3:2|3:0,0:0:0:0:
305,171,160610,1,0,0:0:0:0:
207,338,160760,2,0,P|149:322|95:314,1,93.5000028533936,0|0,3:0|0:0,0:0:0:0:
0,218,161060,2,0,P|72:191|108:168,1,93.5000028533936,0|0,3:0|0:0,0:0:0:0:
226,39,161360,6,0,L|205:252,1,187.000005706787,2|0,3:2|3:0,0:0:0:0:
116,316,161810,1,0,0:0:0:0:
313,238,161960,2,0,P|385:229|420:230,1,93.5000028533936,0|0,3:0|0:0,0:0:0:0:
173,122,162260,2,0,P|132:94|93:59,1,93.5000028533936,0|0,3:0|0:0,0:0:0:0:
404,33,162560,70,0,P|441:117|396:165,1,140.25000428009,2|0,3:2|0:0,0:0:0:0:
313,238,162860,2,0,P|263:240|198:264,1,93.5000028533936,0|0,3:0|0:0,0:0:0:0:
41,371,163160,2,0,P|89:343|121:308,1,93.5000028533936,0|0,3:0|0:0,0:0:0:0:
29,125,163460,2,0,P|38:206|55:238,1,93.5000028533936,0|0,3:0|0:0,0:0:0:0:
313,238,163760,6,0,B|363:220|407:246|407:246|454:273|513:246,1,187.000005706787,2|0,3:2|3:0,0:0:0:0:
351,320,164210,1,0,0:0:0:0:
443,77,164360,2,0,P|460:155|462:197,1,93.5000028533936,0|0,3:0|0:0,0:0:0:0:
209,339,164660,2,0,P|225:270|240:228,1,93.5000028533936,0|0,3:0|0:0,0:0:0:0:
311,25,164960,70,0,P|351:74|262:153,1,187.000005706787,2|0,3:2|3:0,0:0:0:0:
160,112,165410,1,0,0:0:0:0:
351,320,165560,2,0,P|334:256|314:215,1,93.5000028533936,0|2,3:0|0:0,0:0:0:0:
160,112,165860,2,0,P|136:188|131:218,1,93.5000028533936,0|2,3:0|0:0,0:0:0:0:
61,322,166160,5,0,1:0:0:0:
227,236,166310,1,0,1:0:0:0:
33,103,166460,2,0,P|44:130|51:168,1,55.2499974708558,0|0,1:0|1:0,0:0:0:0:
155,360,166610,2,0,P|152:318|170:247,1,63.7500024318696,0|0,1:0|1:0,0:0:0:0:
99,28,166760,5,4,3:2:0:0:
485,276,167060,1,12,0:0:0:0:
99,28,167360,6,0,P|145:94|260:62,1,178.499994552612,4|0,3:2|0:0,0:0:0:0:
330,15,167660,2,0,L|313:160,1,118.999996368408,8|0,0:0|0:0,0:0:0:0:
297,281,167960,1,0,3:0:0:0:
418,81,168110,2,0,L|406:172,1,59.4999981842042,2|0,0:0|0:0,0:0:0:0:
384,330,168260,1,8,0:0:0:0:
499,137,168410,1,2,0:0:0:0:
499,137,168485,1,0,0:0:0:0:
499,137,168560,70,0,L|487:221,1,59.4999981842042,0|0,3:0|0:0,0:0:0:0:
476,304,168710,1,2,0:0:0:0:
509,46,168860,1,8,0:0:0:0:
400,236,169010,1,0,0:0:0:0:
325,75,169160,1,0,3:0:0:0:
325,75,169235,1,0,0:0:0:0:
325,75,169310,2,0,L|316:142,1,59.4999981842042,2|0,0:0|0:0,0:0:0:0:
208,299,169460,1,8,0:0:0:0:
208,299,169535,1,0,0:0:0:0:
208,299,169610,2,0,L|217:232,1,59.4999981842042,2|0,0:0|0:0,0:0:0:0:
154,70,169760,5,0,3:0:0:0:
128,268,169910,2,0,L|142:180,1,59.4999981842042,2|0,0:0|0:0,0:0:0:0:
235,24,170060,1,8,0:0:0:0:
306,226,170210,1,0,0:0:0:0:
70,109,170360,1,0,3:0:0:0:
67,138,170435,1,0,0:0:0:0:
62,167,170510,1,2,0:0:0:0:
58,196,170585,1,0,0:0:0:0:
54,225,170660,1,8,0:0:0:0:
223,166,170810,1,2,0:0:0:0:
223,166,170885,1,0,0:0:0:0:
223,166,170960,70,0,L|241:103,1,59.4999981842042,0|0,3:0|0:0,0:0:0:0:
363,14,171110,2,0,L|374:100,1,59.4999981842042,2|0,0:0|0:0,0:0:0:0:
393,208,171260,1,8,0:0:0:0:
149,10,171410,2,0,L|156:105,1,59.4999981842042
168,282,171560,1,0,3:0:0:0:
169,311,171635,1,0,0:0:0:0:
170,340,171710,2,0,P|190:299|190:266,1,59.4999981842042,8|0,0:0|0:0,0:0:0:0:
77,149,171860,1,0,3:0:0:0:
51,135,171935,1,0,0:0:0:0:
25,121,172010,2,0,P|50:158|79:175,1,59.4999981842042,10|0,0:0|0:0,0:0:0:0:
262,229,172160,53,8,0:0:0:0:
286,212,172235,1,0,1:0:0:0:
314,205,172310,1,0,1:0:0:0:
343,209,172385,1,0,1:0:0:0:
382,234,172460,1,8,0:0:0:0:
411,239,172535,1,0,1:0:0:0:
438,227,172610,1,0,1:0:0:0:
456,203,172685,1,0,1:0:0:0:
464,132,172760,5,8,0:0:0:0:
454,85,172835,1,0,1:0:0:0:
422,49,172910,1,0,1:0:0:0:
375,37,172985,1,0,1:0:0:0:
310,50,173060,1,8,0:0:0:0:
274,81,173135,1,0,1:0:0:0:
265,127,173210,1,0,1:0:0:0:
278,172,173285,1,0,1:0:0:0:
309,249,173360,5,8,0:0:0:0:
298,313,173435,1,8,0:0:0:0:
247,354,173510,1,0,1:0:0:0:
181,354,173585,1,0,1:0:0:0:
132,309,173660,1,8,0:0:0:0:
134,243,173735,1,8,0:0:0:0:
163,184,173810,1,0,1:0:0:0:
152,119,173885,1,0,1:0:0:0:
67,89,173960,5,8,0:0:0:0:
109,146,174035,1,8,0:0:0:0:
178,160,174110,1,8,0:0:0:0:
248,146,174185,1,0,1:0:0:0:
294,91,174260,1,8,0:0:0:0:
364,77,174335,1,8,0:0:0:0:
430,101,174410,1,8,0:0:0:0:
457,167,174485,1,0,1:0:0:0:
430,244,174560,38,0,B|386:267|342:246|342:246|308:267|308:267|246:227|177:266,1,237.999992736817,4|0,3:2|0:0,0:0:0:0:
64,346,175010,1,0,3:0:0:0:
69,316,175085,1,0,3:0:0:0:
74,286,175160,69,8,0:0:0:0:
47,213,175235,1,8,0:0:0:0:
63,137,175310,1,8,0:0:0:0:
130,98,175385,1,8,0:0:0:0:
206,111,175460,1,8,3:0:0:0:
252,156,175535,1,8,3:0:0:0:
317,162,175610,1,0,3:0:0:0:
373,142,175685,1,0,3:0:0:0:
400,89,175760,69,8,0:0:0:0:
47,213,175960,5,8,0:0:0:0:
429,360,176160,70,0,L|339:337,1,79.3333309122722,8|0,0:0|0:0,0:0:0:0:
64,346,176360,5,8,0:0:0:0:
451,209,176560,70,0,L|491:214,3,39.6666654561361,8|0|0|0,0:0|1:0|1:0|1:0,0:0:0:0:
296,66,176760,5,8,0:0:0:0:
296,66,187160,54,0,L|307:151,1,85,2|2,0:0|0:0,0:0:0:0:
355,250,187760,2,0,P|370:186|294:153,1,148.75,2|0,0:0|0:0,0:0:0:0:
233,192,188360,2,0,L|130:181,1,85,2|0,0:0|0:0,0:0:0:0:
148,182,188960,22,0,B|219:155|280:203|280:203|336:248|424:204,1,255
486,346,189260,2,0,P|474:292|469:249,1,85,8|0,0:0|0:0,0:0:0:0:
453,8,189410,1,2,0:0:0:0:
465,48,189485,1,0,0:0:0:0:
477,88,189560,2,0,P|475:123|457:180,1,85,0|0,3:0|0:0,0:0:0:0:
367,300,189710,2,0,P|378:250|393:205,1,85,2|0,0:0|0:0,0:0:0:0:
348,52,189860,2,0,B|339:84|339:84|343:107|343:107|329:156,1,85,8|0,0:0|0:0,0:0:0:0:
192,346,190010,2,0,B|201:314|201:314|197:291|197:291|211:242,1,85,2|0,0:0|0:0,0:0:0:0:
13,58,190160,69,4,3:2:0:0:
13,58,190235,1,0,0:0:0:0:
13,58,190310,2,0,B|50:54|50:54|84:63|84:63|144:57,1,106.25,2|0,0:0|0:0,0:0:0:0:
512,104,190460,5,12,0:0:0:0:
512,104,190535,1,0,0:0:0:0:
512,104,190610,2,0,B|475:100|475:100|441:109|441:109|381:103,1,106.25,2|0,0:0|0:0,0:0:0:0:
44,172,190760,37,4,3:2:0:0:
44,172,190835,1,0,0:0:0:0:
44,172,190910,2,0,B|81:168|81:168|115:177|115:177|175:171,1,97.7500018644333,2|0,0:0|0:0,0:0:0:0:
492,216,191060,5,12,0:0:0:0:
492,216,191135,1,0,0:0:0:0:
492,216,191210,2,0,B|455:212|455:212|421:221|421:221|361:215,1,97.7500018644333
38,264,191360,6,0,B|99:255|99:255|140:271|140:271|234:260,1,170,4|2,3:2|0:0,0:0:0:0:
274,352,191585,1,0,0:0:0:0:
291,370,191660,2,0,P|316:325|311:259,1,85,8|0,0:0|0:0,0:0:0:0:
241,102,191810,2,0,P|265:161|305:189,1,85,2|0,0:0|0:0,0:0:0:0:
447,383,191960,5,0,3:0:0:0:
458,341,192035,1,0,0:0:0:0:
469,299,192110,1,2,0:0:0:0:
480,257,192185,1,0,0:0:0:0:
492,216,192260,1,8,0:0:0:0:
496,148,192335,1,8,0:0:0:0:
450,97,192410,1,8,0:0:0:0:
383,81,192485,1,8,0:0:0:0:
320,108,192560,70,0,B|263:81|200:121|200:121|141:165|56:131,1,255,4|0,3:2|0:0,0:0:0:0:
16,243,192860,1,8,0:0:0:0:
16,243,192935,1,0,0:0:0:0:
16,243,193010,2,0,P|69:231|127:225,1,85,2|0,0:0|0:0,0:0:0:0:
44,22,193160,1,0,3:0:0:0:
44,22,193235,1,0,0:0:0:0:
44,22,193310,2,0,P|95:38|149:61,1,85,2|0,0:0|0:0,0:0:0:0:
179,270,193460,2,0,P|232:258|290:252,1,85,8|0,0:0|0:0,0:0:0:0:
198,2,193610,2,0,P|249:18|303:41,1,85,2|0,0:0|0:0,0:0:0:0:
473,114,193760,6,0,B|404:87|352:121|352:121|286:162|189:115,1,255,4|0,3:2|0:0,0:0:0:0:
124,49,194060,1,8,0:0:0:0:
124,49,194135,1,0,0:0:0:0:
124,49,194210,2,0,P|84:34|44:22,1,85,2|0,0:0|0:0,0:0:0:0:
16,243,194360,1,0,3:0:0:0:
16,243,194435,1,0,0:0:0:0:
16,243,194510,2,0,P|69:231|127:225,1,85,2|0,0:0|0:0,0:0:0:0:
297,28,194660,2,0,P|257:12|216:0,1,85,8|0,0:0|0:0,0:0:0:0:
191,286,194810,2,0,P|244:274|302:268,1,85,2|0,0:0|0:0,0:0:0:0:
437,151,194960,69,0,3:0:0:0:
335,159,195035,1,0,3:0:0:0:
242,115,195110,1,0,3:0:0:0:
146,151,195185,1,0,3:0:0:0:
44,139,195260,1,12,0:0:0:0:
35,124,195560,5,0,3:0:0:0:
144,141,195635,1,0,3:0:0:0:
244,94,195710,1,0,3:0:0:0:
340,149,195785,1,0,3:0:0:0:
450,136,195860,2,0,P|395:198|438:273,1,170,12|0,0:0|0:0,0:0:0:0:
348,346,196085,1,0,1:0:0:0:
351,375,196160,70,0,P|299:338|223:344,1,85,8|0,0:0|0:0,0:0:0:0:
44,261,196310,1,8,0:0:0:0:
71,293,196385,1,0,1:0:0:0:
98,324,196460,2,0,P|93:265|43:236,1,85,8|0,0:0|0:0,0:0:0:0:
92,61,196610,1,8,0:0:0:0:
63,92,196685,1,0,1:0:0:0:
35,124,196760,2,0,P|92:117|121:87,1,85,8|0,0:0|0:0,0:0:0:0:
340,61,196910,2,0,P|286:29|220:33,1,85,8|0,0:0|1:0,0:0:0:0:
187,264,197060,2,0,P|184:306|199:346,1,85,8|0,0:0|1:0,0:0:0:0:
450,136,197210,2,0,P|469:91|466:28,1,85,8|0,0:0|1:0,0:0:0:0:
35,124,197360,6,0,B|95:105|147:145|147:145|212:189|286:157,1,255,4|0,3:2|0:0,0:0:0:0:
417,221,197660,2,0,P|367:238|322:259,1,85,8|0,0:0|0:0,0:0:0:0:
70,210,197810,1,2,0:0:0:0:
85,249,197885,1,0,0:0:0:0:
100,288,197960,2,0,P|92:340|79:376,1,85,0|0,3:0|0:0,0:0:0:0:
212,83,198110,2,0,P|199:40|193:-7,1,85,2|0,0:0|0:0,0:0:0:0:
327,334,198260,2,0,B|334:305|334:305|330:284|330:284|337:251,1,85,8|0,0:0|0:0,0:0:0:0:
459,52,198410,2,0,B|453:82|453:82|457:103|457:103|450:136,1,85,2|0,0:0|0:0,0:0:0:0:
225,308,198560,70,0,P|234:221|154:184,1,170,0|2,3:0|0:0,0:0:0:0:
111,65,198785,1,0,0:0:0:0:
95,45,198860,2,0,P|90:86|115:139,1,85,8|0,0:0|0:0,0:0:0:0:
363,174,199010,2,0,P|331:151|272:144,1,85,2|0,0:0|0:0,0:0:0:0:
88,291,199160,1,0,3:0:0:0:
88,291,199235,1,0,0:0:0:0:
88,291,199310,2,0,P|133:277|174:258,1,85,2|0,0:0|0:0,0:0:0:0:
327,334,199460,1,8,0:0:0:0:
327,334,199535,1,0,0:0:0:0:
327,334,199610,2,0,P|368:355|405:381,1,85,2|0,0:0|0:0,0:0:0:0:
375,4,199760,5,4,3:2:0:0:
375,4,199835,1,0,0:0:0:0:
375,4,199910,2,0,P|349:57|357:108,1,93.5000028533936,2|0,0:0|0:0,0:0:0:0:
327,334,200060,69,12,0:0:0:0:
327,334,200135,1,0,0:0:0:0:
327,334,200210,2,0,P|331:281|301:223,1,101.999996887207,2|0,0:0|0:0,0:0:0:0:
104,126,200360,5,4,3:2:0:0:
104,126,200435,1,0,0:0:0:0:
104,126,200510,2,0,B|140:120|140:120|170:130|170:130|220:122,1,106.25,2|0,0:0|0:0,0:0:0:0:
493,177,200660,69,12,0:0:0:0:
493,177,200735,1,0,0:0:0:0:
493,177,200810,2,0,B|457:171|457:171|427:181|427:181|377:173,1,101.999996887207,2|0,0:0|0:0,0:0:0:0:
238,300,200960,6,0,P|186:209|111:233,1,170,4|2,3:2|0:0,0:0:0:0:
83,347,201185,1,0,0:0:0:0:
95,374,201260,2,0,P|108:338|87:283,1,85,8|0,0:0|0:0,0:0:0:0:
2,146,201410,2,0,P|23:192|55:218,1,85,2|0,0:0|0:0,0:0:0:0:
238,300,201560,1,0,3:0:0:0:
238,300,201635,1,0,0:0:0:0:
238,300,201710,2,0,B|276:295|276:295|294:300|294:300|340:294,1,85,2|0,0:0|0:0,0:0:0:0:
445,352,201860,1,8,0:0:0:0:
398,292,201935,1,8,0:0:0:0:
390,215,202010,1,8,0:0:0:0:
418,144,202085,1,8,0:0:0:0:
485,107,202160,70,0,P|416:167|300:98,1,170,4|2,3:2|0:0,0:0:0:0:
289,69,202385,1,0,0:0:0:0:
314,49,202460,2,0,P|259:42|215:60,1,85,8|0,0:0|0:0,0:0:0:0:
68,42,202610,2,0,P|107:71|154:78,1,85,2|0,0:0|0:0,0:0:0:0:
344,155,202760,1,0,3:0:0:0:
344,155,202835,1,0,0:0:0:0:
344,155,202910,2,0,L|241:164,1,85,2|0,0:0|0:0,0:0:0:0:
37,238,203060,1,8,0:0:0:0:
37,238,203135,1,0,0:0:0:0:
37,238,203210,2,0,L|153:256,1,85,2|0,0:0|0:0,0:0:0:0:
328,351,203360,5,0,3:0:0:0:
325,334,203435,1,0,1:0:0:0:
322,317,203510,1,8,0:0:0:0:
319,300,203585,1,0,1:0:0:0:
316,283,203660,1,0,3:0:0:0:
313,266,203735,1,0,1:0:0:0:
310,249,203810,1,8,0:0:0:0:
307,232,203885,1,0,1:0:0:0:
344,155,203960,69,0,3:0:0:0:
284,215,204035,1,0,0:0:0:0:
200,232,204110,1,8,0:0:0:0:
119,204,204185,1,0,0:0:0:0:
80,128,204260,2,0,P|122:116|186:117,1,85,0|0,3:0|1:0,0:0:0:0:
473,261,204410,2,0,P|434:250|380:221,1,85,8|0,0:0|1:0,0:0:0:0:
316,18,204560,21,0,3:0:0:0:
316,18,204860,70,0,P|288:89|372:158,1,170,12|0,0:0|0:0,0:0:0:0:
466,98,205085,1,0,0:0:0:0:
502,84,205160,2,0,P|460:67|399:88,1,85,0|0,3:0|0:0,0:0:0:0:
208,26,205310,2,0,P|166:37|108:23,1,85,2|0,0:0|0:0,0:0:0:0:
473,203,205460,2,0,B|443:210|443:210|424:224|424:224|377:234,1,85,8|0,0:0|0:0,0:0:0:0:
189,317,205610,2,0,B|159:310|159:310|140:296|140:296|93:286,1,85,2|0,0:0|0:0,0:0:0:0:
352,371,205760,70,0,P|364:283|269:257,1,170,0|0,3:0|0:0,0:0:0:0:
253,161,205985,1,0,0:0:0:0:
225,140,206060,2,0,P|199:190|198:244,1,85,8|0,0:0|0:0,0:0:0:0:
54,370,206210,2,0,P|43:332|7:289,1,85,2|0,0:0|0:0,0:0:0:0:
24,170,206360,1,0,3:0:0:0:
24,170,206435,1,0,0:0:0:0:
24,170,206510,2,0,P|57:158|111:148,1,85,2|0,0:0|0:0,0:0:0:0:
208,26,206660,1,8,0:0:0:0:
208,26,206735,1,0,0:0:0:0:
208,26,206810,2,0,P|242:32|294:50,1,85,2|0,0:0|0:0,0:0:0:0:
491,162,206960,5,4,3:2:0:0:
491,162,207035,1,0,0:0:0:0:
491,162,207110,2,0,B|452:167|452:167|429:181|429:181|370:189,1,106.25,2|0,0:0|0:0,0:0:0:0:
15,296,207260,69,12,0:0:0:0:
15,296,207335,1,0,0:0:0:0:
15,296,207410,2,0,B|54:301|54:301|77:315|77:315|136:323,1,106.25,2|0,0:0|0:0,0:0:0:0:
343,377,207560,5,4,3:2:0:0:
343,377,207635,1,0,0:0:0:0:
343,377,207710,2,0,B|338:338|338:338|324:315|324:315|316:256,1,97.7500018644333,2|0,0:0|0:0,0:0:0:0:
208,26,207860,69,12,0:0:0:0:
208,26,207935,1,0,0:0:0:0:
208,26,208010,2,0,B|203:65|203:65|189:88|189:88|181:147,1,97.7500018644333,2|0,0:0|0:0,0:0:0:0:
195,375,208160,6,0,P|171:292|248:260,1,170,4|0,3:2|0:0,0:0:0:0:
421,327,208385,1,0,0:0:0:0:
444,344,208460,2,0,L|431:252,1,85,8|0,0:0|0:0,0:0:0:0:
475,76,208610,2,0,L|486:160,1,85,2|0,0:0|0:0,0:0:0:0:
319,283,208760,1,0,3:0:0:0:
319,283,208835,1,0,0:0:0:0:
319,283,208910,2,0,P|321:232|297:193,1,85,2|0,0:0|0:0,0:0:0:0:
56,75,209060,1,8,0:0:0:0:
105,121,209135,1,8,0:0:0:0:
115,188,209210,1,8,0:0:0:0:
87,250,209285,1,8,0:0:0:0:
1,278,209360,70,0,B|50:238|98:271|98:271|122:257|122:257|180:301|232:257,1,255,4|0,3:2|0:0,0:0:0:0:
391,223,209660,1,8,0:0:0:0:
391,223,209735,1,0,0:0:0:0:
391,223,209810,2,0,P|385:173|384:123,1,85,2|0,0:0|0:0,0:0:0:0:
209,5,209960,1,0,3:0:0:0:
209,5,210035,1,0,0:0:0:0:
209,5,210110,2,0,P|220:56|224:106,1,85,2|0,0:0|0:0,0:0:0:0:
445,307,210260,2,0,P|461:266|493:212,1,85,8|0,0:0|0:0,0:0:0:0:
312,75,210410,2,0,P|301:115|275:178,1,85,2|0,0:0|0:0,0:0:0:0:
103,342,210560,6,0,B|153:375|191:347|191:347|218:360|218:360|277:306|357:362,1,255,4|0,3:2|0:0,0:0:0:0:
445,307,210860,1,8,0:0:0:0:
445,307,210935,1,0,0:0:0:0:
445,307,211010,2,0,P|461:266|493:212,1,85,2|0,0:0|0:0,0:0:0:0:
395,49,211160,1,0,3:0:0:0:
395,49,211235,1,0,0:0:0:0:
395,49,211310,2,0,P|407:103|413:170,1,85,2|0,0:0|0:0,0:0:0:0:
338,350,211460,2,0,P|342:296|353:242,1,85,8|0,0:0|0:0,0:0:0:0:
512,67,211610,2,0,P|501:115|482:169,1,85,2|0,0:0|0:0,0:0:0:0:
259,266,211760,69,0,3:0:0:0:
178,154,211835,1,0,3:0:0:0:
308,197,211910,1,0,3:0:0:0:
178,239,211985,1,0,3:0:0:0:
259,128,212060,1,12,0:0:0:0:
263,114,212360,5,0,3:0:0:0:
166,247,212435,1,0,3:0:0:0:
322,197,212510,1,0,3:0:0:0:
166,145,212585,1,0,3:0:0:0:
263,279,212660,1,12,0:0:0:0:
341,120,212810,1,8,0:0:0:0:
341,120,212885,1,0,1:0:0:0:
341,120,212960,70,0,L|422:54,1,85,8|0,0:0|0:0,0:0:0:0:
106,196,213110,1,8,0:0:0:0:
106,196,213185,1,0,1:0:0:0:
106,196,213260,2,0,L|1:201,1,85,8|0,0:0|0:0,0:0:0:0:
339,272,213410,1,8,0:0:0:0:
339,272,213485,1,0,1:0:0:0:
339,272,213560,2,0,P|371:279|444:265,1,85,8|0,0:0|1:0,0:0:0:0:
196,72,213710,2,0,P|185:131|192:183,1,85,8|0,0:0|1:0,0:0:0:0:
138,382,213860,2,0,P|184:337|206:301,1,85,8|0,0:0|1:0,0:0:0:0:
493,218,214010,2,0,P|453:193|368:177,1,85,8|0,0:0|1:0,0:0:0:0:
77,47,214160,6,0,B|134:21|197:67|197:67|259:120|370:67,1,255,4|0,3:2|0:0,0:0:0:0:
457,9,214460,2,0,P|448:62|445:105,1,85,8|0,0:0|0:0,0:0:0:0:
422,273,214610,1,2,0:0:0:0:
380,282,214685,1,0,0:0:0:0:
339,272,214760,2,0,P|317:228|306:159,1,85,0|0,3:0|0:0,0:0:0:0:
42,152,214910,2,0,P|97:136|151:104,1,85,2|0,0:0|0:0,0:0:0:0:
327,3,215060,2,0,B|321:39|321:39|323:55|323:55|315:95,1,85,8|0,0:0|0:0,0:0:0:0:
195,320,215210,2,0,B|201:284|201:284|199:268|199:268|207:228,1,85,2|0,0:0|0:0,0:0:0:0:
88,40,215360,70,0,P|189:57|214:127,1,170,0|2,3:0|0:0,0:0:0:0:
61,193,215585,1,0,0:0:0:0:
35,234,215660,2,0,P|30:198|47:140,1,85,8|0,0:0|0:0,0:0:0:0:
316,86,215810,2,0,P|319:126|289:181,1,85,2|0,0:0|0:0,0:0:0:0:
123,274,215960,1,0,3:0:0:0:
123,274,216035,1,0,0:0:0:0:
123,274,216110,2,0,P|177:304|220:347,1,85,2|0,0:0|0:0,0:0:0:0:
371,355,216260,1,8,0:0:0:0:
371,355,216335,1,0,0:0:0:0:
371,355,216410,2,0,P|430:334|480:299,1,85,2|0,0:0|0:0,0:0:0:0:
477,34,216560,5,4,3:2:0:0:
477,34,216635,1,0,0:0:0:0:
477,34,216710,2,0,P|430:123|434:141,1,93.5000028533936,2|0,0:0|0:0,0:0:0:0:
41,151,216860,1,12,0:0:0:0:
41,151,216935,1,0,0:0:0:0:
41,151,217010,2,0,B|90:145|90:145|112:152|112:152|167:148,1,101.999996887207,2|0,0:0|0:0,0:0:0:0:
449,322,217160,69,4,3:2:0:0:
449,322,217235,1,0,0:0:0:0:
449,322,217310,2,0,P|422:250|452:197,1,110.499994941712,2|0,0:0|0:0,0:0:0:0:
283,10,217460,1,12,0:0:0:0:
283,10,217535,1,0,0:0:0:0:
283,10,217610,2,0,B|276:52|276:52|283:77|283:77|274:129,1,101.999996887207,2|0,0:0|0:0,0:0:0:0:
182,331,217760,2,0,P|125:240|63:262,1,170,4|0,3:2|0:0,0:0:0:0:
14,342,217985,1,0,0:0:0:0:
0,369,218060,6,0,P|57:348|113:356,1,85,8|0,0:0|0:0,0:0:0:0:
128,141,218210,2,0,P|183:158|247:164,1,85,2|0,0:0|0:0,0:0:0:0:
357,310,218360,1,0,3:0:0:0:
357,310,218435,1,0,0:0:0:0:
357,310,218510,2,0,B|324:305|324:305|300:310|300:310|257:303,1,85,2|0,0:0|0:0,0:0:0:0:
9,157,218660,1,8,0:0:0:0:
19,95,218735,1,8,0:0:0:0:
62,49,218810,1,8,0:0:0:0:
124,37,218885,1,8,0:0:0:0:
205,62,218960,70,0,B|265:35|321:72|321:72|375:112|449:81,1,255,4|0,3:2|0:0,0:0:0:0:
484,195,219260,2,0,P|471:228|463:296,1,85,8|0,0:0|0:0,0:0:0:0:
284,223,219410,2,0,P|278:187|251:125,1,85,2|0,0:0|0:0,0:0:0:0:
468,7,219560,1,0,3:0:0:0:
468,7,219635,1,0,0:0:0:0:
468,7,219710,2,0,B|437:4|437:4|417:10|417:10|371:7,1,85,2|0,0:0|0:0,0:0:0:0:
93,149,219860,1,8,0:0:0:0:
93,149,219935,1,0,0:0:0:0:
93,149,220010,2,0,B|123:146|123:146|143:152|143:152|190:149,1,85,2|0,0:0|0:0,0:0:0:0:
357,310,220160,6,0,B|300:272|238:302|238:302|173:338|109:303,1,255,4|0,3:2|0:0,0:0:0:0:
10,185,220460,2,0,P|10:120|27:71,1,85,8|0,0:0|0:0,0:0:0:0:
236,0,220610,2,0,P|226:48|205:92,1,85,2|0,0:0|0:0,0:0:0:0:
92,226,220760,1,0,3:0:0:0:
92,226,220835,1,0,0:0:0:0:
92,226,220910,2,0,B|121:232|121:232|149:227|149:227|176:231,1,85,2|0,0:0|0:0,0:0:0:0:
482,90,221060,1,8,0:0:0:0:
482,90,221135,1,0,0:0:0:0:
482,90,221210,2,0,B|454:96|454:96|426:91|426:91|399:95,1,85,2|0,0:0|0:0,0:0:0:0:
141,52,221360,5,8,0:0:0:0:
138,85,221435,1,0,1:0:0:0:
145,118,221510,1,0,1:0:0:0:
168,142,221585,1,0,1:0:0:0:
199,155,221660,1,8,0:0:0:0:
232,156,221735,1,0,1:0:0:0:
262,141,221810,1,0,1:0:0:0:
282,113,221885,1,0,1:0:0:0:
285,79,221960,21,8,0:0:0:0:
254,130,222035,1,8,0:0:0:0:
268,187,222110,1,0,1:0:0:0:
321,213,222185,1,0,1:0:0:0:
380,208,222260,1,8,0:0:0:0:
426,244,222335,1,8,0:0:0:0:
431,303,222410,1,0,1:0:0:0:
395,351,222485,1,0,1:0:0:0:
322,327,222560,21,8,0:0:0:0:
258,369,222635,1,8,0:0:0:0:
182,359,222710,1,8,0:0:0:0:
129,303,222785,1,8,0:0:0:0:
123,226,222860,1,8,0:0:0:0:
167,163,222935,1,8,0:0:0:0:
240,141,223010,1,8,0:0:0:0:
310,171,223085,1,8,0:0:0:0:
345,238,223160,1,12,0:0:0:0:
233,256,223760,5,4,3:2:0:0:
