osu file format v14

[General]
AudioFilename: audio.mp3
AudioLeadIn: 0
PreviewTime: 51073
Countdown: 0
SampleSet: Normal
StackLeniency: 0.6
Mode: 0
LetterboxInBreaks: 0
WidescreenStoryboard: 1

[Editor]
Bookmarks: 46873,178873,189673,224473
DistanceSpacing: 0.6
BeatDivisor: 4
GridSize: 32
TimelineZoom: 2.75

[Metadata]
Title:Kakushigoto
TitleUnicode:かくしごと
Artist:yuikonnu
ArtistUnicode:ゆいこんぬ
Creator:AtHeoN
Version:Asaiga's Extra
Source:
Tags:IA vocaloid mafumafu secret nico douga hathz atsuro shana yami yamicchi aeril asaiga janssen -laura- shizuku akitoshi
BeatmapID:1698115
BeatmapSetID:436177

[Difficulty]
HPDrainRate:5.5
CircleSize:4
OverallDifficulty:8.5
ApproachRate:9.2
SliderMultiplier:1.75
SliderTickRate:1

[Events]
//Background and Video events
0,0,"BG.jpg",0,0
//Break Periods
2,13273,21103
2,71073,81103
2,139473,148303
2,178873,189103
//Storyboard Layer 0 (Background)
//Storyboard Layer 1 (Fail)
//Storyboard Layer 2 (Pass)
//Storyboard Layer 3 (Foreground)
//Storyboard Sound Samples

[TimingPoints]
1273,300,4,1,1,25,1,0
1873,-100,4,1,1,60,0,0
10873,-100,4,2,1,60,0,0
11773,-100,4,1,1,60,0,0
13273,-166.666666666667,4,2,1,35,0,0
21823,-166.666666666667,4,2,1,35,0,0
22273,-166.666666666667,4,1,1,60,0,0
22423,-100,4,1,1,60,0,0
32473,-125,4,2,3,35,0,0
32548,-125,4,2,1,35,0,0
34873,-125,4,2,3,35,0,0
34948,-125,4,2,1,35,0,0
37273,-125,4,2,3,35,0,0
37348,-125,4,2,1,35,0,0
39673,-125,4,2,3,35,0,0
39748,-125,4,2,1,35,0,0
40873,-125,4,2,1,35,0,0
41473,-100,4,1,1,60,0,0
46873,-100,4,1,1,30,0,0
47173,-100,4,1,1,35,0,0
47473,-100,4,1,1,40,0,0
47773,-100,4,1,1,45,0,0
48073,-100,4,1,1,50,0,0
48673,-100,4,1,1,55,0,0
49273,-100,4,1,1,60,0,0
51073,-125,4,1,1,40,0,0
51673,-83.3333333333333,4,1,1,60,0,1
70873,-83.3333333333333,4,1,1,60,0,0
81673,-166.666666666667,4,2,1,35,0,0
90073,-166.666666666667,4,1,1,60,0,0
90673,-166.666666666667,4,2,1,30,0,0
91273,-100,4,1,1,60,0,0
100873,-125,4,2,3,40,0,0
100948,-125,4,2,1,40,0,0
103273,-125,4,2,3,40,0,0
103348,-125,4,2,1,40,0,0
105673,-125,4,2,3,40,0,0
105748,-125,4,2,1,40,0,0
108073,-125,4,2,3,40,0,0
108148,-125,4,2,1,40,0,0
109273,-125,4,1,1,60,0,0
109873,-100,4,1,1,60,0,0
115273,-100,4,1,1,30,0,0
115573,-100,4,1,1,35,0,0
115873,-100,4,1,1,40,0,0
116173,-100,4,1,1,45,0,0
116473,-100,4,1,1,50,0,0
117073,-100,4,1,1,55,0,0
117673,-100,4,1,1,60,0,0
120073,-83.3333333333333,4,1,1,60,0,1
139273,-83.3333333333333,4,1,1,60,0,0
158473,-125,4,2,3,40,0,0
158548,-125,4,2,1,40,0,0
160873,-125,4,2,3,40,0,0
160948,-125,4,2,1,40,0,0
163273,-125,4,2,3,40,0,0
163348,-125,4,2,1,40,0,0
165673,-125,4,2,3,40,0,0
165748,-125,4,2,1,40,0,0
166873,-125,4,2,1,40,0,0
167473,-100,4,1,1,60,0,0
172873,-100,4,1,1,30,0,0
173173,-100,4,1,1,35,0,0
173473,-100,4,1,1,40,0,0
173773,-100,4,1,1,45,0,0
174073,-100,4,1,1,50,0,0
174673,-100,4,1,1,55,0,0
175273,-100,4,1,1,60,0,0
178873,-100,4,2,1,22,0,0
189673,-83.3333333333333,4,1,1,60,0,1
205273,-83.3333333333333,4,2,3,60,0,0
205573,-83.3333333333333,4,1,1,80,0,1
205873,-83.3333333333333,4,1,1,60,0,1
224173,-83.3333333333333,4,2,1,50,0,1
224473,-83.3333333333333,4,1,1,60,0,0

[Colours]
Combo1 : 255,94,55
Combo2 : 173,255,95
Combo3 : 17,254,176
Combo4 : 255,88,100

[HitObjects]
140,285,1273,5,4,2:0:0:0:
246,87,1573,2,0,P|187:49|120:68,1,131.25,4|0,2:0|0:0,0:0:0:0:
95,97,1873,6,0,L|100:154,1,43.75,0|0,0:0|0:0,0:0:0:0:
21,233,2023,2,0,L|66:230,1,43.75,0|0,0:0|0:0,0:0:0:0:
172,219,2173,1,8,0:0:0:0:
203,201,2248,1,8,0:0:0:0:
238,199,2323,1,8,0:0:0:0:
271,211,2398,1,8,0:0:0:0:
296,236,2473,6,0,B|282:192|282:192|300:147,1,87.5,4|0,0:0|0:0,0:0:0:0:
407,19,2773,2,0,B|421:62|421:62|409:110,1,87.5,8|2,0:0|0:2,0:0:0:0:
375,192,3073,1,0,0:0:0:0:
445,296,3223,1,2,0:2:0:0:
409,292,3298,1,0,0:0:0:0:
373,288,3373,1,8,0:0:0:0:
134,359,3523,6,0,B|213:352|213:352|233:357|233:357|317:349,1,175,2|2,0:0|0:0,0:0:0:0:
215,266,3973,2,0,L|122:274,1,87.5,8|2,0:0|0:1,0:0:0:0:
253,180,4273,1,2,0:0:0:0:
328,255,4423,1,2,0:2:0:0:
328,255,4498,1,0,0:0:0:0:
328,255,4573,2,0,L|418:247,1,87.5,8|2,0:0|0:2,0:0:0:0:
353,64,4873,6,0,P|326:99|323:143,1,87.5,0|2,0:0|0:2,0:0:0:0:
331,159,5098,1,0,0:0:0:0:
342,172,5173,2,0,L|250:179,1,87.5,8|2,0:0|0:2,0:0:0:0:
118,91,5473,2,0,L|207:98,1,87.5,0|2,0:0|0:2,0:0:0:0:
260,22,5773,1,8,0:0:0:0:
23,201,5923,6,0,P|104:170|177:217,1,175,2|2,0:1|0:1,0:0:0:0:
138,355,6373,1,8,0:0:0:0:
91,258,6523,1,2,0:1:0:0:
36,381,6673,1,0,0:2:0:0:
226,296,6823,1,0,0:0:0:0:
260,299,6898,1,0,0:0:0:0:
295,304,6973,6,0,L|290:350,1,43.75,8|0,0:0|0:0,0:0:0:0:
376,257,7123,2,0,L|380:212,1,43.75,0|0,0:0|0:0,0:0:0:0:
477,347,7273,38,0,L|468:253,1,87.5,4|2,0:0|0:2,0:0:0:0:
288,122,7573,2,0,L|279:224,1,87.5,8|2,0:0|0:2,0:0:0:0:
364,65,7873,1,0,0:0:0:0:
198,141,8023,1,2,0:2:0:0:
162,138,8098,1,0,0:0:0:0:
126,135,8173,1,8,0:0:0:0:
269,286,8323,6,0,P|205:239|111:272,1,175,2|2,0:1|0:1,0:0:0:0:
34,368,8773,2,0,L|137:358,1,87.5,8|2,0:0|0:1,0:0:0:0:
24,275,9073,1,2,0:0:0:0:
204,362,9223,1,2,0:2:0:0:
239,365,9298,1,0,0:0:0:0:
274,369,9373,2,0,L|281:280,1,87.5,8|2,0:0|0:2,0:0:0:0:
382,192,9673,6,0,L|440:197,2,43.75,2|0|2,0:0|0:0|0:2,0:0:0:0:
358,165,9898,1,0,0:0:0:0:
331,140,9973,2,0,L|220:130,1,87.5,8|0,0:0|0:0,0:0:0:0:
109,301,10273,6,0,P|119:258|168:220,1,87.5,2|2,0:2|0:2,0:0:0:0:
167,218,10498,1,0,0:0:0:0:
184,213,10573,2,0,L|285:220,1,87.5,8|2,0:0|0:2,0:0:0:0:
399,319,10873,6,0,B|354:325|354:325|309:311,1,87.5,2|2,0:0|0:2,0:0:0:0:
419,147,11173,2,0,B|375:135|375:135|330:139,1,87.5,8|2,0:1|0:0,0:0:0:0:
471,241,11473,1,0,1:0:0:0:
273,219,11623,1,8,1:0:0:0:
237,217,11698,1,0,0:0:0:0:
201,215,11773,2,0,L|195:277,3,43.75,8|0|0|0,0:0|0:0|0:2|0:0,0:0:0:0:
416,126,21673,5,2,0:0:0:0:
339,140,21823,1,0,1:0:0:0:
464,182,21973,1,0,1:0:0:0:
365,68,22123,1,0,1:0:0:0:
316,211,22273,1,0,0:0:0:0:
98,155,22423,5,0,0:0:0:0:
98,155,22498,2,0,L|156:160,1,43.75,8|0,0:0|0:0,0:0:0:0:
217,128,22648,2,0,B|225:171|225:171|204:209,1,87.5,8|8,0:0|0:0,0:0:0:0:
153,278,22873,6,0,P|113:261|69:267,1,87.5,4|0,0:0|0:0,0:0:0:0:
228,337,23173,1,0,0:0:0:0:
291,209,23323,1,0,0:0:0:0:
228,337,23473,2,0,L|319:345,1,87.5,0|0,0:0|0:0,0:0:0:0:
443,263,23773,2,0,L|352:272,1,87.5,8|0,0:0|0:0,0:0:0:0:
161,184,24073,6,0,P|182:182|203:173,1,43.75,0|0,0:0|0:0,0:0:0:0:
269,112,24223,2,0,L|314:115,1,43.75,2|0,0:2|0:0,0:0:0:0:
374,181,24373,2,0,L|419:177,1,43.75,8|0,0:0|0:0,0:0:0:0:
482,123,24523,1,2,0:2:0:0:
482,123,24598,1,0,0:0:0:0:
482,123,24673,6,0,P|456:83|454:39,1,87.5,2|0,0:2|0:2,0:0:0:0:
284,257,24973,2,0,P|326:256|371:282,1,87.5,8|0,0:0|0:0,0:0:0:0:
252,25,25273,6,0,P|234:59|194:87,1,87.5,0|0,0:0|0:0,0:0:0:0:
94,169,25573,2,0,P|132:167|176:186,1,87.5,8|0,0:0|0:0,0:0:0:0:
297,232,25873,2,0,P|275:199|270:153,1,87.5,0|0,0:0|0:0,0:0:0:0:
367,323,26173,2,0,B|397:291|397:291|408:247,1,87.5,8|0,0:0|0:0,0:0:0:0:
198,286,26473,6,0,L|149:281,1,43.75,2|0,0:2|0:0,0:0:0:0:
81,320,26623,2,0,L|60:275,1,43.75,2|0,0:2|0:0,0:0:0:0:
0,227,26773,2,0,L|28:186,1,43.75,8|0,0:0|0:0,0:0:0:0:
38,108,26923,2,0,L|86:112,1,43.75,2|0,0:2|0:0,0:0:0:0:
156,69,27073,2,0,L|194:149,1,87.5,2|2,0:2|0:2,0:0:0:0:
257,69,27373,1,8,0:0:0:0:
114,198,27523,1,0,0:0:0:0:
276,318,27673,6,0,P|313:302|366:310,1,87.5,0|0,0:0|0:0,0:0:0:0:
416,191,27973,1,8,0:0:0:0:
471,332,28123,1,0,0:0:0:0:
416,191,28273,2,0,L|326:199,1,87.5,0|0,0:0|0:0,0:0:0:0:
366,50,28573,2,0,L|453:42,1,87.5,8|0,0:0|0:0,0:0:0:0:
272,112,28873,5,0,0:0:0:0:
136,49,29023,1,2,0:2:0:0:
279,18,29173,1,8,0:0:0:0:
210,181,29323,1,2,0:2:0:0:
273,319,29473,2,0,L|363:310,1,87.5,2|0,0:2|0:0,0:0:0:0:
192,274,29773,1,8,0:0:0:0:
128,363,29923,1,0,0:0:0:0:
38,211,30073,6,0,P|77:219|123:208,1,87.5,0|0,0:0|0:0,0:0:0:0:
196,55,30373,2,0,P|187:94|199:141,1,87.5,8|0,0:0|0:0,0:0:0:0:
352,213,30673,2,0,P|313:205|266:216,1,87.5,0|0,0:0|0:0,0:0:0:0:
194,369,30973,2,0,P|202:330|189:282,1,87.5,8|0,0:0|0:0,0:0:0:0:
402,293,31273,6,0,L|452:297,1,43.75,2|0,0:2|0:0,0:0:0:0:
500,222,31423,2,0,L|456:218,1,43.75,2|2,0:2|0:2,0:0:0:0:
420,134,31573,2,0,L|463:138,1,43.75,8|0,0:0|0:0,0:0:0:0:
512,59,31723,2,0,L|468:56,1,43.75,2|2,0:2|0:2,0:0:0:0:
390,2,31873,2,0,L|346:6,1,43.75,0|0,0:0|0:0,0:0:0:0:
274,76,32023,5,8,0:0:0:0:
230,97,32098,1,8,0:0:0:0:
186,92,32173,1,8,0:0:0:0:
154,69,32248,1,0,0:0:0:0:
120,56,32323,1,0,0:0:0:0:
90,66,32398,1,0,0:0:0:0:
74,82,32473,6,0,B|88:241,1,140,6|0,1:2|1:2,0:0:0:0:
160,298,32923,1,0,0:0:0:0:
160,298,33073,2,0,B|314:284,1,140,0|0,1:0|1:0,0:0:0:0:
428,212,33523,1,0,0:0:0:0:
428,212,33673,6,0,L|416:357,1,140,2|0,1:2|1:2,0:0:0:0:
337,179,34123,1,0,0:0:0:0:
337,179,34273,2,0,P|357:147|383:124,1,70,0|0,1:0|0:0,0:0:0:0:
247,30,34573,2,0,P|277:48|297:76,1,70,0|0,1:0|0:0,0:0:0:0:
83,117,34873,6,0,L|223:105,1,140,2|0,1:2|1:0,0:0:0:0:
341,190,35323,1,0,0:0:0:0:
341,190,35473,2,0,P|307:186|277:169,1,70,0|0,1:0|0:0,0:0:0:0:
425,185,35773,2,0,L|494:178,1,70,0|0,1:0|0:0,0:0:0:0:
307,273,36073,6,0,B|166:263,1,140,2|0,1:2|1:0,0:0:0:0:
29,184,36523,1,0,0:0:0:0:
29,184,36673,2,0,P|61:195|85:220,1,70,2|0,1:2|0:0,0:0:0:0:
181,110,36973,2,0,L|110:117,1,70,2|0,1:2|0:0,0:0:0:0:
292,129,37273,6,0,B|287:112|265:89|265:89|269:126|256:153|256:153|267:179|267:179|239:197|229:237,1,210,2|0,1:2|0:0,0:0:0:0:
374,352,37873,2,0,B|389:355|419:349|419:349|386:333|369:309|369:309|341:305|341:305|339:271|309:243,1,210,0|0,1:2|0:0,0:0:0:0:
138,312,38473,2,0,B|125:323|116:352|116:352|146:331|176:329|176:329|193:307|193:307|223:321|262:310,1,210,2|0,1:2|0:0,0:0:0:0:
479,141,39073,6,0,B|441:145|410:132|410:132|348:166|348:166|326:140|289:127,1,210,0|0,1:0|0:0,0:0:0:0:
42,247,39673,2,0,B|79:251|110:238|110:238|172:272|172:272|194:246|231:233,1,210,2|0,1:2|0:0,0:0:0:0:
342,356,40273,2,0,P|375:346|420:346,1,70,0|0,1:0|0:0,0:0:0:0:
275,158,40573,2,0,P|240:147|195:153,1,70,0|8,1:0|1:0,0:0:0:0:
411,220,40873,5,0,1:0:0:0:
259,310,41023,1,8,1:0:0:0:
444,220,41173,1,0,1:0:0:0:
231,69,41323,1,8,1:0:0:0:
380,302,41473,6,0,B|417:298|417:298|427:304|427:304|468:300,1,87.5,4|0,1:2|0:0,0:0:0:0:
412,28,41773,2,0,B|396:62|396:62|386:67|386:67|370:102,1,87.5,4|0,1:2|0:0,0:0:0:0:
259,310,42073,6,0,P|220:288|171:289,1,87.5,4|0,0:0|0:0,0:0:0:0:
27,327,42373,2,0,P|64:305|87:268,1,87.5,8|0,0:0|0:0,0:0:0:0:
137,95,42673,1,0,0:0:0:0:
76,177,42823,1,0,0:0:0:0:
178,287,42973,1,8,0:0:0:0:
236,145,43123,1,2,0:2:0:0:
236,145,43198,1,2,0:2:0:0:
236,145,43273,6,0,L|334:136,1,87.5,2|2,0:0|0:0,0:0:0:0:
483,47,43573,2,0,L|384:55,1,87.5,8|0,0:0|0:0,0:0:0:0:
368,245,43873,1,0,0:0:0:0:
368,245,43948,1,0,0:0:0:0:
368,245,44023,1,2,0:0:0:0:
323,137,44173,2,0,L|235:144,1,87.5,8|0,0:0|0:0,0:0:0:0:
22,96,44473,5,0,0:0:0:0:
166,67,44623,1,0,0:0:0:0:
22,96,44773,2,0,B|14:140|14:140|33:180,1,87.5,8|0,0:0|0:0,0:0:0:0:
201,321,45073,1,0,0:0:0:0:
53,344,45223,1,0,0:0:0:0:
201,321,45373,2,0,B|208:276|208:276|189:236,1,87.5,8|2,0:0|0:2,0:0:0:0:
230,166,45598,1,2,0:2:0:0:
230,166,45673,6,0,L|319:158,1,87.5,2|2,0:0|0:0,0:0:0:0:
477,236,45973,1,8,0:0:0:0:
431,121,46123,1,8,0:0:0:0:
330,316,46273,5,0,0:0:0:0:
330,316,46348,1,0,0:0:0:0:
330,316,46423,2,0,L|274:311,1,43.75,10|0,0:0|0:0,0:0:0:0:
220,209,46573,2,0,L|216:252,1,43.75,10|0,0:0|0:0,0:0:0:0:
143,356,46723,2,0,L|146:312,1,43.75,10|0,0:0|0:0,0:0:0:0:
0,234,46873,6,0,B|87:241,1,87.5,12|0,0:0|0:0,0:0:0:0:
117,125,47173,2,0,B|204:117,1,87.5,8|0,0:0|0:0,0:0:0:0:
242,308,47473,2,0,B|330:316,1,87.5,8|0,0:0|0:0,0:0:0:0:
385,82,47773,2,0,B|472:74,1,87.5,8|0,0:0|0:0,0:0:0:0:
322,230,48073,6,0,L|265:225,3,43.75,8|0|0|0,0:0|0:0|0:0|0:0,0:0:0:0:
222,143,48373,2,0,L|165:147,3,43.75,8|0|0|0,0:0|0:0|0:0|0:0,0:0:0:0:
104,208,48673,5,8,0:0:0:0:
73,226,48748,1,0,0:0:0:0:
57,257,48823,1,0,0:0:0:0:
57,291,48898,1,0,0:0:0:0:
73,322,48973,1,8,0:0:0:0:
103,339,49048,1,0,0:0:0:0:
137,344,49123,1,0,0:0:0:0:
170,332,49198,1,0,0:0:0:0:
198,311,49273,6,0,B|272:305|272:305|299:319|299:319|370:312,1,175,4|0,0:0|0:0,0:0:0:0:
479,126,49723,1,0,0:0:0:0:
444,130,49798,1,0,0:0:0:0:
399,136,49873,6,0,L|392:186,1,43.75,8|8,0:0|0:0,0:0:0:0:
334,81,50023,2,0,L|340:37,1,43.75,2|0,0:2|0:0,0:0:0:0:
262,141,50173,6,0,L|254:195,1,43.75,2|0,0:2|0:0,0:0:0:0:
220,57,50323,2,0,L|228:3,1,43.75,2|2,0:2|0:2,0:0:0:0:
143,111,50473,5,0,0:0:0:0:
125,109,50548,1,0,0:0:0:0:
107,106,50623,1,6,0:0:0:0:
392,179,50923,5,2,0:0:0:0:
454,249,51073,2,0,P|465:283|465:322,1,70,2|0,2:1|2:0,2:0:0:0:
329,249,51373,2,0,P|318:282|317:317,1,70,0|0,2:0|2:0,2:0:0:0:
455,93,51673,6,0,L|344:83,1,104.999996795654,4|0,0:0|0:0,0:0:0:0:
200,154,51973,2,0,P|165:116|114:107,1,104.999996795654,10|0,0:0|0:0,0:0:0:0:
0,272,52273,1,2,0:0:0:0:
119,194,52423,1,2,0:0:0:0:
190,329,52573,1,8,0:0:0:0:
98,293,52723,1,0,0:0:0:0:
283,94,52873,6,0,L|292:198,1,104.999996795654,2|0,0:0|0:0,0:0:0:0:
425,344,53173,1,10,0:0:0:0:
381,201,53323,1,0,0:0:0:0:
190,329,53473,2,0,L|199:224,1,104.999996795654,2|0,0:0|0:0,0:0:0:0:
107,108,53773,1,8,0:0:0:0:
79,225,53923,1,2,0:0:0:0:
286,56,54073,6,0,P|315:98|360:125,1,104.999996795654,0|0,0:0|0:0,0:0:0:0:
439,296,54373,2,0,P|409:253|364:226,1,104.999996795654,10|0,0:0|0:0,0:0:0:0:
174,184,54673,2,0,P|225:193|275:180,1,104.999996795654,0|2,0:0|0:0,0:0:0:0:
462,121,54973,2,0,P|410:111|360:124,1,104.999996795654,8|2,0:0|0:0,0:0:0:0:
249,289,55273,5,2,0:0:0:0:
275,180,55423,1,0,0:0:0:0:
128,151,55573,1,10,0:0:0:0:
170,324,55723,1,0,0:0:0:0:
37,110,55873,6,0,P|75:76|137:78,1,104.999996795654,0|0,0:0|0:0,0:0:0:0:
275,180,56173,1,8,0:0:0:0:
314,194,56248,1,8,0:0:0:0:
355,193,56323,1,8,0:0:0:0:
390,170,56398,1,8,0:0:0:0:
419,140,56473,6,0,P|403:192|419:252,1,104.999996795654,4|0,0:0|0:0,0:0:0:0:
239,371,56773,2,0,L|352:361,1,104.999996795654,10|0,0:0|0:0,0:0:0:0:
275,180,57073,1,2,0:0:0:0:
170,324,57223,1,2,0:0:0:0:
138,143,57373,1,8,0:0:0:0:
105,258,57523,1,2,0:0:0:0:
16,70,57673,6,0,P|67:77|112:53,1,104.999996795654,2|0,0:0|0:0,0:0:0:0:
221,0,57973,1,10,0:0:0:0:
296,93,58123,1,0,0:0:0:0:
186,237,58273,2,0,P|227:212|285:213,1,104.999996795654,2|0,0:0|0:0,0:0:0:0:
402,352,58573,2,0,P|402:300|429:255,1,104.999996795654,8|0,0:0|0:0,0:0:0:0:
260,329,58873,5,2,0:2:0:0:
219,341,58948,1,2,0:2:0:0:
177,336,59023,1,2,0:2:0:0:
144,309,59098,1,2,0:2:0:0:
124,271,59173,2,0,B|142:321|142:321|126:371,1,104.999996795654,4|0,0:2|0:0,0:0:0:0:
235,223,59473,5,2,0:2:0:0:
238,183,59548,1,2,0:2:0:0:
241,143,59623,1,2,0:2:0:0:
245,103,59698,1,2,0:2:0:0:
248,63,59773,1,4,0:2:0:0:
400,206,59923,5,2,0:2:0:0:
400,206,59998,1,2,0:2:0:0:
400,206,60073,2,0,P|349:221|320:266,1,104.999996795654,4|2,0:0|0:2,0:0:0:0:
296,340,60298,1,2,0:2:0:0:
296,340,60373,2,0,L|186:330,1,104.999996795654,0|2,0:0|0:2,0:0:0:0:
34,244,60673,5,2,0:2:0:0:
71,224,60748,1,2,0:2:0:0:
112,223,60823,1,2,0:2:0:0:
149,241,60898,1,0,0:2:0:0:
188,253,60973,1,2,0:2:0:0:
228,242,61048,1,2,0:2:0:0:
255,209,61123,1,2,0:2:0:0:
261,167,61198,1,2,0:2:0:0:
243,128,61273,6,0,P|225:78|237:27,1,104.999996795654,4|0,0:0|0:0,0:0:0:0:
445,181,61573,2,0,L|336:171,1,104.999996795654,10|0,0:0|0:0,0:0:0:0:
433,30,61873,1,0,0:0:0:0:
502,113,62023,1,2,0:0:0:0:
377,276,62173,1,8,0:0:0:0:
308,193,62323,1,2,0:0:0:0:
86,340,62473,6,0,L|190:330,1,104.999996795654,2|0,0:0|0:0,0:0:0:0:
341,282,62773,1,10,0:0:0:0:
215,200,62923,1,0,0:0:0:0:
283,367,63073,2,0,L|387:376,1,104.999996795654,2|0,0:0|0:0,0:0:0:0:
491,242,63373,1,10,0:0:0:0:
490,350,63523,1,0,0:0:0:0:
339,164,63673,6,0,P|373:122|436:113,1,104.999996795654,2|0,0:0|0:0,0:0:0:0:
334,294,63973,2,0,P|376:328|385:391,1,104.999996795654,8|0,0:0|0:0,0:0:0:0:
205,289,64273,2,0,P|171:331|108:340,1,104.999996795654,0|2,0:0|0:0,0:0:0:0:
209,160,64573,2,0,P|166:126|158:63,1,104.999996795654,8|2,0:0|0:0,0:0:0:0:
330,8,64873,5,2,0:0:0:0:
246,74,65023,1,0,0:0:0:0:
395,179,65173,1,10,0:0:0:0:
379,73,65323,1,0,0:0:0:0:
306,238,65473,6,0,P|350:272|411:267,1,104.999996795654,0|2,0:0|0:0,0:0:0:0:
233,343,65773,1,10,0:0:0:0:
198,367,65848,1,8,0:0:0:0:
156,368,65923,1,8,0:0:0:0:
119,347,65998,1,8,0:0:0:0:
96,311,66073,6,0,L|106:196,1,104.999996795654,4|0,0:0|0:0,0:0:0:0:
220,54,66373,2,0,P|218:106|188:148,1,104.999996795654,10|0,0:0|0:0,0:0:0:0:
26,161,66673,1,0,0:0:0:0:
115,100,66823,1,2,0:0:0:0:
284,209,66973,1,8,0:0:0:0:
179,226,67123,1,0,0:0:0:0:
372,97,67273,6,0,L|361:213,1,104.999996795654,6|0,0:0|0:0,0:0:0:0:
209,351,67573,2,0,L|199:246,1,104.999996795654,10|0,0:0|0:0,0:0:0:0:
35,172,67873,1,0,0:0:0:0:
162,91,68023,1,2,0:0:0:0:
102,275,68173,1,0,0:0:0:0:
21,185,68323,1,2,0:0:0:0:
268,132,68473,6,0,P|318:143|369:129,1,104.999996795654,12|0,0:0|0:0,0:0:0:0:
458,306,68773,2,0,P|407:292|357:303,1,104.999996795654,8|0,0:0|0:0,0:0:0:0:
237,359,69073,2,0,L|243:290,1,52.4999983978272,10|0,0:0|0:0,0:0:0:0:
233,174,69223,2,0,L|228:226,1,52.4999983978272,2|0,0:0|0:0,0:0:0:0:
144,362,69373,2,0,L|150:293,1,52.4999983978272,8|0,0:0|0:0,0:0:0:0:
148,136,69523,2,0,L|143:188,1,52.4999983978272,0|0,0:0|0:0,0:0:0:0:
0,334,69673,6,0,L|53:339,3,52.4999983978272,8|0|0|0,0:0|0:0|0:0|0:0,0:0:0:0:
148,309,69973,2,0,L|200:304,3,52.4999983978272,10|0|0|0,0:0|0:0|0:0|0:0,0:0:0:0:
295,343,70273,5,10,0:0:0:0:
332,362,70348,1,0,0:0:0:0:
373,359,70423,1,0,0:0:0:0:
400,327,70498,1,0,0:0:0:0:
406,285,70573,1,8,0:3:0:0:
388,246,70648,1,8,0:3:0:0:
388,204,70723,1,8,0:3:0:0:
408,167,70798,1,8,0:3:0:0:
447,152,70873,5,4,0:0:0:0:
97,157,81673,6,0,P|144:184|200:171,3,104.999996795654,2|2|2|2,0:0|0:0|0:0|0:0,0:0:0:0:
257,123,82873,5,2,0:0:0:0:
306,191,83173,1,0,0:0:0:0:
257,259,83473,1,0,0:0:0:0:
303,328,83773,1,0,0:0:0:0:
383,304,84073,6,0,L|444:298,1,52.4999983978272,2|0,0:0|0:0,0:0:0:0:
450,222,84373,2,0,L|511:216,1,52.4999983978272,2|2,0:0|0:0,0:0:0:0:
385,175,84673,2,0,P|399:126|444:102,2,104.999996795654,2|2|2,0:0|0:0|0:0,0:0:0:0:
303,328,85723,5,0,0:0:0:0:
257,259,85873,1,2,0:0:0:0:
199,323,86023,1,0,0:0:0:0:
174,242,86173,1,2,0:0:0:0:
228,179,86323,1,0,0:0:0:0:
187,106,86473,6,0,P|158:108|129:111,1,52.4999983978272,2|0,0:0|0:0,0:0:0:0:
47,120,86773,1,0,0:0:0:0:
47,120,86923,1,0,0:0:0:0:
152,194,87073,6,0,P|124:196|94:199,1,52.4999983978272,2|0,0:0|0:0,0:0:0:0:
12,208,87373,1,0,0:0:0:0:
12,208,87523,1,0,0:0:0:0:
75,302,87673,6,0,P|107:305|144:295,1,52.4999983978272,2|0,0:0|0:0,0:0:0:0:
206,246,87973,2,0,P|234:239|269:241,1,52.4999983978272,0|0,0:0|0:0,0:0:0:0:
338,298,88273,1,2,0:0:0:0:
406,234,88423,1,0,0:0:0:0:
353,157,88573,1,2,0:0:0:0:
411,84,88723,1,2,0:0:0:0:
255,22,88873,6,0,P|259:51|261:85,1,52.4999983978272,2|0,0:0|0:0,0:0:0:0:
261,172,89173,1,0,0:0:0:0:
261,172,89323,1,0,0:0:0:0:
151,68,89473,6,0,P|155:97|157:131,1,52.4999983978272,2|0,0:0|0:0,0:0:0:0:
157,218,89773,1,0,0:0:0:0:
157,218,89923,1,0,1:0:0:0:
44,269,90073,5,2,0:2:0:0:
168,342,90223,1,0,0:0:0:0:
354,270,90373,1,0,0:0:0:0:
198,132,90523,1,0,0:0:0:0:
198,132,91273,6,0,P|235:104|283:103,1,87.5,4|0,0:0|0:0,0:0:0:0:
397,197,91573,1,8,0:0:0:0:
379,74,91723,1,0,0:0:0:0:
397,197,91873,2,0,L|488:189,1,87.5,0|0,0:0|0:0,0:0:0:0:
364,290,92173,2,0,L|273:281,1,87.5,8|0,0:0|0:0,0:0:0:0:
120,355,92473,6,0,P|115:330|102:304,1,43.75,0|0,0:0|0:0,0:0:0:0:
40,248,92623,2,0,L|42:204,1,43.75,2|0,0:2|0:0,0:0:0:0:
114,143,92773,2,0,L|110:99,1,43.75,8|0,0:0|0:0,0:0:0:0:
190,220,92923,1,2,0:2:0:0:
190,220,92998,1,0,0:0:0:0:
190,220,93073,6,0,P|234:219|272:190,1,87.5,2|0,0:2|0:0,0:0:0:0:
334,16,93373,2,0,P|312:54|318:102,1,87.5,8|0,0:0|0:0,0:0:0:0:
441,242,93673,6,0,P|418:204|374:185,1,87.5,0|0,0:0|0:0,0:0:0:0:
341,358,93973,2,0,P|385:357|423:327,1,87.5,8|0,0:0|0:0,0:0:0:0:
284,222,94273,2,0,P|262:260|268:308,1,87.5,0|0,0:0|0:0,0:0:0:0:
112,348,94573,2,0,B|153:368|153:368|195:362,1,87.5,8|0,0:0|0:0,0:0:0:0:
284,142,94873,6,0,L|236:154,1,43.75,2|0,0:2|0:0,0:0:0:0:
184,213,95023,2,0,L|148:177,1,43.75,2|0,0:0|0:0,0:0:0:0:
76,154,95173,2,0,L|88:105,1,43.75,8|0,0:0|0:0,0:0:0:0:
72,29,95323,2,0,L|118:16,1,43.75,2|0,0:2|0:0,0:0:0:0:
194,66,95473,2,0,L|293:48,1,87.5,2|2,0:2|0:2,0:0:0:0:
443,117,95773,1,8,0:0:0:0:
393,5,95923,1,0,0:0:0:0:
284,142,96073,6,0,P|278:184|295:225,1,87.5,0|0,0:0|0:0,0:0:0:0:
434,276,96373,1,8,0:0:0:0:
304,347,96523,1,0,0:0:0:0:
434,276,96673,2,0,L|426:186,1,87.5,0|0,0:0|0:0,0:0:0:0:
337,6,96973,2,0,L|345:93,1,87.5,8|0,0:0|0:0,0:0:0:0:
196,205,97273,5,0,0:0:0:0:
252,67,97423,1,2,0:2:0:0:
99,154,97573,1,8,0:0:0:0:
288,243,97723,1,2,0:2:0:0:
189,352,97873,2,0,L|279:361,1,87.5,2|0,0:2|0:0,0:0:0:0:
168,246,98173,1,8,0:0:0:0:
326,229,98323,1,0,0:0:0:0:
163,101,98473,6,0,P|123:118|98:156,1,87.5,0|0,0:0|0:0,0:0:0:0:
0,154,98773,2,0,P|-5:197|16:237,1,87.5,8|0,0:0|0:0,0:0:0:0:
189,352,99073,2,0,P|229:335|253:296,1,87.5,0|0,0:0|0:0,0:0:0:0:
352,299,99373,2,0,P|357:255|335:215,1,87.5,8|0,0:0|0:0,0:0:0:0:
189,74,99673,6,0,L|185:124,1,43.75,2|0,0:2|0:0,0:0:0:0:
260,172,99823,2,0,L|264:128,1,43.75,2|0,0:2|0:0,0:0:0:0:
174,257,99973,2,0,L|177:213,1,43.75,8|0,0:0|0:0,0:0:0:0:
99,165,100123,2,0,L|95:208,1,43.75,2|0,0:2|0:0,0:0:0:0:
19,264,100273,2,0,L|23:307,1,43.75,2|0,0:2|0:0,0:0:0:0:
113,352,100423,5,8,0:0:0:0:
157,373,100498,1,8,0:0:0:0:
201,368,100573,1,8,0:0:0:0:
233,345,100648,1,0,0:0:0:0:
267,332,100723,1,0,0:0:0:0:
297,342,100798,1,0,0:0:0:0:
313,356,100873,6,0,L|325:211,1,140,6|0,1:2|1:0,0:0:0:0:
401,133,101323,1,0,0:0:0:0:
401,133,101473,2,0,L|261:120,1,140,0|0,1:0|1:0,0:0:0:0:
152,176,101923,1,0,0:0:0:0:
152,176,102073,6,0,L|164:31,1,140,2|0,1:2|1:0,0:0:0:0:
48,196,102523,1,0,0:0:0:0:
48,196,102673,2,0,P|61:233|89:262,1,70,0|0,1:0|0:0,0:0:0:0:
146,346,102973,2,0,P|159:309|187:280,1,70,0|0,1:0|0:0,0:0:0:0:
290,240,103273,6,0,L|430:252,1,140,2|0,1:2|1:0,0:0:0:0:
443,125,103723,1,0,0:0:0:0:
443,125,103873,2,0,P|408:134|380:163,1,70,0|0,1:0|0:0,0:0:0:0:
271,35,104173,2,0,P|296:60|306:99,1,70,0|0,1:0|0:0,0:0:0:0:
240,247,104473,6,0,L|228:107,1,140,2|0,1:2|1:0,0:0:0:0:
132,192,104923,1,0,0:0:0:0:
132,192,105073,2,0,P|99:177|58:180,1,70,0|0,1:0|0:0,0:0:0:0:
120,338,105373,2,0,P|154:338|186:323,1,70,0|0,1:0|0:0,0:0:0:0:
289,243,105673,6,0,B|260:245|247:262|247:262|282:292|334:285|334:285|352:318|395:322,1,210,2|0,1:2|0:0,0:0:0:0:
344,128,106273,2,0,B|317:115|298:123|298:123|313:166|361:186|361:186|391:202|398:243,1,210,0|0,1:0|0:0,0:0:0:0:
465,149,106873,2,0,B|481:124|502:122|502:122|510:167|478:208|478:208|494:239|477:282,1,210,2|0,1:2|0:0,0:0:0:0:
375,59,107473,6,0,B|318:71|279:30|279:30|225:53|225:122,1,210,0|0,1:0|0:0,0:0:0:0:
37,270,108073,2,0,B|36:329|90:352|90:352|129:311|186:323,1,210,2|0,1:2|0:0,0:0:0:0:
339,268,108673,2,0,P|332:235|339:194,1,70,0|0,1:0|0:0,0:0:0:0:
123,95,108973,2,0,P|130:128|123:169,1,70,0|8,1:0|1:0,0:0:0:0:
178,285,109273,5,0,0:0:0:0:
241,117,109423,1,8,0:0:0:0:
294,344,109573,1,0,0:0:0:0:
243,98,109723,1,8,0:0:0:0:
35,187,109873,6,0,B|72:183|72:183|82:189|82:189|123:185,1,87.5,4|0,0:2|0:0,0:0:0:0:
313,354,110173,2,0,B|309:316|309:316|301:308|301:308|298:270,1,87.5,4|0,1:2|0:0,0:0:0:0:
375,59,110473,6,0,P|416:73|448:109,1,87.5,4|0,0:0|0:0,0:0:0:0:
368,228,110773,2,0,P|359:185|374:139,1,87.5,8|0,0:0|0:0,0:0:0:0:
512,168,111073,1,0,0:0:0:0:
451,272,111223,1,0,0:0:0:0:
276,154,111373,1,8,0:0:0:0:
210,257,111523,1,2,0:2:0:0:
210,257,111598,1,2,0:2:0:0:
210,257,111673,6,0,L|218:351,1,87.5,2|2,0:0|0:0,0:0:0:0:
67,304,111973,2,0,L|59:216,1,87.5,8|0,0:0|0:0,0:0:0:0:
115,98,112273,1,0,0:0:0:0:
115,98,112348,1,0,0:0:0:0:
115,98,112423,1,2,0:0:0:0:
188,161,112573,2,0,L|275:153,1,87.5,8|0,0:0|0:0,0:0:0:0:
453,180,112873,5,0,0:0:0:0:
345,93,113023,1,0,0:0:0:0:
453,180,113173,2,0,B|471:220|471:220|457:267,1,87.5,8|0,0:0|0:0,0:0:0:0:
261,315,113473,5,0,0:0:0:0:
374,231,113623,1,0,0:0:0:0:
261,315,113773,2,0,B|243:275|243:275|257:228,1,87.5,8|2,0:0|0:2,0:0:0:0:
210,166,113998,1,2,0:2:0:0:
210,166,114073,6,0,L|113:174,1,87.5,2|2,0:0|0:0,0:0:0:0:
2,256,114373,1,8,0:0:0:0:
60,87,114523,1,8,0:0:0:0:
181,257,114673,5,0,0:0:0:0:
209,278,114748,1,0,0:0:0:0:
243,284,114823,1,10,0:0:0:0:
276,275,114898,1,0,0:0:0:0:
301,251,114973,2,0,L|306:315,1,43.75,10|0,0:0|0:0,0:0:0:0:
406,184,115123,2,0,L|409:227,1,43.75,10|0,0:0|0:0,0:0:0:0:
260,107,115273,6,0,P|244:64|251:19,1,87.5,4|0,0:0|0:0,0:0:0:0:
181,158,115573,2,0,P|151:123|142:78,1,87.5,8|0,0:0|0:0,0:0:0:0:
130,251,115873,2,0,P|84:243|49:214,1,87.5,8|0,0:0|0:0,0:0:0:0:
199,349,116173,2,0,P|159:371|113:372,1,87.5,8|0,0:0|0:0,0:0:0:0:
301,251,116473,5,8,0:0:0:0:
316,259,116548,1,0,0:0:0:0:
328,270,116623,1,0,0:0:0:0:
337,284,116698,1,0,0:0:0:0:
342,300,116773,5,8,0:0:0:0:
343,334,116848,1,0,0:0:0:0:
323,363,116923,1,0,0:0:0:0:
288,362,116998,1,0,0:0:0:0:
263,336,117073,1,8,0:0:0:0:
263,301,117148,1,0,0:0:0:0:
280,270,117223,1,0,0:0:0:0:
304,245,117298,1,0,0:0:0:0:
320,214,117373,1,8,0:0:0:0:
324,179,117448,1,0,0:0:0:0:
313,145,117523,1,0,0:0:0:0:
287,120,117598,1,0,0:0:0:0:
251,112,117673,6,0,P|172:144|87:116,1,175,4|0,0:0|0:0,0:0:0:0:
0,264,118123,1,8,0:0:0:0:
35,268,118198,1,8,0:0:0:0:
80,274,118273,6,0,L|87:324,1,43.75,8|8,0:0|0:0,0:0:0:0:
145,219,118423,2,0,L|139:175,1,43.75,2|0,0:2|0:0,0:0:0:0:
217,279,118573,6,0,L|225:333,1,43.75,2|0,0:2|0:0,0:0:0:0:
259,192,118723,2,0,L|251:138,1,43.75,2|2,0:2|0:2,0:0:0:0:
336,249,118873,5,0,0:0:0:0:
354,247,118948,1,0,0:0:0:0:
372,244,119023,1,6,0:0:0:0:
92,56,119323,5,2,0:0:0:0:
252,148,119473,1,2,0:0:0:0:
110,229,119623,5,0,0:2:0:0:
99,242,119698,1,0,0:2:0:0:
90,262,119773,1,8,0:1:0:0:
88,288,119848,1,8,0:1:0:0:
96,318,119923,1,8,0:1:0:0:
126,338,119998,1,8,0:1:0:0:
168,334,120073,6,0,L|274:324,1,104.999996795654,4|0,0:0|0:0,0:0:0:0:
420,195,120373,2,0,P|372:205|336:250,1,104.999996795654,10|0,0:0|0:0,0:0:0:0:
170,142,120673,1,2,0:0:0:0:
246,236,120823,1,2,0:0:0:0:
87,338,120973,1,8,0:0:0:0:
148,240,121123,1,2,0:0:0:0:
28,106,121273,6,0,P|78:100|119:62,1,104.999996795654,2|0,0:0|0:0,0:0:0:0:
277,160,121573,1,10,0:0:0:0:
214,21,121723,1,0,0:0:0:0:
148,240,121873,2,0,P|198:246|239:284,1,104.999996795654,2|0,0:0|0:0,0:0:0:0:
385,337,122173,1,8,0:0:0:0:
349,198,122323,1,2,0:0:0:0:
160,329,122473,6,0,L|55:338,1,104.999996795654,0|0,0:0|0:0,0:0:0:0:
172,150,122773,2,0,L|276:159,1,104.999996795654,8|0,0:0|0:0,0:0:0:0:
104,233,123073,2,0,L|0:242,1,104.999996795654,0|2,0:0|0:0,0:0:0:0:
228,57,123373,2,0,L|332:66,1,104.999996795654,8|2,0:0|0:0,0:0:0:0:
466,231,123673,5,2,0:0:0:0:
451,53,123823,1,0,0:0:0:0:
345,159,123973,1,10,0:0:0:0:
457,32,124123,1,0,0:0:0:0:
342,252,124273,6,0,P|293:237|260:197,1,104.999996795654,0|2,0:0|0:0,0:0:0:0:
129,31,124573,1,8,0:0:0:0:
150,67,124648,1,8,0:0:0:0:
153,108,124723,1,8,0:0:0:0:
133,145,124798,1,8,0:0:0:0:
98,169,124873,6,0,P|67:210|68:271,1,104.999996795654,4|0,0:0|0:0,0:0:0:0:
307,360,125173,2,0,P|305:308|273:267,1,104.999996795654,10|0,0:0|0:0,0:0:0:0:
143,237,125473,1,2,0:0:0:0:
230,338,125623,1,2,0:0:0:0:
250,127,125773,1,8,0:0:0:0:
160,234,125923,1,0,0:0:0:0:
382,292,126073,6,0,L|486:282,1,104.999996795654,2|0,0:0|0:0,0:0:0:0:
365,186,126373,1,10,0:0:0:0:
290,305,126523,1,0,0:0:0:0:
176,163,126673,2,0,P|218:187|272:181,1,104.999996795654,0|2,0:0|0:0,0:0:0:0:
461,75,126973,2,0,P|409:68|364:92,1,104.999996795654,8|2,0:0|0:0,0:0:0:0:
280,280,127273,5,2,0:2:0:0:
320,275,127348,1,2,0:2:0:0:
362,271,127423,1,2,0:2:0:0:
404,268,127498,1,2,0:2:0:0:
446,264,127573,2,0,B|470:311|470:311|461:363,1,104.999996795654,4|2,0:2|0:2,0:0:0:0:
191,287,127873,5,2,0:2:0:0:
195,245,127948,1,2,0:2:0:0:
219,210,128023,1,2,0:2:0:0:
255,189,128098,1,2,0:2:0:0:
296,189,128173,1,4,0:2:0:0:
134,88,128323,5,2,0:2:0:0:
134,88,128398,1,2,0:2:0:0:
134,88,128473,2,0,P|124:145|77:178,1,104.999996795654,4|2,0:0|0:2,0:0:0:0:
18,199,128698,1,2,0:2:0:0:
18,199,128773,2,0,L|28:315,1,104.999996795654,8|2,0:0|0:2,0:0:0:0:
193,366,129073,5,2,0:2:0:0:
221,335,129148,1,2,0:2:0:0:
260,321,129223,1,2,0:2:0:0:
301,327,129298,1,0,0:2:0:0:
337,347,129373,1,2,0:2:0:0:
378,347,129448,1,2,0:2:0:0:
415,327,129523,1,2,0:2:0:0:
432,288,129598,1,2,0:2:0:0:
428,246,129673,6,0,L|417:130,1,104.999996795654,4|0,0:0|0:0,0:0:0:0:
284,57,129973,2,0,L|293:161,1,104.999996795654,10|0,0:0|0:0,0:0:0:0:
144,300,130273,1,2,0:0:0:0:
193,158,130423,1,2,0:0:0:0:
252,355,130573,1,8,0:0:0:0:
52,296,130723,1,2,0:0:0:0:
54,79,130873,6,0,P|54:132|78:181,1,104.999996795654,2|0,0:0|0:0,0:0:0:0:
211,266,131173,1,10,0:0:0:0:
158,107,131323,1,0,0:0:0:0:
193,357,131473,2,0,P|250:350|287:319,1,104.999996795654,2|0,0:0|0:0,0:0:0:0:
316,160,131773,1,10,0:0:0:0:
211,266,131923,1,2,0:0:0:0:
377,367,132073,6,0,L|483:357,1,104.999996795654,0|0,0:0|0:0,0:0:0:0:
290,145,132373,2,0,L|299:251,1,104.999996795654,10|0,0:0|0:0,0:0:0:0:
420,41,132673,2,0,L|313:50,1,104.999996795654,2|2,0:0|0:0,0:0:0:0:
507,263,132973,2,0,L|497:156,1,104.999996795654,8|2,0:0|0:0,0:0:0:0:
243,78,133273,5,2,0:0:0:0:
416,216,133423,1,0,0:0:0:0:
211,266,133573,1,10,0:0:0:0:
368,121,133723,1,0,0:0:0:0:
162,178,133873,6,0,P|218:173|267:206,1,104.999996795654,0|2,0:0|0:0,0:0:0:0:
383,323,134173,1,8,0:0:0:0:
353,352,134248,1,8,0:0:0:0:
312,361,134323,1,8,0:0:0:0:
271,349,134398,1,8,0:0:0:0:
241,318,134473,6,0,P|196:294|143:302,1,104.999996795654,4|0,0:0|0:0,0:0:0:0:
36,178,134773,2,0,P|81:202|134:194,1,104.999996795654,10|0,0:0|0:0,0:0:0:0:
243,100,135073,1,2,0:0:0:0:
266,222,135223,1,2,0:0:0:0:
147,53,135373,1,8,0:0:0:0:
329,62,135523,1,0,0:0:0:0:
164,229,135673,6,0,L|154:336,1,104.999996795654,6|2,0:0|0:0,0:0:0:0:
36,178,135973,2,0,L|45:70,1,104.999996795654,10|0,0:0|0:0,0:0:0:0:
185,32,136273,1,0,0:0:0:0:
122,164,136423,1,2,0:0:0:0:
282,243,136573,1,8,0:0:0:0:
227,116,136723,1,2,0:0:0:0:
118,297,136873,6,0,L|2:285,1,104.999996795654,6|0,0:0|0:0,0:0:0:0:
122,164,137173,2,0,P|172:176|213:224,1,104.999996795654,10|0,0:0|0:0,0:0:0:0:
297,338,137473,5,10,0:0:0:0:
333,358,137548,1,0,0:0:0:0:
374,357,137623,1,2,0:0:0:0:
411,337,137698,1,0,0:0:0:0:
430,300,137773,1,8,0:0:0:0:
426,258,137848,1,0,0:0:0:0:
400,224,137923,1,0,0:0:0:0:
359,211,137998,1,0,0:0:0:0:
319,225,138073,6,0,L|324:292,3,52.4999983978272,8|0|0|0,0:0|0:0|0:0|0:0,0:0:0:0:
241,346,138373,2,0,L|235:278,3,52.4999983978272,10|0|0|0,0:0|0:0|0:0|0:0,0:0:0:0:
166,233,138673,1,10,0:0:0:0:
130,256,138748,1,0,0:0:0:0:
88,256,138823,1,0,0:0:0:0:
52,233,138898,1,0,0:0:0:0:
36,194,138973,1,8,0:3:0:0:
44,152,139048,1,8,0:3:0:0:
73,121,139123,1,8,0:3:0:0:
114,112,139198,1,8,0:3:0:0:
155,118,139273,5,4,0:0:0:0:
416,320,148873,6,0,B|365:311|330:336|330:336|314:308|314:308|279:331|228:319,1,209.999993591309,6|8,0:0|0:0,0:0:0:0:
83,221,149323,2,0,P|135:222|178:251,1,104.999996795654,2|0,0:0|0:0,0:0:0:0:
349,166,149623,2,0,L|244:175,1,104.999996795654,2|8,0:0|0:0,0:0:0:0:
108,101,149923,1,2,0:0:0:0:
236,60,150073,5,0,0:0:0:0:
113,246,150223,1,2,0:0:0:0:
108,101,150373,1,8,0:0:0:0:
226,185,150523,1,2,0:0:0:0:
1,183,150673,1,2,0:0:0:0:
92,343,150823,5,2,0:2:0:0:
92,343,150898,1,2,0:2:0:0:
92,343,150973,2,0,L|158:337,1,52.4999983978272,8|0,0:0|0:0,0:0:0:0:
210,269,151123,2,0,L|276:274,1,52.4999983978272,2|0,0:2|0:0,0:0:0:0:
378,342,151273,5,2,0:0:0:0:
344,211,151423,1,2,0:0:0:0:
475,269,151573,1,8,0:0:0:0:
287,308,151723,5,2,0:0:0:0:
245,310,151798,1,2,0:0:0:0:
203,313,151873,1,2,0:0:0:0:
122,132,152023,5,0,0:0:0:0:
164,134,152098,1,0,0:0:0:0:
206,137,152173,1,10,0:0:0:0:
113,246,152323,2,0,L|9:236,1,104.999996795654,2|0,0:0|0:0,0:0:0:0:
108,41,152623,5,2,0:0:0:0:
236,219,152773,1,10,0:0:0:0:
236,219,152848,1,0,0:0:0:0:
236,219,152923,1,0,0:0:0:0:
211,74,153073,1,0,0:0:0:0:
69,200,153223,1,2,0:0:0:0:
69,200,153298,1,0,0:0:0:0:
69,200,153373,2,0,L|76:272,1,52.4999983978272,0|2,0:0|0:2,0:0:0:0:
181,334,153523,2,0,L|175:281,1,52.4999983978272,2|2,0:2|0:2,0:0:0:0:
258,194,153673,6,0,P|302:169|357:172,1,104.999996795654,4|0,0:0|0:0,0:0:0:0:
512,229,153973,2,0,P|468:254|413:251,1,104.999996795654,8|2,0:0|0:0,0:0:0:0:
304,349,154273,2,0,L|249:345,3,52.4999983978272,2|0|0|0,0:0|0:0|0:0|0:0,0:0:0:0:
175,281,154573,2,0,L|120:284,3,52.4999983978272,10|0|2|0,0:0|0:0|0:0|0:0,0:0:0:0:
36,344,154873,5,0,0:0:0:0:
20,305,154948,1,0,0:0:0:0:
20,263,155023,1,2,0:0:0:0:
37,224,155098,1,0,0:0:0:0:
66,194,155173,1,8,0:0:0:0:
105,179,155248,1,2,0:0:0:0:
135,150,155323,1,0,0:0:0:0:
144,108,155398,1,2,0:0:0:0:
120,73,155473,2,0,L|66:77,1,52.4999983978272,0|0,0:0|0:0,0:0:0:0:
243,160,155623,5,2,0:0:0:0:
282,146,155698,1,0,0:0:0:0:
310,115,155773,1,8,0:0:0:0:
337,146,155848,1,2,0:2:0:0:
375,163,155923,1,2,0:2:0:0:
416,166,155998,1,2,0:2:0:0:
454,150,156073,6,0,P|424:192|424:255,1,104.999996795654,6|0,0:0|0:0,0:0:0:0:
332,357,156373,2,0,L|326:297,3,52.4999983978272,8|0|0|0,0:0|0:0|0:0|0:0,0:0:0:0:
248,253,156673,2,0,L|297:218,3,52.4999983978272,8|0|0|0,0:0|0:0|0:0|0:0,0:0:0:0:
287,129,156973,2,0,L|341:154,3,52.4999983978272,8|0|0|0,0:0|0:0|0:0|0:0,0:0:0:0:
405,89,157273,5,2,0:0:0:0:
380,42,157348,1,0,0:0:0:0:
329,26,157423,1,0,0:0:0:0:
278,40,157498,1,2,0:0:0:0:
248,83,157573,1,2,0:0:0:0:
198,101,157648,1,0,0:0:0:0:
148,82,157723,1,2,0:0:0:0:
95,79,157798,1,0,0:0:0:0:
53,110,157873,1,2,0:0:0:0:
43,161,157948,1,0,0:0:0:0:
64,208,158023,1,2,0:2:0:0:
113,226,158098,1,2,0:2:0:0:
164,213,158173,2,0,L|217:218,3,52.4999983978272,2|2|2|2,0:2|0:2|0:2|0:2,0:0:0:0:
264,336,158473,6,0,L|111:322,1,140,6|0,1:2|1:2,0:0:0:0:
32,370,158923,1,0,0:0:0:0:
32,370,159073,2,0,L|44:230,1,140,0|0,1:0|1:0,0:0:0:0:
157,98,159523,1,0,0:0:0:0:
157,98,159673,6,0,L|144:237,1,140,2|0,1:2|1:2,0:0:0:0:
239,344,160123,1,0,0:0:0:0:
239,344,160273,2,0,P|267:323|304:317,1,70,0|0,1:0|0:0,0:0:0:0:
357,189,160573,2,0,P|329:210|292:216,1,70,0|0,1:0|0:0,0:0:0:0:
454,290,160873,6,0,L|440:136,1,140,2|0,1:2|1:0,0:0:0:0:
371,53,161323,1,0,0:0:0:0:
371,53,161473,2,0,P|335:86|292:86,1,70,0|0,1:0|0:0,0:0:0:0:
157,98,161773,2,0,P|179:71|212:61,1,70,0|0,1:0|0:0,0:0:0:0:
218,203,162073,6,0,L|65:189,1,140,2|0,1:2|1:0,0:0:0:0:
0,301,162523,1,0,0:0:0:0:
0,301,162673,2,0,P|35:286|88:286,1,70,0|0,1:0|0:0,0:0:0:0:
152,347,162973,2,0,P|186:343|218:328,1,70,0|0,1:0|0:0,0:0:0:0:
324,219,163273,6,0,P|303:301|381:267,1,210,2|0,1:2|0:0,0:0:0:0:
332,125,163873,2,0,P|270:66|261:150,1,210,0|0,1:0|0:0,0:0:0:0:
409,178,164473,2,0,P|490:154|422:103,1,210,2|0,1:2|0:0,0:0:0:0:
217,218,165073,6,0,B|156:215|130:167|130:167|91:205|30:189,1,210,0|0,1:0|0:0,0:0:0:0:
241,40,165673,2,0,B|299:24|338:62|338:62|365:14|425:11,1,210,2|0,1:2|0:0,0:0:0:0:
285,189,166273,2,0,P|274:155|273:121,1,70,0|0,1:0|0:0,0:0:0:0:
442,193,166573,2,0,P|441:227|430:260,1,70,0|8,1:0|1:0,0:0:0:0:
275,340,166873,5,0,1:0:0:0:
362,215,167023,1,8,1:0:0:0:
201,263,167173,1,0,1:0:0:0:
435,378,167323,1,8,1:0:0:0:
173,374,167473,6,0,B|210:370|210:370|220:376|220:376|261:372,1,87.5,4|0,0:2|0:0,0:0:0:0:
347,131,167773,2,0,B|350:169|350:169|358:177|358:177|362:215,1,87.5,4|0,0:2|0:0,0:0:0:0:
201,263,168073,6,0,P|162:247|111:255,1,87.5,4|0,0:0|0:0,0:0:0:0:
0,137,168373,2,0,P|39:153|90:145,1,87.5,8|0,0:0|0:0,0:0:0:0:
169,53,168673,1,0,0:0:0:0:
217,166,168823,1,0,0:0:0:0:
57,46,168973,1,8,0:0:0:0:
284,90,169123,1,2,0:2:0:0:
284,90,169198,1,2,0:2:0:0:
284,90,169273,6,0,L|392:80,1,87.5,2|2,0:0|0:0,0:0:0:0:
512,162,169573,2,0,L|403:171,1,87.5,8|0,0:0|0:0,0:0:0:0:
358,318,169873,1,0,0:0:0:0:
358,318,169948,1,0,0:0:0:0:
358,318,170023,1,2,0:0:0:0:
278,247,170173,2,0,L|169:256,1,87.5,8|0,0:0|0:0,0:0:0:0:
93,120,170473,5,0,0:0:0:0:
56,268,170623,1,0,0:0:0:0:
93,120,170773,2,0,B|137:131|137:131|195:118,1,87.5,8|0,0:0|0:0,0:0:0:0:
352,211,171073,5,0,0:0:0:0:
315,63,171223,1,0,0:0:0:0:
352,211,171373,2,0,B|396:200|396:200|454:213,1,87.5,8|2,0:0|0:2,0:0:0:0:
510,254,171598,1,2,0:2:0:0:
510,254,171673,2,0,L|503:343,1,87.5,2|2,0:0|0:0,0:0:0:0:
442,124,171973,1,8,0:0:0:0:
398,291,172123,1,8,0:0:0:0:
297,156,172273,5,0,0:0:0:0:
270,133,172348,1,0,0:0:0:0:
236,124,172423,1,10,0:0:0:0:
201,129,172498,1,0,0:0:0:0:
171,148,172573,1,10,0:0:0:0:
145,171,172648,1,0,0:0:0:0:
110,179,172723,1,10,0:0:0:0:
76,168,172798,1,0,0:0:0:0:
53,141,172873,6,0,L|43:248,1,87.5,12|0,0:0|0:0,0:0:0:0:
208,41,173173,2,0,L|198:148,1,87.5,8|0,0:0|0:0,0:0:0:0:
298,261,173473,2,0,L|288:368,1,87.5,8|0,0:0|0:0,0:0:0:0:
453,161,173773,2,0,L|443:268,1,87.5,8|0,0:0|0:0,0:0:0:0:
297,156,174073,6,0,L|253:160,3,43.75,8|0|0|0,0:0|0:0|0:0|0:0,0:0:0:0:
197,234,174372,2,0,L|153:231,3,43.75,8|0|0|0,0:0|0:0|0:0|0:0,0:0:0:0:
65,291,174672,5,8,0:0:0:0:
82,321,174747,1,0,0:0:0:0:
111,340,174822,1,0,0:0:0:0:
145,343,174897,1,0,0:0:0:0:
178,332,174972,1,8,0:0:0:0:
207,312,175047,1,0,0:0:0:0:
241,306,175122,1,0,0:0:0:0:
275,314,175197,1,0,0:0:0:0:
299,339,175273,6,0,B|383:362|383:362|457:303,1,175,4|0,0:0|0:0,0:0:0:0:
398,114,175723,1,2,0:2:0:0:
363,110,175798,1,2,0:2:0:0:
318,104,175873,6,0,L|311:54,1,43.75,8|8,0:0|0:0,0:0:0:0:
253,159,176023,2,0,L|259:203,1,43.75,2|0,0:2|0:0,0:0:0:0:
181,99,176173,6,0,L|173:45,1,43.75,2|0,0:2|0:0,0:0:0:0:
139,186,176323,2,0,L|147:240,1,43.75,2|2,0:2|0:2,0:0:0:0:
62,129,176473,6,0,B|29:81|29:81|35:16,2,116.666666666667,4|4|4,0:2|0:2|0:2,0:0:0:0:
181,99,176973,1,0,0:0:0:0:
181,99,177073,2,0,B|213:148|213:148|211:211,1,116.666666666667,4|0,0:2|0:0,0:0:0:0:
208,244,177323,2,0,L|248:246,3,29.1666666666667,0|0|0|4,0:0|0:0|0:0|0:2,0:0:0:0:
57,276,189673,6,0,L|184:265,1,104.999996795654,4|0,0:0|0:0,0:0:0:0:
340,189,189973,1,10,0:0:0:0:
217,116,190123,1,0,0:0:0:0:
277,293,190273,2,0,P|321:309|390:301,1,104.999996795654,0|0,0:0|0:0,0:0:0:0:
471,152,190573,2,0,P|419:147|369:164,1,104.999996795654,10|2,0:0|0:0,0:0:0:0:
137,37,190873,6,0,L|242:28,1,104.999996795654,0|0,0:0|0:0,0:0:0:0:
110,187,191173,2,0,L|5:177,1,104.999996795654,8|0,0:0|0:0,0:0:0:0:
217,118,191473,2,0,L|321:108,1,104.999996795654,0|2,0:0|0:0,0:0:0:0:
156,287,191773,2,0,L|51:277,1,104.999996795654,8|2,0:0|0:0,0:0:0:0:
280,198,192073,5,2,0:0:0:0:
372,319,192223,1,0,0:0:0:0:
421,145,192373,1,10,0:0:0:0:
374,342,192523,1,0,0:0:0:0:
512,256,192673,6,0,P|464:233|411:235,1,104.999996795654,0|2,0:0|0:0,0:0:0:0:
254,329,192973,1,8,0:0:0:0:
218,350,193048,1,8,0:0:0:0:
176,355,193123,1,8,0:0:0:0:
136,341,193198,1,8,0:0:0:0:
105,311,193273,6,0,L|114:205,1,104.999996795654,4|0,0:0|0:0,0:0:0:0:
33,87,193573,2,0,P|80:60|135:66,1,104.999996795654,10|0,0:0|0:0,0:0:0:0:
301,176,193873,1,0,0:0:0:0:
221,49,194023,1,2,0:0:0:0:
217,242,194173,1,8,0:0:0:0:
396,180,194323,1,2,0:0:0:0:
512,352,194473,6,0,L|404:341,1,104.999996795654,2|0,0:0|0:0,0:0:0:0:
288,274,194773,2,0,P|280:222|300:176,1,104.999996795654,10|0,0:0|0:0,0:0:0:0:
428,124,195073,1,0,0:0:0:0:
372,235,195223,1,2,0:0:0:0:
323,25,195373,1,8,0:0:0:0:
452,128,195523,1,2,0:0:0:0:
285,201,195673,5,2,0:2:0:0:
243,209,195748,1,2,0:2:0:0:
206,188,195823,1,2,0:2:0:0:
171,164,195898,1,2,0:2:0:0:
129,171,195973,2,0,L|138:284,1,104.999996795654,4|0,0:2|0:0,0:0:0:0:
36,74,196273,5,2,0:2:0:0:
76,69,196348,1,2,0:2:0:0:
117,64,196423,1,2,0:2:0:0:
158,60,196498,1,2,0:2:0:0:
199,55,196573,1,4,0:2:0:0:
382,130,196723,5,2,0:2:0:0:
382,130,196798,1,2,0:2:0:0:
382,130,196873,2,0,L|371:243,1,104.999996795654,4|2,0:0|0:2,0:0:0:0:
341,309,197098,1,2,0:2:0:0:
341,309,197173,2,0,P|293:331|235:319,1,104.999996795654,0|2,0:0|0:2,0:0:0:0:
107,222,197473,5,2,0:2:0:0:
66,234,197548,1,2,0:2:0:0:
42,268,197623,1,2,0:2:0:0:
43,309,197698,1,0,0:0:0:0:
69,341,197773,1,2,0:2:0:0:
110,349,197848,1,2,0:2:0:0:
148,332,197923,1,2,0:2:0:0:
172,298,197998,1,2,0:2:0:0:
167,256,198073,6,0,P|153:205|167:157,1,104.999996795654,4|0,0:0|0:0,0:0:0:0:
339,327,198373,2,0,L|221:316,1,104.999996795654,10|0,0:0|0:0,0:0:0:0:
377,206,198673,1,2,0:0:0:0:
433,377,198823,1,2,0:0:0:0:
272,231,198973,1,8,0:0:0:0:
483,266,199123,1,2,0:0:0:0:
316,113,199273,6,0,P|298:62|314:12,1,104.999996795654,2|0,0:0|0:0,0:0:0:0:
471,90,199573,1,10,0:0:0:0:
377,206,199723,1,0,0:0:0:0:
211,122,199873,2,0,L|323:112,1,104.999996795654,2|0,0:0|0:0,0:0:0:0:
203,217,200173,1,8,0:0:0:0:
128,56,200323,1,2,0:0:0:0:
33,233,200473,6,0,P|80:247|116:294,1,104.999996795654,0|0,0:0|0:0,0:0:0:0:
322,231,200773,2,0,P|329:179|364:141,1,104.999996795654,8|0,0:0|0:0,0:0:0:0:
160,127,201073,2,0,P|194:165|202:216,1,104.999996795654,2|2,0:0|0:0,0:0:0:0:
372,324,201373,2,0,P|420:304|470:315,1,104.999996795654,8|2,0:0|0:0,0:0:0:0:
319,148,201673,5,2,0:0:0:0:
196,303,201823,1,0,0:0:0:0:
198,116,201973,1,10,0:0:0:0:
302,371,202123,1,0,0:0:0:0:
469,215,202273,6,0,P|478:162|456:114,1,104.999996795654,0|2,0:0|0:0,0:0:0:0:
281,220,202573,1,8,0:0:0:0:
241,234,202648,1,8,0:0:0:0:
199,231,202723,1,8,0:0:0:0:
163,208,202798,1,8,0:0:0:0:
141,171,202873,6,0,L|132:275,1,104.999996795654,4|0,0:0|0:0,0:0:0:0:
256,135,203173,2,0,L|264:30,1,104.999996795654,10|0,0:0|0:0,0:0:0:0:
52,216,203473,2,0,L|43:320,1,104.999996795654,0|2,0:0|0:0,0:0:0:0:
342,199,203773,2,0,L|350:94,1,104.999996795654,8|0,0:0|0:0,0:0:0:0:
183,57,204073,5,4,0:2:0:0:
230,305,204223,1,0,0:0:0:0:
83,113,204373,5,10,0:0:0:0:
328,245,204523,1,0,0:0:0:0:
59,228,204673,5,0,0:0:0:0:
342,138,204823,1,8,0:0:0:0:
122,325,204973,5,0,0:0:0:0:
278,62,205123,1,8,0:0:0:0:
278,62,205198,1,0,0:0:0:0:
278,62,205273,1,2,0:2:0:0:
278,62,205573,6,0,L|287:175,1,104.999996795654,6|0,0:0|0:0,0:0:0:0:
357,346,205873,1,2,0:0:0:0:
167,272,206023,1,0,0:0:0:0:
386,200,206173,1,8,0:0:0:0:
197,271,206323,1,0,0:0:0:0:
278,62,206473,6,0,P|231:79|197:123,1,104.999996795654,0|0,0:0|0:0,0:0:0:0:
279,316,206773,1,10,0:0:0:0:
285,155,206923,1,0,0:0:0:0:
92,280,207073,2,0,L|206:269,1,104.999996795654,2|0,0:0|0:0,0:0:0:0:
104,165,207373,1,10,0:0:0:0:
0,289,207523,1,2,0:0:0:0:
87,66,207673,6,0,P|148:85|178:132,1,104.999996795654,0|0,0:0|0:0,0:0:0:0:
281,320,207973,2,0,P|220:301|190:254,1,104.999996795654,10|0,0:0|0:0,0:0:0:0:
290,90,208273,2,0,P|351:109|381:156,1,104.999996795654,0|10,0:0|0:0,0:0:0:0:
480,328,208573,2,0,P|419:309|389:262,1,104.999996795654,8|2,0:0|0:0,0:0:0:0:
430,56,208873,5,2,0:0:0:0:
296,176,209023,1,0,0:0:0:0:
477,235,209173,1,10,0:0:0:0:
307,63,209323,1,0,0:0:0:0:
195,270,209473,6,0,P|230:308|281:320,1,104.999996795654,0|10,0:0|0:0,0:0:0:0:
392,191,209773,1,8,0:0:0:0:
365,158,209848,1,8,0:0:0:0:
326,141,209923,1,8,0:0:0:0:
284,145,209998,1,8,0:0:0:0:
250,170,210073,6,0,P|199:167|155:133,1,104.999996795654,4|0,0:0|0:0,0:0:0:0:
10,263,210373,2,0,P|51:231|103:228,1,104.999996795654,10|0,0:0|0:0,0:0:0:0:
260,330,210673,1,0,0:0:0:0:
83,320,210823,1,10,0:0:0:0:
250,170,210973,1,8,0:0:0:0:
168,378,211123,1,0,0:0:0:0:
349,270,211273,6,0,L|453:279,1,104.999996795654,2|0,0:0|0:0,0:0:0:0:
334,119,211573,2,0,P|284:131|250:170,1,104.999996795654,10|0,0:0|0:0,0:0:0:0:
160,347,211873,1,0,0:0:0:0:
258,264,212023,1,10,0:0:0:0:
75,172,212173,1,8,0:0:0:0:
92,292,212323,1,0,0:0:0:0:
245,74,212473,5,2,0:2:0:0:
205,69,212548,1,2,0:2:0:0:
164,64,212623,1,2,0:2:0:0:
123,60,212698,1,2,0:2:0:0:
81,56,212773,6,0,B|54:101|54:101|69:156,1,104.999996795654,4|0,0:2|0:0,0:0:0:0:
231,296,213073,5,2,0:2:0:0:
258,264,213148,1,2,0:2:0:0:
297,249,213223,1,2,0:2:0:0:
338,249,213298,1,2,0:2:0:0:
378,261,213373,1,4,0:2:0:0:
436,122,213523,5,2,0:2:0:0:
436,122,213598,1,2,0:2:0:0:
436,122,213673,2,0,L|324:112,1,104.999996795654,4|2,0:0|0:2,0:0:0:0:
260,161,213898,1,2,0:2:0:0:
260,161,213973,2,0,P|206:168|161:138,1,104.999996795654,8|2,0:0|0:2,0:0:0:0:
56,291,214273,5,2,0:0:0:0:
95,276,214348,1,2,0:2:0:0:
136,275,214423,1,2,0:2:0:0:
172,296,214498,1,0,0:0:0:0:
196,329,214573,1,2,0:2:0:0:
233,347,214648,1,2,0:2:0:0:
274,350,214723,1,2,0:2:0:0:
313,335,214798,1,2,0:2:0:0:
342,304,214873,6,0,L|331:190,1,104.999996795654,4|0,0:0|0:0,0:0:0:0:
250,76,215173,2,0,P|198:68|143:99,1,104.999996795654,2|8,0:0|0:0,0:0:0:0:
56,290,215473,1,0,0:0:0:0:
210,161,215623,1,10,0:0:0:0:
157,351,215773,1,0,0:0:0:0:
38,185,215923,1,8,0:0:0:0:
249,293,216073,6,0,L|358:283,1,104.999996795654,2|8,0:0|0:0,0:0:0:0:
427,139,216373,1,2,0:0:0:0:
488,307,216523,1,8,0:0:0:0:
510,87,216673,2,0,P|463:61|397:69,1,104.999996795654,2|0,0:0|0:0,0:0:0:0:
298,202,216973,1,2,0:0:0:0:
321,30,217123,1,10,0:0:0:0:
183,160,217273,6,0,L|193:279,1,104.999996795654,0|8,0:0|0:0,0:0:0:0:
328,326,217573,2,0,L|317:206,1,104.999996795654,2|8,0:0|0:0,0:0:0:0:
86,88,217873,2,0,L|96:207,1,104.999996795654,0|10,0:0|0:0,0:0:0:0:
426,372,218173,2,0,L|415:252,1,104.999996795654,2|10,0:0|0:0,0:0:0:0:
175,68,218473,5,2,0:0:0:0:
366,191,218623,1,0,0:0:0:0:
143,273,218773,1,2,0:0:0:0:
303,77,218923,1,8,0:0:0:0:
416,267,219073,6,0,L|312:259,1,104.999996795654,2|10,0:0|0:0,0:0:0:0:
137,191,219373,1,8,0:0:0:0:
95,191,219448,1,8,0:0:0:0:
58,212,219523,1,8,0:0:0:0:
36,248,219598,1,8,0:0:0:0:
31,289,219673,6,0,L|134:279,1,104.999996795654,4|0,0:0|0:0,0:0:0:0:
261,146,219973,1,2,0:0:0:0:
232,323,220123,1,8,0:0:0:0:
416,267,220273,2,0,P|440:313|435:370,1,104.999996795654,2|10,0:0|0:0,0:0:0:0:
240,243,220573,2,0,P|236:191|260:145,1,104.999996795654,0|0,0:0|0:0,0:0:0:0:
415,86,220873,5,4,0:0:0:0:
350,220,221023,1,0,0:0:0:0:
264,44,221173,1,2,0:0:0:0:
396,98,221323,1,8,0:0:0:0:
240,243,221473,6,0,P|185:243|144:214,1,104.999996795654,0|10,0:0|0:0,0:0:0:0:
5,326,221773,2,0,P|56:324|99:353,1,104.999996795654,0|10,0:0|0:0,0:0:0:0:
312,296,222073,6,0,L|320:368,3,52.4999983978272,4|0|8|0,0:0|0:0|0:0|0:0,0:0:0:0:
407,302,222373,2,0,L|413:249,3,52.4999983978272,2|0|8|0,0:0|0:0|0:0|0:0,0:0:0:0:
353,181,222673,5,2,0:0:0:0:
371,143,222748,1,0,0:0:0:0:
366,101,222823,1,10,0:0:0:0:
335,72,222898,1,0,0:0:0:0:
293,66,222973,1,0,0:0:0:0:
257,87,223048,1,0,0:0:0:0:
235,123,223123,1,8,0:0:0:0:
246,163,223198,1,0,0:0:0:0:
276,191,223273,5,0,0:0:0:0:
287,231,223348,1,0,0:0:0:0:
280,272,223423,1,8,0:0:0:0:
254,305,223498,1,0,0:0:0:0:
213,315,223573,1,0,0:0:0:0:
172,304,223648,1,0,0:0:0:0:
145,271,223723,1,8,0:0:0:0:
150,229,223798,1,0,0:0:0:0:
134,189,223873,1,0,0:0:0:0:
100,163,223948,1,0,0:0:0:0:
58,160,224023,1,8,0:0:0:0:
22,182,224098,1,0,0:0:0:0:
12,222,224173,1,0,0:0:0:0:
353,181,224473,5,4,0:0:0:0:
256,192,224548,12,4,229273,0:0:0:0:
