osu file format v14

[General]
AudioFilename: audio.mp3
AudioLeadIn: 0
PreviewTime: 53564
Countdown: 0
SampleSet: None
StackLeniency: 0.2
Mode: 0
LetterboxInBreaks: 0
WidescreenStoryboard: 0

[Editor]
DistanceSpacing: 1
BeatDivisor: 4
GridSize: 32
TimelineZoom: 2.4

[Metadata]
Title:Hoshitachi no Melody
TitleUnicode:星達のメロディ
Artist:yuikonnu
ArtistUnicode:ゆいこんぬ
Creator:tyto456852_osu
Version:Insane
Source:
Tags:
BeatmapID:4576806
BeatmapSetID:2168959

[Difficulty]
HPDrainRate:5.7
CircleSize:4
OverallDifficulty:9
ApproachRate:9.4
SliderMultiplier:1.5
SliderTickRate:1

[Events]
//Background and Video events
0,0,"bg.jpg",0,0
//Break Periods
2,11608,19769
//Storyboard Layer 0 (Background)
//Storyboard Layer 1 (Fail)
//Storyboard Layer 2 (Pass)
//Storyboard Layer 3 (Foreground)
//Storyboard Layer 4 (Overlay)
//Storyboard Sound Samples

[TimingPoints]
-460,329.67032967033,4,3,1,50,1,0
858,-66.6666666666667,4,3,1,70,0,0
32507,-133.333333333333,4,3,1,70,0,0
43056,-66.6666666666667,4,3,1,70,0,0
54594,-50,4,3,1,70,0,0
54924,-50,4,3,1,85,0,1
65309,-86.9565217391304,4,3,1,85,0,0
65474,-50,4,3,1,85,0,1
76023,-100,4,3,1,70,0,0

[HitObjects]
447,344,529,5,0,0:0:0:0:
436,325,611,1,0,0:0:0:0:
462,302,693,1,0,0:0:0:0:
424,275,776,1,0,0:0:0:0:
451,217,858,6,0,B|470:92|470:92|433:58,1,168.750006437302
410,50,1188,1,8,0:0:0:0:
317,202,1353,2,0,B|327:242|309:286|309:286|348:284,1,112.500004291535
309,165,1682,2,0,L|238:185,2,56.2500021457673,0|0|8,0:0|0:0|0:0,0:0:0:0:
139,322,2012,6,0,B|164:263|142:213|142:213|105:221|81:262,1,168.750006437302
256,239,2342,2,0,B|290:244|302:268|302:268|268:276|243:256,1,112.500004291535,0|8,0:0|0:0,0:0:0:0:
245,220,2671,2,0,P|279:176|328:149,1,112.500004291535
451,132,3001,1,0,0:0:0:0:
384,316,3166,2,8,P|375:282|377:248,1,56.2500021457673
481,289,3331,1,8,0:0:0:0:
219,354,3496,5,0,0:0:0:0:
92,119,3660,1,0,0:0:0:0:
214,227,3825,1,8,0:0:0:0:
110,324,3990,2,0,B|116:217|116:217|34:260,1,168.750006437302
27,265,4320,1,0,0:0:0:0:
317,239,4485,1,8,0:0:0:0:
260,176,4649,6,0,L|287:35,1,112.500004291535
400,291,4979,1,0,0:0:0:0:
398,116,5144,1,8,0:0:0:0:
294,279,5309,2,0,P|282:209|236:155,1,112.500004291535
258,359,5638,2,8,L|351:359,1,56.2500021457673
479,357,5803,1,8,0:0:0:0:
437,277,5968,1,0,0:0:0:0:
149,362,6133,5,0,0:0:0:0:
75,103,6298,1,0,0:0:0:0:
336,168,6463,1,8,0:0:0:0:
245,197,6627,2,0,P|261:132|346:59,1,168.750006437302
333,63,6957,2,0,P|252:71|204:37,1,112.500004291535,0|8,0:0|0:0,0:0:0:0:
470,356,7287,6,0,B|430:278|430:278|351:260,1,168.750006437302
350,259,7616,2,0,B|408:227|408:227|425:169,1,112.500004291535,0|8,0:0|0:0,0:0:0:0:
86,219,7946,2,8,L|153:180,1,56.2500021457673
231,133,8111,1,8,0:0:0:0:
13,262,8276,1,8,0:0:0:0:
171,360,8441,1,8,0:0:0:0:
145,276,8605,1,0,0:0:0:0:
490,270,8770,5,0,0:0:0:0:
294,52,8935,1,0,0:0:0:0:
204,331,9100,1,8,0:0:0:0:
458,72,9265,2,0,B|357:76|357:76|294:126,1,168.750006437302
292,255,9594,2,0,B|304:192|304:192|287:138,1,112.500004291535,0|8,0:0|0:0,0:0:0:0:
95,150,9924,6,0,B|174:115|174:115|274:128,1,168.750006437302,4|0,0:0|0:0,0:0:0:0:
323,349,10254,1,0,0:0:0:0:
449,203,10419,2,0,P|451:139|428:85,1,112.500004291535,8|0,0:0|0:0,0:0:0:0:
129,159,10748,2,0,P|140:222|174:270,1,112.500004291535,8|0,0:0|0:0,0:0:0:0:
366,64,11078,1,8,0:0:0:0:
256,352,11243,1,8,0:0:0:0:
146,64,11408,5,8,0:0:0:0:
269,320,20309,5,8,0:0:0:0:
446,337,20474,6,0,B|376:291|376:291|299:311,1,112.500004291535
89,148,20803,1,8,0:0:0:0:
178,228,20968,2,0,P|186:154|213:134,1,112.500004291535,8|0,0:0|0:0,0:0:0:0:
484,207,21298,1,8,0:0:0:0:
481,243,21463,1,8,0:0:0:0:
65,336,21627,1,8,0:0:0:0:
71,289,21709,1,8,0:0:0:0:
77,242,21792,1,8,0:0:0:0:
83,195,21875,1,8,0:0:0:0:
89,148,21957,6,0,L|99:76,1,56.2500021457673
418,166,22122,1,0,0:0:0:0:
321,162,22287,2,0,L|325:95,1,56.2500021457673,8|0,0:0|0:0,0:0:0:0:
326,69,22452,1,0,0:0:0:0:
381,315,22616,2,0,B|407:304|407:304|372:296,1,56.2500021457673
271,264,22781,2,0,B|245:253|245:253|280:245,1,56.2500021457673
321,292,22946,1,8,0:0:0:0:
299,339,23111,6,0,B|271:378|160:311,1,112.500004291535
89,162,23441,1,0,0:0:0:0:
131,180,23605,1,8,0:0:0:0:
173,194,23770,2,0,B|173:223|107:229|201:99,1,112.500004291535
241,64,24100,1,0,0:0:0:0:
401,341,24265,1,8,0:0:0:0:
375,230,24430,2,8,P|417:222|454:231,1,56.2500021457673
450,228,24594,6,0,P|405:254|266:232,1,168.750006437302,8|0,1:0|0:0,0:0:0:0:
261,235,24924,2,0,B|268:270|197:259|279:140,1,112.500004291535,8|0,0:0|0:0,0:0:0:0:
370,171,25254,1,0,0:0:0:0:
316,102,25419,1,0,0:0:0:0:
41,308,25583,1,8,0:0:0:0:
137,315,25748,6,0,P|121:251|73:222,1,112.500004291535
247,340,26078,1,0,0:0:0:0:
367,224,26243,1,8,0:0:0:0:
219,159,26408,2,8,L|282:146,1,56.2500021457673
222,191,26572,2,0,L|100:161,1,112.500004291535,8|0,0:0|0:0,0:0:0:0:
383,350,26820,1,0,0:0:0:0:
404,335,26902,2,0,P|389:263|319:233,1,112.500004291535,8|0,0:0|0:0,0:0:0:0:
485,111,27149,1,0,0:0:0:0:
406,103,27232,6,0,P|367:132|359:167,1,56.2500021457673,8|0,1:0|0:0,0:0:0:0:
290,163,27397,1,0,0:0:0:0:
282,311,27561,2,0,B|273:270|273:270|286:241,1,56.2500021457673,8|0,0:0|0:0,0:0:0:0:
290,163,27726,1,0,0:0:0:0:
368,253,27891,2,0,L|430:242,1,56.2500021457673
191,300,28056,2,0,L|129:289,1,56.2500021457673
74,213,28220,1,8,0:0:0:0:
202,173,28386,6,0,P|201:217|174:175,1,112.500004291535
343,84,28715,1,0,0:0:0:0:
307,112,28879,1,8,0:0:0:0:
271,140,29045,2,0,L|378:177,1,112.500004291535
419,240,29374,1,0,0:0:0:0:
60,242,29539,1,8,0:0:0:0:
56,125,29704,2,8,P|98:117|135:126,1,56.2500021457673
143,147,29869,6,0,P|143:93|200:23,1,112.500004291535,8|0,1:0|0:0,0:0:0:0:
226,200,30199,2,0,B|191:146|191:146|138:147,1,112.500004291535
163,304,30529,1,8,0:0:0:0:
273,312,30693,1,8,0:0:0:0:
456,81,30858,1,8,0:0:0:0:
321,80,31023,6,0,B|256:27|170:44|185:124|251:108,1,168.750006437302,8|0,0:0|0:0,0:0:0:0:
156,299,31353,1,8,0:0:0:0:
310,314,31518,2,0,P|369:308|424:244,1,112.500004291535,8|0,0:0|0:0,0:0:0:0:
356,143,31847,2,0,P|297:149|242:213,1,112.500004291535,8|0,0:0|0:0,0:0:0:0:
179,141,32094,1,8,0:0:0:0:
242,81,32177,2,0,P|281:61|327:65,1,56.2500021457673,8|0,0:0|0:0,0:0:0:0:
335,228,32342,1,8,0:0:0:0:
243,264,32424,1,8,0:0:0:0:
160,227,32507,6,0,P|147:264|151:296,1,56.2500021457673,8|0,1:0|0:0,0:0:0:0:
77,95,32836,1,0,0:0:0:0:
159,120,33001,2,0,L|225:119,1,56.2500021457673,8|0,0:0|0:0,0:0:0:0:
333,122,33331,1,0,0:0:0:0:
333,122,33496,2,0,L|325:63,1,56.2500021457673,8|0,0:0|0:0,0:0:0:0:
454,147,33825,6,0,L|446:202,1,56.2500021457673,0|8,0:0|0:0,0:0:0:0:
392,338,34155,1,0,0:0:0:0:
334,244,34320,2,0,L|326:185,1,56.2500021457673,0|8,0:0|0:0,0:0:0:0:
211,330,34649,1,0,0:0:0:0:
90,273,34814,2,8,P|129:259|167:258,1,56.2500021457673
183,195,35144,6,8,P|179:241|243:236,1,112.500004291535,8|0,0:0|0:0,0:0:0:0:
331,212,35638,1,8,0:0:0:0:
435,320,35803,2,0,L|374:305,1,56.2500021457673
261,348,36133,1,8,0:0:0:0:
261,175,36298,6,0,L|267:108,1,56.2500021457673
146,190,36627,2,8,L|152:257,1,56.2500021457673,8|0,0:0|0:0,0:0:0:0:
67,88,36957,1,0,0:0:0:0:
67,88,37122,2,0,L|146:88,1,56.2500021457673,8|0,0:0|0:0,0:0:0:0:
247,158,37452,2,8,L|168:158,1,56.2500021457673
195,347,37781,6,0,P|209:304|187:233,1,112.500004291535,8|0,0:0|0:0,0:0:0:0:
285,334,38276,2,0,P|334:326|359:311,1,56.2500021457673,8|0,0:0|0:0,0:0:0:0:
426,181,38605,1,0,0:0:0:0:
462,286,38770,2,0,L|478:348,1,56.2500021457673,8|0,0:0|0:0,0:0:0:0:
316,232,39100,6,0,L|330:177,1,56.2500021457673,0|8,0:0|0:0,0:0:0:0:
405,73,39430,1,0,0:0:0:0:
467,179,39594,2,0,L|483:241,1,56.2500021457673,0|8,0:0|0:0,0:0:0:0:
323,78,39924,1,0,0:0:0:0:
257,156,40089,1,8,0:0:0:0:
147,140,40254,6,8,P|193:82|230:67,1,112.500004291535
77,234,40748,2,8,B|148:245|148:245|206:229,1,112.500004291535
237,168,41243,1,0,0:0:0:0:
237,168,41408,1,0,0:0:0:0:
237,168,41572,1,0,0:0:0:0:
471,303,41737,5,8,0:0:0:0:
352,110,41902,1,8,0:0:0:0:
314,335,42067,1,8,0:0:0:0:
483,169,42232,2,8,L|405:185,1,56.2500021457673,8|0,0:0|0:0,0:0:0:0:
237,267,42561,2,8,L|315:283,1,56.2500021457673,8|0,0:0|0:0,0:0:0:0:
471,303,42891,1,8,0:0:0:0:
73,171,43056,6,0,L|191:156,1,112.500004291535
303,147,43303,1,0,0:0:0:0:
303,147,43386,2,0,L|297:242,1,56.2500021457673,8|0,0:0|0:0,0:0:0:0:
300,229,43550,2,0,B|348:197|348:197|429:198,1,112.500004291535
212,348,43880,1,0,0:0:0:0:
60,291,44045,1,8,0:0:0:0:
126,237,44210,6,0,L|111:108,1,112.500004291535
200,44,44540,2,0,L|185:112,1,56.2500021457673
228,167,44704,1,8,0:0:0:0:
185,322,44869,2,0,P|241:289|348:309,1,168.750006437302
371,338,45199,1,0,0:0:0:0:
475,187,45364,2,0,P|409:187|355:235,1,112.500004291535,8|0,0:0|0:0,0:0:0:0:
331,77,45611,1,0,0:0:0:0:
331,77,45693,6,0,L|455:93,1,112.500004291535
189,79,46023,2,0,L|430:35,2,225.000008583069,8|0|8,0:0|0:0|0:0,0:0:0:0:
70,129,46847,6,0,L|185:159,1,112.500004291535
127,275,47177,1,0,0:0:0:0:
217,145,47342,2,0,L|240:206,1,56.2500021457673,8|0,0:0|0:0,0:0:0:0:
122,306,47507,1,0,0:0:0:0:
267,327,47671,2,0,P|336:320|386:288,1,112.500004291535
450,142,47919,1,0,0:0:0:0:
427,173,48001,2,0,P|436:228|484:279,1,112.500004291535,8|0,0:0|0:0,0:0:0:0:
302,214,48248,1,0,0:0:0:0:
266,139,48331,6,0,P|310:101|395:84,1,112.500004291535
435,49,48660,2,0,L|471:137,1,56.2500021457673,8|0,0:0|0:0,0:0:0:0:
139,203,48825,2,8,L|160:150,1,56.2500021457673
200,49,48990,1,8,0:0:0:0:
123,49,49155,1,8,0:0:0:0:
81,111,49320,1,8,0:0:0:0:
215,316,49485,6,0,P|276:271|268:212,1,112.500004291535,8|0,0:0|0:0,0:0:0:0:
357,107,49814,2,0,P|365:182|420:204,1,112.500004291535,8|0,0:0|0:0,0:0:0:0:
466,334,50144,2,0,P|396:303|349:340,1,112.500004291535,8|0,0:0|0:0,0:0:0:0:
187,236,50474,1,8,0:0:0:0:
194,92,50638,1,8,0:0:0:0:
83,214,50803,1,8,0:0:0:0:
83,214,50886,1,8,0:0:0:0:
83,214,50968,5,8,0:0:0:0:
212,76,51133,1,8,0:0:0:0:
185,296,51298,1,8,0:0:0:0:
440,168,51463,2,0,P|364:158|308:175,1,112.500004291535,8|0,0:0|0:0,0:0:0:0:
371,343,51710,2,8,L|381:267,1,56.2500021457673
405,44,51957,1,8,0:0:0:0:
202,204,52122,6,0,L|317:192,1,112.500004291535,8|0,0:0|0:0,0:0:0:0:
150,144,52452,2,0,B|190:129|230:155|230:155|286:196|358:177,1,168.750006437302,8|0,0:0|0:0,0:0:0:0:
351,188,52781,1,8,0:0:0:0:
201,352,52946,1,8,0:0:0:0:
197,328,53111,1,8,0:0:0:0:
194,304,53276,1,8,0:0:0:0:
410,91,53605,5,8,0:0:0:0:
326,282,53770,1,0,0:0:0:0:
313,38,53935,5,8,0:0:0:0:
431,268,54100,1,0,0:0:0:0:
182,132,54265,5,0,0:0:0:0:
145,126,54347,1,0,0:0:0:0:
108,130,54429,1,0,0:0:0:0:
74,146,54512,1,0,0:0:0:0:
46,171,54594,6,0,B|107:200|154:164|154:164|208:121|292:145,1,225,8|0,0:0|0:0,0:0:0:0:
345,161,54924,6,0,B|350:241|350:241|299:311,1,150
117,325,55171,1,0,0:0:0:0:
117,325,55254,2,0,P|170:300|214:296,1,75,8|0,0:0|0:0,0:0:0:0:
449,121,55419,2,0,L|445:215,1,75
441,317,55583,5,0,0:0:0:0:
347,207,55748,1,0,0:0:0:0:
347,207,55831,1,0,0:0:0:0:
347,207,55913,1,8,0:0:0:0:
79,301,56078,6,0,P|153:289|228:333,1,150
251,234,56325,1,0,0:0:0:0:
246,249,56408,2,0,P|239:282|255:329,1,75
111,171,56572,1,8,0:0:0:0:
413,75,56737,2,0,P|364:78|313:101,1,75
234,126,56902,5,0,0:0:0:0:
440,321,57067,1,0,0:0:0:0:
440,314,57149,1,0,0:0:0:0:
441,306,57232,2,0,B|461:244|461:244|438:198|438:198|442:121,1,150,8|0,0:0|0:0,0:0:0:0:
65,79,57479,1,0,0:0:0:0:
130,127,57561,6,0,L|390:96,1,225
433,101,57891,2,0,L|393:208,1,75,8|0,0:0|0:0,0:0:0:0:
349,348,58056,1,0,0:0:0:0:
349,348,58138,1,0,0:0:0:0:
349,348,58221,5,0,0:0:0:0:
196,196,58386,1,0,0:0:0:0:
247,280,58550,2,0,P|207:301|149:313,1,75,8|0,0:0|0:0,0:0:0:0:
281,59,58715,1,0,0:0:0:0:
353,212,58880,6,0,P|332:129|277:162,1,150
49,256,59210,1,8,0:0:0:0:
76,176,59375,1,0,0:0:0:0:
101,98,59540,6,4,B|196:133|196:133|193:163|193:163|279:232,1,225,4|8,0:0|0:0,0:0:0:0:
439,56,59869,6,4,P|381:112|475:102,1,225,4|8,0:0|0:0,0:0:0:0:
340,337,60199,6,4,B|268:347|268:347|128:308,1,150,4|0,0:0|0:0,0:0:0:0:
125,193,60446,1,0,0:0:0:0:
138,198,60529,2,0,L|210:233,1,75,8|0,0:0|0:0,0:0:0:0:
196,56,60693,2,0,L|236:125,1,75
276,188,60858,5,0,0:0:0:0:
384,58,61023,2,0,L|326:64,2,37.5
413,37,61188,2,0,B|410:101|440:118|440:118|489:152|475:231,1,150,8|0,0:0|0:0,0:0:0:0:
459,294,61435,1,0,0:0:0:0:
459,294,61518,5,0,0:0:0:0:
281,204,61682,1,0,0:0:0:0:
381,138,61847,5,8,0:0:0:0:
181,307,62012,1,8,0:0:0:0:
370,331,62177,5,0,0:0:0:0:
195,205,62342,1,0,0:0:0:0:
82,253,62507,2,0,P|78:162|128:108,1,150,8|0,0:0|0:0,0:0:0:0:
152,104,62754,1,0,0:0:0:0:
197,109,62836,6,0,B|299:125|299:125|377:67,1,150
412,32,63166,1,8,0:0:0:0:
332,295,63331,1,0,0:0:0:0:
332,295,63413,1,0,0:0:0:0:
332,295,63496,6,0,L|218:304,1,75
77,227,63660,1,0,0:0:0:0:
77,227,63743,1,0,0:0:0:0:
77,227,63825,2,0,L|202:229,1,75,8|0,0:0|0:0,0:0:0:0:
203,167,63990,1,0,0:0:0:0:
246,313,64155,5,8,0:0:0:0:
334,78,64320,1,0,0:0:0:0:
437,355,64485,2,0,L|437:265,1,75,8|0,0:0|0:0,0:0:0:0:
438,15,64649,1,0,0:0:0:0:
17,142,64814,5,8,0:0:0:0:
272,255,64979,1,0,0:0:0:0:
292,255,65061,1,0,0:0:0:0:
317,225,65144,1,8,0:0:0:0:
307,171,65226,1,8,0:0:0:0:
249,134,65309,1,8,0:0:0:0:
167,157,65391,1,8,0:0:0:0:
99,233,65474,6,0,L|100:315,1,75,12|0,0:0|0:0,0:0:0:0:
317,187,65638,6,0,L|317:112,1,75,8|0,0:0|0:0,0:0:0:0:
454,261,65803,6,0,L|455:343,1,75,8|0,0:0|0:0,0:0:0:0:
203,306,65968,1,0,0:0:0:0:
211,290,66050,1,0,0:0:0:0:
226,277,66133,6,0,P|262:271|354:315,1,75
380,318,66298,1,0,0:0:0:0:
441,90,66463,1,8,0:0:0:0:
449,177,66627,6,0,L|216:204,1,225
125,182,66957,2,0,P|97:136|100:96,1,75
268,312,67122,1,8,0:0:0:0:
149,321,67287,6,0,P|181:233|248:195,1,150
340,189,67616,1,0,0:0:0:0:
276,108,67781,1,8,0:0:0:0:
48,329,67946,1,0,0:0:0:0:
48,329,68029,1,0,0:0:0:0:
48,329,68111,6,0,L|71:246,1,75
163,177,68276,2,0,L|143:105,1,75
66,27,68441,1,8,0:0:0:0:
259,55,68605,6,0,B|336:75|336:75|449:53|449:53|429:100,1,225
434,117,68935,1,0,0:0:0:0:
259,218,69100,1,8,0:0:0:0:
402,312,69265,6,0,P|394:208|357:142,1,150
286,335,69512,1,0,0:0:0:0:
286,335,69594,2,0,P|320:265|309:206,1,75
305,183,69759,1,8,0:0:0:0:
129,306,69924,1,0,0:0:0:0:
37,291,70007,1,0,0:0:0:0:
0,215,70089,6,4,B|64:233|81:280|81:280|90:330|176:354,1,225,4|8,0:0|0:0,0:0:0:0:
432,182,70419,6,0,B|459:124|459:124|398:160|398:160|449:298,1,225,4|8,0:0|0:0,0:0:0:0:
358,362,70748,6,0,P|427:293|427:234,1,150,4|0,0:0|0:0,0:0:0:0:
205,250,70996,1,0,0:0:0:0:
222,260,71078,2,0,P|274:275|322:262,1,75,8|0,0:0|0:0,0:0:0:0:
207,88,71243,2,0,P|228:137|269:165,1,75
351,178,71408,5,0,0:0:0:0:
73,234,71572,2,0,L|15:240,2,37.5
103,224,71737,2,0,B|128:169|102:107|102:107|133:51,1,150,8|0,0:0|0:0,0:0:0:0:
209,40,71985,1,0,0:0:0:0:
209,40,72068,5,0,0:0:0:0:
451,146,72232,1,0,0:0:0:0:
155,190,72397,5,8,0:0:0:0:
426,148,72561,1,8,0:0:0:0:
129,197,72726,5,0,0:0:0:0:
309,313,72891,1,0,0:0:0:0:
403,151,73057,2,0,B|365:178|365:178|263:162,1,150,8|0,0:0|0:0,0:0:0:0:
218,158,73303,1,0,0:0:0:0:
178,173,73386,6,0,P|138:234|148:307,1,150,0|0,0:0|0:0,0:0:0:0:
221,353,73715,1,8,0:0:0:0:
41,275,73880,1,0,0:0:0:0:
41,275,73962,1,0,0:0:0:0:
41,275,74045,6,0,L|32:161,1,75
179,98,74209,1,0,0:0:0:0:
179,98,74292,1,0,0:0:0:0:
179,98,74374,2,0,L|177:223,1,75,8|0,0:0|0:0,0:0:0:0:
175,356,74539,1,0,0:0:0:0:
328,44,74704,5,8,0:0:0:0:
287,369,74869,1,0,0:0:0:0:
168,28,75034,2,0,L|168:118,1,75,8|0,0:0|0:0,0:0:0:0:
159,363,75198,1,0,0:0:0:0:
298,30,75363,5,8,0:0:0:0:
171,154,75528,1,0,0:0:0:0:
171,134,75610,1,0,0:0:0:0:
201,109,75693,1,8,0:0:0:0:
255,119,75775,1,8,0:0:0:0:
292,177,75858,1,8,0:0:0:0:
269,259,75940,1,8,0:0:0:0:
190,339,76023,5,12,1:0:0:0:
