osu file format v14

[General]
AudioFilename: Hoshitachi no melody.mp3
AudioLeadIn: 2000
PreviewTime: 55483
Countdown: 0
SampleSet: Soft
StackLeniency: 0.7
Mode: 0
LetterboxInBreaks: 0
WidescreenStoryboard: 0

[Editor]
DistanceSpacing: 1
BeatDivisor: 4
GridSize: 32
TimelineZoom: 1.7

[Metadata]
Title:Hoshitachi no Melody
TitleUnicode:星達のメロディ
Artist:yuikonnu
ArtistUnicode:ゆいこんぬ
Creator:Synpoo
Version:Normal
Source:crossbeats REV.
Tags:utaite aerous CAPCOM
BeatmapID:761624
BeatmapSetID:344504

[Difficulty]
HPDrainRate:4
CircleSize:3
OverallDifficulty:4
ApproachRate:5
SliderMultiplier:1.1
SliderTickRate:1

[Events]
//Background and Video events
0,0,"bg.png",0,0
//Break Periods
//Storyboard Layer 0 (Background)
//Storyboard Layer 1 (Fail)
//Storyboard Layer 2 (Pass)
//Storyboard Layer 3 (Foreground)
//Storyboard Sound Samples

[TimingPoints]
1747,329.67032967033,4,2,1,50,1,0
12296,-100,4,2,1,40,0,0
21362,-100,4,2,1,50,0,0
22845,-100,4,2,1,50,0,0
33395,-100,4,2,1,40,0,0
42626,-100,4,2,1,50,0,0
55812,-100,4,2,1,60,0,1
76911,-100,4,2,1,50,0,0
87626,-100,4,2,1,40,0,0
88120,-100,4,2,1,30,0,0
88944,-100,4,2,1,5,0,0

[Colours]
Combo1 : 255,181,145
Combo2 : 99,226,254
Combo3 : 255,117,255
Combo4 : 150,156,237

[HitObjects]
459,107,1747,6,0,L|390:117,1,55,6|0,0:0|0:0,0:0:0:0:
349,121,2076,1,8,0:0:0:0:
254,177,2406,2,0,P|190:179|137:170,1,110,2|8,0:0|0:0,0:0:0:0:
95,147,2900,2,0,L|101:256,1,110
103,312,3395,1,8,0:0:0:0:
212,303,3725,2,0,P|270:291|333:300,1,110,2|8,0:0|0:0,0:0:0:0:
373,309,4219,1,0,0:0:0:0:
426,319,4384,6,0,P|445:258|435:203,1,110,2|8,0:0|0:0,0:0:0:0:
402,172,4878,2,0,P|383:111|393:56,1,110
351,25,5373,1,8,0:0:0:0:
351,25,5538,2,0,L|219:14,1,110
186,8,6032,1,8,0:0:0:0:
116,93,6362,2,0,L|225:102,1,110,2|8,0:0|0:0,0:0:0:0:
280,108,6856,1,0,0:0:0:0:
334,112,7021,6,0,P|340:173|322:224,1,110,6|8,0:0|0:0,0:0:0:0:
276,244,7516,2,0,P|270:305|296:357,1,110
335,372,8010,1,8,0:0:0:0:
335,372,8175,2,0,L|455:365,1,110
471,317,8670,1,8,0:0:0:0:
491,266,8834,2,0,L|483:140,1,110
480,100,9329,1,8,0:0:0:0:
372,81,9659,6,0,P|312:99|244:105,1,110,2|8,0:0|0:0,0:0:0:0:
219,73,10153,2,0,P|156:74|89:89,1,110
59,105,10648,1,8,0:0:0:0:
5,92,10812,2,0,L|22:208,1,110,4|0,0:0|0:0,0:0:0:0:
43,251,11307,1,8,0:0:0:0:
70,298,11472,2,0,L|188:281,1,110,4|0,0:0|0:0,0:0:0:0:
233,275,11966,1,8,0:0:0:0:
297,185,12296,5,6,0:0:0:0:
186,187,12626,2,0,P|192:113|221:61,2,110,0|2|0,0:0|0:0|0:0,0:0:0:0:
126,279,13615,2,0,L|11:266,1,110,2|0,0:0|0:0,0:0:0:0:
0,157,14274,2,0,L|118:171,1,110,2|0,0:0|0:0,0:0:0:0:
209,124,14933,5,2,0:0:0:0:
318,131,15263,2,0,P|312:75|270:31,2,110,0|2|0,0:0|0:0|0:0,0:0:0:0:
258,223,16252,2,0,P|194:228|140:242,1,110,2|0,0:0|0:0,0:0:0:0:
121,345,16911,2,0,P|185:340|239:326,1,110,2|0,0:0|0:0,0:0:0:0:
334,294,17571,5,2,0:0:0:0:
370,190,17900,2,0,P|456:204|500:222,2,110,0|2|0,0:0|0:0|0:0,0:0:0:0:
290,113,18889,2,0,P|222:88|186:63,1,110,2|0,0:0|0:0,0:0:0:0:
81,54,19549,2,0,P|104:122|107:166,1,110,2|0,0:0|0:0,0:0:0:0:
67,262,20208,5,2,0:0:0:0:
131,351,20538,2,0,P|77:370|4:353,2,110,0|2|0,0:0|0:0|0:0,0:0:0:0:
170,313,21362,5,4,0:0:0:0:
212,211,21692,1,0,0:0:0:0:
212,211,21856,2,0,L|272:207,1,55,8|4,0:0|0:0,0:0:0:0:
374,183,22351,2,0,L|369:129,2,55,8|8|8,0:0|0:0|0:0,0:0:0:0:
376,237,22845,5,6,0:0:0:0:
359,345,23175,2,0,P|294:358|225:343,1,110,8|2,0:0|0:0,0:0:0:0:
153,301,23834,1,8,0:0:0:0:
153,301,23999,2,0,L|139:155,1,110
150,136,24494,1,8,0:0:0:0:
174,86,24659,2,0,B|221:66|221:66|296:91|353:64,1,165,2|8,0:0|0:0,0:0:0:0:
437,38,25483,5,2,0:0:0:0:
461,145,25812,2,0,P|466:208|447:260,1,110,8|2,0:0|0:0,0:0:0:0:
358,311,26472,1,8,0:0:0:0:
358,311,26637,2,0,L|239:305,1,110
194,319,27131,1,8,0:0:0:0:
146,346,27296,2,0,B|111:338|82:352|82:352|51:301|88:220,1,165,2|8,0:0|0:0,0:0:0:0:
105,150,28120,5,2,0:0:0:0:
206,191,28450,2,0,L|347:177,1,110,8|2,0:0|0:0,0:0:0:0:
400,110,29109,1,8,0:0:0:0:
400,110,29274,2,0,P|424:175|412:234,1,110
394,263,29768,1,8,0:0:0:0:
362,308,29933,2,0,B|241:323|241:323|174:307,1,165,2|8,0:0|0:0,0:0:0:0:
96,273,30757,5,2,0:0:0:0:
31,183,31087,2,0,L|26:62,1,110,8|2,0:0|0:0,0:0:0:0:
119,14,31747,1,8,0:0:0:0:
119,14,31911,2,0,L|123:139,1,110,4|0,0:0|0:0,0:0:0:0:
126,179,32406,1,8,0:0:0:0:
216,248,32736,2,0,P|275:253|326:246,1,110
399,165,33395,6,0,P|392:103|390:43,2,110,6|0|8,0:0|0:0|0:0,0:0:0:0:
440,266,34384,1,0,0:0:0:0:
440,266,34549,1,0,0:0:0:0:
325,247,34878,2,0,P|271:243|191:253,1,110,8|0,0:0|0:0,0:0:0:0:
161,261,35373,1,8,0:0:0:0:
51,249,35703,1,2,0:0:0:0:
100,150,36032,6,0,P|31:141|-28:172,2,110,2|0|8,0:0|0:0|0:0,0:0:0:0:
204,185,37021,1,0,0:0:0:0:
204,185,37186,1,0,0:0:0:0:
227,77,37516,2,0,P|272:61|339:61,1,110,8|0,0:0|0:0,0:0:0:0:
387,71,38010,1,8,0:0:0:0:
369,179,38340,1,2,0:0:0:0:
402,283,38670,6,0,L|517:267,2,110,2|0|8,0:0|0:0|0:0,0:0:0:0:
298,244,39659,1,0,0:0:0:0:
298,244,39823,1,0,0:0:0:0:
221,164,40153,2,0,L|208:44,1,110,8|0,0:0|0:0,0:0:0:0:
187,3,40648,1,8,0:0:0:0:
105,76,40977,1,2,0:0:0:0:
98,185,41307,6,0,P|38:164|-21:168,2,110,2|0|8,0:0|0:0|0:0,0:0:0:0:
183,254,42296,1,0,0:0:0:0:
198,144,42626,6,0,P|194:117|194:88,2,55,4|0|8,0:0|0:0|0:0,0:0:0:0:
243,174,43120,1,2,0:0:0:0:
340,225,43450,1,2,0:0:0:0:
427,291,43779,1,8,0:0:0:0:
427,291,43944,6,0,P|377:328|307:331,1,110,6|8,0:0|0:0,0:0:0:0:
223,307,44604,1,2,0:0:0:0:
114,324,44933,1,8,0:0:0:0:
114,324,45098,2,0,P|103:271|111:204,1,110
114,160,45593,1,8,0:0:0:0:
125,106,45757,2,0,B|237:87|237:87|296:99,1,165,2|8,0:0|0:0,0:0:0:0:
393,128,46582,5,2,0:0:0:0:
426,232,46911,2,0,L|297:217,1,110,8|2,0:0|0:0,0:0:0:0:
207,238,47571,1,8,0:0:0:0:
207,238,47736,2,0,L|68:249,1,110
48,221,48230,1,8,0:0:0:0:
5,186,48395,2,0,P|-15:104|59:20,1,165,2|8,0:0|0:0,0:0:0:0:
127,12,49219,5,6,0:0:0:0:
188,110,49549,2,0,P|130:130|71:112,2,110,8|2|8,0:0|0:0|0:0,0:0:0:0:
226,70,50373,2,0,L|414:85,1,165,4|8,0:0|0:0,0:0:0:0:
446,178,51197,2,0,L|324:168,1,110,2|8,0:0|0:0,0:0:0:0:
284,187,51692,1,0,0:0:0:0:
232,205,51856,6,0,P|216:255|224:318,2,110,6|8|2,0:0|0:0|0:0,0:0:0:0:
272,102,52845,1,8,0:0:0:0:
226,70,53010,2,0,B|109:46|109:46|52:57,1,165,4|8,0:0|0:0,0:0:0:0:
23,156,53834,2,0,B|104:143|104:143|144:148,1,110,8|2,0:0|0:0,0:0:0:0:
232,190,54494,6,0,L|317:202,1,55,8|0,0:0|0:0,0:0:0:0:
338,216,54823,2,0,L|423:228,1,55,8|0,0:0|0:0,0:0:0:0:
443,244,55153,1,8,0:0:0:0:
469,137,55483,1,2,0:0:0:0:
445,29,55812,6,0,P|383:17|318:31,1,110,6|8,0:0|0:0,0:0:0:0:
285,43,56307,1,0,0:0:0:0:
192,97,56637,2,0,P|159:101|113:99,1,55,0|8,0:0|0:0,0:0:0:0:
85,82,56966,2,0,B|88:115|88:115|76:212|76:212|82:260,1,165,0|8,0:0|0:0,0:0:0:0:
96,298,57626,2,0,P|151:292|216:296,1,110
259,305,58120,1,8,0:0:0:0:
362,340,58450,6,0,P|418:343|478:327,1,110,2|8,0:0|0:0,0:0:0:0:
509,292,58944,1,2,0:0:0:0:
427,218,59274,2,0,L|423:136,1,55,0|8,0:0|0:0,0:0:0:0:
433,112,59604,2,0,P|329:109|248:121,1,165,0|8,0:0|0:0,0:0:0:0:
215,133,60263,2,0,P|148:147|85:148,1,110
53,136,60757,1,8,0:0:0:0:
103,38,61087,6,0,P|154:24|227:25,1,110,6|8,0:0|0:0,0:0:0:0:
308,73,61747,1,2,0:0:0:0:
215,133,62076,1,8,0:0:0:0:
215,133,62241,2,0,L|144:124,2,55,0|2|0,0:0|0:0|0:0,0:0:0:0:
262,160,62736,2,0,L|390:167,1,110,8|2,0:0|0:0,0:0:0:0:
476,133,63395,1,8,0:0:0:0:
461,242,63725,6,0,P|456:305|420:363,1,110,2|8,0:0|0:0,0:0:0:0:
327,368,64384,1,2,0:0:0:0:
248,293,64714,1,8,0:0:0:0:
248,293,64878,2,0,L|262:157,1,110,4|0,0:0|0:0,0:0:0:0:
248,129,65373,1,8,0:0:0:0:
235,75,65538,2,0,L|94:62,1,110,4|0,0:0|0:0,0:0:0:0:
71,55,66032,1,8,0:0:0:0:
3,142,66362,6,0,L|112:152,1,110,6|8,0:0|0:0,0:0:0:0:
167,161,66856,1,0,0:0:0:0:
133,265,67186,2,0,L|115:330,1,55,0|8,0:0|0:0,0:0:0:0:
104,370,67516,2,0,P|185:340|278:365,1,165,0|8,0:0|0:0,0:0:0:0:
315,361,68175,2,0,P|376:365|430:339,1,110
456,304,68670,1,8,0:0:0:0:
474,195,68999,6,0,L|473:51,1,110,2|8,0:0|0:0,0:0:0:0:
473,29,69494,1,0,0:0:0:0:
363,24,69823,2,0,L|363:89,1,55,0|8,0:0|0:0,0:0:0:0:
316,108,70153,2,0,B|259:128|203:92|203:92|155:124,1,165,0|8,0:0|0:0,0:0:0:0:
113,146,70812,2,0,P|107:212|106:286,1,110
105,311,71307,1,8,0:0:0:0:
209,339,71637,6,0,P|266:338|329:334,1,110,6|8,0:0|0:0,0:0:0:0:
421,294,72296,1,2,0:0:0:0:
354,206,72626,1,8,0:0:0:0:
354,206,72790,2,0,L|420:207,2,55,0|2|0,0:0|0:0|0:0,0:0:0:0:
304,181,73285,2,0,L|181:177,1,110,8|2,0:0|0:0,0:0:0:0:
107,109,73944,1,8,0:0:0:0:
18,43,74274,6,0,P|-2:100|11:161,1,110,2|8,0:0|0:0,0:0:0:0:
91,216,74933,1,2,0:0:0:0:
194,177,75263,1,8,0:0:0:0:
194,177,75428,2,0,P|243:168|315:185,1,110,4|0,0:0|0:0,0:0:0:0:
340,218,75922,1,8,0:0:0:0:
384,250,76087,2,0,L|396:133,1,110,4|0,0:0|0:0,0:0:0:0:
401,85,76582,1,8,0:0:0:0:
291,87,76911,6,0,L|231:82,1,55,6|0,0:0|0:0,0:0:0:0:
181,75,77241,1,8,0:0:0:0:
71,84,77571,2,0,P|60:146|71:206,1,110,2|8,0:0|0:0,0:0:0:0:
113,220,78065,2,0,P|124:275|113:342,1,110
82,370,78560,1,8,0:0:0:0:
191,366,78889,2,0,L|318:357,1,110,2|8,0:0|0:0,0:0:0:0:
356,357,79384,1,0,0:0:0:0:
410,347,79549,6,0,P|428:291|405:217,1,110,2|8,0:0|0:0,0:0:0:0:
372,213,80043,2,0,P|354:157|377:83,1,110
353,53,80538,1,8,0:0:0:0:
353,53,80703,2,0,L|226:48,1,110
188,42,81197,1,8,0:0:0:0:
79,63,81527,2,0,L|62:184,1,110,2|8,0:0|0:0,0:0:0:0:
72,226,82021,1,0,0:0:0:0:
83,279,82186,6,0,P|134:301|200:294,1,110,6|8,0:0|0:0,0:0:0:0:
222,255,82681,2,0,P|275:243|328:255,1,110
379,274,83175,1,8,0:0:0:0:
379,274,83340,2,0,L|387:146,1,110
402,111,83834,1,8,0:0:0:0:
425,61,83999,2,0,L|300:49,1,110
260,42,84494,1,8,0:0:0:0:
245,150,84823,6,0,P|192:176|119:169,1,110,2|8,0:0|0:0,0:0:0:0:
87,159,85318,2,0,L|94:281,1,110
120,316,85812,1,8,0:0:0:0:
152,360,85977,2,0,P|207:347|264:353,1,110,4|0,0:0|0:0,0:0:0:0:
313,365,86472,1,8,0:0:0:0:
367,370,86637,2,0,P|430:365|485:335,1,110,4|0,0:0|0:0,0:0:0:0:
510,306,87131,1,8,0:0:0:0:
437,222,87461,5,6,0:0:0:0:
256,192,87626,12,0,88944,0:0:0:0:
