osu file format v14

[General]
AudioFilename: Hoshitachi no melody.mp3
AudioLeadIn: 2000
PreviewTime: 55483
Countdown: 0
SampleSet: Soft
StackLeniency: 0.7
Mode: 0
LetterboxInBreaks: 0
WidescreenStoryboard: 0

[Editor]
DistanceSpacing: 0.9
BeatDivisor: 4
GridSize: 32
TimelineZoom: 1.5

[Metadata]
Title:Hoshitachi no Melody
TitleUnicode:星達のメロディ
Artist:yuikonnu
ArtistUnicode:ゆいこんぬ
Creator:Synpoo
Version:Insane
Source:crossbeats REV.
Tags:utaite aerous CAPCOM
BeatmapID:761020
BeatmapSetID:344504

[Difficulty]
HPDrainRate:6.9
CircleSize:4
OverallDifficulty:7.5
ApproachRate:9
SliderMultiplier:1.7
SliderTickRate:1

[Events]
//Background and Video events
0,0,"bg.png",0,0
//Break Periods
//Storyboard Layer 0 (Background)
//Storyboard Layer 1 (Fail)
//Storyboard Layer 2 (Pass)
//Storyboard Layer 3 (Foreground)
//Storyboard Sound Samples

[TimingPoints]
1747,329.67032967033,4,2,1,50,1,0
12296,-117.647058823529,4,2,1,40,0,0
21362,-90.9090909090909,4,2,1,50,0,0
22845,-100,4,2,1,50,0,0
32900,-100,4,3,1,50,0,0
33395,-133.333333333333,4,2,1,40,0,0
42626,-100,4,2,1,50,0,0
55318,-100,4,3,1,50,0,0
55483,-83.3333333333333,4,2,1,50,0,0
55730,-83.3333333333333,4,2,1,5,0,0
55812,-86.9565217391304,4,2,1,60,0,1
66197,-86.9565217391304,4,3,1,60,0,1
66362,-86.9565217391304,4,2,1,60,0,1
76747,-86.9565217391304,4,3,1,60,0,1
76911,-100,4,2,1,50,0,0
87296,-100,4,3,1,50,0,0
87461,-100,4,2,1,50,0,0
87543,-100,4,2,1,40,0,0
88120,-100,4,2,1,30,0,0
88944,-100,4,2,1,5,0,0

[Colours]
Combo1 : 255,181,145
Combo2 : 99,226,254
Combo3 : 255,117,255
Combo4 : 150,156,237

[HitObjects]
384,182,1417,5,0,0:0:0:0:
353,153,1499,1,0,0:0:0:0:
311,143,1582,1,0,0:0:0:0:
271,159,1664,1,0,0:0:0:0:
235,183,1747,6,0,P|245:124|247:66,1,85,6|0,0:0|0:0,0:0:0:0:
99,154,2076,2,0,P|109:208|126:253,1,85,8|0,0:0|0:0,0:0:0:0:
251,270,2406,1,2,0:0:0:0:
152,333,2571,1,0,0:0:0:0:
288,248,2736,1,8,0:0:0:0:
111,177,2900,6,0,P|108:83|202:79,1,170
284,94,3395,1,8,0:0:0:0:
210,186,3560,1,0,0:0:0:0:
312,241,3725,1,2,0:0:0:0:
185,178,3889,1,0,0:0:0:0:
316,85,4054,1,8,0:0:0:0:
180,21,4219,1,0,0:0:0:0:
408,6,4384,6,0,P|415:61|418:103,1,85,2|0,0:0|0:0,0:0:0:0:
345,242,4714,1,8,0:0:0:0:
316,85,4878,2,0,P|233:74|181:152,1,170
231,286,5373,1,8,0:0:0:0:
265,153,5538,1,0,0:0:0:0:
265,153,5620,1,0,0:0:0:0:
265,153,5703,5,2,0:0:0:0:
122,203,5867,2,0,P|60:211|29:213,1,85,0|8,0:0|0:0,0:0:0:0:
106,103,6197,1,0,0:0:0:0:
119,81,6279,1,0,0:0:0:0:
134,60,6362,1,2,0:0:0:0:
250,118,6527,1,0,0:0:0:0:
154,202,6692,1,8,0:0:0:0:
354,244,6856,1,8,0:0:0:0:
354,244,6939,1,8,0:0:0:0:
354,244,7021,6,0,P|351:192|342:142,1,85,2|0,0:0|0:0,0:0:0:0:
247,88,7351,1,8,0:0:0:0:
292,316,7516,2,0,P|356:341|442:278,1,170
492,169,8010,1,8,0:0:0:0:
341,139,8175,6,0,P|345:183|354:239,1,85,0|2,0:0|0:0,0:0:0:0:
268,16,8505,2,0,P|262:77|259:119,1,85,0|8,0:0|0:0,0:0:0:0:
166,199,8834,2,0,P|232:193|279:184,1,85,0|2,0:0|0:0,0:0:0:0:
407,66,9164,1,0,0:0:0:0:
450,214,9329,1,8,0:0:0:0:
307,129,9494,1,0,0:0:0:0:
284,116,9576,1,0,0:0:0:0:
261,103,9659,5,2,0:0:0:0:
374,59,9823,1,0,0:0:0:0:
197,189,9988,1,8,0:0:0:0:
364,264,10153,2,0,P|437:239|452:150,1,170
341,53,10648,1,8,0:0:0:0:
152,140,10812,6,0,P|161:228|175:316,1,170,4|0,0:0|0:0,0:0:0:0:
179,337,11225,1,0,0:0:0:0:
179,337,11307,1,8,0:0:0:0:
342,234,11472,2,0,P|336:185|326:129,1,85,4|2,0:0|0:0,0:0:0:0:
304,47,11801,1,0,0:0:0:0:
161,98,11966,1,8,0:0:0:0:
129,111,12049,1,0,0:0:0:0:
95,109,12131,1,0,0:0:0:0:
62,99,12214,1,8,0:0:0:0:
32,82,12296,6,0,P|39:133|48:175,1,72.2500013780594,2|0,0:0|0:0,0:0:0:0:
118,244,12626,1,0,0:0:0:0:
0,253,12790,1,0,0:0:0:0:
146,239,12955,2,0,P|191:232|235:222,1,72.2500013780594,2|0,0:0|0:0,0:0:0:0:
327,190,13285,1,0,0:0:0:0:
251,70,13450,6,0,P|233:36|212:10,1,72.2500013780594,0|2,0:0|0:0,0:0:0:0:
148,119,13779,1,0,0:0:0:0:
148,119,13944,1,0,0:0:0:0:
316,153,14109,2,0,P|364:145|406:128,1,72.2500013780594,0|2,0:0|0:0,0:0:0:0:
180,109,14439,1,0,0:0:0:0:
271,226,14604,1,0,0:0:0:0:
209,97,14768,1,0,0:0:0:0:
242,233,14933,6,0,P|250:296|252:326,1,72.2500013780594,2|0,0:0|0:0,0:0:0:0:
208,380,15263,1,0,0:0:0:0:
208,380,15428,1,0,0:0:0:0:
99,356,15593,1,2,0:0:0:0:
177,280,15757,1,0,0:0:0:0:
81,239,15922,1,0,0:0:0:0:
232,207,16087,6,0,P|280:203|326:194,1,72.2500013780594,0|2,0:0|0:0,0:0:0:0:
420,167,16417,1,0,0:0:0:0:
444,260,16582,1,0,0:0:0:0:
394,83,16747,2,0,P|323:55|256:88,1,144.500002756119
220,184,17241,1,0,0:0:0:0:
328,148,17406,1,0,0:0:0:0:
299,291,17571,6,0,P|250:293|205:288,1,72.2500013780594,2|0,0:0|0:0,0:0:0:0:
78,237,17900,1,0,0:0:0:0:
186,189,18065,1,0,0:0:0:0:
65,134,18230,2,0,L|75:222,1,72.2500013780594,2|0,0:0|0:0,0:0:0:0:
128,303,18560,1,0,0:0:0:0:
284,256,18725,6,0,P|322:244|359:226,1,72.2500013780594,0|2,0:0|0:0,0:0:0:0:
429,160,19054,1,0,0:0:0:0:
471,262,19219,1,0,0:0:0:0:
394,87,19384,2,0,P|323:54|255:87,1,144.500002756119
231,213,19878,1,0,0:0:0:0:
324,143,20043,1,0,0:0:0:0:
426,302,20208,6,0,P|369:293|337:283,1,72.2500013780594,2|0,0:0|0:0,0:0:0:0:
254,226,20538,1,0,0:0:0:0:
254,226,20703,1,0,0:0:0:0:
348,169,20867,1,2,0:0:0:0:
355,289,21032,1,0,0:0:0:0:
196,181,21197,1,0,0:0:0:0:
382,79,21362,6,0,B|369:215|369:215|340:151,1,187.000005706787,4|0,0:0|0:0,0:0:0:0:
295,61,21856,1,8,0:0:0:0:
475,32,22021,2,0,L|465:139,1,93.5000028533936,4|0,0:0|0:0,0:0:0:0:
444,269,22351,1,8,0:0:0:0:
281,180,22516,1,8,0:0:0:0:
241,165,22598,1,8,0:0:0:0:
198,170,22681,1,8,0:0:0:0:
163,193,22763,1,8,0:0:0:0:
133,217,22845,6,0,P|85:212|46:181,1,85,6|0,0:0|0:0,0:0:0:0:
25,44,23175,1,8,0:0:0:0:
111,102,23340,1,0,0:0:0:0:
4,26,23505,2,0,P|4:76|6:127,1,85,2|0,0:0|0:0,0:0:0:0:
6,278,23834,1,8,0:0:0:0:
163,193,23999,6,0,P|232:161|321:210,1,170
397,307,24494,1,8,0:0:0:0:
409,158,24659,2,0,P|408:97|408:61,1,85,0|2,0:0|0:0,0:0:0:0:
289,43,24988,1,0,0:0:0:0:
155,113,25153,1,8,0:0:0:0:
287,73,25318,1,0,0:0:0:0:
274,238,25483,6,0,P|247:320|148:330,1,170,2|8,0:0|0:0,0:0:0:0:
64,239,25977,1,0,0:0:0:0:
64,239,26142,1,2,0:0:0:0:
191,255,26307,1,0,0:0:0:0:
110,142,26472,1,8,0:0:0:0:
275,76,26637,6,0,P|269:145|259:187,1,85,0|2,0:0|0:0,0:0:0:0:
174,235,26966,1,0,0:0:0:0:
95,114,27131,1,8,0:0:0:0:
91,323,27296,2,0,P|151:328|199:325,1,85,0|2,0:0|0:0,0:0:0:0:
287,281,27626,1,0,0:0:0:0:
155,214,27790,1,8,0:0:0:0:
301,91,27955,1,0,0:0:0:0:
301,91,28038,1,0,0:0:0:0:
301,91,28120,6,0,L|293:203,1,85,2|0,0:0|0:0,0:0:0:0:
174,235,28450,1,8,0:0:0:0:
287,281,28615,1,0,0:0:0:0:
155,214,28779,2,0,P|102:210|44:212,1,85,2|0,0:0|0:0,0:0:0:0:
0,302,29109,1,8,0:0:0:0:
175,327,29274,6,0,P|225:313|265:297,1,85,0|2,0:0|0:0,0:0:0:0:
325,196,29604,1,0,0:0:0:0:
396,309,29768,1,8,0:0:0:0:
447,172,29933,1,0,0:0:0:0:
447,172,30016,1,0,0:0:0:0:
447,172,30098,1,2,0:0:0:0:
294,207,30263,1,0,0:0:0:0:
331,63,30428,1,8,0:0:0:0:
197,126,30593,1,0,0:0:0:0:
360,50,30757,6,0,L|354:155,1,85,2|0,0:0|0:0,0:0:0:0:
361,265,31087,1,8,0:0:0:0:
271,171,31252,1,0,0:0:0:0:
429,144,31417,1,2,0:0:0:0:
278,250,31582,1,0,0:0:0:0:
451,133,31747,1,8,0:0:0:0:
240,171,31911,6,0,B|210:171|189:165|189:165|173:174|173:174|153:165|153:165|106:175|62:159,1,170,4|0,0:0|0:0,0:0:0:0:
16,98,32406,1,8,0:0:0:0:
106,250,32571,1,0,0:0:0:0:
119,266,32653,1,8,0:0:0:0:
132,282,32736,1,8,0:0:0:0:
10,227,32900,1,0,0:0:0:0:
143,146,33065,1,0,0:0:0:0:
125,154,33395,6,0,P|182:151|206:147,1,63.7500024318696,6|0,0:0|0:0,0:0:0:0:
332,128,33725,1,0,0:0:0:0:
346,137,34054,2,0,P|339:90|332:52,1,63.7500024318696,8|0,0:0|0:0,0:0:0:0:
247,109,34384,2,0,P|255:170|259:187,1,63.7500024318696
326,284,34714,5,2,0:0:0:0:
326,284,34878,2,0,P|376:275|406:266,1,63.7500024318696,8|0,0:0|0:0,0:0:0:0:
270,351,35208,1,0,0:0:0:0:
270,351,35373,2,0,P|225:348|195:343,1,63.7500024318696,8|0,0:0|0:0,0:0:0:0:
260,215,35703,1,0,0:0:0:0:
147,173,35867,1,8,0:0:0:0:
147,173,35950,1,8,0:0:0:0:
147,173,36032,6,0,P|148:125|152:98,1,63.7500024318696,2|0,0:0|0:0,0:0:0:0:
174,25,36362,1,0,0:0:0:0:
87,53,36527,1,0,0:0:0:0:
206,30,36692,2,0,L|274:39,1,63.7500024318696,8|0,0:0|0:0,0:0:0:0:
355,120,37021,1,0,0:0:0:0:
355,120,37186,2,0,L|263:116,1,63.7500024318696,0|2,0:0|0:0,0:0:0:0:
189,106,37516,1,8,0:0:0:0:
260,239,37845,5,0,0:0:0:0:
260,239,38010,2,0,P|282:278|304:299,1,63.7500024318696,8|0,0:0|0:0,0:0:0:0:
406,192,38340,2,0,P|392:145|374:112,1,63.7500024318696,0|8,0:0|0:0,0:0:0:0:
336,43,38587,1,8,0:0:0:0:
328,38,38670,6,0,L|261:64,1,63.7500024318696,2|0,0:0|0:0,0:0:0:0:
82,134,38999,2,0,L|158:142,1,63.7500024318696
333,241,39329,2,0,P|334:204|333:168,1,63.7500024318696,8|0,0:0|0:0,0:0:0:0:
246,85,39659,1,0,0:0:0:0:
210,206,39823,2,0,P|150:214|126:216,1,63.7500024318696,0|2,0:0|0:0,0:0:0:0:
46,210,40153,1,8,0:0:0:0:
134,57,40483,5,0,0:0:0:0:
134,57,40648,2,0,P|138:93|146:126,1,63.7500024318696,8|0,0:0|0:0,0:0:0:0:
210,206,40977,1,0,0:0:0:0:
305,163,41142,1,8,0:0:0:0:
305,163,41225,1,8,0:0:0:0:
305,163,41307,5,2,0:0:0:0:
181,130,41472,1,0,0:0:0:0:
339,170,41637,2,0,P|408:169|483:161,2,127.500004863739,0|8|0,0:0|0:0|0:0,0:0:0:0:
265,60,42461,1,8,0:0:0:0:
265,60,42543,1,8,0:0:0:0:
265,60,42626,5,6,0:0:0:0:
268,234,42790,1,0,0:0:0:0:
181,130,42955,1,8,0:0:0:0:
367,173,43120,5,2,0:0:0:0:
160,128,43450,1,2,0:0:0:0:
160,128,43779,1,8,0:0:0:0:
160,128,43862,1,8,0:0:0:0:
160,128,43944,6,0,P|98:137|51:151,1,85,6|0,0:0|0:0,0:0:0:0:
34,299,44274,2,0,P|96:290|143:276,1,85,8|0,0:0|0:0,0:0:0:0:
284,201,44604,1,2,0:0:0:0:
160,128,44768,1,0,0:0:0:0:
265,96,44933,1,8,0:0:0:0:
188,234,45098,6,0,P|118:226|79:213,1,85,0|2,0:0|0:0,0:0:0:0:
198,128,45428,1,0,0:0:0:0:
279,294,45593,1,8,0:0:0:0:
440,221,45757,2,0,P|373:185|277:205,1,170
99,272,46252,2,0,L|103:178,1,85,8|0,0:0|0:0,0:0:0:0:
201,66,46582,6,0,L|197:150,1,85,2|0,0:0|0:0,0:0:0:0:
248,302,46911,2,0,P|342:295|426:286,1,170,8|2,0:0|0:0,0:0:0:0:
491,195,47406,1,0,0:0:0:0:
357,138,47571,1,8,0:0:0:0:
488,71,47736,6,0,P|491:121|490:181,1,85,0|2,0:0|0:0,0:0:0:0:
405,242,48065,1,0,0:0:0:0:
340,110,48230,1,8,0:0:0:0:
232,230,48395,2,0,P|125:221|29:202,1,170
9,113,48889,1,8,0:0:0:0:
166,36,49054,1,0,0:0:0:0:
166,36,49137,1,0,0:0:0:0:
166,36,49219,6,0,P|210:26|256:20,1,85,6|0,0:0|0:0,0:0:0:0:
210,194,49549,2,0,P|166:204|120:210,1,85,8|0,0:0|0:0,0:0:0:0:
29,144,49878,1,2,0:0:0:0:
142,69,50043,1,0,0:0:0:0:
126,209,50208,1,8,0:0:0:0:
288,83,50373,6,0,B|302:276,1,170,4|0,0:0|0:0,0:0:0:0:
304,367,50867,1,8,0:0:0:0:
215,278,51032,2,0,L|209:190,1,85,0|2,0:0|0:0,0:0:0:0:
376,96,51362,2,0,L|381:180,1,85,0|8,0:0|0:0,0:0:0:0:
209,193,51692,1,0,0:0:0:0:
209,193,51774,1,0,0:0:0:0:
209,193,51856,6,0,B|106:185|19:173,1,170,6|8,0:0|0:0,0:0:0:0:
215,278,52351,2,0,P|264:273|315:266,1,85,0|2,0:0|0:0,0:0:0:0:
121,264,52681,1,0,0:0:0:0:
294,147,52845,1,8,0:0:0:0:
120,77,53010,6,0,P|123:138|126:171,1,85,4|2,0:0|0:0,0:0:0:0:
211,245,53340,1,0,0:0:0:0:
308,120,53505,1,8,0:0:0:0:
198,145,53670,1,0,0:0:0:0:
312,267,53834,5,8,0:0:0:0:
183,241,53999,1,8,0:0:0:0:
145,233,54082,1,8,0:0:0:0:
109,227,54164,1,8,0:0:0:0:
71,222,54247,1,8,0:0:0:0:
34,216,54329,1,8,0:0:0:0:
107,138,54494,5,8,0:0:0:0:
14,87,54659,1,0,0:0:0:0:
178,76,54823,1,8,0:0:0:0:
109,227,54988,1,0,0:0:0:0:
211,169,55153,1,8,0:0:0:0:
243,148,55236,1,8,0:0:0:0:
264,116,55318,1,0,0:0:0:0:
276,79,55400,1,0,0:0:0:0:
282,46,55483,6,0,P|281:123|279:221,1,152.999995330811,2|0,0:0|0:0,0:0:0:0:
277,314,55812,5,6,0:0:0:0:
132,227,55977,1,0,0:0:0:0:
279,198,56142,1,8,0:0:0:0:
194,318,56307,2,0,P|144:332|91:342,1,97.7500018644333,0|2,0:0|0:0,0:0:0:0:
29,187,56637,1,0,0:0:0:0:
161,240,56801,1,8,0:0:0:0:
138,77,56966,6,0,P|224:48|283:136,1,195.500003728867
252,272,57461,2,0,P|309:263|381:259,1,97.7500018644333,8|0,0:0|0:0,0:0:0:0:
348,259,57708,1,0,0:0:0:0:
348,259,57790,1,2,0:0:0:0:
146,279,57955,1,0,0:0:0:0:
203,127,58120,1,8,0:0:0:0:
46,147,58285,1,0,0:0:0:0:
23,152,58367,1,0,0:0:0:0:
0,155,58450,5,2,0:0:0:0:
107,60,58615,1,0,0:0:0:0:
57,227,58779,1,8,0:0:0:0:
202,154,58944,2,0,P|208:99|205:55,1,97.7500018644333,0|2,0:0|0:0,0:0:0:0:
77,43,59274,1,0,0:0:0:0:
144,206,59439,1,8,0:0:0:0:
320,181,59604,6,0,P|370:172|416:156,1,97.7500018644333,0|2,0:0|0:0,0:0:0:0:
478,67,59933,1,0,0:0:0:0:
502,216,60098,1,8,0:0:0:0:
343,89,60263,2,0,P|288:68|241:59,1,97.7500018644333,0|2,0:0|0:0,0:0:0:0:
121,111,60593,1,0,0:0:0:0:
233,207,60757,1,8,0:0:0:0:
100,316,60922,1,8,0:0:0:0:
100,316,61005,1,8,0:0:0:0:
100,316,61087,6,0,P|90:265|82:214,1,97.7500018644333,6|0,0:0|0:0,0:0:0:0:
155,103,61417,1,8,0:0:0:0:
242,233,61582,2,0,P|328:243|423:184,1,195.500003728867
293,40,62076,1,8,0:0:0:0:
310,141,62241,1,0,0:0:0:0:
396,60,62406,5,2,0:0:0:0:
216,143,62571,2,0,P|141:157|102:167,1,97.7500018644333,0|8,0:0|0:0,0:0:0:0:
33,241,62900,1,0,0:0:0:0:
188,268,63065,1,2,0:0:0:0:
79,105,63230,1,0,0:0:0:0:
313,110,63395,2,0,P|303:199|297:228,1,97.7500018644333,8|0,0:0|0:0,0:0:0:0:
202,264,63642,1,0,0:0:0:0:
188,268,63725,6,0,P|199:200|210:148,1,97.7500018644333,2|0,0:0|0:0,0:0:0:0:
253,67,64054,1,8,0:0:0:0:
301,206,64219,2,0,P|358:202|404:187,1,97.7500018644333,0|2,0:0|0:0,0:0:0:0:
235,45,64549,2,0,P|178:49|132:64,1,97.7500018644333,0|8,0:0|0:0,0:0:0:0:
188,268,64878,6,0,P|277:298|396:305,1,195.500003728867,4|0,0:0|0:0,0:0:0:0:
490,247,65373,1,8,0:0:0:0:
312,195,65538,2,0,B|281:113|286:51|286:51|327:92,1,195.500003728867,4|0,0:0|0:0,0:0:0:0:
403,269,66032,1,8,0:0:0:0:
362,287,66115,1,8,0:0:0:0:
319,298,66197,1,0,0:0:0:0:
275,298,66279,1,0,0:0:0:0:
232,285,66362,5,6,0:0:0:0:
355,189,66527,1,0,0:0:0:0:
248,135,66692,1,8,0:0:0:0:
362,287,66856,2,0,P|436:274|471:264,1,97.7500018644333,0|2,0:0|0:0,0:0:0:0:
505,188,67186,1,0,0:0:0:0:
410,366,67351,1,8,0:0:0:0:
236,253,67516,6,0,P|233:150|234:41,1,195.500003728867
385,101,68010,2,0,P|388:157|389:214,1,97.7500018644333,8|0,0:0|0:0,0:0:0:0:
346,295,68340,1,2,0:0:0:0:
308,163,68505,1,0,0:0:0:0:
473,229,68670,1,8,0:0:0:0:
265,262,68834,1,0,0:0:0:0:
236,253,68917,1,0,0:0:0:0:
209,240,68999,5,2,0:0:0:0:
300,336,69164,1,0,0:0:0:0:
329,191,69329,1,8,0:0:0:0:
188,230,69494,2,0,P|127:225|82:217,1,97.7500018644333,0|2,0:0|0:0,0:0:0:0:
50,147,69823,1,0,0:0:0:0:
174,309,69988,1,8,0:0:0:0:
308,163,70153,6,0,B|293:76|258:25|258:25|243:81,1,195.500003728867
276,274,70648,2,0,P|334:266|381:254,1,97.7500018644333,8|0,0:0|0:0,0:0:0:0:
188,182,70977,2,0,P|131:197|89:217,1,97.7500018644333,2|0,0:0|0:0,0:0:0:0:
308,163,71307,1,8,0:0:0:0:
177,44,71472,1,8,0:0:0:0:
177,44,71554,1,8,0:0:0:0:
177,44,71637,5,6,0:0:0:0:
49,127,71801,1,0,0:0:0:0:
202,30,71966,1,8,0:0:0:0:
188,182,72131,2,0,P|191:247|199:296,1,97.7500018644333,0|2,0:0|0:0,0:0:0:0:
414,206,72461,2,0,P|407:138|396:81,1,97.7500018644333,0|8,0:0|0:0,0:0:0:0:
292,59,72790,1,0,0:0:0:0:
317,193,72955,5,2,0:0:0:0:
145,118,73120,1,0,0:0:0:0:
192,290,73285,2,0,P|251:276|303:272,1,97.7500018644333,8|0,0:0|0:0,0:0:0:0:
417,301,73615,1,2,0:0:0:0:
295,364,73779,1,0,0:0:0:0:
218,191,73944,1,8,0:0:0:0:
400,138,74109,1,0,0:0:0:0:
422,149,74192,1,0,0:0:0:0:
440,165,74274,6,0,P|379:173|333:177,1,97.7500018644333,2|0,0:0|0:0,0:0:0:0:
207,96,74604,1,8,0:0:0:0:
222,299,74768,2,0,P|270:294|319:287,1,97.7500018644333,0|2,0:0|0:0,0:0:0:0:
185,194,75098,2,0,P|136:198|87:205,1,97.7500018644333,0|8,0:0|0:0,0:0:0:0:
244,91,75428,6,0,P|347:82|446:69,1,195.500003728867,4|0,0:0|0:0,0:0:0:0:
438,70,75922,1,8,0:0:0:0:
394,235,76087,2,0,B|371:306|379:378|379:378|424:317,1,195.500003728867,4|0,0:0|0:0,0:0:0:0:
289,254,76582,1,8,0:0:0:0:
260,248,76664,1,8,0:0:0:0:
231,241,76747,1,0,0:0:0:0:
341,148,76911,5,6,0:0:0:0:
199,72,77076,1,0,0:0:0:0:
327,23,77241,1,8,0:0:0:0:
234,163,77406,2,0,P|188:150|134:123,1,85,0|2,0:0|0:0,0:0:0:0:
355,34,77736,2,0,P|401:47|455:74,1,85,0|8,0:0|0:0,0:0:0:0:
401,282,78065,6,0,P|324:226|245:263,1,170
179,371,78560,1,8,0:0:0:0:
320,317,78725,1,0,0:0:0:0:
142,231,78889,1,2,0:0:0:0:
236,305,79054,1,0,0:0:0:0:
98,314,79219,1,8,0:0:0:0:
248,188,79384,1,0,0:0:0:0:
67,172,79549,6,0,P|61:122|60:78,1,85,2|0,0:0|0:0,0:0:0:0:
147,18,79878,1,8,0:0:0:0:
221,183,80043,2,0,P|307:195|421:206,1,170
509,149,80538,1,8,0:0:0:0:
366,292,80703,1,0,0:0:0:0:
366,292,80785,1,0,0:0:0:0:
366,292,80867,5,2,0:0:0:0:
195,265,81032,2,0,P|147:255|105:238,1,85,0|8,0:0|0:0,0:0:0:0:
258,110,81362,1,0,0:0:0:0:
280,135,81444,1,0,0:0:0:0:
298,163,81527,1,2,0:0:0:0:
287,300,81692,1,0,0:0:0:0:
189,183,81856,1,8,0:0:0:0:
381,111,82021,1,8,0:0:0:0:
381,111,82104,1,8,0:0:0:0:
381,111,82186,6,0,P|381:182|377:222,1,85,6|0,0:0|0:0,0:0:0:0:
276,268,82516,1,8,0:0:0:0:
301,57,82681,2,0,P|364:15|462:61,1,170
460,201,83175,1,8,0:0:0:0:
217,171,83340,6,0,P|146:150|113:136,1,85,0|2,0:0|0:0,0:0:0:0:
276,268,83670,2,0,P|202:261|166:254,1,85,0|8,0:0|0:0,0:0:0:0:
305,94,83999,2,0,P|327:163|333:199,1,85,0|2,0:0|0:0,0:0:0:0:
345,301,84329,1,0,0:0:0:0:
439,210,84494,1,8,0:0:0:0:
217,200,84659,1,0,0:0:0:0:
179,195,84741,1,0,0:0:0:0:
141,186,84823,5,2,0:0:0:0:
268,138,84988,1,0,0:0:0:0:
81,121,85153,1,8,0:0:0:0:
195,294,85318,2,0,L|287:264,1,85,0|2,0:0|0:0,0:0:0:0:
376,176,85648,1,0,0:0:0:0:
262,61,85812,1,8,0:0:0:0:
434,20,85977,6,0,L|429:115,1,85,4|2,0:0|0:0,0:0:0:0:
308,225,86307,1,0,0:0:0:0:
275,217,86389,1,0,0:0:0:0:
241,208,86472,1,8,0:0:0:0:
344,66,86637,6,0,L|339:161,1,85,4|0,0:0|0:0,0:0:0:0:
270,293,86966,1,8,0:0:0:0:
176,258,87131,1,8,0:0:0:0:
141,263,87214,1,8,0:0:0:0:
107,266,87296,1,0,0:0:0:0:
73,267,87378,1,0,0:0:0:0:
38,269,87461,5,6,0:0:0:0:
256,192,87543,12,0,88944,0:0:0:0:
