osu file format v14

[General]
AudioFilename: Hoshitachi no melody.mp3
AudioLeadIn: 2000
PreviewTime: 55483
Countdown: 0
SampleSet: Soft
StackLeniency: 0.7
Mode: 0
LetterboxInBreaks: 0
WidescreenStoryboard: 0

[Editor]
DistanceSpacing: 1.3
BeatDivisor: 4
GridSize: 32
TimelineZoom: 1.5

[Metadata]
Title:Hoshitachi no Melody
TitleUnicode:星達のメロディ
Artist:yuikonnu
ArtistUnicode:ゆいこんぬ
Creator:Synpoo
Version:Hard
Source:crossbeats REV.
Tags:utaite aerous CAPCOM
BeatmapID:761295
BeatmapSetID:344504

[Difficulty]
HPDrainRate:5
CircleSize:4
OverallDifficulty:6
ApproachRate:8
SliderMultiplier:1.4
SliderTickRate:1

[Events]
//Background and Video events
0,0,"bg.png",0,0
//Break Periods
//Storyboard Layer 0 (Background)
//Storyboard Layer 1 (Fail)
//Storyboard Layer 2 (Pass)
//Storyboard Layer 3 (Foreground)
//Storyboard Sound Samples

[TimingPoints]
1747,329.67032967033,4,2,1,50,1,0
12296,-117.647058823529,4,2,1,40,0,0
21362,-100,4,2,1,50,0,0
22845,-100,4,2,1,50,0,0
32900,-100,4,3,1,50,0,0
33395,-133.333333333333,4,2,1,40,0,0
42626,-100,4,2,1,50,0,0
55318,-100,4,3,1,50,0,0
55483,-100,4,2,1,50,0,0
55730,-83.3333333333333,4,2,1,5,0,0
55812,-100,4,2,1,60,0,1
66197,-100,4,3,1,60,0,1
66362,-100,4,2,1,60,0,1
76747,-100,4,3,1,60,0,1
76911,-100,4,2,1,50,0,0
87296,-100,4,3,1,50,0,0
87461,-100,4,2,1,50,0,0
87626,-100,4,2,1,40,0,0
88120,-100,4,2,1,30,0,0
88944,-100,4,2,1,5,0,0

[Colours]
Combo1 : 255,181,145
Combo2 : 99,226,254
Combo3 : 255,117,255
Combo4 : 150,156,237

[HitObjects]
124,89,1417,6,0,L|166:84,3,35
191,98,1747,6,0,P|195:143|201:194,1,70,6|0,0:0|0:0,0:0:0:0:
284,196,2076,2,0,P|283:151|280:121,1,70,8|0,0:0|0:0,0:0:0:0:
330,49,2406,1,2,0:0:0:0:
330,49,2571,1,0,0:0:0:0:
248,26,2736,1,8,0:0:0:0:
191,98,2900,6,0,P|139:147|63:121,1,140
0,185,3395,2,0,P|11:245|16:276,1,70,8|0,0:0|0:0,0:0:0:0:
40,341,3725,2,0,P|85:328|116:316,1,70,2|0,0:0|0:0,0:0:0:0:
180,265,4054,1,8,0:0:0:0:
98,224,4219,1,0,0:0:0:0:
180,265,4384,6,0,P|261:270|332:271,1,140,2|8,0:0|0:0,0:0:0:0:
344,183,4878,2,0,P|263:178|192:177,1,140
120,213,5373,1,8,0:0:0:0:
136,123,5538,6,0,P|95:66|20:75,1,140
7,155,6032,1,8,0:0:0:0:
33,242,6197,2,0,L|-14:256,2,35,0|0|2,0:0|0:0|0:0,0:0:0:0:
120,213,6527,1,0,0:0:0:0:
202,251,6692,2,0,P|254:259|282:259,1,70,8|0,0:0|0:0,0:0:0:0:
355,225,7021,6,0,P|354:178|346:131,1,70,6|0,0:0|0:0,0:0:0:0:
302,77,7351,1,8,0:0:0:0:
258,157,7516,2,0,P|203:167|101:180,1,140
28,175,8010,1,8,0:0:0:0:
68,256,8175,6,0,P|84:297|103:332,1,70,0|2,0:0|0:0,0:0:0:0:
176,276,8505,2,0,P|203:310|231:338,1,70,0|8,0:0|0:0,0:0:0:0:
297,279,8834,2,0,P|333:304|368:322,1,70,0|2,0:0|0:0,0:0:0:0:
436,271,9164,1,0,0:0:0:0:
457,182,9329,1,8,0:0:0:0:
378,136,9494,1,0,0:0:0:0:
378,136,9576,1,0,0:0:0:0:
378,136,9659,6,0,P|365:187|360:219,1,70,2|0,0:0|0:0,0:0:0:0:
324,287,9988,1,8,0:0:0:0:
269,214,10153,2,0,P|183:192|126:206,1,140
83,278,10648,1,8,0:0:0:0:
46,195,10812,6,0,P|40:112|34:42,1,140,4|0,0:0|0:0,0:0:0:0:
118,18,11307,1,8,0:0:0:0:
132,107,11472,2,0,P|195:113|234:112,1,70,4|0,0:0|0:0,0:0:0:0:
285,77,11801,1,0,0:0:0:0:
335,153,11966,2,0,L|389:146,3,35,8|8|8|8,0:0|0:0|0:0|0:0,0:0:0:0:
392,163,12296,6,0,P|398:193|404:228,1,59.5000011348725,6|0,0:0|0:0,0:0:0:0:
411,298,12626,1,0,0:0:0:0:
411,298,12790,1,0,0:0:0:0:
338,270,12955,2,0,L|208:255,1,119.000002269745,2|0,0:0|0:0,0:0:0:0:
142,262,13450,6,0,L|146:191,1,59.5000011348725,0|2,0:0|0:0,0:0:0:0:
111,133,13779,1,0,0:0:0:0:
111,133,13944,1,0,0:0:0:0:
61,192,14109,2,0,L|57:251,1,59.5000011348725,0|2,0:0|0:0,0:0:0:0:
91,321,14439,1,0,0:0:0:0:
142,262,14604,1,0,0:0:0:0:
204,306,14768,1,0,0:0:0:0:
256,248,14933,6,0,P|300:216|363:225,1,119.000002269745,2|0,0:0|0:0,0:0:0:0:
428,262,15428,1,0,0:0:0:0:
435,184,15593,2,0,P|431:144|426:114,1,59.5000011348725,2|0,0:0|0:0,0:0:0:0:
441,48,15922,1,0,0:0:0:0:
367,70,16087,6,0,L|228:49,1,119.000002269745,2|0,0:0|0:0,0:0:0:0:
178,85,16582,2,0,P|171:130|170:154,1,59.5000011348725
124,206,16911,2,0,P|141:251|152:282,1,59.5000011348725,2|0,0:0|0:0,0:0:0:0:
213,298,17241,1,0,0:0:0:0:
147,339,17406,1,0,0:0:0:0:
213,298,17571,6,0,P|279:293|356:279,1,119.000002269745,2|0,0:0|0:0,0:0:0:0:
399,248,18065,1,0,0:0:0:0:
331,210,18230,2,0,P|324:160|317:130,1,59.5000011348725,2|0,0:0|0:0,0:0:0:0:
260,103,18560,1,0,0:0:0:0:
260,103,18725,6,0,P|219:103|185:104,1,59.5000011348725,0|2,0:0|0:0,0:0:0:0:
134,144,19054,1,0,0:0:0:0:
200,183,19219,2,0,P|197:237|194:262,1,59.5000011348725
240,306,19549,2,0,P|301:304|326:300,1,59.5000011348725,2|0,0:0|0:0,0:0:0:0:
354,250,19878,2,0,P|356:205|355:173,1,59.5000011348725
336,115,20208,6,0,P|283:77|221:89,1,119.000002269745,2|0,0:0|0:0,0:0:0:0:
199,153,20703,1,0,0:0:0:0:
155,89,20867,2,0,L|141:31,1,59.5000011348725,2|0,0:0|0:0,0:0:0:0:
66,10,21197,1,0,0:0:0:0:
79,100,21362,6,0,P|95:173|112:249,1,140,4|0,0:0|0:0,0:0:0:0:
152,316,21856,1,8,0:0:0:0:
206,243,22021,2,0,P|243:246|280:251,1,70,4|0,0:0|0:0,0:0:0:0:
364,227,22351,1,8,0:0:0:0:
298,167,22516,2,0,L|242:160,3,35,8|8|8|8,0:0|0:0|0:0|0:0,0:0:0:0:
245,141,22845,6,0,L|256:57,1,70,6|0,0:0|0:0,0:0:0:0:
166,97,23175,2,0,L|155:173,1,70,8|0,0:0|0:0,0:0:0:0:
206,243,23505,2,0,P|273:226|347:282,1,140,2|8,0:0|0:0,0:0:0:0:
401,318,23999,6,0,P|412:250|421:164,1,140
411,88,24494,1,8,0:0:0:0:
336,140,24659,2,0,P|281:132|253:131,1,70,0|2,0:0|0:0,0:0:0:0:
191,182,24988,1,0,0:0:0:0:
272,223,25153,2,0,P|332:229|360:228,1,70,8|0,0:0|0:0,0:0:0:0:
432,214,25483,6,0,L|419:356,1,140,2|8,0:0|0:0,0:0:0:0:
338,310,25977,1,0,0:0:0:0:
250,336,26142,2,0,P|201:332|159:327,1,70,2|0,0:0|0:0,0:0:0:0:
88,337,26472,1,8,0:0:0:0:
121,252,26637,6,0,P|114:175|106:108,1,140
148,31,27131,1,8,0:0:0:0:
207,100,27296,2,0,L|289:108,1,70,0|2,0:0|0:0,0:0:0:0:
361,70,27626,1,0,0:0:0:0:
353,160,27790,2,0,L|346:252,1,70,8|0,0:0|0:0,0:0:0:0:
284,295,28120,6,0,P|218:256|145:273,1,140,2|8,0:0|0:0,0:0:0:0:
92,328,28615,1,0,0:0:0:0:
70,240,28779,2,0,L|54:142,1,70,2|0,0:0|0:0,0:0:0:0:
70,80,29109,1,8,0:0:0:0:
133,145,29274,6,0,P|186:143|223:130,1,70,0|2,0:0|0:0,0:0:0:0:
280,90,29604,1,0,0:0:0:0:
246,6,29768,1,8,0:0:0:0:
280,90,29933,2,0,P|293:120|306:154,1,70,0|2,0:0|0:0,0:0:0:0:
318,245,30263,1,0,0:0:0:0:
408,237,30428,2,0,L|481:227,1,70,8|0,0:0|0:0,0:0:0:0:
464,317,30757,6,0,L|302:337,1,140,2|8,0:0|0:0,0:0:0:0:
243,292,31252,1,0,0:0:0:0:
318,245,31417,2,0,P|317:196|318:155,1,70,2|0,0:0|0:0,0:0:0:0:
275,95,31747,1,8,0:0:0:0:
219,166,31911,6,0,P|153:193|64:172,1,140,4|0,0:0|0:0,0:0:0:0:
7,229,32406,1,8,0:0:0:0:
75,289,32571,1,8,0:0:0:0:
75,289,32653,1,8,0:0:0:0:
75,289,32736,2,0,P|116:291|153:294,1,70,8|0,0:0|0:0,0:0:0:0:
243,292,33065,1,0,0:0:0:0:
243,292,33395,6,0,P|271:231|284:177,1,105.000004005432,6|0,0:0|0:0,0:0:0:0:
254,120,33889,1,0,0:0:0:0:
254,120,34054,2,0,L|187:93,1,52.5000020027161,8|0,0:0|0:0,0:0:0:0:
128,78,34384,1,0,0:0:0:0:
133,156,34549,6,0,P|136:210|146:273,1,105.000004005432,0|8,0:0|0:0,0:0:0:0:
185,326,35043,2,0,P|231:321|256:315,1,52.5000020027161,2|0,0:0|0:0,0:0:0:0:
289,260,35373,2,0,P|335:265|364:271,1,52.5000020027161,8|0,0:0|0:0,0:0:0:0:
413,297,35703,1,0,0:0:0:0:
413,297,36032,6,0,P|420:234|419:185,1,105.000004005432,2|0,0:0|0:0,0:0:0:0:
392,117,36527,1,0,0:0:0:0:
392,117,36692,2,0,P|348:109|324:107,1,52.5000020027161,8|0,0:0|0:0,0:0:0:0:
262,93,37021,1,0,0:0:0:0:
242,170,37186,6,0,P|227:218|207:291,1,105.000004005432,0|8,0:0|0:0,0:0:0:0:
141,306,37681,2,0,L|91:288,1,52.5000020027161,2|0,0:0|0:0,0:0:0:0:
58,216,38010,2,0,L|78:163,1,52.5000020027161,8|0,0:0|0:0,0:0:0:0:
103,92,38340,1,0,0:0:0:0:
103,92,38670,6,0,P|148:108|217:100,1,105.000004005432,2|0,0:0|0:0,0:0:0:0:
262,50,39164,1,0,0:0:0:0:
283,125,39329,2,0,L|291:195,1,52.5000020027161,8|0,0:0|0:0,0:0:0:0:
311,253,39659,1,0,0:0:0:0:
233,239,39823,6,0,L|124:235,1,105.000004005432,0|8,0:0|0:0,0:0:0:0:
55,202,40318,2,0,P|52:158|53:132,1,52.5000020027161,2|0,0:0|0:0,0:0:0:0:
49,70,40648,2,0,P|96:66|126:61,1,52.5000020027161,8|0,0:0|0:0,0:0:0:0:
173,33,40977,1,0,0:0:0:0:
173,33,41307,6,0,L|177:99,1,52.5000020027161,2|0,0:0|0:0,0:0:0:0:
194,162,41637,1,0,0:0:0:0:
173,237,41801,1,0,0:0:0:0:
250,221,41966,2,0,P|287:215|319:202,1,52.5000020027161,8|0,0:0|0:0,0:0:0:0:
361,158,42296,1,0,0:0:0:0:
439,168,42461,1,8,0:0:0:0:
411,81,42626,6,0,P|442:48|462:1,2,70,4|0|8,0:0|0:0|0:0,0:0:0:0:
286,88,43120,1,2,0:0:0:0:
390,236,43450,1,2,0:0:0:0:
209,216,43779,1,8,0:0:0:0:
209,216,43862,1,8,0:0:0:0:
209,216,43944,6,0,P|144:183|55:201,1,140,6|8,0:0|0:0,0:0:0:0:
1,139,44439,1,0,0:0:0:0:
81,95,44604,2,0,P|121:92|166:88,1,70,2|0,0:0|0:0,0:0:0:0:
241,79,44933,1,8,0:0:0:0:
210,164,45098,6,0,L|205:318,1,140
277,360,45593,1,8,0:0:0:0:
318,279,45757,2,0,P|368:279|402:276,1,70,0|2,0:0|0:0,0:0:0:0:
477,259,46087,1,0,0:0:0:0:
414,192,46252,2,0,P|411:151|408:113,1,70,8|0,0:0|0:0,0:0:0:0:
345,56,46582,6,0,P|279:76|216:34,1,140,2|8,0:0|0:0,0:0:0:0:
140,1,47076,1,0,0:0:0:0:
152,91,47241,2,0,P|157:127|162:176,1,70,2|0,0:0|0:0,0:0:0:0:
156,251,47571,1,8,0:0:0:0:
240,216,47736,6,0,P|313:204|383:173,1,140
419,100,48230,1,8,0:0:0:0:
459,181,48395,2,0,L|468:252,1,70,0|2,0:0|0:0,0:0:0:0:
488,339,48725,1,0,0:0:0:0:
401,311,48889,2,0,L|332:307,1,70,8|0,0:0|0:0,0:0:0:0:
240,216,49219,6,0,L|380:226,1,140,6|8,0:0|0:0,0:0:0:0:
459,181,49714,1,0,0:0:0:0:
381,133,49878,2,0,P|373:79|367:51,1,70,2|0,0:0|0:0,0:0:0:0:
289,19,50208,1,8,0:0:0:0:
299,138,50373,6,0,L|156:132,1,140,4|0,0:0|0:0,0:0:0:0:
71,155,50867,1,8,0:0:0:0:
140,214,51032,2,0,L|147:292,1,70,0|2,0:0|0:0,0:0:0:0:
231,235,51362,2,0,L|238:313,1,70,0|8,0:0|0:0,0:0:0:0:
318,346,51692,1,0,0:0:0:0:
318,346,51774,1,0,0:0:0:0:
318,346,51856,6,0,P|396:341|464:315,1,140,6|8,0:0|0:0,0:0:0:0:
477,231,52351,2,0,L|467:153,1,70,0|2,0:0|0:0,0:0:0:0:
425,80,52681,1,0,0:0:0:0:
425,80,52845,1,8,0:0:0:0:
381,160,53010,6,0,L|241:153,1,140,4|0,0:0|0:0,0:0:0:0:
155,120,53505,2,0,P|155:163|159:215,1,70,8|0,0:0|0:0,0:0:0:0:
227,247,53834,1,8,0:0:0:0:
317,254,53999,1,8,0:0:0:0:
317,254,54082,1,8,0:0:0:0:
317,254,54164,2,0,L|318:308,2,35,8|8|8,0:0|0:0|0:0,0:0:0:0:
311,157,54494,6,0,L|234:152,1,70,8|0,0:0|0:0,0:0:0:0:
155,120,54823,2,0,L|78:115,1,70,8|0,0:0|0:0,0:0:0:0:
38,194,55153,2,0,L|35:246,3,35,8|8|0|0,0:0|0:0|0:0|0:0,0:0:0:0:
50,253,55483,6,0,P|97:242|160:267,1,105,2|0,0:0|0:0,0:0:0:0:
186,285,55812,6,0,P|235:280|270:275,1,70,6|0,0:0|0:0,0:0:0:0:
339,240,56142,1,8,0:0:0:0:
264,187,56307,2,0,P|257:132|255:103,1,70,0|2,0:0|0:0,0:0:0:0:
283,30,56637,1,0,0:0:0:0:
283,30,56801,1,8,0:0:0:0:
346,95,56966,6,0,P|444:102|490:104,1,140
510,192,57461,1,8,0:0:0:0:
418,194,57626,2,0,P|351:188|322:188,1,70,0|2,0:0|0:0,0:0:0:0:
270,140,57955,1,0,0:0:0:0:
270,231,58120,2,0,L|275:310,1,70,8|0,0:0|0:0,0:0:0:0:
201,355,58450,6,0,L|128:362,1,70,2|0,0:0|0:0,0:0:0:0:
41,376,58779,1,8,0:0:0:0:
62,287,58944,2,0,L|45:134,1,140
85,64,59439,1,8,0:0:0:0:
137,136,59604,6,0,P|193:157|273:137,1,140
317,62,60098,1,8,0:0:0:0:
358,143,60263,2,0,L|356:220,1,70,0|2,0:0|0:0,0:0:0:0:
367,303,60593,1,0,0:0:0:0:
283,268,60757,2,0,L|209:257,1,70,8|0,0:0|0:0,0:0:0:0:
138,163,61087,6,0,L|283:184,1,140,6|8,0:0|0:0,0:0:0:0:
358,143,61582,2,0,P|364:111|368:67,1,70,0|2,0:0|0:0,0:0:0:0:
298,14,61911,1,0,0:0:0:0:
273,101,62076,2,0,P|241:99|196:92,1,70,8|0,0:0|0:0,0:0:0:0:
126,43,62406,6,0,P|117:106|117:133,1,70,2|0,0:0|0:0,0:0:0:0:
79,196,62736,2,0,P|96:236|110:265,1,70,8|0,0:0|0:0,0:0:0:0:
184,323,63065,1,2,0:0:0:0:
184,323,63230,1,0,0:0:0:0:
205,226,63395,2,0,L|205:143,1,70,8|0,0:0|0:0,0:0:0:0:
273,101,63725,6,0,P|346:113|425:117,1,140,2|8,0:0|0:0,0:0:0:0:
475,181,64219,2,0,L|475:251,1,70,0|2,0:0|0:0,0:0:0:0:
420,324,64549,1,0,0:0:0:0:
420,324,64714,1,8,0:0:0:0:
385,241,64878,6,0,P|326:214|236:235,1,140,4|0,0:0|0:0,0:0:0:0:
176,274,65373,1,8,0:0:0:0:
173,182,65538,2,0,P|173:117|175:37,1,140,4|0,0:0|0:0,0:0:0:0:
262,13,66032,2,0,L|322:14,3,35,8|8|0|0,0:0|0:0|0:0|0:0,0:0:0:0:
318,32,66362,6,0,P|319:78|319:113,1,70,6|0,0:0|0:0,0:0:0:0:
280,184,66692,1,8,0:0:0:0:
370,176,66856,2,0,P|419:174|452:176,1,70,0|2,0:0|0:0,0:0:0:0:
497,244,67186,1,0,0:0:0:0:
497,244,67351,1,8,0:0:0:0:
407,262,67516,6,0,P|331:265|253:264,1,140
180,292,68010,1,8,0:0:0:0:
204,204,68175,2,0,P|210:167|215:120,1,70,0|2,0:0|0:0,0:0:0:0:
198,44,68505,1,0,0:0:0:0:
133,107,68670,2,0,P|75:102|56:99,1,70,8|0,0:0|0:0,0:0:0:0:
4,170,68999,6,0,P|62:175|81:178,1,70,2|0,0:0|0:0,0:0:0:0:
126,251,69329,1,8,0:0:0:0:
204,204,69494,2,0,P|211:168|216:128,1,70,0|2,0:0|0:0,0:0:0:0:
198,44,69823,1,0,0:0:0:0:
198,44,69988,1,8,0:0:0:0:
285,67,70153,6,0,P|362:77|441:95,1,140
511,70,70648,1,8,0:0:0:0:
490,158,70812,2,0,P|483:236|472:322,1,140
407,358,71307,1,8,0:0:0:0:
384,269,71472,1,8,0:0:0:0:
384,269,71554,1,8,0:0:0:0:
384,269,71637,6,0,P|335:261|286:259,1,70,6|0,0:0|0:0,0:0:0:0:
227,285,71966,1,8,0:0:0:0:
243,195,72131,2,0,L|238:117,1,70,0|2,0:0|0:0,0:0:0:0:
157,167,72461,2,0,L|152:89,1,70,0|8,0:0|0:0,0:0:0:0:
150,6,72790,1,0,0:0:0:0:
236,33,72955,6,0,L|330:37,1,70,2|0,0:0|0:0,0:0:0:0:
387,76,73285,1,8,0:0:0:0:
392,166,73450,1,0,0:0:0:0:
339,239,73615,2,0,P|292:229|258:225,1,70,2|0,0:0|0:0,0:0:0:0:
186,264,73944,2,0,P|131:275|95:280,1,70,8|0,0:0|0:0,0:0:0:0:
5,213,74274,6,0,P|86:196|150:186,1,140,2|8,0:0|0:0,0:0:0:0:
226,152,74768,2,0,L|214:74,1,70,0|2,0:0|0:0,0:0:0:0:
296,39,75098,2,0,L|306:108,1,70,0|8,0:0|0:0,0:0:0:0:
354,186,75428,6,0,P|423:165|488:184,1,140,4|0,0:0|0:0,0:0:0:0:
512,269,75922,1,8,0:0:0:0:
421,277,76087,2,0,P|334:293|266:258,1,140,4|0,0:0|0:0,0:0:0:0:
203,238,76582,1,8,0:0:0:0:
203,238,76664,1,8,0:0:0:0:
203,238,76747,1,0,0:0:0:0:
269,177,76911,6,0,L|258:99,1,70,6|0,0:0|0:0,0:0:0:0:
171,82,77241,2,0,L|180:151,1,70,8|0,0:0|0:0,0:0:0:0:
203,238,77571,1,2,0:0:0:0:
203,238,77736,1,0,0:0:0:0:
116,212,77900,1,8,0:0:0:0:
123,302,78065,6,0,P|172:335|273:313,1,140
333,292,78560,2,0,L|341:364,1,70,8|0,0:0|0:0,0:0:0:0:
423,323,78889,2,0,L|415:253,1,70,2|0,0:0|0:0,0:0:0:0:
390,165,79219,1,8,0:0:0:0:
479,181,79384,1,0,0:0:0:0:
390,165,79549,6,0,P|309:145|241:136,1,140,2|8,0:0|0:0,0:0:0:0:
123,209,80043,2,0,P|204:229|272:238,1,140
351,247,80538,1,8,0:0:0:0:
390,165,80703,6,0,P|420:96|396:34,1,140
325,96,81197,1,8,0:0:0:0:
243,47,81362,2,0,L|249:2,2,35,0|0|2,0:0|0:0|0:0,0:0:0:0:
221,136,81692,1,0,0:0:0:0:
221,136,81856,2,0,L|230:230,1,70,8|0,0:0|0:0,0:0:0:0:
209,295,82186,6,0,L|129:299,1,70,6|0,0:0|0:0,0:0:0:0:
51,325,82516,1,8,0:0:0:0:
75,237,82681,2,0,P|73:158|68:93,1,140
43,9,83175,1,8,0:0:0:0:
130,33,83340,6,0,L|203:26,1,70,0|2,0:0|0:0,0:0:0:0:
203,117,83670,2,0,L|275:125,1,70,0|8,0:0|0:0,0:0:0:0:
261,215,83999,2,0,L|330:238,1,70,0|2,0:0|0:0,0:0:0:0:
418,226,84329,1,0,0:0:0:0:
433,136,84494,1,8,0:0:0:0:
389,56,84659,1,0,0:0:0:0:
389,56,84741,1,0,0:0:0:0:
389,56,84823,6,0,L|316:33,1,70,2|0,0:0|0:0,0:0:0:0:
237,1,85153,1,8,0:0:0:0:
243,91,85318,2,0,P|205:134|115:131,1,140
40,166,85812,1,8,0:0:0:0:
100,234,85977,6,0,L|241:230,1,140,4|0,0:0|0:0,0:0:0:0:
328,255,86472,1,8,0:0:0:0:
262,318,86637,2,0,L|111:324,1,140,4|0,0:0|0:0,0:0:0:0:
39,361,87131,1,8,0:0:0:0:
39,361,87214,1,8,0:0:0:0:
39,361,87296,1,0,0:0:0:0:
35,269,87461,5,6,0:0:0:0:
256,192,87626,12,0,88944,0:0:0:0:
