osu file format v14

[General]
AudioFilename: Hoshitachi no melody.mp3
AudioLeadIn: 2000
PreviewTime: 55483
Countdown: 0
SampleSet: Soft
StackLeniency: 0.7
Mode: 0
LetterboxInBreaks: 0
WidescreenStoryboard: 0

[Editor]
DistanceSpacing: 1.1
BeatDivisor: 2
GridSize: 32
TimelineZoom: 1

[Metadata]
Title:Hoshitachi no Melody
TitleUnicode:星達のメロディ
Artist:yuikonnu
ArtistUnicode:ゆいこんぬ
Creator:Synpoo
Version:Easy
Source:crossbeats REV.
Tags:utaite aerous CAPCOM
BeatmapID:761687
BeatmapSetID:344504

[Difficulty]
HPDrainRate:2
CircleSize:3
OverallDifficulty:2
ApproachRate:3
SliderMultiplier:0.8
SliderTickRate:1

[Events]
//Background and Video events
0,0,"bg.png",0,0
//Break Periods
//Storyboard Layer 0 (Background)
//Storyboard Layer 1 (Fail)
//Storyboard Layer 2 (Pass)
//Storyboard Layer 3 (Foreground)
//Storyboard Sound Samples

[TimingPoints]
1747,329.67032967033,4,2,1,50,1,0
12296,-100,4,2,1,40,0,0
21362,-100,4,2,1,50,0,0
22845,-100,4,2,1,50,0,0
33395,-100,4,2,1,40,0,0
42626,-100,4,2,1,50,0,0
55812,-100,4,2,1,60,0,1
76911,-100,4,2,1,50,0,0
87626,-100,4,2,1,40,0,0
88120,-100,4,2,1,30,0,0
88944,-100,4,2,1,5,0,0

[Colours]
Combo1 : 255,181,145
Combo2 : 99,226,254
Combo3 : 255,117,255
Combo4 : 150,156,237

[HitObjects]
83,86,1747,6,0,P|129:96|193:87,1,80,6|8,0:0|0:0,0:0:0:0:
227,35,2406,2,0,P|274:33|335:55,1,80,2|8,0:0|0:0,0:0:0:0:
379,89,3065,1,2,0:0:0:0:
417,168,3395,2,0,P|452:142|463:94,2,80,8|2|8,0:0|0:0|0:0,0:0:0:0:
328,170,4384,6,0,L|235:166,1,80,2|8,0:0|0:0,0:0:0:0:
261,254,5043,2,0,L|168:250,1,80,2|8,0:0|0:0,0:0:0:0:
100,286,5703,1,2,0:0:0:0:
50,213,6032,2,0,P|18:248|12:292,2,80,8|2|8,0:0|0:0|0:0,0:0:0:0:
108,147,7021,6,0,L|104:61,1,80,6|8,0:0|0:0,0:0:0:0:
189,44,7681,2,0,L|192:123,1,80,2|8,0:0|0:0,0:0:0:0:
175,210,8340,1,2,0:0:0:0:
131,286,8670,2,0,P|99:258|88:223,2,80,8|2|8,0:0|0:0|0:0,0:0:0:0:
219,289,9659,6,0,L|309:282,1,80,2|8,0:0|0:0,0:0:0:0:
375,239,10318,1,2,0:0:0:0:
336,112,10812,2,0,P|284:72|185:85,1,160,4|4,0:0|0:0,0:0:0:0:
72,132,11966,1,8,0:0:0:0:
34,211,12296,6,0,L|39:304,1,80,6|0,0:0|0:0,0:0:0:0:
104,348,12955,2,0,P|153:369|233:343,2,120,0|2|0,0:0|0:0|0:0,0:0:0:0:
106,259,14274,2,0,P|116:212|105:175,1,80
35,132,14933,5,2,0:0:0:0:
66,49,15263,2,0,L|158:46,1,80
227,79,15922,1,0,0:0:0:0:
159,136,16252,2,0,P|163:180|182:218,1,80,2|0,0:0|0:0,0:0:0:0:
248,264,16911,2,0,P|298:273|351:266,1,80
396,217,17571,6,0,P|410:172|408:131,1,80,2|0,0:0|0:0,0:0:0:0:
356,68,18230,2,0,P|412:51|480:86,2,120,0|2|0,0:0|0:0|0:0,0:0:0:0:
288,124,19549,2,0,L|299:221,1,80
297,291,20208,5,2,0:0:0:0:
210,306,20538,2,0,L|111:308,1,80
44,209,21362,2,0,P|40:122|106:70,1,160,4|4,0:0|0:0,0:0:0:0:
209,21,22516,1,8,0:0:0:0:
278,75,22845,6,0,L|283:159,1,80,6|8,0:0|0:0,0:0:0:0:
363,119,23505,2,0,L|367:226,1,80,2|8,0:0|0:0,0:0:0:0:
390,283,24164,2,0,P|432:282|470:269,2,80,2|8|2,0:0|0:0|0:0,0:0:0:0:
304,262,25153,1,8,0:0:0:0:
242,325,25483,6,0,L|140:323,1,80,2|8,0:0|0:0,0:0:0:0:
80,290,26142,2,0,L|82:188,1,80,2|8,0:0|0:0,0:0:0:0:
75,122,26801,2,0,P|26:89|-9:56,2,80,2|8|2,0:0|0:0|0:0,0:0:0:0:
155,158,27790,1,8,0:0:0:0:
197,80,28120,6,0,P|238:70|299:81,1,80,2|8,0:0|0:0,0:0:0:0:
349,117,28779,2,0,P|394:124|449:112,1,80,2|8,0:0|0:0,0:0:0:0:
431,31,29439,2,0,L|527:17,2,80,2|8|2,0:0|0:0|0:0,0:0:0:0:
342,27,30428,1,8,0:0:0:0:
257,49,30757,5,2,0:0:0:0:
263,136,31087,2,0,L|267:230,1,80,8|2,0:0|0:0,0:0:0:0:
190,323,31911,2,0,P|129:337|56:313,1,120,4|8,0:0|0:0,0:0:0:0:
47,239,32736,2,0,P|56:187|50:139,1,80,8|2,0:0|0:0,0:0:0:0:
21,78,33395,5,6,0:0:0:0:
195,55,34054,2,0,P|259:48|321:16,2,120,8|0|2,0:0|0:0|0:0,0:0:0:0:
113,88,35373,2,0,P|127:145|129:203,1,80,8|0,0:0|0:0,0:0:0:0:
106,251,36032,5,2,0:0:0:0:
278,215,36692,2,0,P|283:274|279:342,2,120,8|0|2,0:0|0:0|0:0,0:0:0:0:
258,129,38010,2,0,P|306:127|366:112,1,80,8|0,0:0|0:0,0:0:0:0:
421,93,38670,5,2,0:0:0:0:
364,259,39329,2,0,P|434:264|508:248,2,120,8|0|2,0:0|0:0|0:0,0:0:0:0:
293,205,40648,2,0,P|250:198|184:218,1,80,8|0,0:0|0:0,0:0:0:0:
129,228,41307,5,2,0:0:0:0:
149,144,41637,2,0,P|147:96|152:57,1,80,0|8,0:0|0:0,0:0:0:0:
211,4,42296,1,0,0:0:0:0:
272,67,42626,5,6,0:0:0:0:
368,156,43120,2,0,P|423:151|475:136,1,80,2|2,0:0|0:0,0:0:0:0:
364,248,43944,6,0,P|321:248|274:239,1,80,6|8,0:0|0:0,0:0:0:0:
213,189,44604,2,0,P|156:176|99:179,1,80,2|8,0:0|0:0,0:0:0:0:
46,181,45263,2,0,L|54:85,2,80,2|8|2,0:0|0:0|0:0,0:0:0:0:
40,268,46252,1,8,0:0:0:0:
125,247,46582,6,0,L|220:253,1,80,2|8,0:0|0:0,0:0:0:0:
193,164,47241,2,0,L|288:170,1,80,2|8,0:0|0:0,0:0:0:0:
356,197,47900,2,0,P|355:237|353:283,2,80,2|8|2,0:0|0:0|0:0,0:0:0:0:
356,108,48889,1,8,0:0:0:0:
301,38,49219,6,0,P|252:32|194:55,1,80,6|8,0:0|0:0,0:0:0:0:
173,112,49878,2,0,P|132:125|31:105,2,120,2|4|8,0:0|0:0|0:0,0:0:0:0:
214,189,51197,2,0,L|211:286,1,80,2|8,0:0|0:0,0:0:0:0:
169,346,51856,6,0,P|210:358|263:339,1,80,6|8,0:0|0:0,0:0:0:0:
296,278,52516,2,0,P|346:303|425:302,2,120,2|4|8,0:0|0:0|0:0,0:0:0:0:
249,193,53834,2,0,P|206:186|150:195,1,80,8|8,0:0|0:0,0:0:0:0:
83,198,54494,5,8,0:0:0:0:
17,140,54823,1,8,0:0:0:0:
84,83,55153,2,0,P|126:75|184:60,1,80,2|2,0:0|0:0,0:0:0:0:
248,45,55812,6,0,L|292:122,1,80,6|8,0:0|0:0,0:0:0:0:
364,71,56472,2,0,L|408:148,1,80,2|8,0:0|0:0,0:0:0:0:
435,222,57131,2,0,B|447:260|414:298|414:298|351:288|312:306,1,160,2|2,0:0|0:0,0:0:0:0:
249,298,58120,1,8,0:0:0:0:
252,210,58450,6,0,P|251:162|247:111,1,80,2|8,0:0|0:0,0:0:0:0:
165,100,59109,2,0,P|165:139|168:179,1,80,2|8,0:0|0:0,0:0:0:0:
157,267,59768,2,0,P|81:293|6:256,1,160,2|2,0:0|0:0,0:0:0:0:
0,174,60757,1,8,0:0:0:0:
56,106,61087,6,0,B|131:81|131:81|238:101,1,160,6|2,0:0|0:0,0:0:0:0:
296,116,62076,1,8,0:0:0:0:
289,203,62406,2,0,L|275:300,1,80,2|8,0:0|0:0,0:0:0:0:
357,319,63065,2,0,L|368:239,1,80,2|8,0:0|0:0,0:0:0:0:
377,151,63725,5,2,0:0:0:0:
296,116,64054,1,8,0:0:0:0:
255,37,64384,2,0,P|302:28|369:68,2,120,2|4|8,0:0|0:0|0:0,0:0:0:0:
200,106,65703,2,0,P|160:115|101:108,1,80,2|8,0:0|0:0,0:0:0:0:
37,87,66362,6,0,L|51:189,1,80,6|8,0:0|0:0,0:0:0:0:
130,197,67021,2,0,L|144:299,1,80,2|8,0:0|0:0,0:0:0:0:
201,340,67681,2,0,P|271:317|364:350,1,160,2|2,0:0|0:0,0:0:0:0:
432,374,68670,1,8,0:0:0:0:
419,287,68999,6,0,P|411:246|409:208,1,80,2|8,0:0|0:0,0:0:0:0:
445,127,69659,2,0,P|398:119|354:142,1,80,2|8,0:0|0:0,0:0:0:0:
295,179,70318,2,0,B|182:198|182:198|112:180,1,160,2|2,0:0|0:0,0:0:0:0:
68,132,71307,1,8,0:0:0:0:
59,219,71637,6,0,B|56:313|56:313|81:300|124:299,1,160,6|2,0:0|0:0,0:0:0:0:
208,301,72626,1,8,0:0:0:0:
286,262,72955,2,0,P|344:258|384:273,1,80,2|8,0:0|0:0,0:0:0:0:
421,331,73615,2,0,P|446:299|449:254,1,80,2|8,0:0|0:0,0:0:0:0:
402,186,74274,1,2,0:0:0:0:
256,192,74604,12,4,76911,0:0:0:0:
203,117,78230,5,2,0:0:0:0:
116,134,78560,2,0,P|116:88|151:50,2,80,8|2|8,0:0|0:0|0:0,0:0:0:0:
170,203,79549,6,0,L|263:197,1,80,2|8,0:0|0:0,0:0:0:0:
297,271,80208,2,0,L|390:265,1,80,2|8,0:0|0:0,0:0:0:0:
457,230,80867,1,2,0:0:0:0:
421,149,81197,2,0,P|462:143|517:164,2,80,8|2|8,0:0|0:0|0:0,0:0:0:0:
342,188,82186,6,0,P|292:185|245:163,1,80,6|8,0:0|0:0,0:0:0:0:
202,111,82845,2,0,P|164:98|124:97,1,80,2|8,0:0|0:0,0:0:0:0:
44,135,83505,1,2,0:0:0:0:
75,216,83834,2,0,P|21:221|-11:203,2,80,8|2|8,0:0|0:0|0:0,0:0:0:0:
160,194,84823,6,0,L|164:287,1,80,2|8,0:0|0:0,0:0:0:0:
191,357,85483,1,2,0:0:0:0:
296,277,85977,2,0,P|361:243|454:272,1,160,4|4,0:0|0:0,0:0:0:0:
480,135,87131,2,0,L|472:49,1,80,8|6,0:0|0:0,0:0:0:0:
256,192,87626,12,0,88944,0:0:0:0:
