osu file format v14

[General]
AudioFilename: audio.mp3
AudioLeadIn: 0
PreviewTime: 53564
Countdown: 0
SampleSet: Soft
StackLeniency: 0.3
Mode: 0
LetterboxInBreaks: 0
WidescreenStoryboard: 0

[Editor]
DistanceSpacing: 1.1
BeatDivisor: 4
GridSize: 32
TimelineZoom: 1.6

[Metadata]
Title:Hoshitachi no Melody
TitleUnicode:星達のメロディ
Artist:yuikonnu
ArtistUnicode:ゆいこんぬ
Creator:Lasse
Version:Normal
Source:crossbeats REV.
Tags:CROSS×BEATS CAPCOM Meis Clauson
BeatmapID:978362
BeatmapSetID:455756

[Difficulty]
HPDrainRate:3.5
CircleSize:3.4
OverallDifficulty:4
ApproachRate:5
SliderMultiplier:1.12
SliderTickRate:1

[Events]
//Background and Video events
0,0,"bg.jpg",0,0
//Break Periods
//Storyboard Layer 0 (Background)
//Storyboard Layer 1 (Fail)
//Storyboard Layer 2 (Pass)
//Storyboard Layer 3 (Foreground)
//Storyboard Sound Samples

[TimingPoints]
-460,329.67032967033,4,2,1,50,1,0
858,-100,4,2,1,70,0,0
11408,-100,4,2,1,60,0,0
20308,-100,4,2,1,70,0,0
20968,-100,4,2,1,75,0,0
21957,-100,4,2,2,70,0,0
22287,-100,4,2,1,70,0,0
32507,-100,4,2,1,60,0,0
43056,-100,4,2,1,65,0,0
46847,-100,4,2,1,68,0,0
50968,-100,4,2,1,70,0,0
53276,-100,4,2,1,73,0,0
53935,-100,4,2,1,75,0,0
54594,-100,4,2,2,82,0,0
54924,-89.2857142857143,4,1,1,85,0,1
56243,-89.2857142857143,4,1,1,50,0,1
56408,-89.2857142857143,4,1,1,85,0,1
56737,-89.2857142857143,4,1,2,85,0,1
56902,-89.2857142857143,4,1,1,85,0,1
59375,-89.2857142857143,4,1,2,85,0,1
59540,-89.2857142857143,4,1,1,85,0,1
60858,-89.2857142857143,4,1,1,50,0,1
61023,-89.2857142857143,4,1,1,85,0,1
63496,-89.2857142857143,4,1,1,50,0,1
63660,-89.2857142857143,4,1,1,85,0,1
63990,-89.2857142857143,4,1,2,85,0,1
64155,-89.2857142857143,4,1,1,85,0,1
65309,-89.2857142857143,4,1,1,85,0,0
65474,-89.2857142857143,4,2,2,85,0,1
65638,-89.2857142857143,4,1,1,85,0,1
66792,-89.2857142857143,4,1,1,50,0,1
66957,-89.2857142857143,4,1,1,85,0,1
67287,-89.2857142857143,4,1,2,85,0,1
67452,-89.2857142857143,4,1,1,85,0,1
68770,-89.2857142857143,4,1,1,50,0,1
68935,-89.2857142857143,4,1,1,85,0,1
69924,-89.2857142857143,4,1,2,85,0,1
70089,-89.2857142857143,4,1,1,85,0,1
71408,-89.2857142857143,4,1,1,50,0,1
71572,-89.2857142857143,4,1,1,85,0,1
74045,-89.2857142857143,4,1,1,50,0,1
74210,-89.2857142857143,4,1,1,85,0,1
74540,-89.2857142857143,4,1,2,85,0,1
74705,-89.2857142857143,4,1,1,85,0,1
76023,-100,4,2,1,70,0,0
86572,-100,4,2,2,75,0,0
86655,-100,4,2,2,65,0,0
87232,-100,4,2,2,55,0,0
87891,-100,4,2,2,45,0,0
88550,-100,4,2,2,35,0,0
89210,-100,4,2,2,25,0,0
89869,-100,4,2,2,15,0,0
90529,-100,4,2,2,10,0,0
91847,-100,4,2,2,7,0,0
93166,-100,4,2,1,5,0,0

[Colours]
Combo1 : 255,32,160
Combo2 : 201,170,253
Combo3 : 210,210,210
Combo4 : 135,181,250
Combo5 : 254,44,97
Combo6 : 255,140,181
Combo7 : 150,150,150
Combo8 : 250,171,118

[HitObjects]
43,310,858,38,0,P|90:299|167:322,1,112,6|8,1:1|1:2,0:0:0:0:
205,342,1353,2,0,P|252:353|329:330,1,112,0|2,1:2|1:2,0:0:0:0:
256,229,2012,2,0,P|245:182|268:105,1,112,2|2,1:1|1:2,0:0:0:0:
337,26,2671,1,2,1:2:0:0:
458,45,3001,2,0,L|510:23,2,56,2|10|2,0:2|0:2|2:2,0:0:0:0:
454,106,3496,54,0,B|456:229,1,112,2|8,0:1|0:2,0:0:0:0:
443,278,3990,2,0,P|401:266|316:287,1,112,2|2,0:2|0:2,0:0:0:0:
248,364,4649,2,0,B|206:376|166:350|166:350|142:362|119:364,1,112,2|2,0:1|0:2,0:0:0:0:
95,247,5309,2,0,L|95:129,1,112,2|2,1:2|0:1,0:0:0:0:
119,78,5803,2,0,L|179:78,1,56,8|2,0:2|3:1,0:0:0:0:
229,109,6133,54,0,B|228:151|228:151|242:180|242:180|243:229,1,112,6|10,0:1|0:2,0:0:0:0:
266,275,6627,2,0,P|327:287|399:264,1,112,2|2,0:2|0:2,0:0:0:0:
480,212,7287,2,0,B|505:236|505:236|507:279|489:333,1,112,2|2,0:1|0:1,0:0:0:0:
387,371,7946,2,0,L|259:370,1,112,2|2,0:1|0:1,0:0:0:0:
216,349,8441,1,8,0:2:0:0:
93,340,8770,54,0,B|82:284|82:284|98:232,1,112,2|8,0:2|0:2,0:0:0:0:
142,187,9265,1,2,0:1:0:0:
239,262,9594,2,0,L|294:261,1,56,2|10,0:2|0:2,0:0:0:0:
346,227,9924,1,6,0:2:0:0:
323,105,10254,2,0,L|267:105,1,56,2|10,0:1|0:2,0:0:0:0:
209,84,10583,1,6,0:2:0:0:
87,62,10913,2,0,L|81:4,2,56,2|2|10,0:1|3:1|3:2,0:0:0:0:
63,119,11408,38,0,B|49:180|49:180|65:249,1,112,6|0,0:0|1:0,0:0:0:0:
114,339,12067,2,0,P|159:328|236:348,1,112,0|0,1:0|1:0,0:0:0:0:
276,370,12561,2,0,P|330:382|384:371,1,112,2|0,0:0|0:0,0:0:0:0:
469,281,13221,2,0,L|468:209,1,56,0|0,0:0|1:0,0:0:0:0:
442,104,13715,1,0,1:0:0:0:
350,187,14045,54,0,B|306:186|306:186|276:172|276:172|230:172,1,112,2|0,1:2|1:0,0:0:0:0:
123,209,14704,2,0,L|106:268,2,56,0|0|0,1:0|0:0|1:0,0:0:0:0:
107,149,15199,2,0,B|67:130|67:130|-12:130,1,112,2|0,0:2|0:0,0:0:0:0:
62,24,15858,2,0,L|117:24,1,56,0|0,0:0|1:0,0:0:0:0:
240,42,16353,1,0,1:0:0:0:
360,16,16682,54,0,B|414:10|414:10|484:27,1,112,2|0,1:2|1:0,0:0:0:0:
510,140,17342,2,0,L|508:284,1,112,0|0,1:0|1:0,0:0:0:0:
498,312,17836,1,2,0:0:0:0:
380,273,18166,2,0,L|301:271,1,56,0|0,0:0|1:0,0:0:0:0:
275,310,18496,2,0,B|205:315,1,56,0|0,0:0|1:0,0:0:0:0:
101,350,18990,1,0,1:0:0:0:
32,248,19320,53,2,1:2:0:0:
108,151,19649,2,0,L|173:151,1,56,0|0,1:0|0:0,0:0:0:0:
217,182,19979,2,0,B|261:183|261:183|294:166|294:166|354:164,1,112,0|8,1:0|1:0,0:0:0:0:
381,190,20474,1,4,0:0:0:0:
489,131,20803,2,0,L|487:65,1,56,0|8,0:0|1:0,0:0:0:0:
437,37,21133,1,4,0:1:0:0:
315,14,21463,2,0,L|246:0,2,56,4|8|4,0:0|3:0|3:0,0:0:0:0:
311,75,21957,70,0,B|274:100|274:100|198:95,1,112,4|8,1:0|0:0,0:0:0:0:
94,50,22616,1,0,1:0:0:0:
17,143,22946,1,8,0:0:0:0:
17,143,23111,2,0,P|9:212|15:260,1,112,2|0,1:2|1:0,0:0:0:0:
44,307,23605,2,0,L|32:370,2,56,8|0|0,0:0|1:0|0:0,0:0:0:0:
149,242,24265,1,8,0:0:0:0:
247,315,24594,54,0,L|322:315,1,56,2|0,1:2|0:0,0:0:0:0:
360,290,24924,1,8,0:0:0:0:
453,209,25254,2,0,L|515:223,2,56,0|0|8,1:0|1:0|0:0,0:0:0:0:
413,162,25748,2,0,B|396:154|374:151|374:151|331:176|281:151,1,112,2|0,1:2|1:0,0:0:0:0:
246,141,26243,2,0,L|171:143,1,56,8|0,0:0|1:0,0:0:0:0:
71,108,26737,1,0,1:0:0:0:
68,111,26902,2,0,P|59:140|65:176,1,56,8|0,0:0|0:0,0:0:0:0:
75,226,27232,54,0,B|111:236|111:236|139:222|139:222|167:235|205:237,1,112,2|8,1:2|0:0,0:0:0:0:
303,228,27891,2,0,L|366:212,2,56,0|0|8,1:0|1:0|0:0,0:0:0:0:
308,289,28386,1,2,1:2:0:0:
206,358,28715,1,0,1:0:0:0:
203,361,28880,2,0,L|108:360,2,56,8|0|0,0:0|1:0|0:0,0:0:0:0:
326,369,29540,2,0,L|421:368,1,56,8|0,0:0|0:0,0:0:0:0:
436,340,29869,53,2,1:2:0:0:
506,239,30199,2,0,L|506:173,1,56,8|0,0:0|0:0,0:0:0:0:
476,128,30529,2,0,P|426:112|353:135,1,112,0|8,1:0|0:0,0:0:0:0:
318,160,31023,2,0,P|264:172|211:156,1,112,6|0,1:2|1:0,0:0:0:0:
158,123,31518,1,8,0:0:0:0:
41,83,31847,2,0,L|29:22,2,56,0|2|8,1:0|0:1|0:0,0:0:0:0:
41,206,32507,38,0,B|32:261|32:261|51:338,1,112,4|0,1:1|1:0,0:0:0:0:
160,360,33166,1,8,0:0:0:0:
205,245,33496,1,0,1:0:0:0:
208,248,33660,2,0,L|319:248,1,112,0|8,1:0|0:0,0:0:0:0:
428,190,34320,1,0,1:0:0:0:
431,193,34485,2,0,P|444:245|432:307,1,112,10|0,0:0|1:0,0:0:0:0:
330,374,35144,53,2,1:2:0:0:
209,348,35474,2,0,L|142:375,2,56,0|0|8,1:0|1:0|0:0,0:0:0:0:
235,227,36133,1,0,1:0:0:0:
238,230,36298,2,0,B|242:215|235:194|235:194|247:169|247:169|236:137|243:114,1,112,2|8,1:2|0:0,0:0:0:0:
310,20,36957,1,0,1:0:0:0:
313,23,37122,2,0,B|282:31|282:31|244:18|200:29,1,112,10|0,0:0|1:0,0:0:0:0:
83,60,37781,54,0,B|83:104|83:104|98:140|98:140|98:190,1,112,2|0,1:2|1:0,0:0:0:0:
36,276,38441,1,8,0:0:0:0:
128,360,38770,1,0,1:0:0:0:
131,363,38935,2,0,L|242:363,1,112,2|10,1:2|0:2,0:0:0:0:
366,350,39594,1,2,1:2:0:0:
369,353,39759,2,0,B|382:296|382:296|369:245,1,112,8|0,0:0|0:0,0:0:0:0:
325,128,40419,53,2,0:0:0:0:
210,172,40748,2,0,L|207:244,1,56,0|0,1:0|1:0,0:0:0:0:
201,289,41078,2,0,B|147:309|147:309|86:288,1,112,8|0,0:0|1:0,0:0:0:0:
55,174,41737,2,0,L|-20:174,2,56,6|0|8,1:1|1:0|0:0,0:0:0:0:
96,127,42232,1,14,1:2:0:0:
189,46,42561,2,0,P|242:38|311:50,1,112,14|0,1:1|3:0,0:0:0:0:
353,76,43056,5,4,1:0:0:0:
301,188,43386,2,0,P|248:196|179:184,1,112,8|0,0:0|1:0,0:0:0:0:
76,146,44045,1,8,0:0:0:0:
73,149,44210,2,0,L|72:271,1,112,2|0,1:2|1:0,0:0:0:0:
53,319,44704,2,0,L|3:345,2,56,8|0|0,0:0|1:0|0:0,0:0:0:0:
174,295,45364,1,8,0:0:0:0:
290,334,45693,53,2,1:2:0:0:
407,297,46023,2,0,B|416:241|416:241|403:175,1,112,8|0,0:0|1:0,0:0:0:0:
388,127,46518,2,0,L|389:65,2,56,0|8|2,1:0|0:0|1:2,0:0:0:0:
270,165,47177,2,0,P|234:169|199:162,1,56,0|8,1:0|0:0,0:0:0:0:
154,152,47507,2,0,B|143:97|143:97|152:41,1,112,2|0,1:2|1:0,0:0:0:0:
202,6,48001,1,8,0:0:0:0:
322,33,48331,54,0,B|341:36|358:34|358:34|383:52|383:52|414:45|440:52,1,112,4|8,1:0|0:0,0:0:0:0:
466,97,48825,2,0,P|476:158|458:216,1,112,0|0,0:0|1:0,0:0:0:0:
416,319,49485,2,0,P|361:307|307:317,1,112,4|0,1:0|1:0,0:0:0:0:
194,368,50144,1,2,1:2:0:0:
81,317,50474,2,0,L|22:323,2,56,0|10|0,1:0|0:0|0:0,0:0:0:0:
108,262,50968,54,0,P|118:201|100:143,1,112,6|8,1:0|0:0,0:0:0:0:
71,101,51463,1,0,0:0:0:0:
160,17,51792,2,0,L|249:18,1,56,0|8,1:0|0:0,0:0:0:0:
269,49,52122,2,0,L|429:50,1,112,6|0,1:0|1:0,0:0:0:0:
428,89,52616,1,8,0:0:0:0:
452,213,52946,1,8,0:1:0:0:
452,213,53111,2,0,L|292:212,1,112,8|8,3:0|3:0,0:0:0:0:
293,172,53605,6,0,B|233:154|241:181|175:163,1,112,8|8,3:2|0:1,0:0:0:0:
66,124,54265,2,0,P|66:93|70:49,1,56,8|4,3:0|3:3,0:0:0:0:
108,22,54594,1,6,1:1:0:0:
228,55,54924,6,0,B|300:73|283:45|353:58,1,125.44000153125,4|8,0:0|0:0,0:0:0:0:
400,97,55419,1,0,0:0:0:0:
425,219,55748,2,0,L|430:295,2,62.720000765625,0|8|2,0:0|0:0|0:1,0:0:0:0:
310,167,56408,2,0,P|274:163|238:168,1,62.720000765625,0|8,0:0|0:0,0:0:0:0:
189,188,56737,2,0,B|117:206|134:178|64:191,1,125.44000153125,2|0,0:0|0:0,0:0:0:0:
16,231,57232,1,8,0:0:0:0:
59,348,57561,54,0,P|88:354|141:344,1,62.720000765625,2|0,2:1|0:0,0:0:0:0:
175,319,57891,2,0,P|206:316|236:322,1,62.720000765625,8|0,0:0|0:0,0:0:0:0:
355,365,58386,2,0,P|385:371|416:368,1,62.720000765625,0|8,0:0|0:0,0:0:0:0:
448,313,58715,1,2,0:0:0:0:
427,189,59045,2,0,P|396:182|365:185,1,62.720000765625,0|8,0:0|0:0,0:0:0:0:
313,221,59375,2,0,B|291:234|254:232|254:232|218:212|185:218,1,125.44000153125,2|0,0:0|1:0,0:0:0:0:
131,234,59869,1,10,0:0:0:0:
12,191,60199,54,0,B|-1:129|-1:129|15:61,1,125.44000153125,6|8,0:0|0:0,0:0:0:0:
64,32,60693,2,0,P|125:23|218:50,1,125.44000153125,2|0,0:1|0:0,0:0:0:0:
297,95,61353,2,0,L|364:84,2,62.720000765625,2|0|0,0:2|2:0|0:0,0:0:0:0:
264,148,61847,1,8,0:0:0:0:
143,182,62177,2,0,L|80:179,2,62.720000765625,0|0|8,2:0|0:0|0:0,0:0:0:0:
232,269,62836,54,0,B|260:286|260:286|365:285,1,125.44000153125,6|8,0:0|0:0,0:0:0:0:
413,269,63331,2,0,B|432:206|432:206|416:138,1,125.44000153125
351,41,63990,2,0,P|301:27|227:43,1,125.44000153125,10|0,0:1|0:0,0:0:0:0:
176,75,64485,1,8,0:0:0:0:
173,78,64649,2,0,P|123:92|49:76,1,125.44000153125,6|0,0:2|0:0,0:0:0:0:
3,39,65144,1,8,3:1:0:0:
13,164,65474,54,0,B|26:234|-2:217|16:289,1,125.44000153125,4|8,1:0|0:0,0:0:0:0:
54,337,65968,1,0,0:0:0:0:
178,348,66298,2,0,L|269:352,2,62.720000765625,0|8|2,0:0|0:0|0:1,0:0:0:0:
126,236,66957,2,0,P|125:199|130:165,1,62.720000765625,0|8,0:0|0:0,0:0:0:0:
155,116,67287,2,0,B|227:101|209:128|279:119,1,125.44000153125,2|2,0:0|0:2,0:0:0:0:
337,96,67781,1,10,0:0:0:0:
459,119,68111,54,0,P|465:148|455:201,1,62.720000765625,2|0,0:0|0:0,0:0:0:0:
430,235,68441,2,0,P|427:266|433:296,1,62.720000765625,8|0,0:0|0:0,0:0:0:0:
329,368,68935,2,0,L|267:365,1,62.720000765625,0|8,0:0|0:0,0:0:0:0:
205,351,69265,1,2,0:1:0:0:
83,381,69594,2,0,P|76:350|78:319,1,62.720000765625,0|8,0:0|0:0,0:0:0:0:
104,261,69924,2,0,B|132:240|132:240|232:243,1,125.44000153125,2|0,0:0|0:0,0:0:0:0:
284,229,70419,1,10,0:0:0:0:
408,209,70748,54,0,P|419:147|410:85,1,125.44000153125,6|8,0:0|0:0,0:0:0:0:
370,36,71243,2,0,B|310:21|310:21|248:34,1,125.44000153125,2|0,0:2|0:0,0:0:0:0:
123,54,71902,2,0,L|48:27,2,62.720000765625,2|0|0,0:2|2:0|0:0,0:0:0:0:
123,116,72397,1,8,0:0:0:0:
123,241,72726,2,0,L|48:268,2,62.720000765625,2|2|10,0:0|0:2|0:0,0:0:0:0:
232,177,73386,54,0,B|271:181|291:162|291:162|316:183|363:174,1,125.44000153125,2|10,0:1|0:0,0:0:0:0:
410,197,73880,2,0,B|426:256|426:256|412:337,1,125.44000153125,0|0,0:0|0:0,0:0:0:0:
293,286,74540,2,0,P|243:272|169:288,1,125.44000153125,10|0,0:0|0:0,0:0:0:0:
119,321,75034,1,8,0:0:0:0:
116,324,75199,2,0,B|72:335|36:329|36:329|0:267,1,125.44000153125,6|0,0:0|0:0,0:0:0:0:
1,225,75693,1,2,3:1:0:0:
18,103,76023,22,0,P|65:92|142:115,1,112,6|8,1:0|0:2,0:0:0:0:
174,144,76518,2,0,P|221:155|298:132,1,112,0|2,1:2|1:2,0:0:0:0:
385,73,77177,2,0,B|411:91|411:91|422:134|409:187,1,112,2|2,1:1|1:2,0:0:0:0:
390,292,77836,1,2,1:2:0:0:
269,320,78166,2,0,L|233:375,2,56,2|10|2,0:2|0:2|2:2,0:0:0:0:
276,258,78660,54,0,B|283:221|283:221|274:191|274:191|287:164|279:131,1,112,2|8,0:1|0:2,0:0:0:0:
261,91,79155,2,0,P|188:78|138:98,1,112,2|2,0:2|0:2,0:0:0:0:
127,209,79814,2,0,B|117:243|117:243|126:287|126:287|118:342,1,112,2|2,0:1|0:2,0:0:0:0:
4,286,80474,2,0,B|-6:233|-6:233|8:159,1,112,0|2,0:1|0:1,0:0:0:0:
47,131,80968,2,0,L|51:62,1,56,8|2,0:2|3:1,0:0:0:0:
94,32,81298,54,0,P|148:21|202:33,1,112,6|10,0:1|0:2,0:0:0:0:
247,75,81792,2,0,B|278:74|278:74|304:89|304:89|327:81|356:89,1,112,2|2,0:2|0:2,0:0:0:0:
337,211,82452,2,0,B|336:249|336:249|319:280|319:280|321:332,1,112,2|2,0:1|0:1,0:0:0:0:
433,368,83111,2,0,B|431:329|431:329|448:298|448:298|449:260,1,112,2|2,0:1|0:1,0:0:0:0:
454,198,83605,1,8,0:2:0:0:
420,79,83935,54,0,B|355:60|366:95|292:66,1,112,2|8,0:2|0:2,0:0:0:0:
254,44,84430,1,2,0:1:0:0:
135,13,84759,2,0,P|129:54|136:86,1,56,2|10,0:2|0:2,0:0:0:0:
159,123,85089,1,6,0:2:0:0:
264,187,85419,2,0,P|270:228|263:260,1,56,2|10,0:1|0:2,0:0:0:0:
240,297,85748,1,6,0:2:0:0:
119,322,86078,2,0,L|104:376,2,56,2|10|10,0:1|3:2|3:1,0:0:0:0:
112,260,86572,5,6,1:0:0:0:
256,192,86737,12,0,93166,0:0:0:0:
