osu file format v14

[General]
AudioFilename: audio.mp3
AudioLeadIn: 0
PreviewTime: 53564
Countdown: 0
SampleSet: Soft
StackLeniency: 0.3
Mode: 0
LetterboxInBreaks: 0
WidescreenStoryboard: 0

[Editor]
DistanceSpacing: 2.3
BeatDivisor: 4
GridSize: 32
TimelineZoom: 1.6

[Metadata]
Title:Hoshitachi no Melody
TitleUnicode:星達のメロディ
Artist:yuikonnu
ArtistUnicode:ゆいこんぬ
Creator:Lasse
Version:Insane
Source:crossbeats REV.
Tags:CROSS×BEATS CAPCOM Meis Clauson
BeatmapID:979245
BeatmapSetID:455756

[Difficulty]
HPDrainRate:6
CircleSize:4
OverallDifficulty:7.8
ApproachRate:9
SliderMultiplier:1.6
SliderTickRate:1

[Events]
//Background and Video events
0,0,"bg.jpg",0,0
//Break Periods
//Storyboard Layer 0 (Background)
//Storyboard Layer 1 (Fail)
//Storyboard Layer 2 (Pass)
//Storyboard Layer 3 (Foreground)
//Storyboard Sound Samples

[TimingPoints]
-460,329.67032967033,4,2,1,50,1,0
858,-100,4,2,1,70,0,0
11408,-111.111111111111,4,2,1,60,0,0
20308,-111.111111111111,4,2,1,70,0,0
20968,-111.111111111111,4,2,1,75,0,0
21957,-83.3333333333333,4,2,2,70,0,0
22204,-83.3333333333333,4,2,2,5,0,0
22287,-111.111111111111,4,2,1,70,0,0
32507,-147.058823529412,4,2,1,60,0,0
38935,-147.058823529412,4,2,1,60,0,0
39182,-147.058823529412,4,2,1,5,0,0
39265,-147.058823529412,4,2,1,60,0,0
39512,-147.058823529412,4,2,1,5,0,0
39594,-147.058823529412,4,2,1,60,0,0
39842,-147.058823529412,4,2,1,5,0,0
39924,-147.058823529412,4,2,1,60,0,0
40171,-147.058823529412,4,2,1,5,0,0
40254,-147.058823529412,4,2,1,60,0,0
43056,-128.205128205128,4,2,1,65,0,0
46847,-128.205128205128,4,2,1,68,0,0
50968,-128.205128205128,4,2,1,70,0,0
53276,-117.647058823529,4,2,1,73,0,0
53935,-117.647058823529,4,2,1,75,0,0
54594,-80,4,2,2,82,0,0
54842,-80,4,2,2,5,0,0
54924,-86.9565217391304,4,1,1,85,0,1
56078,-76.9230769230769,4,1,1,85,0,1
56243,-86.9565217391304,4,1,1,50,0,1
56408,-86.9565217391304,4,1,1,85,0,1
56737,-71.4285714285714,4,1,2,85,0,1
56902,-86.9565217391304,4,1,1,85,0,1
58221,-86.9565217391304,4,1,1,50,0,1
58386,-86.9565217391304,4,1,1,85,0,1
58715,-76.9230769230769,4,1,1,85,0,1
59375,-71.4285714285714,4,1,2,85,0,1
59540,-86.9565217391304,4,1,1,85,0,1
60858,-86.9565217391304,4,1,1,50,0,1
61023,-86.9565217391304,4,1,1,85,0,1
63496,-86.9565217391304,4,1,1,50,0,1
63660,-86.9565217391304,4,1,1,85,0,1
63990,-86.9565217391304,4,1,2,85,0,1
64155,-86.9565217391304,4,1,1,85,0,1
65309,-86.9565217391304,4,1,1,85,0,0
65474,-86.9565217391304,4,2,2,85,0,1
65638,-86.9565217391304,4,1,1,85,0,1
66627,-76.9230769230769,4,1,1,85,0,1
66792,-86.9565217391304,4,1,1,50,0,1
66957,-86.9565217391304,4,1,1,85,0,1
67287,-71.4285714285714,4,1,2,85,0,1
67452,-86.9565217391304,4,1,1,85,0,1
68770,-86.9565217391304,4,1,1,50,0,1
68935,-86.9565217391304,4,1,1,85,0,1
69265,-76.9230769230769,4,1,1,85,0,1
69924,-71.4285714285714,4,1,2,85,0,1
70089,-86.9565217391304,4,1,1,85,0,1
71408,-86.9565217391304,4,1,1,50,0,1
71572,-86.9565217391304,4,1,1,85,0,1
74045,-86.9565217391304,4,1,1,50,0,1
74210,-86.9565217391304,4,1,1,85,0,1
74540,-86.9565217391304,4,1,2,85,0,1
74705,-86.9565217391304,4,1,1,85,0,1
76023,-100,4,2,1,70,0,0
86572,-100,4,2,2,75,0,0
86655,-100,4,2,2,65,0,0
87232,-100,4,2,2,55,0,0
87891,-100,4,2,2,45,0,0
88550,-100,4,2,2,35,0,0
89210,-100,4,2,2,25,0,0
89869,-100,4,2,2,15,0,0
90529,-100,4,2,2,10,0,0
91847,-100,4,2,2,7,0,0
93166,-100,4,2,1,5,0,0

[Colours]
Combo1 : 255,32,160
Combo2 : 201,170,253
Combo3 : 210,210,210
Combo4 : 135,181,250
Combo5 : 254,44,97
Combo6 : 255,140,181
Combo7 : 150,150,150
Combo8 : 250,171,118

[HitObjects]
69,345,529,118,0,L|69:306,3,40,2|0|0|0,0:2|0:0|0:2|0:0,0:0:0:0:
49,231,858,38,0,P|38:148|58:69,1,160,6|8,1:1|1:2,0:0:0:0:
125,194,1353,2,0,P|120:153|130:113,1,80,0|0,1:2|2:2,0:0:0:0:
197,239,1682,2,0,P|205:200|200:160,1,80,2|8,1:2|1:2,0:0:0:0:
270,280,2012,54,0,P|287:202|276:123,1,160,2|2,1:1|1:2,0:0:0:0:
356,269,2507,1,8,1:2:0:0:
458,180,2671,2,0,L|462:94,1,80,2|0,1:2|2:2,0:0:0:0:
379,193,3001,1,2,0:2:0:0:
474,311,3166,1,10,0:2:0:0:
333,345,3331,1,2,2:2:0:0:
186,266,3496,54,0,B|182:204|182:204|158:170|158:170|155:97,1,160,2|8,0:1|0:2,0:0:0:0:
107,233,3990,2,0,B|83:201|83:201|81:133,1,80,2|0,0:2|2:2,0:0:0:0:
233,141,4320,2,0,L|228:43,1,80,2|8,0:2|0:2,0:0:0:0:
311,179,4649,54,0,L|302:14,1,160,2|2,0:1|0:2,0:0:0:0:
387,141,5144,1,8,0:2:0:0:
458,71,5309,2,0,L|458:2,2,40,2|0|2,1:2|2:2|2:2,0:0:0:0:
457,212,5638,1,2,0:1:0:0:
411,345,5803,1,8,0:2:0:0:
303,277,5968,1,2,3:1:0:0:
303,277,6050,1,0,3:2:0:0:
303,277,6133,54,0,P|287:224|308:117,1,160,6|10,0:1|0:2,0:0:0:0:
201,226,6627,2,0,P|203:170|195:125,1,80,2|0,0:2|2:2,0:0:0:0:
123,272,6957,2,0,P|120:232|124:192,1,80,2|8,0:2|0:2,0:0:0:0:
209,216,7287,54,0,P|211:160|203:115,1,80,2|0,0:1|2:2,0:0:0:0:
115,262,7616,2,0,P|113:206|121:161,1,80,2|8,0:1|0:2,0:0:0:0:
217,206,7946,54,0,P|219:150|211:105,1,80,2|0,0:1|0:0,0:0:0:0:
107,252,8276,2,0,P|105:196|113:151,1,80,2|8,0:1|0:2,0:0:0:0:
23,295,8605,53,2,0:2:0:0:
23,295,8688,1,0,2:2:0:0:
23,295,8770,2,0,P|25:239|17:194,1,80,2|0,0:2|0:2,0:0:0:0:
102,346,9100,1,8,0:2:0:0:
228,361,9265,2,0,P|226:305|234:260,1,80,2|0,0:1|2:2,0:0:0:0:
371,193,9594,53,2,0:2:0:0:
395,320,9759,1,10,0:2:0:0:
213,362,9924,2,0,P|211:306|219:261,1,80,6|0,0:2|0:0,0:0:0:0:
356,194,10254,53,2,0:1:0:0:
380,321,10419,1,10,0:2:0:0:
198,363,10583,2,0,P|196:307|204:262,1,80,6|0,0:2|0:0,0:0:0:0:
341,195,10913,53,2,0:1:0:0:
362,328,11078,1,2,3:1:0:0:
359,331,11160,1,0,3:2:0:0:
356,334,11243,1,10,3:2:0:0:
353,337,11325,1,0,3:2:0:0:
350,340,11408,38,0,P|311:343|246:333,1,71.9999978027344,6|0,0:0|0:0,0:0:0:0:
199,283,11737,2,0,P|160:280|95:290,2,71.9999978027344,0|0|0,1:0|0:0|1:0,0:0:0:0:
154,195,12232,2,0,P|115:198|50:188,1,71.9999978027344,0|0,0:0|1:0,0:0:0:0:
76,63,12561,54,0,P|101:105|166:49,1,143.999995605469,2|0,0:0|0:0,0:0:0:0:
168,65,13056,1,0,1:0:0:0:
240,151,13221,1,0,0:0:0:0:
345,83,13386,2,0,P|384:80|449:90,1,71.9999978027344,0|0,1:0|0:0,0:0:0:0:
492,145,13715,1,0,1:0:0:0:
492,145,13880,1,0,0:0:0:0:
395,222,14045,54,0,P|308:243|243:220,1,143.999995605469,2|0,1:2|1:0,0:0:0:0:
257,228,14540,1,0,0:0:0:0:
182,143,14704,1,0,1:0:0:0:
185,146,14869,1,0,0:0:0:0:
263,234,15034,1,0,1:0:0:0:
188,149,15199,54,0,P|100:129|36:153,1,143.999995605469,2|0,0:2|0:0,0:0:0:0:
50,144,15693,1,0,1:0:0:0:
86,252,15858,2,0,P|125:255|190:245,2,71.9999978027344,0|0|0,0:0|1:0|0:0,0:0:0:0:
140,338,16353,2,0,P|179:335|244:345,1,71.9999978027344,0|0,1:0|0:0,0:0:0:0:
351,369,16682,54,0,P|261:339|208:379,1,143.999995605469,2|0,1:2|1:0,0:0:0:0:
223,359,17177,1,0,0:0:0:0:
246,262,17342,2,0,P|285:259|350:269,1,71.9999978027344,0|0,1:0|0:0,0:0:0:0:
407,305,17671,1,0,1:0:0:0:
261,243,17836,54,0,P|300:240|365:250,1,71.9999978027344,2|0,0:0|1:0,0:0:0:0:
421,286,18166,1,0,0:0:0:0:
465,197,18331,1,0,1:0:0:0:
376,153,18496,2,0,L|304:153,2,71.9999978027344,0|0|0,0:0|1:0|0:0,0:0:0:0:
342,65,18990,2,0,L|270:65,1,71.9999978027344,0|0,1:0|0:0,0:0:0:0:
144,145,19320,54,0,P|175:92|215:138,1,143.999995605469,2|0,1:2|1:0,0:0:0:0:
215,138,19814,1,0,0:0:0:0:
258,248,19979,1,0,1:0:0:0:
261,251,20144,1,0,0:0:0:0:
144,145,20309,1,8,1:0:0:0:
189,304,20474,102,0,B|133:325|86:302|86:302|61:310|33:296,1,143.999995605469,4|0,0:0|0:0,0:0:0:0:
64,118,20968,1,8,1:0:0:0:
175,318,21133,54,0,B|119:339|72:316|72:316|47:324|19:310,1,143.999995605469,4|4,0:1|0:0,0:0:0:0:
50,132,21627,1,8,3:0:0:0:
49,127,21710,1,0,3:0:0:0:
48,123,21792,1,4,3:0:0:0:
48,119,21875,1,0,3:0:0:0:
47,115,21957,38,0,B|53:16|53:16|95:69,1,143.999995605469,6|0,1:0|0:0,0:0:0:0:
93,68,22287,37,8,0:0:0:0:
148,143,22452,1,0,0:0:0:0:
241,140,22616,2,0,B|248:99|248:99|237:51,1,71.9999978027344,0|0,1:0|1:0,0:0:0:0:
159,162,22946,1,8,0:0:0:0:
252,159,23111,54,0,B|266:91|266:91|242:7,1,143.999995605469,2|0,1:2|1:0,0:0:0:0:
338,73,23605,1,8,0:0:0:0:
356,155,23770,1,0,1:0:0:0:
253,230,23935,2,0,B|249:200|249:200|253:144,1,71.9999978027344,0|0,0:0|1:0,0:0:0:0:
352,238,24265,1,8,0:0:0:0:
260,307,24430,53,0,0:0:0:0:
257,304,24512,1,0,0:0:0:0:
254,301,24594,2,0,B|250:271|250:271|254:215,1,71.9999978027344,2|0,1:2|0:0,0:0:0:0:
351,158,24924,53,8,0:0:0:0:
352,238,25089,1,0,0:0:0:0:
252,150,25254,53,0,1:0:0:0:
252,229,25419,1,0,1:0:0:0:
351,158,25583,53,8,0:0:0:0:
351,302,25748,2,0,L|351:158,1,143.999995605469,2|0,1:2|1:0,0:0:0:0:
252,229,26243,53,8,0:0:0:0:
286,348,26408,1,0,1:0:0:0:
426,275,26572,1,0,0:0:0:0:
291,356,26737,1,0,1:0:0:0:
252,229,26902,2,0,L|252:126,1,71.9999978027344,8|0,0:0|0:0,0:0:0:0:
156,263,27232,54,0,L|156:119,1,143.999995605469,2|8,1:2|0:0,0:0:0:0:
156,119,27726,1,0,0:0:0:0:
69,224,27891,1,0,1:0:0:0:
79,319,28056,1,0,1:0:0:0:
52,200,28221,1,8,0:0:0:0:
171,289,28386,54,0,L|171:186,1,71.9999978027344,2|0,1:2|0:0,0:0:0:0:
249,156,28715,1,0,1:0:0:0:
305,256,28880,1,8,0:0:0:0:
373,169,29045,2,0,L|373:92,2,71.9999978027344,0|0|0,1:0|0:0|1:0,0:0:0:0:
471,216,29540,2,0,L|471:139,1,71.9999978027344,8|0,0:0|0:0,0:0:0:0:
353,190,29869,54,0,B|353:136|353:136|334:113|334:113|335:37,1,143.999995605469,2|8,1:2|0:0,0:0:0:0:
334,52,30364,1,0,0:0:0:0:
251,148,30529,1,0,1:0:0:0:
179,99,30693,1,0,1:0:0:0:
202,220,30858,1,8,0:0:0:0:
84,171,31023,54,0,P|66:106|92:19,1,143.999995605469,6|0,1:2|1:0,0:0:0:0:
84,171,31518,1,8,0:0:0:0:
186,106,31682,53,0,0:0:0:0:
186,106,31765,1,0,0:0:0:0:
186,106,31847,2,0,P|191:62|186:26,1,71.9999978027344,0|2,1:0|0:1,0:0:0:0:
241,169,32177,53,8,0:0:0:0:
307,91,32342,2,0,L|308:42,1,35.9999989013672,2|0,0:1|0:0,0:0:0:0:
307,55,32507,38,0,P|357:61|420:54,1,108.800000664063,4|0,1:1|1:0,0:0:0:0:
187,34,33166,2,0,P|237:40|300:33,1,108.800000664063,8|0,0:0|1:0,0:0:0:0:
348,118,33660,54,0,P|298:112|235:119,1,108.800000664063,0|8,1:0|0:0,0:0:0:0:
240,117,34155,1,0,0:0:0:0:
174,206,34320,1,0,1:0:0:0:
292,228,34485,2,0,P|242:234|179:227,1,108.800000664063,10|0,0:0|1:0,0:0:0:0:
109,161,34979,2,0,L|58:160,1,27.2000001660156,0|0,3:0|3:0,0:0:0:0:
39,138,35144,54,0,L|147:140,1,108.800000664063,2|0,1:2|1:0,0:0:0:0:
243,120,35638,1,0,1:0:0:0:
333,157,35803,2,0,L|387:158,1,54.4000003320313,8|0,0:0|0:0,0:0:0:0:
461,178,36133,1,0,1:0:0:0:
424,269,36298,54,0,B|368:257|368:257|297:273,1,108.800000664063,2|8,1:2|0:0,0:0:0:0:
317,268,36792,1,0,0:0:0:0:
281,358,36957,1,0,1:0:0:0:
188,375,37122,2,0,B|158:378|158:378|113:373,1,54.4000003320313,10|0,0:0|0:0,0:0:0:0:
79,291,37452,2,0,B|109:294|109:294|133:291,1,54.4000003320313,0|0,1:0|3:0,0:0:0:0:
143,287,37699,1,0,3:0:0:0:
152,281,37781,54,0,B|182:278|182:278|206:280,1,54.4000003320313,2|0,1:2|0:0,0:0:0:0:
281,358,38111,2,0,L|356:358,1,54.4000003320313,0|0,1:0|0:0,0:0:0:0:
419,294,38441,1,8,0:0:0:0:
356,367,38605,1,0,0:0:0:0:
440,303,38770,1,0,1:0:0:0:
326,255,38935,54,0,P|283:251|231:258,1,81.6000004980469,2|0,1:2|0:0,0:0:0:0:
215,229,39265,2,0,P|258:225|310:232,1,81.6000004980469,10|0,0:2|0:0,0:0:0:0:
326,203,39594,2,0,P|283:199|231:206,1,81.6000004980469,2|0,1:2|0:0,0:0:0:0:
215,177,39924,2,0,P|258:173|310:180,1,81.6000004980469,2|0,0:2|0:0,0:0:0:0:
334,172,40254,2,0,P|350:171|372:169,1,27.2000001660156,0|0,3:0|3:0,0:0:0:0:
391,147,40419,54,0,P|434:143|469:147,1,54.4000003320313,2|0,0:0|0:0,0:0:0:0:
512,185,40748,1,0,1:0:0:0:
509,107,40913,1,0,1:0:0:0:
443,223,41078,2,0,P|400:227|365:223,1,54.4000003320313,8|0,0:0|0:0,0:0:0:0:
496,296,41408,2,0,P|468:295|441:299,1,54.4000003320313,0|0,1:0|3:0,0:0:0:0:
293,368,41737,37,6,1:1:0:0:
243,166,41902,1,0,1:0:0:0:
443,223,42067,1,8,0:0:0:0:
267,266,42232,37,14,1:2:0:0:
242,273,42561,53,14,1:1:0:0:
217,280,42891,101,0,3:0:0:0:
214,283,42974,1,0,3:0:0:0:
211,286,43056,2,0,B|212:203|212:203|180:161,1,124.800004189453,4|8,1:0|0:0,0:0:0:0:
133,300,43550,2,0,L|136:238,1,62.4000020947266,0|0,0:0|1:0,0:0:0:0:
57,265,43880,1,0,1:0:0:0:
95,129,44045,1,8,0:0:0:0:
201,188,44210,54,0,P|214:130|205:61,1,124.800004189453,2|0,1:2|1:0,0:0:0:0:
297,175,44704,1,8,0:0:0:0:
363,105,44869,2,0,P|366:73|362:33,2,62.4000020947266,0|0|0,1:0|0:0|1:0,0:0:0:0:
300,178,45364,1,8,0:0:0:0:
300,178,45529,1,0,0:0:0:0:
385,244,45693,54,0,P|405:187|387:118,1,124.800004189453,2|8,1:2|0:0,0:0:0:0:
474,218,46188,2,0,P|479:178|473:143,1,62.4000020947266,0|0,0:0|1:0,0:0:0:0:
385,244,46518,1,0,1:0:0:0:
387,352,46682,1,8,0:0:0:0:
293,299,46847,54,0,B|283:241|283:241|299:177,1,124.800004189453,2|0,1:2|1:0,0:0:0:0:
385,244,47342,1,8,0:0:0:0:
285,280,47507,2,0,B|274:221|274:221|291:158,1,124.800004189453,2|0,1:2|1:0,0:0:0:0:
376,224,48001,1,8,0:0:0:0:
397,124,48166,1,0,0:0:0:0:
397,124,48248,1,0,0:0:0:0:
397,124,48331,54,0,B|402:85|402:85|396:46,1,62.4000020947266,4|0,1:0|0:0,0:0:0:0:
297,82,48660,1,8,0:0:0:0:
195,62,48825,2,0,B|190:23|190:23|196:-16,1,62.4000020947266,0|0,0:0|1:0,0:0:0:0:
111,8,49155,1,0,1:0:0:0:
54,112,49320,1,8,0:0:0:0:
155,173,49485,54,0,B|185:142|185:142|196:119|194:61,1,124.800004189453,4|0,1:0|1:0,0:0:0:0:
268,150,49979,1,8,0:0:0:0:
345,123,50144,2,0,L|344:56,1,62.4000020947266,2|0,1:2|0:0,0:0:0:0:
422,150,50474,2,0,L|421:83,1,62.4000020947266,0|10,1:0|0:0,0:0:0:0:
499,177,50803,1,0,0:0:0:0:
499,177,50886,1,0,0:0:0:0:
499,177,50968,54,0,L|496:22,1,124.800004189453,6|8,1:0|0:0,0:0:0:0:
422,150,51463,2,0,L|421:83,1,62.4000020947266,0|0,0:0|1:0,0:0:0:0:
345,177,51792,1,0,1:0:0:0:
281,61,51957,1,8,0:0:0:0:
165,143,52122,54,0,P|158:97|165:62,1,62.4000020947266,6|0,1:0|0:0,0:0:0:0:
271,46,52452,1,0,1:0:0:0:
175,158,52616,1,8,0:0:0:0:
255,27,52781,1,0,1:0:0:0:
185,173,52946,1,8,0:1:0:0:
39,103,53111,53,8,3:0:0:0:
36,100,53193,1,0,3:0:0:0:
33,97,53276,2,0,L|30:34,3,34.0000006484985,6|0|8|0,3:0|3:0|3:0|3:0,0:0:0:0:
86,9,53605,5,8,3:2:0:0:
74,194,53770,1,2,1:0:0:0:
255,35,53935,53,8,0:1:0:0:
173,238,54100,1,2,1:0:0:0:
390,107,54265,53,8,3:0:0:0:
390,123,54347,1,0,3:0:0:0:
390,140,54430,1,4,3:3:0:0:
390,156,54512,1,0,3:0:0:0:
390,172,54594,54,0,B|385:282|385:282|343:232,1,150,6|0,1:1|0:0,0:0:0:0:
338,241,54924,6,0,P|286:234|220:244,1,92.0000017547608,4|0,0:0|0:0,0:0:0:0:
113,278,55254,1,8,0:0:0:0:
72,145,55419,2,0,L|72:34,1,92.0000017547608,0|0,0:0|2:0,0:0:0:0:
243,0,55748,1,0,0:0:0:0:
150,102,55913,1,8,0:0:0:0:
318,107,56078,54,0,P|240:102|319:126,1,207.999990478516,2|0,0:1|0:0,0:0:0:0:
394,90,56572,1,8,0:0:0:0:
240,103,56737,54,0,P|311:29|394:90,1,223.999993164063,2|0,0:0|0:0,0:0:0:0:
326,230,57232,1,8,0:0:0:0:
240,103,57397,53,0,3:0:0:0:
236,100,57479,1,0,3:0:0:0:
233,97,57561,2,0,P|182:91|119:106,1,92.0000017547608,2|0,2:1|0:0,0:0:0:0:
70,234,57891,1,8,0:0:0:0:
7,147,58056,2,0,B|0:103|0:103|12:47,1,92.0000017547608,0|0,0:0|2:0,0:0:0:0:
142,97,58386,1,0,0:0:0:0:
70,234,58550,1,8,0:0:0:0:
254,196,58715,54,0,B|284:183|284:183|264:326|264:326|239:306,1,207.999990478516,2|0,0:0|0:0,0:0:0:0:
356,207,59210,1,8,0:0:0:0:
211,136,59375,54,0,B|280:103|280:103|341:115|373:161|355:206,1,223.999993164063,2|0,0:0|1:0,0:0:0:0:
355,206,59787,1,0,2:0:0:0:
355,206,59869,1,10,0:0:0:0:
328,348,60034,53,0,3:0:0:0:
328,348,60116,1,0,3:0:0:0:
328,348,60199,2,0,B|380:365|380:365|429:346,1,92.0000017547608,6|0,0:0|0:0,0:0:0:0:
512,267,60529,1,8,0:0:0:0:
364,215,60693,2,0,B|272:235|280:161|167:196,1,184.000003509522,2|0,0:1|0:0,0:0:0:0:
332,130,61188,1,8,0:0:0:0:
225,275,61353,1,2,0:2:0:0:
147,105,61518,53,0,2:0:0:0:
186,190,61682,1,0,0:0:0:0:
245,45,61847,2,0,B|285:19|285:19|290:70,1,92.0000017547608,8|2,0:0|0:1,0:0:0:0:
93,182,62177,53,0,2:0:0:0:
93,28,62342,1,0,0:0:0:0:
186,190,62507,2,0,L|182:304,1,92.0000017547608,8|0,0:0|2:0,0:0:0:0:
332,130,62836,54,0,L|336:244,1,92.0000017547608,6|0,0:0|0:0,0:0:0:0:
290,360,63166,1,8,0:0:0:0:
381,359,63331,2,0,P|334:367|280:357,1,92.0000017547608,0|0,0:0|2:0,0:0:0:0:
182,281,63660,2,0,P|188:326|180:371,1,92.0000017547608,0|8,0:0|0:0,0:0:0:0:
81,194,63990,54,0,B|32:165|32:165|46:303,1,184.000003509522,10|0,0:1|0:0,0:0:0:0:
180,371,64485,1,8,0:0:0:0:
161,161,64649,2,0,P|201:196|201:114,1,184.000003509522,6|0,0:2|0:0,0:0:0:0:
335,233,65144,37,8,3:1:0:0:
352,229,65226,1,0,3:0:0:0:
369,225,65309,1,8,3:0:0:0:
385,222,65391,1,0,3:0:0:0:
401,218,65474,70,0,B|453:211|453:211|509:221,1,92.0000017547608,4|0,1:0|0:0,0:0:0:0:
369,342,65803,1,8,0:0:0:0:
256,271,65968,2,0,P|250:222|259:160,1,92.0000017547608,0|0,0:0|2:0,0:0:0:0:
271,56,66298,1,0,0:0:0:0:
402,137,66463,1,8,0:0:0:0:
208,110,66627,54,0,B|169:142|174:193|174:193|145:108|77:107,1,207.999990478516,2|0,0:1|0:0,0:0:0:0:
122,284,67122,1,8,0:0:0:0:
254,179,67287,54,0,B|262:228|225:280|159:284|123:253|123:253|122:290,1,223.999993164063,2|2,0:0|0:2,0:0:0:0:
101,110,67781,1,10,0:0:0:0:
262,187,67946,53,0,3:0:0:0:
262,187,68029,1,0,3:0:0:0:
262,187,68111,2,0,P|311:190|377:179,1,92.0000017547608,2|0,0:0|0:0,0:0:0:0:
459,101,68441,1,8,0:0:0:0:
506,199,68605,2,0,B|513:243|513:243|501:299,1,92.0000017547608,0|0,0:0|2:0,0:0:0:0:
353,184,68935,1,0,0:0:0:0:
459,101,69100,1,8,0:0:0:0:
312,21,69265,54,0,B|270:8|212:6|173:31|173:31|200:22|228:26|256:36,1,207.999990478516,2|0,0:1|0:0,0:0:0:0:
59,154,69759,1,8,0:0:0:0:
208,120,69924,54,0,B|129:135|88:74|88:74|89:119|52:163,1,223.999993164063,2|0,0:0|0:0,0:0:0:0:
59,154,70336,1,0,2:0:0:0:
59,154,70419,1,10,0:0:0:0:
169,273,70583,53,0,3:0:0:0:
169,273,70666,1,0,3:0:0:0:
169,273,70748,2,0,P|214:277|272:272,1,92.0000017547608,6|0,0:0|0:0,0:0:0:0:
354,184,71078,1,8,0:0:0:0:
439,318,71243,2,0,B|470:363|470:363|477:203,1,184.000003509522,2|0,0:2|0:0,0:0:0:0:
342,329,71737,1,8,0:0:0:0:
354,184,71902,1,2,0:2:0:0:
252,372,72067,53,0,2:0:0:0:
260,273,72232,1,0,0:0:0:0:
143,344,72397,2,0,B|99:369|99:369|86:325,1,92.0000017547608,8|2,0:0|0:2,0:0:0:0:
157,166,72726,53,2,0:0:0:0:
260,273,72891,1,2,0:2:0:0:
94,235,73056,2,0,P|52:240|2:216,1,92.0000017547608,10|0,0:0|2:0,0:0:0:0:
66,55,73386,54,0,P|73:100|65:145,1,92.0000017547608,2|0,0:1|0:0,0:0:0:0:
154,26,73715,1,10,0:0:0:0:
240,96,73880,2,0,P|285:103|330:95,1,92.0000017547608,0|0,0:0|2:0,0:0:0:0:
443,17,74210,2,0,P|435:62|443:107,1,92.0000017547608,0|8,0:0|0:0,0:0:0:0:
512,257,74540,54,0,B|495:384|495:384|444:316,1,184.000003509522,10|0,0:0|0:0,0:0:0:0:
376,199,75034,1,8,0:0:0:0:
225,356,75199,2,0,P|309:342|260:385,1,184.000003509522,6|0,0:0|0:0,0:0:0:0:
195,218,75693,37,2,3:1:0:0:
181,215,75776,1,0,3:0:0:0:
164,211,75858,1,2,3:1:0:0:
148,208,75941,1,0,3:0:0:0:
132,204,76023,38,0,L|126:376,1,160,6|8,1:0|0:2,0:0:0:0:
42,245,76518,2,0,L|38:356,1,80,0|0,1:2|2:2,0:0:0:0:
44,165,76847,2,0,L|40:276,1,80,2|8,1:2|1:2,0:0:0:0:
135,114,77177,54,0,L|129:286,1,160,2|2,1:1|1:2,0:0:0:0:
226,165,77671,1,8,1:2:0:0:
345,208,77836,2,0,L|341:319,1,80,2|0,1:2|2:2,0:0:0:0:
457,247,78166,1,2,0:2:0:0:
426,97,78331,1,10,0:2:0:0:
345,208,78496,1,2,2:2:0:0:
265,65,78660,54,0,B|254:106|267:153|267:153|239:195|262:256,1,160,2|8,0:1|0:2,0:0:0:0:
178,94,79155,2,0,P|183:135|173:175,1,80,0|0,1:2|2:2,0:0:0:0:
106,49,79484,2,0,P|98:88|103:128,1,80,2|8,1:2|1:2,0:0:0:0:
33,8,79814,54,0,P|16:86|27:165,1,160,2|2,1:1|1:2,0:0:0:0:
169,258,80309,1,8,0:2:0:0:
27,330,80474,2,0,P|23:351|20:398,2,40,0|0|2,0:1|2:2|2:2,0:0:0:0:
101,217,80803,1,2,0:1:0:0:
237,299,80968,1,8,0:2:0:0:
349,227,81133,1,2,3:1:0:0:
349,227,81215,1,0,3:2:0:0:
349,227,81298,54,0,B|378:315|320:300|346:385,1,160,6|10,0:1|0:2,0:0:0:0:
428,235,81792,2,0,P|432:276|427:316,1,80,2|0,0:2|2:2,0:0:0:0:
509,186,82122,2,0,P|505:227|510:267,1,80,2|8,0:2|0:2,0:0:0:0:
422,210,82452,54,0,P|426:251|421:291,1,80,2|0,0:1|2:2,0:0:0:0:
503,161,82782,2,0,P|499:202|504:242,1,80,2|8,0:1|0:2,0:0:0:0:
416,185,83111,54,0,P|420:226|415:266,1,80,2|0,0:1|0:0,0:0:0:0:
497,136,83441,2,0,P|493:177|498:217,1,80,2|8,0:1|0:2,0:0:0:0:
341,225,83770,53,2,0:2:0:0:
338,228,83853,1,0,2:2:0:0:
335,231,83935,2,0,P|331:272|336:312,1,80,2|0,0:2|0:2,0:0:0:0:
255,198,84265,1,8,0:2:0:0:
176,276,84430,2,0,L|171:362,1,80,2|0,0:1|2:2,0:0:0:0:
60,281,84759,53,2,0:2:0:0:
102,146,84924,1,10,0:2:0:0:
187,283,85089,2,0,L|182:369,1,80,6|0,0:2|0:0,0:0:0:0:
71,288,85418,53,2,0:1:0:0:
113,153,85583,1,10,0:2:0:0:
198,290,85748,2,0,L|193:376,1,80,6|0,0:2|0:0,0:0:0:0:
82,295,86079,53,2,0:1:0:0:
124,160,86243,1,10,3:2:0:0:
151,160,86325,1,0,3:2:0:0:
179,160,86407,1,10,3:1:0:0:
207,160,86490,1,0,3:2:0:0:
237,179,86572,69,6,1:0:0:0:
256,192,86655,12,0,93166,0:0:0:0:
