osu file format v14

[General]
AudioFilename: audio.mp3
AudioLeadIn: 0
PreviewTime: 53564
Countdown: 0
SampleSet: Soft
StackLeniency: 0.3
Mode: 0
LetterboxInBreaks: 0
WidescreenStoryboard: 0

[Editor]
DistanceSpacing: 1.4
BeatDivisor: 4
GridSize: 32
TimelineZoom: 1.7

[Metadata]
Title:Hoshitachi no Melody
TitleUnicode:星達のメロディ
Artist:yuikonnu
ArtistUnicode:ゆいこんぬ
Creator:Lasse
Version:Hard
Source:crossbeats REV.
Tags:CROSS×BEATS CAPCOM Meis Clauson
BeatmapID:978614
BeatmapSetID:455756

[Difficulty]
HPDrainRate:5
CircleSize:3.8
OverallDifficulty:6.5
ApproachRate:7.8
SliderMultiplier:1.36
SliderTickRate:1

[Events]
//Background and Video events
0,0,"bg.jpg",0,0
//Break Periods
//Storyboard Layer 0 (Background)
//Storyboard Layer 1 (Fail)
//Storyboard Layer 2 (Pass)
//Storyboard Layer 3 (Foreground)
//Storyboard Sound Samples

[TimingPoints]
-460,329.67032967033,4,2,1,50,1,0
858,-100,4,2,1,70,0,0
11408,-111.111111111111,4,2,1,60,0,0
20308,-111.111111111111,4,2,1,70,0,0
20968,-111.111111111111,4,2,1,75,0,0
21957,-111.111111111111,4,2,2,70,0,0
22287,-111.111111111111,4,2,1,70,0,0
32507,-125,4,2,1,60,0,0
43056,-125,4,2,1,65,0,0
46847,-125,4,2,1,68,0,0
50968,-125,4,2,1,70,0,0
53276,-125,4,2,1,73,0,0
53935,-125,4,2,1,75,0,0
54594,-80,4,2,2,82,0,0
54842,-80,4,2,2,5,0,0
54924,-90.9090909090909,4,1,1,85,0,1
56243,-90.9090909090909,4,1,1,50,0,1
56408,-90.9090909090909,4,1,1,85,0,1
56737,-90.9090909090909,4,1,2,85,0,1
56902,-90.9090909090909,4,1,1,85,0,1
58221,-90.9090909090909,4,1,1,50,0,1
58386,-90.9090909090909,4,1,1,85,0,1
59375,-90.9090909090909,4,1,2,85,0,1
59540,-90.9090909090909,4,1,1,85,0,1
60858,-90.9090909090909,4,1,1,50,0,1
61023,-90.9090909090909,4,1,1,85,0,1
63496,-90.9090909090909,4,1,1,50,0,1
63660,-90.9090909090909,4,1,1,85,0,1
63990,-90.9090909090909,4,1,2,85,0,1
64155,-90.9090909090909,4,1,1,85,0,1
65309,-90.9090909090909,4,1,1,85,0,0
65474,-90.9090909090909,4,2,2,85,0,1
65638,-90.9090909090909,4,1,1,85,0,1
66792,-90.9090909090909,4,1,1,50,0,1
66957,-90.9090909090909,4,1,1,85,0,1
67287,-90.9090909090909,4,1,2,85,0,1
67452,-90.9090909090909,4,1,1,85,0,1
68770,-90.9090909090909,4,1,1,50,0,1
68935,-90.9090909090909,4,1,1,85,0,1
69924,-90.9090909090909,4,1,2,85,0,1
70089,-90.9090909090909,4,1,1,85,0,1
71408,-90.9090909090909,4,1,1,50,0,1
71572,-90.9090909090909,4,1,1,85,0,1
74045,-90.9090909090909,4,1,1,50,0,1
74210,-90.9090909090909,4,1,1,85,0,1
74540,-90.9090909090909,4,1,2,85,0,1
74705,-90.9090909090909,4,1,1,85,0,1
76023,-100,4,2,1,70,0,0
86572,-100,4,2,2,75,0,0
86655,-100,4,2,2,65,0,0
87232,-100,4,2,2,55,0,0
87891,-100,4,2,2,45,0,0
88550,-100,4,2,2,35,0,0
89210,-100,4,2,2,25,0,0
89869,-100,4,2,2,15,0,0
90529,-100,4,2,2,10,0,0
91847,-100,4,2,2,7,0,0
93166,-100,4,2,1,5,0,0

[Colours]
Combo1 : 255,32,160
Combo2 : 201,170,253
Combo3 : 210,210,210
Combo4 : 135,181,250
Combo5 : 254,44,97
Combo6 : 255,140,181
Combo7 : 150,150,150
Combo8 : 250,171,118

[HitObjects]
59,120,529,118,0,L|59:159,3,34,2|0|0|0,0:0|0:0|0:2|0:0,0:0:0:0:
78,182,858,38,0,B|80:289|80:289|100:264,1,136,6|8,1:1|1:2,0:0:0:0:
170,203,1353,2,0,P|215:199|252:208,1,68,0|0,1:2|2:2,0:0:0:0:
326,231,1682,2,0,P|360:236|394:232,1,68,2|8,1:2|1:2,0:0:0:0:
488,180,2012,54,0,B|510:229|493:270|493:270|517:300|508:336,1,136,2|2,1:1|1:2,0:0:0:0:
417,333,2507,1,8,1:2:0:0:
324,314,2671,2,0,B|251:304|268:348|189:327,1,136,2|2,1:2|0:2,0:0:0:0:
103,293,3166,1,10,0:2:0:0:
100,296,3331,1,2,2:2:0:0:
8,359,3496,54,0,P|-12:287|17:223,1,136,2|8,0:1|0:2,0:0:0:0:
99,199,3990,2,0,L|175:204,1,68,2|0,0:2|2:2,0:0:0:0:
128,115,4320,2,0,L|52:110,1,68,2|8,0:2|0:2,0:0:0:0:
20,4,4649,54,0,B|45:22|45:22|149:29,1,136,2|2,0:1|0:2,0:0:0:0:
221,90,5144,1,8,0:2:0:0:
310,56,5309,2,0,L|313:3,2,34,2|0|2,1:2|2:2|2:2,0:0:0:0:
383,116,5638,1,2,0:1:0:0:
367,209,5803,2,0,P|366:247|376:284,1,68,8|2,0:2|3:1,0:0:0:0:
380,292,6050,1,0,3:2:0:0:
386,307,6133,54,0,B|324:339|324:339|259:302,1,136,6|10,0:1|0:2,0:0:0:0:
195,243,6627,2,0,L|121:259,1,68,2|0,0:2|2:2,0:0:0:0:
37,228,6957,2,0,L|111:244,1,68,2|8,0:2|0:2,0:0:0:0:
199,280,7287,54,0,L|125:296,1,68,2|0,0:1|2:2,0:0:0:0:
41,265,7616,2,0,L|115:281,1,68,2|8,0:1|0:2,0:0:0:0:
203,317,7946,54,0,L|136:331,1,68,2|0,0:1|0:0,0:0:0:0:
45,302,8276,2,0,L|111:316,1,68,2|8,0:1|0:2,0:0:0:0:
176,224,8605,53,2,0:2:0:0:
176,224,8688,1,0,2:2:0:0:
176,224,8770,2,0,L|242:209,2,68,2|0|8,0:2|0:2|0:2,0:0:0:0:
81,206,9265,2,0,L|15:191,1,68,2|0,0:1|2:2,0:0:0:0:
11,86,9594,53,2,0:2:0:0:
11,86,9759,1,10,0:2:0:0:
97,45,9924,2,0,P|143:40|176:48,1,68,6|0,0:2|0:0,0:0:0:0:
239,137,10254,53,2,0:1:0:0:
239,137,10419,1,10,0:2:0:0:
325,178,10583,2,0,P|371:183|404:175,1,68,6|0,0:2|0:0,0:0:0:0:
491,126,10913,53,2,0:1:0:0:
499,220,11078,2,0,L|499:264,3,34,2|0|10|0,3:1|3:2|3:2|3:2,0:0:0:0:
479,277,11408,102,0,B|423:283|392:260|392:260|344:272,1,122.399996264649,6|0,0:0|1:0,0:0:0:0:
361,267,11902,1,0,0:0:0:0:
277,299,12067,2,0,L|276:366,2,61.1999981323243,0|0|0,1:0|0:0|1:0,0:0:0:0:
237,184,12561,54,0,L|237:52,1,122.399996264649,2|0,0:0|0:0,0:0:0:0:
165,19,13056,1,0,1:0:0:0:
165,19,13221,1,0,0:0:0:0:
87,61,13386,2,0,L|87:193,1,122.399996264649,0|0,1:0|1:0,0:0:0:0:
265,247,14045,54,0,B|336:263|322:221|401:234,1,122.399996264649,2|0,1:2|1:0,0:0:0:0:
384,231,14540,1,0,0:0:0:0:
372,315,14704,2,0,P|339:329|301:333,2,61.1999981323243,0|0|0,1:0|0:0|1:0,0:0:0:0:
468,243,15199,54,0,B|474:205|462:163|462:163|429:170|408:140,1,122.399996264649,2|0,0:2|0:0,0:0:0:0:
366,90,15693,1,0,1:0:0:0:
451,74,15858,2,0,L|530:49,2,61.1999981323243,0|0|0,0:0|1:0|0:0,0:0:0:0:
422,155,16353,2,0,L|343:180,1,61.1999981323243,0|0,1:0|0:0,0:0:0:0:
260,124,16682,54,0,P|287:177|260:237,1,122.399996264649,2|0,1:2|1:0,0:0:0:0:
265,232,17177,1,0,0:0:0:0:
212,299,17342,2,0,L|215:368,2,61.1999981323243,0|0|0,1:0|0:0|1:0,0:0:0:0:
145,246,17836,54,0,L|60:241,1,61.1999981323243,2|0,0:0|1:0,0:0:0:0:
7,283,18166,1,0,0:0:0:0:
10,286,18331,1,0,1:0:0:0:
10,197,18496,2,0,B|6:133,2,61.1999981323243,0|0|0,0:0|1:0|0:0,0:0:0:0:
86,157,18990,2,0,L|147:160,1,61.1999981323243,0|0,1:0|0:0,0:0:0:0:
238,209,19320,54,0,B|195:165|195:165|238:121,1,122.399996264649,2|0,1:2|1:0,0:0:0:0:
238,121,19814,1,0,0:0:0:0:
316,86,19979,2,0,P|344:84|383:89,2,61.1999981323243,0|0|8,1:0|0:0|1:0,0:0:0:0:
348,192,20474,38,0,B|363:241|352:283|352:283|366:275|390:277,1,122.399996264649,4|0,0:0|0:0,0:0:0:0:
472,286,20968,1,8,1:0:0:0:
479,131,21133,54,2,B|475:40|475:40|451:60,1,122.399996264649,6|6,0:1|0:0,0:0:0:0:
376,87,21627,2,0,L|333:88,3,30.5999990661621,8|0|4|0,3:0|3:0|3:0|3:0,0:0:0:0:
318,77,21957,86,0,P|263:66|186:78,1,122.399996264649,4|8,1:0|0:0,0:0:0:0:
197,74,22452,1,0,0:0:0:0:
144,141,22616,2,0,L|138:224,1,61.1999981323243,0|0,1:0|1:0,0:0:0:0:
101,279,22946,1,8,0:0:0:0:
3,238,23111,54,0,L|11:115,1,122.399996264649,2|0,1:2|1:0,0:0:0:0:
57,44,23605,2,0,P|89:39|137:45,1,61.1999981323243,8|0,0:0|1:0,0:0:0:0:
197,74,23935,2,0,P|229:79|277:73,1,61.1999981323243,0|0,0:0|1:0,0:0:0:0:
338,45,24265,2,0,P|370:40|418:46,1,61.1999981323243,8|0,0:0|0:0,0:0:0:0:
417,47,24512,1,0,0:0:0:0:
433,54,24594,54,0,B|454:89|452:115|452:115|431:138|434:183,1,122.399996264649,2|8,1:2|0:0,0:0:0:0:
433,168,25089,1,0,0:0:0:0:
465,256,25254,2,0,P|428:259|390:248,1,61.1999981323243,0|0,1:0|1:0,0:0:0:0:
347,180,25583,1,8,0:0:0:0:
267,248,25748,54,0,B|203:264|209:219|142:235,1,122.399996264649,2|0,1:2|1:0,0:0:0:0:
73,272,26243,2,0,L|-7:252,2,61.1999981323243,8|0|0,0:0|1:0|0:0,0:0:0:0:
91,355,26737,1,0,1:0:0:0:
170,326,26902,2,0,L|250:346,1,61.1999981323243,8|0,0:0|0:0,0:0:0:0:
331,379,27232,54,0,B|326:354|309:336|309:336|342:317|349:265,1,122.399996264649,2|8,1:2|0:0,0:0:0:0:
347,275,27726,1,0,0:0:0:0:
261,260,27891,2,0,L|201:245,1,61.1999981323243,0|0,1:0|1:0,0:0:0:0:
154,172,28221,1,8,0:0:0:0:
244,115,28386,54,0,B|314:132|314:132|333:110|362:104,1,122.399996264649,2|0,1:2|1:0,0:0:0:0:
438,129,28880,1,8,0:0:0:0:
377,188,29045,2,0,L|380:251,2,61.1999981323243,0|0|0,1:0|0:0|1:0,0:0:0:0:
355,105,29540,2,0,L|352:43,1,61.1999981323243,8|0,0:0|0:0,0:0:0:0:
255,3,29869,54,0,B|243:28|242:46|242:46|196:63|148:32,1,122.399996264649,2|8,1:2|0:0,0:0:0:0:
166,42,30364,1,0,0:0:0:0:
87,25,30529,2,0,P|45:21|10:26,1,61.1999981323243,0|0,1:0|1:0,0:0:0:0:
2,105,30858,1,8,0:0:0:0:
75,181,31023,54,0,B|97:195|123:196|123:196|159:178|192:190,1,122.399996264649,6|0,1:2|1:0,0:0:0:0:
253,251,31518,2,0,L|277:313,1,61.1999981323243,8|0,0:0|0:0,0:0:0:0:
184,325,31847,2,0,L|166:267,1,61.1999981323243,0|2,1:0|0:1,0:0:0:0:
192,190,32177,2,0,L|192:135,3,30.5999990661621,8|0|2|0,0:0|0:0|0:1|0:0,0:0:0:0:
193,121,32507,102,0,P|250:128|316:119,1,108.8,4|0,1:1|1:0,0:0:0:0:
415,59,33166,1,8,0:0:0:0:
413,191,33496,1,0,1:0:0:0:
413,191,33660,2,0,B|409:237|409:237|394:260|394:260|389:306,1,108.8,0|8,1:0|0:0,0:0:0:0:
267,339,34320,1,0,1:0:0:0:
209,281,34485,2,0,P|154:272|81:286,1,108.8,10|0,0:0|1:0,0:0:0:0:
22,142,35144,54,0,P|75:148|129:139,1,108.8,2|0,1:2|1:0,0:0:0:0:
129,139,35638,1,0,1:0:0:0:
192,87,35803,1,8,0:0:0:0:
303,155,36133,1,0,1:0:0:0:
306,158,36298,2,0,P|323:89|317:47,1,108.8,2|8,1:2|0:0,0:0:0:0:
192,87,36957,1,0,1:0:0:0:
129,34,37122,2,0,P|75:25|22:32,1,108.8,10|0,0:0|1:0,0:0:0:0:
21,32,37616,1,0,3:0:0:0:
2,114,37781,54,0,B|-8:155|-8:155|1:178|1:178|-8:205|-2:225,1,108.8,2|0,1:2|1:0,0:0:0:0:
67,329,38441,1,8,0:0:0:0:
162,240,38770,1,0,1:0:0:0:
165,243,38935,2,0,B|219:230|217:262|276:244,1,108.8,2|10,1:2|0:2,0:0:0:0:
339,133,39594,1,2,1:2:0:0:
396,192,39759,2,0,B|414:229|394:270|394:270|396:303,1,108.8,8|0,0:0|0:0,0:0:0:0:
395,297,40254,1,0,3:0:0:0:
486,332,40419,54,0,P|491:295|486:265,1,54.4,2|0,0:0|0:0,0:0:0:0:
476,197,40748,2,0,P|471:170|472:143,1,54.4,0|0,1:0|1:0,0:0:0:0:
508,68,41078,2,0,B|477:53|434:69|434:69|403:54,1,108.8,8|0,0:0|1:0,0:0:0:0:
404,54,41572,1,0,3:0:0:0:
319,16,41737,102,0,P|290:10|246:17,2,54.4,6|0|8,1:1|1:0|0:0,0:0:0:0:
285,111,42232,1,14,1:2:0:0:
123,29,42561,2,0,B|106:62|106:62|106:137,1,108.8,14|0,1:1|3:0,0:0:0:0:
114,148,42974,1,0,3:0:0:0:
120,162,43056,86,0,B|133:202|133:202|115:235|125:279,1,108.8,4|8,1:0|0:0,0:0:0:0:
167,334,43550,2,0,P|198:336|231:330,1,54.4,0|0,0:0|1:0,0:0:0:0:
291,291,43880,1,0,1:0:0:0:
294,294,44045,1,8,0:0:0:0:
367,353,44210,54,0,B|425:361|425:361|491:348,1,108.8,2|0,1:2|1:0,0:0:0:0:
497,273,44704,1,8,0:0:0:0:
478,193,44869,2,0,L|479:113,2,54.4,0|0|0,1:0|0:0|1:0,0:0:0:0:
419,250,45364,2,0,B|402:254|402:254|353:250,1,54.4,8|0,0:0|0:0,0:0:0:0:
290,195,45693,54,0,L|233:197,1,54.4,2|0,1:2|0:0,0:0:0:0:
159,227,46023,1,8,0:0:0:0:
156,230,46188,2,0,B|102:236|102:236|37:228,1,108.8,0|0,0:0|1:0,0:0:0:0:
11,162,46682,1,8,0:0:0:0:
92,107,46847,54,2,B|146:101|146:101|211:109,1,108.8,2|2,1:2|1:0,0:0:0:0:
273,144,47342,1,8,0:0:0:0:
276,147,47507,2,0,B|330:153|330:153|384:147,1,108.8,2|0,1:2|1:0,0:0:0:0:
465,118,48001,2,0,P|468:158|459:194,1,54.4,8|0,0:0|0:0,0:0:0:0:
463,185,48248,1,0,0:0:0:0:
461,198,48331,54,0,B|456:249|456:249|429:263|422:299,1,108.8,4|8,1:0|0:0,0:0:0:0:
378,356,48825,2,0,P|348:359|301:349,1,54.4,0|0,0:0|1:0,0:0:0:0:
252,382,49155,2,0,P|248:355|251:328,1,54.4,0|8,1:0|0:0,0:0:0:0:
308,238,49485,54,0,P|256:252|205:236,1,108.8,4|0,1:0|1:0,0:0:0:0:
142,173,49979,1,8,0:0:0:0:
139,176,50144,2,0,P|117:225|127:278,1,108.8,2|0,1:2|1:0,0:0:0:0:
196,324,50638,2,0,L|270:329,1,54.4,10|0,0:0|0:0,0:0:0:0:
263,332,50886,1,0,0:0:0:0:
274,339,50968,54,0,B|317:348|317:348|337:335|337:335|365:339|397:336,1,108.8,6|8,1:0|0:0,0:0:0:0:
458,319,51463,2,0,P|462:289|459:256,1,54.4,0|0,0:0|1:0,0:0:0:0:
421,193,51792,1,0,1:0:0:0:
418,196,51957,1,8,0:0:0:0:
342,254,52122,54,0,B|280:268|289:245|235:252,1,108.8,6|0,1:0|1:0,0:0:0:0:
159,284,52616,1,8,0:0:0:0:
84,253,52781,1,0,1:0:0:0:
50,178,52946,2,0,P|51:148|58:120,1,54.4,8|8,0:1|3:0,0:0:0:0:
68,109,53193,1,0,3:0:0:0:
84,99,53276,2,0,L|152:100,1,54.4,4|8,3:0|3:0,0:0:0:0:
212,17,53605,6,0,L|280:16,1,54.4,8|2,3:2|1:0,0:0:0:0:
359,22,53935,1,8,0:1:0:0:
363,115,54100,1,2,1:0:0:0:
455,120,54265,2,0,P|458:141|457:165,3,27.2,8|0|4|0,3:0|3:0|3:3|3:0,0:0:0:0:
441,178,54594,54,0,B|441:271|441:271|391:224,1,127.5,6|0,1:1|0:0,0:0:0:0:
385,228,54924,6,0,L|307:228,1,74.8000022827149,4|0,0:0|0:0,0:0:0:0:
247,121,55254,1,8,0:0:0:0:
196,186,55419,2,0,P|190:223|196:260,1,74.8000022827149,0|0,0:0|2:0,0:0:0:0:
310,301,55748,2,0,P|315:255|310:228,1,74.8000022827149,0|8,0:0|0:0,0:0:0:0:
233,337,56078,54,0,B|185:360|139:325|139:325|97:342|137:368,1,149.60000456543,2|0,0:1|0:0,0:0:0:0:
196,260,56572,1,8,0:0:0:0:
76,212,56737,2,0,B|42:209|11:241|11:241|36:273|77:274,1,149.60000456543,2|0,0:0|0:0,0:0:0:0:
151,197,57232,2,0,B|173:182|173:182|248:186,1,74.8000022827149,8|0,0:0|3:0,0:0:0:0:
238,191,57479,1,0,3:0:0:0:
255,197,57561,54,0,P|297:205|332:195,1,74.8000022827149,2|0,2:1|0:0,0:0:0:0:
411,121,57891,1,8,0:0:0:0:
476,183,58056,2,0,P|482:230|471:284,1,74.8000022827149,0|0,0:0|2:0,0:0:0:0:
391,328,58386,2,0,L|316:331,1,74.8000022827149,0|8,0:0|0:0,0:0:0:0:
327,197,58715,54,0,B|329:94|329:94|319:124|292:143,1,149.60000456543,2|0,0:0|0:0,0:0:0:0:
181,168,59210,1,8,0:0:0:0:
161,41,59375,2,0,B|215:31|273:44|273:44|262:55|256:77,1,149.60000456543,2|0,0:0|1:0,0:0:0:0:
128,112,59869,2,0,B|84:113|84:113|25:125,1,74.8000022827149,10|0,0:0|3:0,0:0:0:0:
40,132,60116,1,0,3:0:0:0:
35,150,60199,54,0,P|30:192|36:240,1,74.8000022827149,6|0,0:0|0:0,0:0:0:0:
112,303,60529,1,8,0:0:0:0:
183,249,60693,2,0,B|235:246|235:246|275:264|275:264|353:262,1,149.60000456543,2|0,0:1|0:0,0:0:0:0:
428,209,61188,1,8,0:0:0:0:
480,283,61353,54,0,L|479:361,2,74.8000022827149,2|0|0,0:2|2:0|0:0,0:0:0:0:
502,157,61847,2,0,L|503:79,1,74.8000022827149,8|2,0:0|0:1,0:0:0:0:
424,20,62177,1,0,2:0:0:0:
361,73,62342,1,0,0:0:0:0:
284,38,62507,2,0,P|247:35|210:38,1,74.8000022827149,8|0,0:0|2:0,0:0:0:0:
105,91,62836,54,0,P|107:53|104:16,1,74.8000022827149,6|0,0:0|0:0,0:0:0:0:
181,113,63166,1,8,0:0:0:0:
83,166,63331,2,0,P|80:203|83:240,1,74.8000022827149,0|0,0:0|2:0,0:0:0:0:
122,337,63660,2,0,P|84:334|47:337,1,74.8000022827149,0|8,0:0|0:0,0:0:0:0:
159,267,63990,54,0,B|211:285|247:250|247:250|278:281|252:306,1,149.60000456543,10|0,0:1|0:0,0:0:0:0:
191,193,64485,1,8,0:0:0:0:
309,181,64649,2,0,B|329:194|349:228|356:270|356:270|357:240|377:217,1,149.60000456543,6|0,0:2|0:0,0:0:0:0:
487,284,65144,2,0,P|491:310|490:339,3,37.4000011413575,8|0|8|0,3:1|3:0|3:0|3:0,0:0:0:0:
490,355,65474,54,0,B|457:365|457:365|412:365,1,74.8000022827149,4|0,1:0|0:0,0:0:0:0:
357,270,65803,1,8,0:0:0:0:
288,316,65968,2,0,P|256:321|188:312,1,74.8000022827149,0|0,0:0|2:0,0:0:0:0:
120,271,66298,2,0,P|122:308|117:345,1,74.8000022827149,0|8,0:0|0:0,0:0:0:0:
195,242,66627,54,0,B|193:133|193:133|159:186,1,149.60000456543,2|0,0:1|0:0,0:0:0:0:
120,271,67122,1,8,0:0:0:0:
80,150,67287,2,0,B|82:41|82:41|103:75,1,149.60000456543,2|2,0:0|0:2,0:0:0:0:
171,167,67781,2,0,P|222:170|268:166,1,74.8000022827149,10|0,0:0|3:0,0:0:0:0:
263,164,68029,1,0,3:0:0:0:
279,154,68111,54,0,L|279:52,1,74.8000022827149,2|0,0:0|0:0,0:0:0:0:
365,4,68441,1,8,0:0:0:0:
439,45,68605,2,0,L|439:147,1,74.8000022827149,0|0,0:0|2:0,0:0:0:0:
469,220,68935,2,0,P|432:211|394:217,1,74.8000022827149,0|8,0:0|0:0,0:0:0:0:
349,341,69265,54,0,P|313:281|245:298,1,149.60000456543,2|0,0:1|0:0,0:0:0:0:
322,206,69759,1,8,0:0:0:0:
418,286,69924,2,0,B|433:312|432:355|421:380|421:380|467:363|474:319,1,149.60000456543,2|0,0:0|0:0,0:0:0:0:
505,251,70419,2,0,L|502:157,1,74.8000022827149,10|0,0:0|3:0,0:0:0:0:
495,158,70666,1,0,3:0:0:0:
482,144,70748,54,0,B|445:137|445:137|405:144,1,74.8000022827149,6|0,0:0|0:0,0:0:0:0:
300,176,71078,1,8,0:0:0:0:
262,86,71243,2,0,B|185:58|179:114|93:75,1,149.60000456543,2|0,0:2|0:0,0:0:0:0:
30,6,71737,1,8,0:0:0:0:
10,115,71902,54,0,L|9:193,1,74.8000022827149,2|0,0:2|2:0,0:0:0:0:
31,270,72232,1,0,0:0:0:0:
110,190,72397,2,0,P|142:187|198:194,1,74.8000022827149,8|2,0:0|0:2,0:0:0:0:
253,270,72726,1,2,0:0:0:0:
324,229,72891,1,2,0:2:0:0:
396,268,73056,2,0,P|433:271|470:268,1,74.8000022827149,10|0,0:0|2:0,0:0:0:0:
507,161,73386,54,0,B|515:126|515:126|506:82,1,74.8000022827149,2|0,0:1|0:0,0:0:0:0:
419,18,73715,1,10,0:0:0:0:
362,77,73880,2,0,B|323:84|323:84|288:76,1,74.8000022827149,0|0,0:0|2:0,0:0:0:0:
200,25,74210,2,0,B|207:63|207:63|199:98,1,74.8000022827149,0|8,0:0|0:0,0:0:0:0:
116,211,74540,54,0,P|178:180|205:249,1,149.60000456543,10|0,0:0|0:0,0:0:0:0:
199,98,75034,1,8,0:0:0:0:
71,132,75199,2,0,P|30:197|47:264,1,149.60000456543,6|0,0:0|0:0,0:0:0:0:
124,333,75693,2,0,P|139:337|171:339,3,37.4000011413575,2|0|2|0,3:1|3:0|3:1|3:0,0:0:0:0:
192,357,76023,22,0,B|213:366|241:358|241:358|270:340|270:340|301:348|343:338,1,136,6|8,1:0|0:2,0:0:0:0:
394,279,76518,2,0,P|398:239|393:196,1,68,0|0,1:2|2:2,0:0:0:0:
301,197,76847,2,0,P|297:237|302:280,1,68,2|8,1:2|1:2,0:0:0:0:
213,184,77177,54,0,B|167:154|107:168|107:168|133:198,1,136,2|2,1:1|1:2,0:0:0:0:
78,83,77671,1,8,1:2:0:0:
162,39,77836,2,0,B|234:29|234:29|303:49,1,136,2|2,1:2|0:2,0:0:0:0:
382,101,78331,1,10,0:2:0:0:
382,101,78496,1,2,2:2:0:0:
472,65,78660,54,0,B|487:112|462:160|462:160|434:171|427:186,1,136,2|8,0:1|0:2,0:0:0:0:
378,258,79155,2,0,P|411:256|444:264,1,68,2|0,0:2|2:2,0:0:0:0:
399,348,79485,2,0,P|365:349|332:341,1,68,2|8,0:2|0:2,0:0:0:0:
283,259,79814,54,0,P|214:227|171:274,1,136,2|2,0:1|0:2,0:0:0:0:
130,345,80309,1,8,0:2:0:0:
36,327,80474,2,0,L|0:353,2,34,0|0|2,0:1|2:2|2:2,0:0:0:0:
24,232,80803,1,2,0:1:0:0:
110,192,80968,2,0,P|120:143|114:100,1,68,8|2,0:2|3:1,0:0:0:0:
117,108,81215,1,0,3:2:0:0:
111,91,81298,54,0,B|174:57|174:57|238:96,1,136,6|10,0:1|0:2,0:0:0:0:
307,155,81792,2,0,L|381:171,1,68,2|0,0:2|2:2,0:0:0:0:
465,140,82122,2,0,L|391:156,1,68,2|8,0:2|0:2,0:0:0:0:
303,192,82452,54,0,L|377:208,1,68,2|0,0:1|2:2,0:0:0:0:
461,177,82781,2,0,L|387:193,1,68,2|8,0:1|0:2,0:0:0:0:
299,229,83111,54,0,L|366:243,1,68,2|0,0:1|0:0,0:0:0:0:
457,214,83441,2,0,L|391:228,1,68,2|8,0:1|0:2,0:0:0:0:
326,136,83770,53,2,0:2:0:0:
326,136,83853,1,0,2:2:0:0:
326,136,83935,2,0,L|260:121,2,68,2|0|8,0:2|0:2|0:2,0:0:0:0:
420,117,84430,2,0,L|486:102,1,68,2|0,0:1|2:2,0:0:0:0:
460,217,84759,53,2,0:2:0:0:
460,217,84924,1,10,0:2:0:0:
374,258,85089,2,0,P|328:263|295:255,1,68,6|0,0:2|0:0,0:0:0:0:
219,188,85419,53,2,0:1:0:0:
219,188,85583,1,10,0:2:0:0:
133,229,85748,2,0,P|87:234|54:226,1,68,6|0,0:2|0:0,0:0:0:0:
37,117,86078,53,2,0:1:0:0:
125,41,86243,2,0,L|160:40,3,34,10|0|10|0,3:2|3:2|3:1|3:2,0:0:0:0:
195,62,86572,69,6,1:0:0:0:
256,192,86655,12,0,93166,0:0:0:0:
