osu file format v14

[General]
AudioFilename: audio.mp3
AudioLeadIn: 0
PreviewTime: 53564
Countdown: 0
SampleSet: Soft
StackLeniency: 0.3
Mode: 0
LetterboxInBreaks: 0
WidescreenStoryboard: 0

[Editor]
DistanceSpacing: 1.1
BeatDivisor: 4
GridSize: 32
TimelineZoom: 1.7

[Metadata]
Title:Hoshitachi no Melody
TitleUnicode:星達のメロディ
Artist:yuikonnu
ArtistUnicode:ゆいこんぬ
Creator:Lasse
Version:Easy
Source:crossbeats REV.
Tags:CROSS×BEATS CAPCOM Meis Clauson
BeatmapID:977499
BeatmapSetID:455756

[Difficulty]
HPDrainRate:2.5
CircleSize:3
OverallDifficulty:2.5
ApproachRate:3.5
SliderMultiplier:0.919999999999999
SliderTickRate:1

[Events]
//Background and Video events
0,0,"bg.jpg",0,0
//Break Periods
//Storyboard Layer 0 (Background)
//Storyboard Layer 1 (Fail)
//Storyboard Layer 2 (Pass)
//Storyboard Layer 3 (Foreground)
//Storyboard Sound Samples

[TimingPoints]
-460,329.67032967033,4,2,1,50,1,0
858,-100,4,2,1,70,0,0
11408,-100,4,2,1,60,0,0
20308,-100,4,2,1,70,0,0
20968,-100,4,2,1,75,0,0
21957,-100,4,2,2,70,0,0
22287,-100,4,2,1,70,0,0
32507,-100,4,2,1,60,0,0
43056,-100,4,2,1,65,0,0
46847,-100,4,2,1,68,0,0
50968,-100,4,2,1,70,0,0
53276,-100,4,2,1,73,0,0
53935,-100,4,2,1,75,0,0
54594,-100,4,2,2,82,0,0
54924,-100,4,1,1,85,0,1
56243,-100,4,1,1,50,0,1
56408,-100,4,1,1,85,0,1
56737,-100,4,1,2,85,0,1
56902,-100,4,1,1,85,0,1
58221,-100,4,1,1,50,0,1
58386,-100,4,1,1,85,0,1
59375,-100,4,1,2,85,0,1
59540,-100,4,1,1,85,0,1
60858,-100,4,1,1,50,0,1
61023,-100,4,1,1,85,0,1
63496,-100,4,1,1,50,0,1
63660,-100,4,1,1,85,0,1
63990,-100,4,1,2,85,0,1
64155,-100,4,1,1,85,0,1
65309,-100,4,1,1,85,0,0
65474,-100,4,2,2,85,0,1
65638,-100,4,1,1,85,0,1
66792,-100,4,1,1,50,0,1
66957,-100,4,1,1,85,0,1
67287,-100,4,1,2,85,0,1
67452,-100,4,1,1,85,0,1
68770,-100,4,1,1,50,0,1
68935,-100,4,1,1,85,0,1
69924,-100,4,1,2,85,0,1
70089,-100,4,1,1,85,0,1
71408,-100,4,1,1,50,0,1
71572,-100,4,1,1,85,0,1
74045,-100,4,1,1,50,0,1
74210,-100,4,1,1,85,0,1
74540,-100,4,1,2,85,0,1
74705,-100,4,1,1,85,0,1
76023,-100,4,2,1,70,0,0
86572,-100,4,2,2,75,0,0
86655,-100,4,2,2,65,0,0
87232,-100,4,2,2,55,0,0
87891,-100,4,2,2,45,0,0
88550,-100,4,2,2,35,0,0
89210,-100,4,2,2,25,0,0
89869,-100,4,2,2,15,0,0
90529,-100,4,2,2,10,0,0
91847,-100,4,2,2,7,0,0
93166,-100,4,2,1,5,0,0

[Colours]
Combo1 : 255,32,160
Combo2 : 201,170,253
Combo3 : 210,214,215
Combo4 : 135,181,250
Combo5 : 254,44,97
Combo6 : 255,140,181
Combo7 : 150,150,150
Combo8 : 250,171,118

[HitObjects]
53,254,858,38,0,B|141:239|141:239|191:268,1,138,6|0,1:1|1:2,0:0:0:0:
270,315,1682,1,2,1:2:0:0:
359,267,2012,2,0,L|450:276,1,91.9999999999999,2|2,1:1|1:2,0:0:0:0:
451,175,2671,2,0,L|299:160,1,138,2|10,1:2|0:2,0:0:0:0:
222,119,3496,54,0,B|177:118|177:118|133:143|133:143|89:138,1,138,2|2,0:1|0:2,0:0:0:0:
0,96,4320,1,2,0:2:0:0:
56,11,4649,2,0,L|165:19,1,91.9999999999999,2|2,0:1|0:2,0:0:0:0:
249,25,5309,2,0,B|292:35|292:35|328:71|328:71|372:77,1,138,2|8,1:2|0:2,0:0:0:0:
461,121,6133,54,0,P|474:177|461:266,1,138,6|2,0:1|0:2,0:0:0:0:
399,333,6957,2,0,L|297:340,1,91.9999999999999,2|2,0:2|0:1,0:0:0:0:
211,305,7616,1,2,0:1:0:0:
255,214,7946,2,0,L|411:205,1,138,2|8,0:1|0:2,0:0:0:0:
449,122,8770,54,0,B|427:97|401:90|401:90|360:109|309:85,1,138,2|2,0:2|0:1,0:0:0:0:
227,62,9594,1,2,0:2:0:0:
130,30,9924,2,0,L|21:23,2,91.9999999999999,6|2|6,0:2|0:1|0:2,0:0:0:0:
158,127,10913,2,0,B|180:195|141:199|155:270,1,138,2|6,0:1|0:0,0:0:0:0:
202,351,11737,37,0,1:0:0:0:
280,287,12067,2,0,B|358:271|340:329|425:307,1,138,0|2,1:0|0:0,0:0:0:0:
465,167,13056,1,0,1:0:0:0:
381,109,13386,2,0,P|326:102|271:113,1,91.9999999999999,0|0,1:0|1:0,0:0:0:0:
206,163,14045,54,0,P|209:218|200:269,1,91.9999999999999,2|0,1:2|1:0,0:0:0:0:
137,331,14704,2,0,B|107:356|107:356|64:368|1:338,1,138,0|2,1:0|0:2,0:0:0:0:
24,191,15693,1,0,1:0:0:0:
97,121,16023,2,0,L|198:143,1,91.9999999999999,0|0,1:0|1:0,0:0:0:0:
288,140,16682,54,0,L|389:118,1,91.9999999999999,2|0,1:2|1:0,0:0:0:0:
476,97,17342,2,0,B|493:165|493:165|481:248,1,138,0|2,1:0|0:0,0:0:0:0:
428,373,18331,1,0,1:0:0:0:
350,308,18660,2,0,B|319:306|319:306|291:315|291:315|247:310,1,91.9999999999999,0|0,1:0|1:0,0:0:0:0:
171,260,19320,54,0,L|67:262,1,91.9999999999999,2|0,1:2|1:0,0:0:0:0:
25,175,19979,2,0,B|12:107|12:107|29:38,1,138,0|4,1:0|0:0,0:0:0:0:
128,57,20803,2,0,B|177:64|177:64|260:54,1,91.9999999999999,0|4,0:0|0:1,0:0:0:0:
365,18,21627,1,8,3:0:0:0:
443,83,21957,6,0,P|449:137|445:189,1,91.9999999999999,6|8,1:0|0:0,0:0:0:0:
353,136,22616,2,0,L|195:120,1,138,0|2,1:0|1:2,0:0:0:0:
114,112,23441,2,0,P|81:183|89:241,1,138,0|0,1:0|0:0,0:0:0:0:
131,331,24265,1,8,0:0:0:0:
209,266,24594,54,0,P|258:258|308:271,1,91.9999999999999,2|8,1:2|0:0,0:0:0:0:
384,323,25254,2,0,B|423:336|469:332|469:332|489:311|516:304,2,138,0|2|8,1:0|1:2|0:0,0:0:0:0:
390,222,26572,2,0,L|394:129,1,91.9999999999999,0|8,0:0|0:0,0:0:0:0:
333,48,27232,54,0,P|285:38|232:48,1,91.9999999999999,2|8,1:2|0:0,0:0:0:0:
174,118,27891,2,0,B|103:144|106:84|19:115,1,138,0|2,1:0|1:2,0:0:0:0:
63,208,28715,2,0,L|76:359,1,138,0|0,1:0|0:0,0:0:0:0:
172,374,29540,1,8,0:0:0:0:
246,305,29869,54,0,L|346:306,1,91.9999999999999,2|8,1:2|0:0,0:0:0:0:
438,322,30529,2,0,B|463:259|463:259|434:178,1,138,0|6,1:0|1:2,0:0:0:0:
334,83,31518,2,0,B|292:108|280:169|280:169|221:191|185:162,1,184,8|8,0:0|0:0,0:0:0:0:
112,129,32507,102,0,L|11:121,1,91.9999999999999,4|0,1:1|1:0,0:0:0:0:
2,22,33166,2,0,L|139:32,1,138,8|0,0:0|1:0,0:0:0:0:
240,25,33990,2,0,B|303:37|303:37|343:15|391:35,1,138,8|10,0:0|0:0,0:0:0:0:
351,128,34814,1,0,1:0:0:0:
319,225,35144,54,0,B|267:234|267:234|215:225,2,91.9999999999999,2|0|0,1:2|1:0|0:0,0:0:0:0:
415,254,36133,2,0,B|407:307|407:307|370:345|314:351,2,138,0|8|10,1:0|0:0|0:0,0:0:0:0:
430,153,37452,1,0,1:0:0:0:
382,63,37781,54,0,B|335:54|335:54|289:61,1,91.9999999999999,2|0,1:2|1:0,0:0:0:0:
204,113,38441,1,8,0:0:0:0:
128,179,38770,2,0,B|123:219|123:219|145:259|145:259|140:314,2,138,0|10|8,1:0|0:2|0:0,0:0:0:0:
116,78,40089,1,0,0:0:0:0:
204,28,40419,54,0,B|245:18|245:18|293:49|293:49|340:30|391:55,1,184,2|8,0:0|0:0,0:0:0:0:
453,113,41408,1,0,1:0:0:0:
463,213,41737,2,0,P|428:235|332:206,1,138,6|14,1:1|1:2,0:0:0:0:
260,149,42561,1,14,1:1:0:0:
143,247,43056,6,0,L|44:246,2,91.9999999999999,4|8|0,1:0|0:0|1:0,0:0:0:0:
207,324,44045,1,8,0:0:0:0:
295,373,44375,2,0,P|348:377|400:373,1,91.9999999999999,0|8,0:0|0:0,0:0:0:0:
458,303,45034,2,0,L|459:211,1,91.9999999999999,0|8,0:0|0:0,0:0:0:0:
398,129,45693,54,0,P|345:125|293:129,1,91.9999999999999,2|8,1:2|0:0,0:0:0:0:
222,185,46353,2,0,B|161:206|149:156|81:182,1,138,0|2,1:0|1:2,0:0:0:0:
15,250,47177,2,0,P|11:282|15:346,1,91.9999999999999,0|2,1:0|1:2,0:0:0:0:
165,360,48001,1,8,0:0:0:0:
260,326,48331,54,0,L|362:330,1,91.9999999999999,4|8,1:0|0:0,0:0:0:0:
446,365,48990,2,0,B|456:304|432:274|432:274|441:230,1,138,0|4,1:0|1:0,0:0:0:0:
493,145,49814,2,0,P|502:94|473:29,1,91.9999999999999,0|2,1:0|1:2,0:0:0:0:
397,19,50474,1,0,1:0:0:0:
352,164,50968,54,0,B|286:192|286:192|205:161,1,138,6|0,1:0|0:0,0:0:0:0:
134,120,51792,1,0,1:0:0:0:
33,129,52122,2,0,L|17:223,2,91.9999999999999,6|0|0,1:0|1:0|1:0,0:0:0:0:
24,28,53111,1,8,3:0:0:0:
175,27,53605,6,0,P|220:25|289:30,2,91.9999999999999,8|8|8,3:2|0:1|3:0,0:0:0:0:
134,120,54594,1,6,1:1:0:0:
178,211,54924,6,0,P|184:280|161:343,1,138,4|0,0:0|0:0,0:0:0:0:
60,358,55748,1,0,0:0:0:0:
10,269,56078,2,0,L|14:166,1,91.9999999999999,2|0,0:1|0:0,0:0:0:0:
38,79,56737,2,0,B|69:51|69:51|124:39|195:57,1,138,2|8,0:0|0:0,0:0:0:0:
258,89,57561,53,2,2:1:0:0:
309,176,57891,2,0,B|361:206|386:153|459:192,1,138,8|0,0:0|0:0,0:0:0:0:
404,278,58715,2,0,L|404:369,1,91.9999999999999,2|0,0:0|0:0,0:0:0:0:
309,332,59375,2,0,P|237:317|161:335,1,138,2|10,0:0|0:0,0:0:0:0:
83,372,60199,53,6,0:0:0:0:
29,286,60529,2,0,L|31:142,1,138,8|0,0:0|0:0,0:0:0:0:
69,54,61353,2,0,P|115:47|216:66,1,138,2|8,0:2|0:0,0:0:0:0:
279,131,62177,2,0,P|330:137|385:128,1,91.9999999999999,0|8,2:0|0:0,0:0:0:0:
465,89,62836,53,6,0:0:0:0:
501,183,63166,2,0,L|486:354,1,138,8|0,0:0|0:0,0:0:0:0:
394,356,63990,2,0,L|385:264,1,91.9999999999999,10|0,0:1|0:0,0:0:0:0:
337,175,64649,2,0,P|268:151|186:199,1,138,6|8,0:2|3:1,0:0:0:0:
130,235,65474,54,0,B|75:279|75:279|9:220,1,138,4|0,1:0|0:0,0:0:0:0:
16,133,66298,1,0,0:0:0:0:
84,58,66627,2,0,L|186:58,1,91.9999999999999,2|0,0:1|0:0,0:0:0:0:
276,42,67287,2,0,P|344:35|411:49,1,138,2|10,0:0|0:0,0:0:0:0:
475,128,68111,53,2,0:0:0:0:
403,199,68441,2,0,P|327:206|248:184,1,138,8|0,0:0|0:0,0:0:0:0:
177,146,69265,2,0,P|122:140|49:153,1,91.9999999999999,2|0,0:1|0:0,0:0:0:0:
13,215,69924,2,0,B|2:284|2:284|20:360,1,138,2|10,0:0|0:0,0:0:0:0:
117,367,70748,53,6,0:0:0:0:
185,291,71078,2,0,B|246:267|259:315|326:284,1,138,8|0,0:0|0:0,0:0:0:0:
403,230,71902,2,0,B|416:165|416:165|397:82,1,138,2|8,0:2|0:0,0:0:0:0:
301,118,72726,2,0,B|289:168|289:168|298:207,1,91.9999999999999,2|10,0:0|0:0,0:0:0:0:
335,302,73386,53,2,0:1:0:0:
257,365,73715,2,0,B|189:376|189:376|97:358,1,138,10|0,0:0|0:0,0:0:0:0:
54,285,74540,2,0,L|53:190,1,91.9999999999999,10|0,0:0|0:0,0:0:0:0:
91,99,75199,2,0,P|157:68|219:122,1,138,6|2,0:0|3:1,0:0:0:0:
254,188,76023,22,0,P|312:218|371:187,1,138,6|0,1:0|1:2,0:0:0:0:
429,104,76847,1,2,1:2:0:0:
381,14,77177,2,0,B|261:18,1,91.9999999999999,2|2,1:1|1:2,0:0:0:0:
189,34,77836,2,0,B|139:43|113:29|113:29|63:27|51:62,1,138,2|10,1:2|0:2,0:0:0:0:
124,125,78660,54,0,P|146:209|102:267,1,138,2|2,0:1|0:2,0:0:0:0:
51,321,79485,1,2,0:2:0:0:
137,373,79814,2,0,L|237:378,1,91.9999999999999,2|2,0:1|0:2,0:0:0:0:
326,350,80474,2,0,B|346:346|370:353|370:353|392:327|392:327|430:337|469:322,1,138,0|8,0:1|0:2,0:0:0:0:
423,230,81298,54,0,B|400:168|444:161|418:84,1,138,6|2,0:1|0:2,0:0:0:0:
342,30,82122,2,0,P|291:23|240:33,1,91.9999999999999,2|2,0:2|0:1,0:0:0:0:
179,100,82781,1,2,0:1:0:0:
224,190,83111,2,0,L|225:335,1,138,2|8,0:1|0:2,0:0:0:0:
324,350,83935,54,0,L|325:168,1,138,2|2,0:2|0:1,0:0:0:0:
323,110,84759,1,2,0:2:0:0:
243,46,85089,2,0,P|190:38|135:52,1,91.9999999999999,6|2,0:2|0:1,0:0:0:0:
80,116,85748,2,0,B|70:164|70:164|88:207|88:207|81:277,1,138,6|10,0:2|3:2,0:0:0:0:
59,347,86572,5,6,1:0:0:0:
256,192,86902,12,0,93166,0:0:0:0:
