osu file format v14

[General]
AudioFilename: audio.mp3
AudioLeadIn: 0
PreviewTime: 59051
Countdown: 0
SampleSet: Soft
StackLeniency: 0.7
Mode: 0
LetterboxInBreaks: 0
WidescreenStoryboard: 0

[Editor]
DistanceSpacing: 1
BeatDivisor: 4
GridSize: 16
TimelineZoom: 2.5

[Metadata]
Title:Heart no Atoaji
TitleUnicode:ハートの後味
Artist:yuikonnu
ArtistUnicode:ゆいこんぬ
Creator:Jeezyh
Version:Daisuki
Source:
Tags:
BeatmapID:1977429
BeatmapSetID:946723

[Difficulty]
HPDrainRate:6
CircleSize:4
OverallDifficulty:8.4
ApproachRate:9.2
SliderMultiplier:1.8
SliderTickRate:1

[Events]
//Background and Video events
0,0,"wallhaven-380832.png",0,0
//Break Periods
//Storyboard Layer 0 (Background)
//Storyboard Layer 1 (Fail)
//Storyboard Layer 2 (Pass)
//Storyboard Layer 3 (Foreground)
//Storyboard Sound Samples

[TimingPoints]
13971,322.58064516129,4,2,1,60,1,0
15100,-83.3333333333333,4,2,1,70,0,0
16712,-125,4,2,1,70,0,0
16874,-83.3333333333333,4,2,1,70,0,0
20422,-166.666666666667,4,2,50,50,0,0
20583,-166.666666666667,4,2,51,50,0,0
20745,-166.666666666667,4,2,52,50,0,0
20906,-166.666666666667,4,2,51,50,0,0
21067,-166.666666666667,4,2,50,50,0,0
21229,-166.666666666667,4,2,51,50,0,0
21390,-166.666666666667,4,2,52,50,0,0
21551,-166.666666666667,4,2,51,50,0,0
21712,-125,4,2,53,50,0,0
21874,-125,4,2,51,50,0,0
22035,-125,4,2,52,50,0,0
22196,-125,4,2,51,50,0,0
22358,-125,4,2,50,50,0,0
22519,-125,4,2,51,50,0,0
22680,-125,4,2,52,50,0,0
22841,-125,4,2,1,50,0,0
23003,-100,4,2,1,70,0,0
23648,-125,4,2,1,70,0,0
24132,-125,4,2,1,70,0,0
24454,-125,4,2,1,70,0,0
24938,-125,4,2,1,70,0,0
25583,-142.857142857143,4,2,60,40,0,0
25906,-142.857142857143,4,2,1,40,0,0
26874,-142.857142857143,4,2,61,40,0,0
27196,-142.857142857143,4,2,1,40,0,0
28164,-142.857142857143,4,2,62,40,0,0
28487,-142.857142857143,4,2,1,40,0,0
29454,-142.857142857143,4,2,63,40,0,0
29777,-142.857142857143,4,2,1,40,0,0
30100,-142.857142857143,4,2,64,40,0,0
30422,-142.857142857143,4,2,1,40,0,0
30745,-142.857142857143,4,2,65,40,0,0
31067,-142.857142857143,4,2,1,40,0,0
32035,-142.857142857143,4,2,61,40,0,0
32358,-142.857142857143,4,2,1,40,0,0
33487,-200,4,2,51,50,0,0
33648,-200,4,2,52,50,0,0
33809,-200,4,2,51,50,0,0
33970,-200,4,2,50,50,0,0
34132,-200,4,2,51,50,0,0
34454,-100,4,2,1,60,0,0
34777,-100,4,2,1,60,0,0
35906,-100,4,2,1,65,0,0
46229,-125,4,2,1,55,0,0
48083,-125,4,2,1,55,0,0
48164,-125,4,2,1,55,0,0
48406,-125,4,2,1,55,0,0
48487,-125,4,2,1,55,0,0
48729,-125,4,2,1,55,0,0
48809,-125,4,2,1,55,0,0
51390,-125,4,2,50,50,0,0
51551,-125,4,2,51,50,0,0
51874,-125,4,2,52,50,0,0
52035,-125,4,2,50,50,0,0
52358,-125,4,2,52,50,0,0
52680,-125,4,2,53,50,0,0
53003,-125,4,2,53,50,0,0
53245,-125,4,2,53,5,0,0
53325,-100,4,2,1,55,0,0
53567,-100,4,2,1,5,0,0
53648,-83.3333333333333,4,2,1,60,0,0
53890,-83.3333333333333,4,2,1,5,0,0
53970,-83.3333333333333,4,2,1,65,0,0
58164,-153.846153846154,4,2,1,60,0,0
59051,-153.846153846154,4,2,1,5,0,0
59132,-83.3333333333333,4,2,1,80,0,1
63648,-76.9230769230769,4,2,1,80,0,1
63890,-76.9230769230769,4,2,1,5,0,1
63970,-100,4,2,1,80,0,1
64132,-76.9230769230769,4,2,1,80,0,1
64212,-76.9230769230769,4,2,1,5,0,1
64293,-83.3333333333333,4,2,1,80,0,1
73970,-100,4,2,1,80,0,1
74212,-100,4,2,1,5,0,1
74293,-83.3333333333333,4,2,1,80,0,1
74535,-83.3333333333333,4,2,1,5,0,1
74616,-83.3333333333333,4,2,1,80,0,0
75906,-83.3333333333333,4,2,1,85,0,0
77196,-83.3333333333333,4,2,1,90,0,1
78487,-100,4,2,1,60,0,1
79616,-83.3333333333333,4,2,1,70,0,0
79938,-83.3333333333333,4,2,1,70,0,0
80100,-83.3333333333333,4,2,1,70,0,0
81229,-125,4,2,1,70,0,0
81390,-83.3333333333333,4,2,1,70,0,0
84938,-166.666666666667,4,2,50,50,0,0
85100,-166.666666666667,4,2,51,50,0,0
85261,-166.666666666667,4,2,52,50,0,0
85422,-166.666666666667,4,2,51,50,0,0
85583,-166.666666666667,4,2,50,50,0,0
85745,-166.666666666667,4,2,51,50,0,0
85906,-166.666666666667,4,2,52,50,0,0
86067,-166.666666666667,4,2,51,50,0,0
86229,-125,4,2,53,50,0,0
86390,-125,4,2,51,50,0,0
86551,-125,4,2,52,50,0,0
86712,-125,4,2,51,50,0,0
86874,-125,4,2,50,50,0,0
87035,-125,4,2,51,50,0,0
87196,-125,4,2,52,50,0,0
87358,-125,4,2,1,50,0,0
87519,-100,4,2,1,70,0,0
88164,-125,4,2,1,70,0,0
88648,-125,4,2,1,70,0,0
88970,-125,4,2,1,70,0,0
89454,-125,4,2,1,70,0,0
90019,-125,4,2,1,5,0,0
95100,-125,4,2,1,5,0,0

[Colours]
Combo1 : 239,80,80
Combo2 : 192,192,192
Combo3 : 255,130,130
Combo4 : 135,248,197

[HitObjects]
256,192,13971,5,2,0:0:0:0:
143,135,14132,2,0,L|138:167,4,22.5,0|2|2|2|8,0:0|0:1|0:1|0:1|0:0,0:0:0:0:
325,86,14454,1,2,0:1:0:0:
327,98,14535,1,2,0:1:0:0:
329,109,14616,2,0,L|341:174,1,45,2|0,0:1|0:0,0:0:0:0:
396,271,14777,1,8,0:0:0:0:
398,259,14858,1,2,0:1:0:0:
400,248,14939,2,0,L|412:183,1,45,2|2,0:1|0:1,0:0:0:0:
452,47,15100,6,0,L|236:41,1,215.999993408203,6|0,0:0|0:0,0:0:0:0:
39,146,15583,2,0,P|89:128|142:134,1,107.999996704102,8|0,0:0|0:0,0:0:0:0:
263,253,15906,1,2,0:1:0:0:
101,223,16067,1,2,0:1:0:0:
236,41,16229,1,8,0:0:0:0:
264,273,16390,6,0,P|325:323|401:304,1,161.999995056153,6|0,0:0|0:0,0:0:0:0:
401,304,16712,2,0,L|400:339,1,36,2|0,0:0|0:0,0:0:0:0:
479,241,16874,1,8,0:0:0:0:
332,70,17035,1,2,0:0:0:0:
347,229,17196,1,2,0:1:0:0:
456,112,17358,1,2,0:1:0:0:
234,158,17519,1,8,0:0:0:0:
420,12,17680,6,0,B|409:49|432:88|432:88|422:153|422:153|440:176|436:224,1,215.999993408203,6|0,0:0|0:0,0:0:0:0:
334,333,18164,2,0,P|351:282|346:228,1,107.999996704102,8|0,0:0|0:0,0:0:0:0:
234,158,18487,1,2,0:1:0:0:
175,322,18648,1,2,0:1:0:0:
175,322,18729,1,0,0:0:0:0:
175,322,18809,2,0,P|157:301|147:276,1,53.9999983520508,8|0,0:0|0:0,0:0:0:0:
84,127,18971,6,0,L|300:121,1,215.999993408203,6|0,0:0|0:0,0:0:0:0:
21,76,19454,2,0,P|2:125|17:176,1,107.999996704102,6|0,0:0|0:0,0:0:0:0:
299,121,19777,2,0,P|317:170|302:221,1,107.999996704102,6|0,0:0|0:0,0:0:0:0:
71,347,20100,1,6,0:0:0:0:
394,296,20422,6,0,L|395:224,3,53.9999983520508,2|2|2|2,0:0|0:0|0:0|0:0,0:0:0:0:
474,315,21067,2,0,L|472:386,3,53.9999983520508,2|2|2|2,0:0|0:0|0:0|0:0,0:0:0:0:
321,374,21712,6,0,L|393:375,3,72,2|2|2|2,0:0|0:0|0:0|0:0,0:0:0:0:
241,317,22358,2,0,L|168:318,2,72,2|2|2,0:0|0:0|0:0,0:0:0:0:
198,199,22841,6,0,L|191:163,1,36,2|0,0:1|0:0,0:0:0:0:
114,122,23003,6,0,L|293:115,1,180,4|0,0:0|0:0,0:0:0:0:
358,48,23487,1,0,0:0:0:0:
341,194,23648,2,0,L|197:199,1,144,4|0,0:0|0:0,0:0:0:0:
105,200,24132,1,4,0:0:0:0:
240,34,24454,5,8,0:0:0:0:
197,198,24616,1,8,0:0:0:0:
81,78,24777,1,8,0:0:0:0:
372,162,24938,5,10,0:0:0:0:
20,236,25100,1,10,0:0:0:0:
19,236,25583,6,0,P|82:236|137:266,1,125.999996154785,4|2,0:0|0:0,0:0:0:0:
197,311,26067,1,0,0:0:0:0:
253,259,26229,2,0,P|308:229|370:228,1,125.999996154785,0|2,0:0|0:0,0:0:0:0:
438,260,26712,1,0,0:0:0:0:
439,260,26874,2,0,P|444:229|439:198,1,62.9999980773926,4|0,0:0|0:0,0:0:0:0:
397,136,27196,2,0,P|373:115|343:104,1,62.9999980773926,2|0,0:0|0:0,0:0:0:0:
231,180,27519,2,0,P|258:163|288:156,2,62.9999980773926,0|0|2,0:0|0:0|0:0,0:0:0:0:
223,256,28003,5,0,0:0:0:0:
223,256,28165,2,0,P|193:245|169:225,1,62.9999980773926,4|0,0:0|0:0,0:0:0:0:
160,150,28487,2,0,P|179:125|205:108,1,62.9999980773926,2|0,0:0|0:0,0:0:0:0:
126,32,28809,1,0,0:0:0:0:
93,100,28970,2,0,P|78:127|74:158,1,62.9999980773926,0|2,0:0|0:0,0:0:0:0:
0,175,29293,1,0,0:0:0:0:
70,287,29454,2,0,P|55:260|52:229,2,62.9999980773926,4|0|2,0:0|0:0|0:0,0:0:0:0:
128,336,29938,2,0,P|143:308|146:277,1,62.9999980773926,0|4,0:0|0:0,0:0:0:0:
218,300,30261,5,0,0:0:0:0:
271,352,30422,1,2,0:0:0:0:
343,334,30583,1,0,0:0:0:0:
304,219,30745,2,0,L|289:280,2,62.9999980773926,4|0|2,0:0|0:0|0:0,0:0:0:0:
361,169,31229,1,0,0:0:0:0:
361,169,31390,2,0,L|346:107,2,62.9999980773926,0|0|2,0:0|0:0|0:0,0:0:0:0:
377,243,31874,6,0,L|437:261,1,62.9999980773926,0|4,0:0|0:0,0:0:0:0:
512,205,32196,2,0,L|452:187,1,62.9999980773926,0|2,0:0|0:0,0:0:0:0:
418,98,32519,2,0,L|478:115,1,62.9999980773926,0|0,0:0|0:0,0:0:0:0:
361,169,32842,1,0,0:0:0:0:
303,121,33003,1,2,0:0:0:0:
233,146,33164,1,0,0:0:0:0:
288,279,33487,6,0,L|281:324,2,45,2|2|2,0:0|0:0|0:0,0:0:0:0:
196,340,33970,2,0,L|203:295,1,45,2|2,0:0|0:0,0:0:0:0:
111,45,34454,5,4,0:0:0:0:
111,45,34777,5,8,0:0:0:0:
98,213,34938,1,8,0:0:0:0:
0,50,35100,1,8,0:0:0:0:
222,40,35261,1,8,0:0:0:0:
94,297,35422,1,8,0:0:0:0:
89,308,35906,6,0,L|229:319,1,135,4|0,0:0|0:0,0:0:0:0:
238,333,36229,1,8,0:0:0:0:
377,244,36390,1,2,0:1:0:0:
362,253,36471,1,2,0:1:0:0:
353,269,36552,1,2,0:1:0:0:
260,225,36712,1,0,0:0:0:0:
388,370,36874,1,8,0:0:0:0:
466,184,37035,6,0,P|473:139|463:96,1,90,0|0,0:0|0:0,0:0:0:0:
377,244,37358,1,0,0:0:0:0:
278,106,37519,2,0,P|285:150|275:193,1,90,8|2,0:0|0:1,0:0:0:0:
268,210,37761,1,2,0:1:0:0:
260,225,37841,1,2,0:1:0:0:
141,168,38003,1,0,0:0:0:0:
162,304,38164,1,8,0:0:0:0:
122,154,38325,1,0,0:0:0:0:
34,334,38487,5,0,0:0:0:0:
259,355,38648,1,0,0:0:0:0:
141,168,38809,1,8,0:0:0:0:
278,106,38970,1,2,0:1:0:0:
294,98,39051,1,2,0:1:0:0:
311,92,39132,2,0,P|355:85|399:90,1,90,2|0,0:1|0:0,0:0:0:0:
304,279,39454,5,8,0:0:0:0:
304,279,39616,2,0,L|281:191,1,90,0|0,0:0|0:0,0:0:0:0:
399,90,39938,1,0,0:0:0:0:
435,286,40100,2,0,P|423:328|388:356,1,90,8|2,0:0|0:1,0:0:0:0:
370,359,40341,1,2,0:1:0:0:
351,359,40422,1,2,0:1:0:0:
190,131,40583,5,2,0:0:0:0:
161,165,40664,1,2,0:0:0:0:
163,203,40745,1,10,0:0:0:0:
180,229,40825,1,2,0:0:0:0:
187,253,40906,1,2,0:0:0:0:
183,271,40987,1,2,0:0:0:0:
174,280,41067,6,0,P|239:295|303:278,1,135,4|0,0:0|0:0,0:0:0:0:
315,264,41390,1,8,0:0:0:0:
224,122,41551,1,2,0:1:0:0:
206,122,41632,1,2,0:1:0:0:
190,131,41713,1,2,0:1:0:0:
90,249,41874,1,0,0:0:0:0:
48,71,42035,1,8,0:0:0:0:
65,269,42196,6,0,P|75:312|103:347,1,90,0|0,0:0|0:0,0:0:0:0:
174,280,42519,1,0,0:0:0:0:
0,211,42680,2,0,P|29:177|71:162,1,90,8|2,0:0|0:1,0:0:0:0:
89,164,42922,1,2,0:1:0:0:
105,171,43003,1,2,0:1:0:0:
174,280,43164,1,0,0:0:0:0:
237,96,43325,1,8,0:0:0:0:
279,222,43487,1,2,0:1:0:0:
211,87,43648,5,2,0:1:0:0:
384,164,43809,1,2,0:1:0:0:
276,341,43970,1,8,0:0:0:0:
400,286,44132,1,0,0:0:0:0:
404,268,44213,1,2,0:1:0:0:
405,250,44294,2,0,P|400:205|384:164,1,90,2|0,0:1|0:0,0:0:0:0:
211,87,44616,1,8,0:0:0:0:
156,371,44777,5,4,0:0:0:0:
211,87,45100,1,2,0:1:0:0:
165,213,45261,1,2,0:1:0:0:
78,110,45422,1,2,0:1:0:0:
252,316,45583,5,8,0:0:0:0:
344,64,45745,1,8,0:0:0:0:
348,56,46229,5,2,0:1:0:0:
390,114,46390,1,0,0:0:0:0:
348,173,46551,1,2,0:0:0:0:
279,150,46713,1,0,0:0:0:0:
278,77,46874,2,0,P|244:69|208:70,1,72,0|0,0:0|0:0,0:0:0:0:
116,159,47196,1,2,0:0:0:0:
116,159,47358,2,0,P|150:150|186:151,1,72,0|0,0:0|0:0,0:0:0:0:
355,373,47841,6,0,P|378:325|362:275,1,108,2|0,0:0|0:0,0:0:0:0:
355,270,48164,2,0,P|331:222|348:172,1,108,0|0,0:0|0:0,0:0:0:0:
355,167,48487,2,0,P|379:119|362:69,1,108,2|0,0:0|0:0,0:0:0:0:
355,64,48809,6,0,L|283:65,1,72,0|0,0:0|0:0,0:0:0:0:
223,184,49132,1,2,0:0:0:0:
223,184,49293,2,0,L|186:122,1,72,0|0,0:0|0:0,0:0:0:0:
117,6,49616,2,0,L|81:68,1,72,0|2,0:0|0:0,0:0:0:0:
15,185,49938,1,0,0:0:0:0:
15,185,50100,6,0,P|81:193|109:260,2,144,0|2|2,0:0|0:0|0:0,0:0:0:0:
80,68,50906,1,0,0:0:0:0:
213,52,51067,1,2,0:0:0:0:
293,158,51229,1,0,0:0:0:0:
15,185,51390,5,2,0:0:0:0:
416,57,52680,5,0,0:0:0:0:
477,209,53003,6,0,P|431:232|384:209,1,108,2|0,0:0|0:0,0:0:0:0:
379,204,53325,6,0,P|322:174|265:205,1,135,2|0,0:0|0:0,0:0:0:0:
255,214,53648,6,0,P|194:258|133:212,1,161.999995056153,2|0,0:0|0:0,0:0:0:0:
73,164,53970,5,4,0:0:0:0:
59,324,54132,1,0,0:0:0:0:
195,146,54293,1,8,0:0:0:0:
5,97,54454,1,2,0:1:0:0:
3,114,54534,1,2,0:1:0:0:
0,132,54615,1,2,0:1:0:0:
119,51,54777,1,2,0:1:0:0:
194,257,54938,1,8,0:0:0:0:
251,74,55100,1,2,0:1:0:0:
253,57,55180,1,2,0:1:0:0:
256,39,55261,6,0,L|376:43,1,107.999996704102,6|0,0:1|0:0,0:0:0:0:
195,146,55583,1,8,0:0:0:0:
124,16,55745,1,2,0:1:0:0:
122,33,55825,1,2,0:1:0:0:
119,51,55906,2,0,L|102:169,1,107.999996704102,2|2,0:1|0:1,0:0:0:0:
247,261,56229,2,0,L|193:256,1,53.9999983520508,8|0,0:0|0:0,0:0:0:0:
300,174,56390,2,0,L|353:178,1,53.9999983520508,2|2,0:1|0:1,0:0:0:0:
451,312,56551,5,6,0:1:0:0:
451,312,56874,5,8,0:0:0:0:
247,261,57035,1,8,0:0:0:0:
457,124,57196,1,8,0:0:0:0:
378,371,57358,1,8,0:0:0:0:
121,229,57519,5,8,0:0:0:0:
471,216,57680,1,8,0:0:0:0:
121,229,58164,6,0,B|183:174|247:217|247:217|305:253|357:203|357:203|311:134,1,321.749985271455,4|0,0:0|0:0,0:0:0:0:
329,117,59132,6,0,L|390:205,1,107.999996704102,4|0,0:0|0:0,0:0:0:0:
481,33,59454,2,0,L|444:134,1,107.999996704102,8|0,0:0|0:0,0:0:0:0:
253,91,59777,2,0,P|285:49|337:37,1,107.999996704102,2|0,0:1|0:0,0:0:0:0:
198,186,60100,2,0,P|177:137|130:112,1,107.999996704102,8|0,0:0|0:0,0:0:0:0:
36,339,60422,6,0,B|75:302|130:325|130:325|138:336|138:336|189:371|242:340,1,215.999993408203,2|8,0:1|0:0,0:0:0:0:
331,377,60906,1,0,0:0:0:0:
191,272,61067,2,0,B|146:244|146:244|92:237,1,107.999996704102,2|0,0:1|0:0,0:0:0:0:
253,91,61390,2,0,B|298:119|298:119|352:126,1,107.999996704102,8|0,0:0|0:0,0:0:0:0:
476,86,61712,5,4,0:0:0:0:
395,257,61873,1,0,0:0:0:0:
474,46,62034,1,8,0:0:0:0:
425,231,62196,1,2,0:0:0:0:
153,114,62357,5,4,0:0:0:0:
232,284,62518,1,0,0:0:0:0:
152,73,62679,1,8,0:0:0:0:
202,258,62841,1,2,0:0:0:0:
333,25,63003,5,4,0:0:0:0:
314,270,63164,1,10,0:0:0:0:
295,230,63244,1,10,0:0:0:0:
296,187,63325,1,10,0:0:0:0:
317,150,63405,1,0,0:0:0:0:
354,127,63487,2,0,P|380:121|406:125,1,53.9999983520508,8|8,0:3|0:3,0:0:0:0:
394,296,63648,6,0,P|330:351|250:325,1,175.499991966248,4|0,0:0|0:0,0:0:0:0:
75,314,63970,2,0,P|97:317|118:311,1,45,4|0,0:0|0:0,0:0:0:0:
201,355,64132,2,0,P|228:344|250:325,1,58.4999973220826,0|0,0:0|0:0,0:0:0:0:
250,95,64293,6,0,P|176:168|187:272,1,215.999993408203,4|8,0:0|0:0,0:0:0:0:
293,211,64777,1,0,0:0:0:0:
144,71,64938,2,0,P|105:107|92:159,1,107.999996704102,2|0,0:1|0:0,0:0:0:0:
276,322,65261,2,0,P|224:309|187:271,1,107.999996704102,8|0,0:0|0:0,0:0:0:0:
371,72,65583,6,0,B|380:121|362:157|362:157|386:208|386:208|369:238|376:279,1,215.999993408203,2|8,0:1|0:0,0:0:0:0:
293,211,66067,1,0,0:0:0:0:
452,46,66229,2,0,P|465:97|456:150,1,107.999996704102,2|0,0:1|0:0,0:0:0:0:
224,260,66551,2,0,P|207:209|224:158,1,107.999996704102,8|0,0:0|0:0,0:0:0:0:
34,189,66874,6,0,P|135:216|223:159,1,215.999993408203,4|8,0:0|0:0,0:0:0:0:
98,5,67358,1,0,0:0:0:0:
40,81,67519,2,0,P|28:133|32:187,1,107.999996704102,2|0,0:1|0:0,0:0:0:0:
283,113,67841,2,0,P|239:83|186:92,1,107.999996704102,8|2,0:0|0:1,0:0:0:0:
169,105,68083,1,2,0:1:0:0:
155,121,68164,5,4,0:0:0:0:
217,273,68325,1,2,0:0:0:0:
368,116,68487,5,4,0:0:0:0:
275,344,68648,1,2,0:0:0:0:
89,49,68809,5,6,0:0:0:0:
184,358,68970,1,2,0:0:0:0:
252,43,69132,1,6,0:0:0:0:
21,364,69293,1,2,0:0:0:0:
365,217,69454,6,0,P|382:166|367:115,1,107.999996704102,4|0,0:0|0:0,0:0:0:0:
219,171,69777,2,0,P|202:222|217:273,1,107.999996704102,8|0,0:0|0:0,0:0:0:0:
410,166,70100,2,0,P|399:113|360:76,1,107.999996704102,2|0,0:1|0:0,0:0:0:0:
174,222,70422,2,0,P|184:274|223:311,1,107.999996704102,8|0,0:0|0:0,0:0:0:0:
420,265,70745,6,0,P|353:316|437:325,1,215.999993408203,2|8,0:1|0:0,0:0:0:0:
494,208,71229,1,0,0:0:0:0:
311,194,71390,2,0,P|356:166|409:165,1,107.999996704102,2|0,0:1|0:0,0:0:0:0:
222,310,71712,2,0,P|168:309|123:281,1,107.999996704102,8|0,0:0|0:0,0:0:0:0:
109,66,72035,5,4,0:0:0:0:
190,237,72196,1,0,0:0:0:0:
111,26,72357,1,8,0:0:0:0:
160,211,72519,1,2,0:0:0:0:
432,94,72680,5,4,0:0:0:0:
353,264,72841,1,0,0:0:0:0:
433,53,73002,1,8,0:0:0:0:
383,238,73164,1,2,0:0:0:0:
249,18,73325,5,4,0:0:0:0:
210,304,73487,1,8,0:0:0:0:
250,323,73567,1,8,0:0:0:0:
293,322,73648,1,8,0:0:0:0:
330,301,73728,1,8,0:0:0:0:
353,264,73810,2,0,P|359:238|355:211,1,53.9999983520508,8|8,0:3|0:3,0:0:0:0:
156,226,73970,6,0,P|119:281|129:346,1,135,4|0,0:0|0:0,0:0:0:0:
114,354,74293,6,0,P|101:275|146:210,1,161.999995056153,4|0,0:0|0:0,0:0:0:0:
184,66,74616,5,4,0:0:0:0:
184,66,74939,5,8,0:0:0:0:
252,186,75100,1,8,0:0:0:0:
280,26,75261,1,8,0:0:0:0:
156,226,75422,1,8,0:0:0:0:
384,46,75584,1,8,0:0:0:0:
52,206,75745,1,8,0:0:0:0:
368,186,75906,5,8,0:0:0:0:
184,66,76068,1,8,0:0:0:0:
344,264,76229,1,8,0:0:0:0:
280,26,76390,1,8,0:0:0:0:
283,318,76551,1,8,0:0:0:0:
384,46,76713,1,8,0:0:0:0:
203,332,76874,1,8,0:0:0:0:
459,120,77035,1,8,0:0:0:0:
127,300,77196,5,8,0:0:0:0:
280,26,77358,1,8,0:0:0:0:
360,343,77519,1,8,0:0:0:0:
486,19,77680,1,8,0:0:0:0:
283,318,77841,1,8,0:0:0:0:
88,26,78003,1,8,0:0:0:0:
51,332,78164,1,8,0:0:0:0:
368,186,78325,1,8,0:0:0:0:
184,66,78487,5,0,0:0:0:0:
206,194,78648,2,0,L|200:157,4,22.5,0|2|2|2|8,0:0|0:1|0:1|0:1|0:0,0:0:0:0:
284,68,78970,1,2,0:1:0:0:
286,80,79051,1,2,0:1:0:0:
288,91,79132,2,0,L|300:156,1,45,2|0,0:1|0:0,0:0:0:0:
355,253,79293,1,8,0:0:0:0:
357,241,79374,1,2,0:1:0:0:
359,230,79455,2,0,L|371:165,1,45,2|2,0:1|0:1,0:0:0:0:
449,345,79616,6,0,B|386:329|386:329|344:340|344:340|307:319|307:319|226:317,1,215.999993408203,4|0,0:0|0:0,0:0:0:0:
50,206,80100,2,0,L|157:198,1,107.999996704102,8|0,0:0|0:0,0:0:0:0:
3,289,80422,1,2,0:1:0:0:
0,132,80583,1,2,0:1:0:0:
74,347,80745,1,8,0:0:0:0:
224,75,80906,6,0,P|159:120|158:199,1,161.999995056153,4|0,0:0|0:0,0:0:0:0:
157,197,81229,2,0,P|163:214|165:232,1,36,2|0,0:0|0:0,0:0:0:0:
74,347,81390,1,8,0:0:0:0:
266,357,81551,1,2,0:0:0:0:
54,364,81712,1,2,0:1:0:0:
244,157,81874,1,2,0:1:0:0:
286,374,82035,1,8,0:0:0:0:
413,133,82196,6,0,B|355:160|300:113|329:89|275:52|223:74,1,215.999993408203,4|0,0:0|0:0,0:0:0:0:
449,59,82680,2,0,P|487:95|495:147,1,107.999996704102,8|0,0:0|0:0,0:0:0:0:
414,248,83003,1,2,0:1:0:0:
244,157,83164,1,2,0:1:0:0:
244,157,83245,1,0,0:0:0:0:
244,157,83325,2,0,P|232:181|228:208,1,53.9999983520508,8|0,0:0|0:0,0:0:0:0:
128,80,83487,6,0,B|82:43|82:43|93:208,1,215.999993408203,4|0,0:0|0:0,0:0:0:0:
248,306,83970,2,0,P|221:260|228:207,1,107.999996704102,6|0,0:0|0:0,0:0:0:0:
87,330,84293,2,0,P|140:330|182:362,1,107.999996704102,6|0,0:0|0:0,0:0:0:0:
92,199,84616,1,6,0:0:0:0:
405,208,84938,6,0,L|405:144,3,53.9999983520508,2|2|2|2,0:0|0:0|0:0|0:0,0:0:0:0:
406,316,85583,2,0,L|406:380,3,53.9999983520508,2|2|2|2,0:0|0:0|0:0|0:0,0:0:0:0:
299,207,86229,6,0,L|227:207,3,72,2|2|2|2,0:0|0:0|0:0|0:0,0:0:0:0:
298,315,86874,2,0,L|226:315,2,72,2|2|2,0:0|0:0|0:0,0:0:0:0:
145,172,87358,6,0,L|138:208,1,36,2|0,0:1|0:0,0:0:0:0:
93,271,87519,6,0,L|133:87,1,180,4|0,0:0|0:0,0:0:0:0:
227,66,88003,1,0,0:0:0:0:
260,220,88164,2,0,L|228:79,1,144,4|0,0:0|0:0,0:0:0:0:
191,275,88648,1,4,0:0:0:0:
343,75,88970,5,8,0:0:0:0:
428,219,89132,1,8,0:0:0:0:
260,220,89293,1,8,0:0:0:0:
511,74,89454,5,10,0:0:0:0:
345,365,89616,1,10,0:0:0:0:
179,74,89938,5,4,0:0:0:0:
256,192,90019,12,0,95100,0:0:0:0:
