osu file format v14

[General]
AudioFilename: audio.mp3
AudioLeadIn: 0
PreviewTime: 58855
Countdown: 0
SampleSet: Soft
StackLeniency: 0.7
Mode: 0
LetterboxInBreaks: 0
WidescreenStoryboard: 0

[Editor]
DistanceSpacing: 1.1
BeatDivisor: 4
GridSize: 4
TimelineZoom: 2.799999

[Metadata]
Title:Heart no Atoaji
TitleUnicode:ハートの後味
Artist:yuikonnu
ArtistUnicode:ゆいこんぬ
Creator:Fycho
Version:Heart
Source:
Tags:chocolate pop* mafumafu まふまふ 茶々ごま まふてる IA 心的回味 MrSergio Garden Vincent
BeatmapID:1159687
BeatmapSetID:547504

[Difficulty]
HPDrainRate:7
CircleSize:4
OverallDifficulty:8.8
ApproachRate:9.5
SliderMultiplier:1.7
SliderTickRate:2

[Events]
//Background and Video events
0,0,"bg.jpg",0,0
//Break Periods
2,51475,53330
2,144378,153814
2,167604,168694
//Storyboard Layer 0 (Background)
//Storyboard Layer 1 (Fail)
//Storyboard Layer 2 (Pass)
//Storyboard Layer 3 (Foreground)
//Storyboard Sound Samples

[TimingPoints]
13856,322.58064516129,4,2,4,40,1,0
14985,-100,4,2,4,70,0,0
19339,-83.3333333333333,4,2,4,80,0,0
19662,-90.9090909090909,4,2,4,70,0,0
19985,-100,4,2,4,60,0,0
20307,-100,4,2,4,40,0,0
22888,-83.3333333333333,4,2,4,70,0,0
23533,-76.9230769230769,4,2,4,70,0,0
24017,-71.4285714285714,4,2,4,70,0,0
24339,-71.4285714285714,4,2,4,50,0,0
24662,-71.4285714285714,4,2,4,60,0,0
25468,-125,4,2,4,40,0,0
34339,-83.3333333333333,4,2,4,70,0,0
34662,-83.3333333333333,4,2,4,40,0,0
34823,-83.3333333333333,4,2,4,55,0,0
35146,-83.3333333333333,4,2,4,70,0,0
35791,-100,4,2,4,70,0,0
44662,-83.3333333333333,4,2,4,70,0,0
44985,-83.3333333333333,4,2,4,40,0,0
45146,-83.3333333333333,4,2,4,50,0,0
45468,-83.3333333333333,4,2,4,60,0,0
46114,-125,4,2,4,50,0,0
53855,-83.3333333333333,4,2,4,70,0,0
56759,-83.3333333333333,4,2,4,40,0,0
56920,-83.3333333333333,4,2,4,50,0,0
57243,-83.3333333333333,4,2,4,60,0,0
58049,-125,4,2,4,70,0,0
58533,-125,4,2,4,40,0,0
59017,-100,4,2,4,90,0,1
61597,-90.9090909090909,4,2,4,90,0,1
62243,-83.3333333333333,4,2,4,90,0,1
62888,-76.9230769230769,4,2,4,90,0,1
63372,-100,4,2,4,60,0,1
64178,-100,4,2,4,90,0,1
71920,-90.9090909090909,4,2,4,90,0,1
72565,-83.3333333333333,4,2,4,90,0,1
73210,-100,4,2,4,90,0,1
73855,-76.9230769230769,4,2,4,90,0,1
74662,-76.9230769230769,4,2,4,30,0,1
75146,-76.9230769230769,4,2,4,40,0,1
75791,-76.9230769230769,4,2,4,50,0,1
76436,-76.9230769230769,4,2,4,60,0,1
77081,-76.9230769230769,4,2,4,70,0,1
77726,-76.9230769230769,4,2,4,80,0,1
78372,-100,4,2,4,40,0,0
79501,-100,4,2,4,70,0,0
83855,-83.3333333333333,4,2,4,80,0,0
84178,-90.9090909090909,4,2,4,70,0,0
84501,-100,4,2,4,60,0,0
84823,-100,4,2,4,40,0,0
87404,-83.3333333333333,4,2,4,70,0,0
88049,-76.9230769230769,4,2,4,70,0,0
88533,-71.4285714285714,4,2,4,70,0,0
88855,-71.4285714285714,4,2,4,50,0,0
89017,-71.4285714285714,4,2,4,60,0,0
89339,-71.4285714285714,4,2,4,70,0,0
89985,-125,4,2,4,40,0,0
98855,-83.3333333333333,4,2,4,70,0,0
99178,-83.3333333333333,4,2,4,40,0,0
99339,-83.3333333333333,4,2,4,55,0,0
99662,-83.3333333333333,4,2,4,70,0,0
100307,-100,4,2,4,70,0,0
109178,-83.3333333333333,4,2,4,70,0,0
109501,-83.3333333333333,4,2,4,40,0,0
109662,-83.3333333333333,4,2,4,55,0,0
109985,-83.3333333333333,4,2,4,70,0,0
110630,-125,4,2,4,50,0,0
117404,-100,4,2,4,70,0,0
118372,-133.333333333333,4,2,4,70,0,0
120952,-100,4,2,4,70,0,0
121275,-100,4,2,4,50,0,0
121597,-100,4,2,4,60,0,0
121920,-100,4,2,4,70,0,0
122565,-125,4,2,4,60,0,0
123533,-100,4,2,4,90,0,1
126114,-90.9090909090909,4,2,4,90,0,1
126759,-83.3333333333333,4,2,4,90,0,1
127404,-76.9230769230769,4,2,4,90,0,1
127888,-100,4,2,4,90,0,1
136436,-90.9090909090909,4,2,4,90,0,1
137081,-83.3333333333333,4,2,4,80,0,1
137726,-100,4,2,4,90,0,1
138372,-76.9230769230769,4,2,4,90,0,1
139178,-76.9230769230769,4,2,4,30,0,1
139662,-76.9230769230769,4,2,4,40,0,1
140307,-76.9230769230769,4,2,4,50,0,1
140952,-76.9230769230769,4,2,4,60,0,1
141597,-76.9230769230769,4,2,4,70,0,1
142243,-76.9230769230769,4,2,4,80,0,1
142888,-100,4,2,4,70,0,0
154339,-100,4,2,4,50,0,0
159662,-125,4,2,4,70,0,0
162565,-125,4,2,4,40,0,0
162888,-125,4,2,4,55,0,0
163210,-125,4,2,4,70,0,0
165952,-125,4,2,4,50,0,0
166114,-125,4,2,4,30,0,0
167404,-125,4,2,4,70,0,1
167485,-125,4,2,4,70,0,0
171275,-100,4,2,4,60,0,0
172565,-100,4,2,4,90,0,1
183049,-100,4,2,4,30,0,1
183855,-100,4,2,4,40,0,1
184178,-100,4,2,4,50,0,1
184823,-100,4,2,4,60,0,1
185468,-100,4,2,4,70,0,1
186114,-100,4,2,4,80,0,1
186759,-100,4,2,4,90,0,1
188210,-100,4,2,4,30,0,1
188694,-100,4,2,4,40,0,1
189339,-100,4,2,4,50,0,1
189985,-100,4,2,4,60,0,1
190630,-100,4,2,4,70,0,1
191275,-100,4,2,4,80,0,1
191920,-100,4,2,4,60,0,0
194339,-100,4,2,4,70,0,0
198694,-83.3333333333333,4,2,4,80,0,0
199017,-90.9090909090909,4,2,4,70,0,0
199339,-100,4,2,4,60,0,0
199662,-100,4,2,4,40,0,0
202243,-83.3333333333333,4,2,4,70,0,0
202888,-76.9230769230769,4,2,4,70,0,0
203372,-71.4285714285714,4,2,4,70,0,0
203694,-71.4285714285714,4,2,4,40,0,0
203855,-71.4285714285714,4,2,4,55,0,0
204178,-71.4285714285714,4,2,4,70,0,0
206114,-100,4,2,4,55,0,0
207404,-100,4,2,4,45,0,0
208694,-100,4,2,4,35,0,0
209662,-100,4,2,4,20,0,0

[Colours]
Combo1 : 128,216,39
Combo2 : 242,100,235
Combo3 : 106,181,208
Combo4 : 247,19,82

[HitObjects]
112,112,13856,6,0,P|104:152|100:200,1,85,4|0,0:0|0:0,0:0:0:0:
111,229,14057,2,0,L|108:252,3,21.25,8|8|8|8,0:0|0:0|0:0|0:0,0:0:0:0:
199,170,14339,5,8,0:0:0:0:
237,150,14420,1,8,0:0:0:0:
279,152,14501,1,8,0:0:0:0:
318,166,14581,1,8,0:0:0:0:
353,189,14662,1,8,0:0:0:0:
395,193,14743,1,8,0:0:0:0:
435,181,14823,2,0,L|460:163,2,28.3333333333333,8|8|8,0:0|0:0|0:0,0:0:0:0:
357,267,14985,6,0,P|244:261|172:271,1,170,4|0,0:0|0:0,0:0:0:0:
51,332,15468,2,0,P|38:267|44:235,1,85,8|0,0:0|0:0,0:0:0:0:
139,27,15791,1,0,0:0:0:0:
147,192,15952,1,0,0:0:0:0:
26,104,16114,1,8,0:0:0:0:
118,308,16275,6,0,P|193:311|261:221,1,170,4|0,0:0|0:0,0:0:0:0:
194,106,16759,1,8,0:0:0:0:
312,38,16920,2,0,P|406:30|422:30,1,85
294,129,17243,1,0,0:0:0:0:
459,89,17404,1,8,0:0:0:0:
318,257,17565,6,0,P|310:302|419:351,1,170,4|0,0:0|0:0,0:0:0:0:
318,257,18049,2,0,L|230:281,1,85,8|0,0:0|0:0,0:0:0:0:
135,340,18372,1,0,0:0:0:0:
206,168,18533,1,8,0:0:0:0:
206,168,18614,1,8,0:0:0:0:
206,168,18694,2,0,L|212:114,1,42.5,8|0,0:0|0:0,0:0:0:0:
72,63,18855,6,0,P|9:128|34:210,1,170,4|0,0:0|0:0,0:0:0:0:
132,355,19339,2,0,B|187:320|224:369|293:337,1,152.999995330811,12|0,0:0|0:0,0:0:0:0:
307,240,19662,2,0,P|376:239|428:284,1,140.25000428009,12|0,0:0|0:0,0:0:0:0:
481,347,19985,2,0,P|458:281|488:239,1,127.5,8|0,0:0|0:0,0:0:0:0:
488,238,20307,5,2,0:0:0:0:
101,182,20952,1,0,0:0:0:0:
429,73,21597,5,2,0:0:0:0:
117,173,22243,1,0,0:0:0:0:
465,168,22726,2,0,L|455:231,1,42.5,8|8,0:0|0:0,0:0:0:0:
440,309,22888,6,0,B|408:342|408:342|336:341|292:304|292:304|267:326,1,203.999993774414,4|0,0:0|0:0,0:0:0:0:
131,362,23372,1,0,0:0:0:0:
41,91,23533,6,0,P|-23:160|20:267,1,220.999989883423,12|0,0:0|0:0,0:0:0:0:
348,377,24017,6,0,L|370:251,1,118.999996368408,12|0,0:0|0:0,0:0:0:0:
409,16,24339,1,8,0:0:0:0:
231,286,24501,1,8,0:0:0:0:
475,153,24662,1,8,0:0:0:0:
214,88,24823,5,12,0:0:0:0:
491,359,24985,1,12,0:0:0:0:
491,359,25468,6,0,P|384:328|336:328,1,136,2|0,0:0|0:0,0:0:0:0:
251,354,25952,1,0,0:0:0:0:
149,381,26114,2,0,P|134:341|135:241,1,136,2|0,0:0|0:0,0:0:0:0:
68,132,26597,6,0,P|90:158|186:166,1,136,2|0,0:0|0:0,0:0:0:0:
287,77,27081,1,0,0:0:0:0:
193,8,27243,2,0,P|190:41|198:74,1,68,2|0,0:0|0:0,0:0:0:0:
347,205,27565,2,0,P|347:171|340:138,2,68,0|2|0,0:0|0:0|0:0,0:0:0:0:
392,47,28049,6,0,L|469:66,1,68,2|0,0:0|0:0,0:0:0:0:
347,205,28372,2,0,L|280:218,1,68,2|0,0:0|0:0,0:0:0:0:
217,152,28694,1,0,0:0:0:0:
129,214,28855,2,0,P|130:151|149:50,1,136,2|0,0:0|0:0,0:0:0:0:
239,32,29339,5,2,0:0:0:0:
313,117,29501,1,0,0:0:0:0:
220,123,29662,1,0,0:0:0:0:
335,27,29823,1,2,0:0:0:0:
406,147,29985,2,0,L|413:226,1,68,2|0,0:0|0:0,0:0:0:0:
314,300,30307,2,0,L|304:214,1,68,2|0,0:0|0:0,0:0:0:0:
508,242,30630,6,0,P|482:302|419:324,1,136,2|0,0:0|0:0,0:0:0:0:
314,300,31114,1,0,0:0:0:0:
243,372,31275,2,0,L|95:357,1,136,2|0,0:0|0:0,0:0:0:0:
39,271,31759,1,0,0:0:0:0:
125,204,31920,6,0,P|127:166|123:118,1,68,2|0,0:0|0:0,0:0:0:0:
24,75,32243,2,0,P|21:112|26:161,1,68
81,4,32565,1,2,0:0:0:0:
164,55,32726,2,0,L|240:83,2,68
270,157,33210,5,2,0:0:0:0:
345,125,33372,1,0,0:0:0:0:
421,97,33533,1,0,0:0:0:0:
259,171,33694,1,0,0:0:0:0:
432,104,33855,5,2,0:0:0:0:
348,139,34017,1,0,0:0:0:0:
348,139,34339,6,0,L|328:264,1,101.999996887207,12|0,0:0|0:0,0:0:0:0:
307,51,34662,1,8,0:0:0:0:
477,189,34823,1,8,0:0:0:0:
210,200,34985,1,8,0:0:0:0:
449,66,35146,1,8,0:0:0:0:
420,352,35307,1,8,0:0:0:0:
115,92,35791,6,4,P|207:117|249:187,1,170,4|8,0:0|0:0,0:0:0:0:
30,126,36275,1,0,0:0:0:0:
30,126,36355,1,8,0:0:0:0:
30,126,36436,2,0,L|38:25,1,85
31,236,36759,1,8,0:0:0:0:
31,236,36839,1,8,0:0:0:0:
31,236,36920,1,8,0:0:0:0:
151,233,37081,6,0,L|131:315,1,85
252,166,37404,1,8,0:0:0:0:
360,318,37565,1,8,0:0:0:0:
360,318,37646,1,8,0:0:0:0:
360,318,37726,2,0,P|380:261|372:213,1,85
325,50,38049,1,8,0:0:0:0:
456,140,38210,1,0,0:0:0:0:
252,166,38372,6,0,P|235:201|230:265,1,85
443,353,38694,1,8,0:0:0:0:
356,255,38855,1,0,0:0:0:0:
356,255,38936,1,8,0:0:0:0:
356,255,39017,1,0,0:0:0:0:
259,358,39178,1,0,0:0:0:0:
442,251,39339,1,8,0:0:0:0:
300,104,39501,6,0,L|115:77,1,170
29,193,39985,1,8,0:0:0:0:
120,310,40146,1,0,0:0:0:0:
120,310,40226,1,8,0:0:0:0:
120,310,40307,1,8,0:0:0:0:
246,190,40468,1,0,0:0:0:0:
276,175,40549,1,0,0:0:0:0:
310,174,40630,1,8,0:0:0:0:
341,185,40710,1,8,0:0:0:0:
369,204,40791,1,8,0:0:0:0:
387,232,40872,1,8,0:0:0:0:
399,263,40952,6,0,P|439:152|471:86,1,170,4|8,0:0|0:0,0:0:0:0:
466,330,41436,1,0,0:0:0:0:
466,330,41517,1,8,0:0:0:0:
466,330,41597,2,0,L|372:350,1,85
235,280,41920,1,8,0:0:0:0:
364,85,42081,6,0,P|392:108|370:226,1,170
185,142,42565,1,8,0:0:0:0:
298,304,42726,1,0,0:0:0:0:
298,304,42807,1,8,0:0:0:0:
298,304,42888,1,8,0:0:0:0:
99,314,43049,1,0,0:0:0:0:
266,205,43210,2,0,P|286:149|281:104,1,85,8|0,0:0|0:0,0:0:0:0:
129,113,43533,5,0,0:0:0:0:
241,21,43694,1,0,0:0:0:0:
46,40,43855,2,0,L|6:188,1,127.5,12|8,0:0|0:0,0:0:0:0:
5,188,44178,1,8,0:0:0:0:
199,99,44339,1,0,0:0:0:0:
104,246,44501,1,8,0:0:0:0:
238,365,44662,6,0,L|346:317,1,101.999996887207,12|0,0:0|0:0,0:0:0:0:
500,247,44985,1,8,0:0:0:0:
220,242,45146,1,8,0:0:0:0:
488,359,45307,1,8,0:0:0:0:
353,118,45468,1,8,0:0:0:0:
159,377,45630,1,8,0:0:0:0:
277,345,45791,1,0,0:0:0:0:
277,345,46114,6,0,L|290:260,1,68,0|0,3:0|0:0,0:0:0:0:
218,152,46436,2,0,L|207:219,1,68,0|0,3:0|0:0,0:0:0:0:
434,173,46759,2,0,P|380:154|318:195,1,136,0|0,3:0|3:0,0:0:0:0:
325,310,47243,1,0,0:0:0:0:
325,310,47404,6,0,L|409:284,1,68,0|0,3:0|0:0,0:0:0:0:
207,324,47726,2,0,P|165:283|166:196,1,136,0|0,3:0|3:0,0:0:0:0:
230,142,48210,1,0,0:0:0:0:
377,181,48372,2,0,P|337:193|307:185,1,68,0|0,3:0|0:0,0:0:0:0:
314,12,48694,6,0,P|326:12|417:112,1,136,0|0,3:0|3:0,0:0:0:0:
230,142,49178,2,0,L|244:75,1,68,0|0,0:0|3:0,0:0:0:0:
160,10,49501,2,0,L|147:76,1,68,0|0,0:0|3:0,0:0:0:0:
175,224,49823,6,0,P|211:259|301:249,1,136
419,156,50307,2,0,L|429:239,1,68,0|0,3:0|0:0,0:0:0:0:
466,369,50630,2,0,P|404:338|313:362,1,136,0|0,3:0|3:0,0:0:0:0:
248,381,51114,1,0,0:0:0:0:
331,174,51275,5,0,0:0:0:0:
165,245,53855,6,0,L|57:222,1,101.999996887207,12|0,0:0|0:0,0:0:0:0:
271,48,54178,2,0,P|315:103|299:185,1,152.999995330811,8|8,0:0|0:0,0:0:0:0:
278,209,54501,1,8,0:0:0:0:
158,96,54662,1,8,0:0:0:0:
383,13,54823,2,0,P|409:48|412:111,1,101.999996887207,8|0,0:0|0:0,0:0:0:0:
404,137,55065,1,8,0:0:0:0:
404,137,55146,5,4,0:0:0:0:
271,48,55307,1,8,0:0:0:0:
512,126,55468,2,0,P|511:152|478:227,1,101.999996887207,8|0,0:0|0:0,0:0:0:0:
483,221,55710,1,8,0:0:0:0:
483,221,55791,1,8,0:0:0:0:
383,13,55952,1,0,0:0:0:0:
318,168,56114,1,8,0:0:0:0:
206,39,56275,1,8,0:0:0:0:
206,39,56355,1,8,0:0:0:0:
206,39,56436,6,0,L|179:147,1,101.999996887207,4|0,0:0|0:0,0:0:0:0:
145,317,56759,1,8,0:0:0:0:
303,113,56920,1,8,0:0:0:0:
355,325,57081,1,8,0:0:0:0:
181,137,57243,1,8,0:0:0:0:
20,342,57404,5,8,0:0:0:0:
376,206,57565,1,8,0:0:0:0:
20,342,58049,6,0,B|25:295|25:295|75:270|104:298|104:298|181:297,1,204,4|0,0:0|0:0,0:0:0:0:
301,229,58694,1,2,0:0:0:0:
279,337,58855,1,0,0:0:0:0:
388,376,59017,6,0,P|414:343|419:301,1,85,4|0,0:0|0:0,0:0:0:0:
389,156,59339,2,0,L|489:134,1,85,8|0,0:0|0:0,0:0:0:0:
231,263,59662,1,2,0:0:0:0:
308,56,59823,1,0,0:0:0:0:
301,179,59985,1,8,0:0:0:0:
199,39,60146,1,0,0:0:0:0:
91,196,60307,6,0,P|71:243|79:296,1,85,2|0,0:0|0:0,0:0:0:0:
234,363,60630,1,8,0:0:0:0:
170,147,60791,1,0,0:0:0:0:
289,286,60952,2,0,L|382:264,1,85,2|0,0:0|0:0,0:0:0:0:
202,224,61275,1,8,0:0:0:0:
366,166,61436,1,0,0:0:0:0:
435,342,61597,6,0,P|381:361|283:284,1,187.000005706787,4|8,0:0|0:0,0:0:0:0:
276,104,62081,2,0,L|216:97,1,46.7500014266968,0|8,0:0|0:0,0:0:0:0:
175,23,62243,6,0,P|120:11|4:105,1,203.999993774414,4|8,0:0|0:0,0:0:0:0:
25,229,62726,2,0,L|18:286,1,50.9999984436036,0|8,0:0|0:0,0:0:0:0:
16,374,62888,6,0,L|128:351,1,110.499994941712,4|8,0:0|0:0,0:0:0:0:
125,352,63130,1,8,0:0:0:0:
125,352,63210,1,8,0:0:0:0:
202,250,63372,5,2,0:0:0:0:
244,230,63452,1,8,0:0:0:0:
290,234,63533,1,12,0:0:0:0:
326,263,63614,1,8,0:0:0:0:
368,280,63694,1,8,0:0:0:0:
414,276,63775,1,8,0:0:0:0:
441,238,63855,2,0,L|460:188,1,42.5,12|8,0:0|0:0,0:0:0:0:
401,94,64017,2,0,L|383:140,1,42.5,8|8,0:0|0:0,0:0:0:0:
270,114,64178,6,0,P|185:130|102:179,1,170,4|8,0:0|0:0,0:0:0:0:
48,313,64662,1,0,0:0:0:0:
227,211,64823,1,8,0:0:0:0:
227,211,64904,1,8,0:0:0:0:
227,211,64985,2,0,L|217:308,1,85,2|8,0:0|0:0,0:0:0:0:
125,100,65307,1,2,0:0:0:0:
340,194,65468,6,0,P|397:98|372:49,1,170,2|8,0:0|0:0,0:0:0:0:
202,34,65952,1,2,0:0:0:0:
202,34,66033,1,2,0:0:0:0:
202,34,66114,2,0,L|149:51,1,42.5
21,100,66275,2,0,L|83:119,1,42.5,2|0,0:0|0:0,0:0:0:0:
172,174,66436,5,8,0:0:0:0:
217,186,66517,1,0,0:0:0:0:
263,184,66597,1,2,0:0:0:0:
307,169,66678,1,0,0:0:0:0:
346,143,66759,6,0,P|420:144|480:228,1,170,4|8,0:0|0:0,0:0:0:0:
317,338,67243,1,0,0:0:0:0:
317,338,67323,1,2,0:0:0:0:
317,338,67404,2,0,L|329:242,1,85,2|0,0:0|0:0,0:0:0:0:
233,113,67726,1,8,0:0:0:0:
381,30,67888,1,8,0:0:0:0:
381,30,67968,1,8,0:0:0:0:
381,30,68049,6,0,P|404:64|403:137,1,85,4|8,0:0|0:0,0:0:0:0:
207,202,68372,1,8,0:0:0:0:
284,46,68533,1,8,0:0:0:0:
386,231,68694,5,8,0:0:0:0:
347,203,68775,1,8,0:0:0:0:
301,196,68855,1,8,0:0:0:0:
256,209,68936,1,8,0:0:0:0:
223,242,69017,1,10,0:0:0:0:
191,276,69097,1,8,0:0:0:0:
144,279,69178,1,8,0:0:0:0:
103,255,69259,1,8,0:0:0:0:
71,221,69339,6,0,P|78:174|104:133,1,85,4|0,0:0|0:0,0:0:0:0:
306,283,69662,2,0,L|285:369,1,85,8|0,0:0|0:0,0:0:0:0:
323,129,69985,2,0,P|358:115|414:124,1,85,2|0,0:0|0:0,0:0:0:0:
189,177,70307,2,0,L|93:158,1,85,8|0,0:0|0:0,0:0:0:0:
303,20,70630,6,0,L|315:128,1,85,2|0,0:0|0:0,0:0:0:0:
420,284,70952,2,0,L|433:200,1,85,8|0,0:0|0:0,0:0:0:0:
393,53,71275,1,2,0:0:0:0:
242,223,71436,1,0,0:0:0:0:
223,51,71597,1,8,0:0:0:0:
334,174,71759,1,0,0:0:0:0:
112,188,71920,6,0,P|59:238|84:368,1,187.000005706787,4|8,0:0|0:0,0:0:0:0:
234,376,72404,2,0,L|253:318,1,46.7500014266968,0|8,0:0|0:0,0:0:0:0:
252,228,72565,6,0,P|359:225|436:302,1,203.999993774414,4|8,0:0|0:0,0:0:0:0:
496,146,73049,2,0,L|489:96,1,50.9999984436036,0|8,0:0|0:0,0:0:0:0:
459,11,73210,5,4,0:0:0:0:
319,116,73372,1,10,0:0:0:0:
319,116,73452,1,8,0:0:0:0:
319,116,73533,2,0,L|310:191,1,42.5,8|0,0:0|0:0,0:0:0:0:
230,291,73694,1,10,0:0:0:0:
230,291,73775,1,8,0:0:0:0:
230,291,73855,6,0,P|174:319|68:255,1,165.749992412568,4|0,0:0|0:0,0:0:0:0:
60,142,74178,2,0,L|231:128,1,165.749992412568,4|0,0:0|0:0,0:0:0:0:
397,120,74501,5,4,0:0:0:0:
255,206,74662,1,8,0:0:0:0:
220,44,74823,1,8,0:0:0:0:
331,167,74985,1,8,0:0:0:0:
163,189,75146,1,8,0:0:0:0:
304,94,75307,1,8,0:0:0:0:
341,255,75468,1,8,0:0:0:0:
227,127,75630,1,8,0:0:0:0:
433,144,75791,5,8,0:0:0:0:
241,210,75952,1,8,0:0:0:0:
240,8,76114,1,8,0:0:0:0:
341,184,76275,1,8,0:0:0:0:
139,162,76436,1,8,0:0:0:0:
327,90,76597,1,8,0:0:0:0:
330,291,76759,1,8,0:0:0:0:
229,114,76920,1,8,0:0:0:0:
403,250,77081,5,8,0:0:0:0:
144,147,77243,1,8,0:0:0:0:
379,0,77404,1,8,0:0:0:0:
266,253,77565,1,8,0:0:0:0:
109,24,77726,1,8,0:0:0:0:
365,133,77888,1,8,0:0:0:0:
126,272,78049,1,8,0:0:0:0:
239,20,78210,1,8,0:0:0:0:
379,220,78372,6,0,L|392:330,1,85
388,304,78614,1,8,0:0:0:0:
388,304,78694,1,8,0:0:0:0:
269,299,78855,1,8,0:3:0:0:
231,289,78936,1,4,0:3:0:0:
194,300,79017,1,8,0:0:0:0:
166,325,79097,1,8,0:0:0:0:
128,332,79178,1,8,0:0:0:0:
90,324,79259,1,8,0:0:0:0:
72,290,79339,2,0,L|66:231,1,42.5
58,146,79501,5,4,0:0:0:0:
58,146,79823,1,0,0:0:0:0:
162,214,79985,2,0,P|175:149|169:117,1,85,8|0,0:0|0:0,0:0:0:0:
154,6,80307,1,0,0:0:0:0:
259,113,80468,1,0,0:0:0:0:
258,16,80630,1,8,0:0:0:0:
276,209,80791,6,0,P|330:274|428:253,1,170,4|0,0:0|0:0,0:0:0:0:
492,119,81275,1,8,0:0:0:0:
409,21,81436,2,0,P|315:13|299:13,1,85
136,113,81759,1,0,0:0:0:0:
195,9,81920,1,8,0:0:0:0:
301,198,82081,6,0,P|326:263|309:374,1,170,4|0,0:0|0:0,0:0:0:0:
184,279,82565,2,0,L|192:188,1,85,8|0,0:0|0:0,0:0:0:0:
65,307,82888,1,0,0:0:0:0:
176,99,83049,1,8,0:0:0:0:
176,99,83130,1,8,0:0:0:0:
176,99,83210,2,0,L|101:124,1,42.5,8|0,0:0|0:0,0:0:0:0:
271,25,83372,6,0,P|334:90|309:172,1,170,4|0,0:0|0:0,0:0:0:0:
237,353,83855,2,0,B|294:380|339:324|398:354,1,152.999995330811,12|0,0:0|0:0,0:0:0:0:
395,235,84178,2,0,P|326:234|274:279,1,140.25000428009,12|0,0:0|0:0,0:0:0:0:
175,249,84501,2,0,P|162:198|188:112,1,127.5,12|0,0:0|0:0,0:0:0:0:
232,58,84823,5,2,0:0:0:0:
173,335,85468,1,0,0:0:0:0:
339,54,86114,5,2,0:0:0:0:
184,241,86759,1,0,0:0:0:0:
410,120,87243,2,0,L|415:171,1,42.5,8|8,0:0|0:0,0:0:0:0:
412,286,87404,6,0,B|378:247|378:247|334:284|262:285|262:285|230:252,1,203.999993774414,4|0,0:0|0:0,0:0:0:0:
118,179,87888,1,0,0:0:0:0:
301,80,88049,6,0,B|421:58|421:58|449:89|455:152,1,220.999989883423,12|0,0:0|0:0,0:0:0:0:
190,365,88533,6,0,L|205:237,1,118.999996368408,12|0,0:0|0:0,0:0:0:0:
231,44,88855,1,8,0:0:0:0:
377,283,89017,1,8,0:0:0:0:
145,141,89178,1,8,0:0:0:0:
417,37,89339,5,12,0:0:0:0:
162,276,89501,1,12,0:0:0:0:
162,276,89985,6,0,P|269:245|317:245,1,136,2|0,0:0|0:0,0:0:0:0:
376,306,90468,1,0,0:0:0:0:
356,195,90630,2,0,P|368:120|399:38,1,136,2|0,0:0|0:0,0:0:0:0:
387,63,91114,1,2,0:0:0:0:
243,30,91275,6,0,L|173:19,1,68
87,55,91597,1,2,0:0:0:0:
166,114,91759,2,0,P|166:149|160:180,1,68,0|2,0:0|0:0,0:0:0:0:
52,219,92081,2,0,P|52:185|59:151,2,68,0|2|0,0:0|0:0|0:0,0:0:0:0:
96,318,92565,6,0,L|19:337,1,68,2|0,0:0|0:0,0:0:0:0:
165,247,92888,2,0,L|232:260,1,68,2|0,0:0|0:0,0:0:0:0:
297,334,93210,1,2,0:0:0:0:
393,303,93372,2,0,P|392:240|373:139,1,136,2|0,0:0|0:0,0:0:0:0:
327,49,93855,5,2,0:0:0:0:
429,90,94017,1,0,0:0:0:0:
292,123,94178,1,0,0:0:0:0:
429,90,94339,1,0,0:0:0:0:
292,123,94501,2,0,L|285:202,1,68,2|0,0:0|0:0,0:0:0:0:
191,92,94823,2,0,L|201:6,1,68
7,60,95146,6,0,P|33:120|96:142,1,136,2|0,0:0|0:0,0:0:0:0:
198,24,95630,1,0,0:0:0:0:
270,114,95791,2,0,L|291:267,1,136,2|0,0:0|0:0,0:0:0:0:
323,362,96275,1,2,0:0:0:0:
201,318,96436,6,0,P|199:280|203:232,1,68
367,204,96759,2,0,P|370:241|365:290,1,68,2|0,0:0|0:0,0:0:0:0:
316,357,97081,1,2,0:0:0:0:
418,384,97243,2,0,L|503:364,2,68,0|2|0,0:0|0:0|0:0,0:0:0:0:
468,214,97726,5,2,0:0:0:0:
328,316,97888,1,0,0:0:0:0:
485,293,98049,1,0,0:0:0:0:
327,303,98210,1,0,0:0:0:0:
463,197,98372,5,2,0:0:0:0:
326,292,98533,1,0,0:0:0:0:
326,292,98855,6,0,L|310:192,1,101.999996887207,12|0,0:0|0:0,0:0:0:0:
473,217,99178,1,8,0:0:0:0:
392,54,99339,1,8,0:0:0:0:
307,187,99501,1,8,0:0:0:0:
190,2,99662,1,8,0:0:0:0:
95,232,99823,1,8,0:0:0:0:
95,232,100307,6,0,P|130:183|237:180,1,170,4|8,0:0|0:0,0:0:0:0:
391,337,100791,1,0,0:0:0:0:
391,337,100872,1,8,0:0:0:0:
391,337,100952,2,0,L|404:234,1,85
317,41,101275,1,8,0:0:0:0:
317,41,101355,1,8,0:0:0:0:
317,41,101436,6,0,P|321:129|339:153,1,85
476,164,101759,1,0,0:0:0:0:
434,31,101920,1,8,0:0:0:0:
316,218,102081,1,0,0:0:0:0:
316,218,102162,1,8,0:0:0:0:
316,218,102243,1,8,0:0:0:0:
220,113,102404,2,0,P|166:100|121:122,1,85,0|8,0:0|0:0,0:0:0:0:
235,281,102726,1,0,0:0:0:0:
26,276,102888,6,0,L|36:192,1,85
36,191,103130,1,0,0:0:0:0:
36,191,103210,1,8,0:0:0:0:
46,46,103372,1,0,0:0:0:0:
46,46,103452,1,8,0:0:0:0:
46,46,103533,2,0,L|86:77,1,42.5
141,270,103694,2,0,L|140:227,1,42.5
142,140,103855,1,8,0:0:0:0:
277,277,104017,6,0,P|378:267|413:205,1,170
374,27,104501,1,8,0:0:0:0:
374,27,104581,1,0,0:0:0:0:
374,27,104662,2,0,L|305:40,1,42.5,0|8,0:0|0:0,0:0:0:0:
239,49,104823,1,0,0:0:0:0:
457,153,104985,1,8,0:0:0:0:
238,312,105146,1,8,0:0:0:0:
206,301,105226,1,8,0:0:0:0:
183,275,105307,1,8,0:0:0:0:
176,241,105388,1,8,0:0:0:0:
177,207,105468,6,0,P|217:96|249:30,1,170,4|8,0:0|0:0,0:0:0:0:
321,177,105952,1,0,0:0:0:0:
321,177,106033,1,8,0:0:0:0:
321,177,106114,2,0,L|415:197,1,85
319,22,106436,1,8,0:0:0:0:
471,113,106597,6,0,P|501:149|476:267,1,170
256,338,107081,1,8,0:0:0:0:
342,195,107243,1,0,0:0:0:0:
342,195,107323,1,8,0:0:0:0:
342,195,107404,1,0,0:0:0:0:
395,335,107565,1,0,0:0:0:0:
252,251,107726,2,0,P|232:195|237:150,1,85,8|0,0:0|0:0,0:0:0:0:
339,54,108049,5,0,0:0:0:0:
368,195,108210,1,0,0:0:0:0:
237,47,108372,2,0,L|81:42,1,127.5,8|8,0:0|0:0,0:0:0:0:
80,42,108694,1,0,0:0:0:0:
211,129,108855,1,0,0:0:0:0:
54,251,109017,1,8,0:0:0:0:
242,367,109178,6,0,L|250:244,1,101.999996887207,12|0,0:0|0:0,0:0:0:0:
126,342,109501,1,8,0:0:0:0:
264,117,109662,1,8,0:0:0:0:
354,276,109823,1,8,0:0:0:0:
247,11,109985,1,8,0:0:0:0:
140,306,110146,1,8,0:0:0:0:
171,205,110307,1,0,0:0:0:0:
171,205,110630,6,0,L|90:197,1,68,0|0,3:0|0:0,0:0:0:0:
255,141,110952,2,0,L|325:130,1,68,0|0,3:0|0:0,0:0:0:0:
468,171,111275,2,0,P|392:185|355:240,1,136,0|0,3:0|3:0,0:0:0:0:
440,326,111759,6,0,P|451:286|442:247,2,68,0|0|0,0:0|3:0|0:0,0:0:0:0:
286,353,112243,2,0,P|267:307|266:220,1,136,0|0,3:0|3:0,0:0:0:0:
306,132,112726,1,0,0:0:0:0:
377,188,112888,2,0,P|409:198|442:202,1,68,0|8,3:0|0:0,0:0:0:0:
365,56,113210,6,0,P|300:40|237:67,1,136,0|0,3:0|3:0,0:0:0:0:
169,137,113694,1,8,0:0:0:0:
142,43,113855,1,0,3:0:0:0:
260,156,114017,1,8,0:0:0:0:
76,121,114178,1,0,3:0:0:0:
205,228,114339,1,0,0:0:0:0:
102,211,114501,6,0,L|91:282,1,68,0|8,3:0|0:0,0:0:0:0:
172,372,114823,2,0,L|182:304,1,68,0|8,3:0|0:0,0:0:0:0:
187,168,115146,2,0,P|256:215|316:186,1,136,0|0,3:0|3:0,0:0:0:0:
358,97,115630,1,0,0:0:0:0:
440,267,115791,5,0,0:0:0:0:
192,101,117404,6,0,L|101:121,1,85,12|0,0:0|0:0,0:0:0:0:
108,119,117646,1,8,0:0:0:0:
108,119,117726,1,12,0:0:0:0:
343,90,117888,1,8,0:0:0:0:
343,90,117968,1,8,0:0:0:0:
343,90,118049,2,0,L|345:144,1,42.5,8|8,0:0|0:0,0:0:0:0:
271,211,118210,2,0,L|268:168,1,42.5,8|8,0:0|0:0,0:0:0:0:
382,279,118372,6,0,P|333:252|193:279,1,191.250007295609,4|0,0:0|0:0,0:0:0:0:
382,279,119017,2,0,P|377:196|359:150,1,127.500004863739,12|0,0:0|0:0,0:0:0:0:
246,33,119501,1,8,0:0:0:0:
186,193,119662,5,4,0:0:0:0:
330,48,119823,2,0,L|404:56,1,63.7500024318696,8|0,0:0|0:0,0:0:0:0:
300,186,120146,1,0,0:0:0:0:
177,107,120307,2,0,L|107:115,1,63.7500024318696,8|0,0:0|0:0,0:0:0:0:
207,309,120630,1,8,0:0:0:0:
214,278,120710,1,8,0:0:0:0:
209,246,120791,1,8,0:0:0:0:
209,213,120872,1,8,0:0:0:0:
207,180,120952,6,0,L|319:187,1,85,12|0,0:0|0:0,0:0:0:0:
482,195,121275,1,8,0:0:0:0:
306,287,121436,1,8,0:0:0:0:
335,77,121597,1,8,0:0:0:0:
437,328,121759,1,8,0:0:0:0:
467,63,121920,1,8,0:0:0:0:
215,180,122081,1,8,0:0:0:0:
215,180,122565,6,0,B|217:131|217:131|154:115|105:148|105:148|74:103,1,204,12|8,0:0|0:0,0:0:0:0:
145,12,123210,1,8,0:0:0:0:
184,24,123291,1,8,0:0:0:0:
223,36,123372,1,8,0:0:0:0:
261,47,123452,1,8,0:0:0:0:
309,62,123533,6,0,L|401:41,1,85,4|0,0:0|0:0,0:0:0:0:
343,270,123855,2,0,P|344:211|330:168,1,85,8|0,0:0|0:0,0:0:0:0:
158,254,124178,2,0,P|149:295|152:337,1,85,2|0,0:0|0:0,0:0:0:0:
165,121,124501,2,0,L|83:103,1,85,8|0,0:0|0:0,0:0:0:0:
278,92,124823,6,0,P|298:45|290:-8,1,85,2|0,0:0|0:0,0:0:0:0:
350,172,125146,1,8,0:0:0:0:
464,41,125307,1,0,0:0:0:0:
418,233,125468,2,0,L|425:339,1,85,2|0,0:0|0:0,0:0:0:0:
237,340,125791,1,8,0:0:0:0:
325,235,125952,1,0,0:0:0:0:
146,285,126114,6,0,P|79:285|24:184,1,187.000005706787,4|8,0:0|0:0,0:0:0:0:
220,96,126597,2,0,L|225:166,1,46.7500014266968,0|8,0:0|0:0,0:0:0:0:
261,238,126759,6,0,P|340:262|420:176,1,203.999993774414,12|8,0:0|0:0,0:0:0:0:
218,19,127243,2,0,L|208:73,1,50.9999984436036,0|8,0:0|0:0,0:0:0:0:
145,211,127404,6,0,L|161:325,1,110.499994941712,12|0,0:0|0:0,0:0:0:0:
160,320,127646,1,8,0:0:0:0:
160,320,127726,1,8,0:0:0:0:
374,373,127888,5,8,0:0:0:0:
384,327,127968,1,8,0:0:0:0:
380,280,128049,1,12,0:0:0:0:
366,235,128130,1,8,0:0:0:0:
356,189,128210,1,10,0:0:0:0:
363,142,128291,1,8,0:0:0:0:
374,96,128372,2,0,L|390:33,1,42.5,12|8,0:0|0:0,0:0:0:0:
481,169,128533,2,0,L|485:218,1,42.5,8|8,0:0|0:0,0:0:0:0:
505,353,128694,6,0,P|381:317|330:347,1,170,4|8,0:0|0:0,0:0:0:0:
175,301,129178,1,0,0:0:0:0:
278,190,129339,1,8,0:0:0:0:
278,190,129420,1,8,0:0:0:0:
278,190,129501,2,0,L|273:287,1,85,2|8,0:0|0:0,0:0:0:0:
144,212,129823,1,2,0:0:0:0:
243,90,129985,6,0,P|343:45|425:61,1,170,2|8,0:0|0:0,0:0:0:0:
449,205,130468,1,2,0:0:0:0:
449,205,130549,1,2,0:0:0:0:
449,205,130630,2,0,L|432:257,1,42.5,2|0,0:0|0:0,0:0:0:0:
344,314,130791,2,0,L|328:269,1,42.5,2|0,0:0|0:0,0:0:0:0:
297,141,130952,5,8,0:0:0:0:
251,129,131033,1,0,0:0:0:0:
207,146,131114,1,2,0:0:0:0:
171,176,131194,1,0,0:0:0:0:
124,180,131275,6,0,P|63:145|65:47,1,170,4|8,0:0|0:0,0:0:0:0:
194,264,131759,1,0,0:0:0:0:
194,264,131839,1,2,0:0:0:0:
194,264,131920,2,0,L|184:369,1,85,2|0,0:0|0:0,0:0:0:0:
265,171,132243,1,8,0:0:0:0:
330,371,132404,1,8,0:0:0:0:
330,371,132485,1,8,0:0:0:0:
330,371,132565,6,0,P|353:337|352:264,1,85,4|8,0:0|0:0,0:0:0:0:
325,119,132888,1,8,0:0:0:0:
425,221,133049,1,8,0:0:0:0:
361,36,133210,5,8,0:0:0:0:
316,22,133291,1,8,0:0:0:0:
273,41,133372,1,10,0:0:0:0:
236,70,133452,1,8,0:0:0:0:
212,110,133533,1,8,0:0:0:0:
165,107,133614,1,8,0:0:0:0:
118,111,133694,1,10,0:0:0:0:
79,137,133775,1,8,0:0:0:0:
59,179,133855,6,0,P|66:226|92:267,1,85,4|0,0:0|0:0,0:0:0:0:
427,258,134178,2,0,P|447:220|453:179,1,85,8|0,0:0|0:0,0:0:0:0:
159,13,134501,2,0,L|147:119,1,85,2|0,0:0|0:0,0:0:0:0:
362,97,134823,2,0,L|353:13,1,85,8|0,0:0|0:0,0:0:0:0:
176,284,135146,6,0,L|74:286,1,85,2|0,0:0|0:0,0:0:0:0:
336,284,135468,2,0,L|438:286,1,85,8|0,0:0|0:0,0:0:0:0:
183,200,135791,1,2,0:0:0:0:
370,141,135952,1,0,0:0:0:0:
336,284,136114,1,8,0:0:0:0:
279,93,136275,1,0,0:0:0:0:
82,242,136436,6,0,P|29:192|63:80,1,187.000005706787,4|8,0:0|0:0,0:0:0:0:
240,26,136920,2,8,L|183:41,1,46.7500014266968
62,82,137081,5,4,3:2:0:0:
271,151,137243,1,8,0:0:0:0:
53,228,137404,1,0,3:0:0:0:
265,290,137565,2,8,L|258:340,1,50.9999984436036
182,236,137726,5,4,3:2:0:0:
387,255,137888,1,8,0:0:0:0:
387,255,137968,1,8,0:0:0:0:
387,255,138049,2,8,L|382:189,1,42.5
372,65,138210,1,8,0:0:0:0:
372,65,138291,1,8,0:0:0:0:
372,65,138372,6,0,P|316:37|218:70,1,165.749992412568,12|0,0:0|0:0,0:0:0:0:
189,196,138694,2,0,P|105:235|23:209,1,165.749992412568,12|0,0:0|0:0,0:0:0:0:
1,123,139017,5,4,0:0:0:0:
156,44,139178,1,8,0:0:0:0:
135,238,139339,1,8,0:0:0:0:
102,132,139501,1,8,0:0:0:0:
269,127,139662,1,8,0:0:0:0:
106,318,139823,1,8,0:0:0:0:
191,172,139985,1,8,0:0:0:0:
290,346,140146,1,8,0:0:0:0:
98,219,140307,5,8,0:0:0:0:
309,108,140468,1,8,0:0:0:0:
197,277,140630,1,8,0:0:0:0:
256,31,140791,1,8,0:0:0:0:
378,230,140952,1,8,0:0:0:0:
174,104,141114,1,8,0:0:0:0:
400,51,141275,1,8,0:0:0:0:
234,193,141436,1,8,0:0:0:0:
332,0,141597,5,8,0:0:0:0:
389,306,141759,1,8,0:0:0:0:
98,182,141920,1,8,0:0:0:0:
408,125,142081,1,8,0:0:0:0:
114,355,142243,1,8,0:0:0:0:
261,54,142404,1,8,0:0:0:0:
464,334,142565,1,8,0:0:0:0:
92,240,142726,1,8,0:0:0:0:
92,240,143533,5,8,0:0:0:0:
350,300,143694,1,8,0:0:0:0:
253,59,144178,5,0,3:0:0:0:
102,88,154339,5,8,0:0:0:0:
107,104,154420,1,8,0:0:0:0:
115,118,154501,2,0,P|101:167|92:215,1,85,4|0,3:2|3:0,0:0:0:0:
73,307,154743,1,0,0:0:0:0:
85,290,154823,2,0,L|176:283,1,85,8|0,0:0|0:0,0:0:0:0:
246,331,155065,1,8,0:0:0:0:
261,337,155146,6,0,L|321:340,1,42.5,0|8,3:0|0:0,0:0:0:0:
395,349,155307,2,0,L|453:337,1,42.5,0|0,1:0|0:0,0:0:0:0:
494,272,155468,1,8,0:0:0:0:
482,142,155630,1,0,3:0:0:0:
482,142,155710,1,8,0:0:0:0:
482,142,155791,6,0,L|463:80,1,42.5,0|8,3:0|0:0,0:0:0:0:
329,100,155952,2,0,L|347:155,1,42.5,0|0,3:0|0:0,0:0:0:0:
372,232,156114,1,8,0:0:0:0:
252,295,156275,5,0,3:0:0:0:
237,301,156355,1,0,3:0:0:0:
220,303,156436,2,0,L|150:286,1,42.5,0|8,3:0|0:0,0:0:0:0:
93,233,156597,2,0,L|109:172,1,42.5,0|0,3:0|0:0,0:0:0:0:
129,89,156759,5,10,0:0:0:0:
145,91,156839,1,8,3:0:0:0:
161,93,156920,1,8,0:0:0:0:
178,94,157001,1,0,0:0:0:0:
194,95,157081,2,8,L|283:80,1,85,4|0,0:0|0:0,0:0:0:0:
374,41,157323,5,0,3:0:0:0:
374,58,157404,2,0,L|364:121,1,42.5,0|8,3:0|0:0,0:0:0:0:
270,166,157565,2,0,L|281:223,1,42.5,0|0,3:0|0:0,0:0:0:0:
326,281,157726,5,8,0:0:0:0:
402,197,157888,1,0,3:0:0:0:
433,324,158049,1,8,0:0:0:0:
269,363,158210,6,0,P|197:350|125:350,1,127.5,0|0,3:0|3:0,0:0:0:0:
58,283,158533,1,0,3:0:0:0:
69,270,158614,1,0,3:0:0:0:
78,256,158694,6,0,L|83:190,1,42.5,8|0,0:0|3:0,0:0:0:0:
154,162,158855,2,0,L|136:102,1,42.5,8|0,0:0|3:0,0:0:0:0:
91,41,159017,5,4,0:0:0:0:
127,31,159097,1,8,0:0:0:0:
162,45,159178,1,8,0:0:0:0:
199,52,159259,1,8,0:0:0:0:
235,42,159339,2,0,L|309:47,2,56.6666666666667,8|8|8,0:0|0:0|0:0,0:0:0:0:
130,174,159662,6,0,P|106:228|134:321,1,136,4|0,0:0|0:0,0:0:0:0:
207,346,160146,1,0,0:0:0:0:
285,231,160307,2,0,P|410:248|436:310,1,204,12|8,0:0|0:0,0:0:0:0:
248,129,160952,5,4,0:0:0:0:
374,127,161114,2,0,P|373:40|328:-20,1,136,8|0,0:0|0:0,0:0:0:0:
309,217,161597,2,0,L|376:240,1,68,4|0,0:0|0:0,0:0:0:0:
193,268,161920,1,8,0:0:0:0:
158,283,162001,1,8,0:0:0:0:
115,284,162081,1,8,0:0:0:0:
85,274,162162,1,8,0:0:0:0:
58,247,162243,6,0,P|54:173|97:111,1,136,4|8,0:0|0:0,0:0:0:0:
333,172,162726,1,8,0:0:0:0:
148,200,162888,1,8,0:0:0:0:
411,28,163049,1,8,0:0:0:0:
430,342,163210,1,8,0:0:0:0:
148,200,163372,1,8,0:0:0:0:
487,259,163855,5,4,0:0:0:0:
256,192,163936,12,2,166114,0:0:0:0:
258,129,167404,5,4,0:0:0:0:
148,303,169985,6,0,P|126:202|151:149,1,136,12|0,0:0|0:0,0:0:0:0:
135,174,170468,1,0,0:0:0:0:
368,118,170630,2,0,P|392:180|380:246,1,136,12|0,0:0|0:0,0:0:0:0:
379,246,171114,1,0,0:0:0:0:
225,10,171275,5,12,0:0:0:0:
10,78,171436,1,8,0:0:0:0:
10,78,171517,1,8,0:0:0:0:
10,78,171597,2,0,L|0:133,1,42.5,8|8,0:0|0:0,0:0:0:0:
24,301,171759,2,0,L|35:237,1,42.5,10|8,0:0|0:0,0:0:0:0:
81,179,171920,5,4,0:0:0:0:
127,177,172001,1,8,0:0:0:0:
171,188,172081,1,10,0:0:0:0:
217,189,172162,1,8,0:0:0:0:
220,266,172243,5,4,0:0:0:0:
266,267,172323,1,8,0:0:0:0:
311,278,172404,1,8,0:0:0:0:
357,280,172485,1,8,0:0:0:0:
411,333,172565,6,0,P|433:267|421:239,1,85,4|2,0:0|0:0,0:0:0:0:
385,176,172807,1,2,0:0:0:0:
385,176,172888,1,8,0:0:0:0:
185,100,173049,1,0,0:0:0:0:
398,63,173210,2,0,L|509:43,1,85,2|0,0:0|0:0,0:0:0:0:
483,281,173533,5,8,0:0:0:0:
450,253,173614,1,0,0:0:0:0:
408,247,173694,1,2,0:0:0:0:
367,259,173775,1,0,0:0:0:0:
337,288,173855,6,0,L|322:383,1,85,2|0,0:0|0:0,0:0:0:0:
383,129,174178,1,8,0:0:0:0:
206,230,174339,1,2,0:0:0:0:
206,230,174420,1,2,0:0:0:0:
206,230,174501,2,0,L|138:243,1,42.5,2|0,0:0|0:0,0:0:0:0:
72,117,174662,2,0,L|127:114,1,42.5,2|0,0:0|0:0,0:0:0:0:
67,214,174823,5,8,0:0:0:0:
43,244,174904,1,0,0:0:0:0:
37,282,174985,1,2,0:0:0:0:
40,319,175065,1,0,0:0:0:0:
67,345,175146,6,0,L|221:323,1,127.5,4|0,0:0|0:0,0:0:0:0:
231,303,175468,2,0,L|338:312,1,85,8|0,0:0|0:0,0:0:0:0:
483,175,175791,1,2,0:0:0:0:
288,201,175952,1,0,0:0:0:0:
499,329,176114,1,8,0:0:0:0:
389,138,176275,5,8,0:0:0:0:
389,138,176355,1,8,0:0:0:0:
389,138,176436,1,4,0:0:0:0:
193,328,176597,1,8,0:0:0:0:
39,64,176759,1,8,0:0:0:0:
334,252,176920,5,10,0:0:0:0:
376,246,177001,1,10,0:0:0:0:
412,224,177081,1,8,0:0:0:0:
436,190,177162,1,0,0:0:0:0:
447,148,177243,1,8,0:0:0:0:
444,105,177323,1,8,0:0:0:0:
423,67,177404,1,10,0:0:0:0:
387,43,177485,1,8,0:0:0:0:
347,27,177565,1,10,0:0:0:0:
304,28,177646,1,8,0:0:0:0:
266,50,177726,6,0,P|254:81|240:147,1,85,4|0,0:0|0:0,0:0:0:0:
147,357,178049,2,0,P|138:308|120:262,1,85,8|0,0:0|0:0,0:0:0:0:
53,160,178372,1,2,0:0:0:0:
266,288,178533,1,0,0:0:0:0:
153,101,178694,1,8,0:0:0:0:
0,246,178855,1,0,0:0:0:0:
226,371,179017,6,0,P|330:343|359:277,1,170,2|8,0:0|0:0,0:0:0:0:
258,92,179501,1,0,0:0:0:0:
60,171,179662,2,0,P|39:120|48:72,1,85,2|0,0:0|0:0,0:0:0:0:
177,304,179985,2,0,L|145:401,1,85,8|0,0:0|0:0,0:0:0:0:
366,142,180307,5,4,0:0:0:0:
179,219,180468,1,0,0:0:0:0:
434,308,180630,1,8,0:0:0:0:
253,190,180791,1,0,0:0:0:0:
443,108,180952,1,4,0:0:0:0:
166,224,181114,1,0,0:0:0:0:
512,291,181275,1,8,0:0:0:0:
243,196,181436,1,0,0:0:0:0:
289,384,181597,6,0,L|307:299,1,85,4|0,0:0|0:0,0:0:0:0:
384,182,181839,1,8,0:0:0:0:
384,182,181920,2,0,L|436:171,1,42.5,8|8,0:0|0:0,0:0:0:0:
257,100,182081,2,0,L|199:90,1,42.5,8|8,0:0|0:0,0:0:0:0:
389,18,182243,5,4,0:0:0:0:
417,54,182323,1,8,0:0:0:0:
425,100,182404,1,8,0:0:0:0:
412,145,182485,1,8,0:0:0:0:
384,182,182565,5,4,0:0:0:0:
338,168,182646,1,8,0:0:0:0:
292,174,182726,1,8,0:0:0:0:
252,199,182807,1,8,0:0:0:0:
233,242,182888,6,0,L|215:358,1,85,4|8,0:0|0:0,0:0:0:0:
454,272,183210,1,8,0:0:0:0:
292,174,183372,1,8,0:0:0:0:
303,367,183533,1,8,0:0:0:0:
407,167,183694,5,8,0:0:0:0:
236,278,183855,1,8,0:0:0:0:
399,364,184017,1,8,0:0:0:0:
419,150,184178,5,8,0:0:0:0:
408,345,184339,1,8,0:0:0:0:
280,138,184501,1,8,0:0:0:0:
291,333,184662,1,8,0:0:0:0:
434,138,184823,5,8,0:0:0:0:
421,352,184985,1,8,0:0:0:0:
281,124,185146,1,8,0:0:0:0:
293,339,185307,1,8,0:0:0:0:
455,123,185468,5,8,0:0:0:0:
440,358,185630,1,8,0:0:0:0:
286,107,185791,1,8,0:0:0:0:
299,344,185952,1,8,0:0:0:0:
466,102,186114,5,8,0:0:0:0:
449,360,186275,1,8,0:0:0:0:
280,84,186436,1,8,0:0:0:0:
298,351,186597,1,8,0:0:0:0:
476,75,186759,5,8,0:0:0:0:
457,363,186920,1,8,0:0:0:0:
271,55,187081,1,8,0:0:0:0:
289,356,187243,1,8,0:0:0:0:
495,49,187404,5,8,0:0:0:0:
469,377,187565,1,8,0:0:0:0:
269,27,187726,1,8,0:0:0:0:
286,364,187888,1,8,0:0:0:0:
494,24,188049,5,12,0:0:0:0:
225,128,188210,1,8,0:0:0:0:
504,157,188372,1,8,0:0:0:0:
254,33,188533,1,8,0:0:0:0:
469,18,188694,5,8,0:0:0:0:
196,131,188855,1,8,0:0:0:0:
506,164,189017,1,8,0:0:0:0:
219,45,189178,1,8,0:0:0:0:
460,23,189339,5,8,0:0:0:0:
155,142,189501,1,8,0:0:0:0:
510,171,189662,1,8,0:0:0:0:
187,47,189823,1,8,0:0:0:0:
448,24,189985,5,8,0:0:0:0:
113,154,190146,1,8,0:0:0:0:
504,179,190307,1,8,0:0:0:0:
146,45,190468,1,8,0:0:0:0:
440,24,190630,5,8,0:0:0:0:
65,166,190791,1,8,0:0:0:0:
499,188,190952,1,8,0:0:0:0:
104,49,191114,1,8,0:0:0:0:
427,23,191275,5,8,0:0:0:0:
14,188,191436,1,8,0:0:0:0:
512,220,191597,1,8,0:0:0:0:
45,59,191759,1,8,0:0:0:0:
241,340,193210,6,0,L|245:237,1,85
242,222,193412,2,0,L|238:184,3,21.25,8|8|8|8,0:0|0:0|0:0|0:0,0:0:0:0:
254,49,193694,5,8,0:0:0:0:
254,49,193775,1,8,0:0:0:0:
254,49,193855,2,0,L|203:88,1,42.5,8|8,0:0|0:0,0:0:0:0:
131,277,194017,2,0,L|137:235,1,42.5,8|8,0:0|0:0,0:0:0:0:
12,67,194178,2,0,L|48:89,1,42.5,8|0,0:0|0:0,0:0:0:0:
112,155,194339,6,0,P|225:161|297:151,1,170,4|0,0:0|0:0,0:0:0:0:
397,14,194823,2,0,P|382:65|376:97,1,85,8|0,0:0|0:0,0:0:0:0:
428,285,195146,1,0,0:0:0:0:
291,71,195307,1,0,0:0:0:0:
495,88,195468,1,8,0:0:0:0:
279,257,195630,6,0,P|221:255|160:167,1,170,4|0,0:0|0:0,0:0:0:0:
122,27,196114,1,8,0:0:0:0:
27,178,196275,2,0,P|35:272|35:288,1,85
263,153,196597,1,0,0:0:0:0:
136,334,196759,1,8,0:0:0:0:
406,366,196920,6,0,P|419:266|381:205,1,170,4|0,0:0|0:0,0:0:0:0:
325,67,197404,2,0,L|413:43,1,85,8|0,0:0|0:0,0:0:0:0:
493,159,197726,1,0,0:0:0:0:
309,205,197888,1,8,0:0:0:0:
309,205,197968,1,8,0:0:0:0:
309,205,198049,2,0,L|297:263,1,42.5,8|0,0:0|0:0,0:0:0:0:
325,67,198210,6,0,P|234:56|169:108,1,170,4|0,0:0|0:0,0:0:0:0:
152,256,198694,2,0,B|97:291|60:242|-9:274,1,152.999995330811,4|0,0:0|0:0,0:0:0:0:
150,375,199017,2,0,P|217:360|257:304,1,140.25000428009,12|0,0:0|0:0,0:0:0:0:
331,217,199339,2,0,P|354:283|358:342,1,127.5,12|0,0:0|0:0,0:0:0:0:
234,213,199662,5,2,0:0:0:0:
468,134,200307,1,0,0:0:0:0:
145,110,200952,5,2,0:0:0:0:
440,133,201597,1,0,0:0:0:0:
120,289,202081,2,0,L|130:226,1,42.5,8|8,0:0|0:0,0:0:0:0:
245,200,202243,6,0,P|259:74|197:34,1,203.999993774414,4|0,0:0|0:0,0:0:0:0:
71,197,202726,1,0,0:0:0:0:
161,348,202888,6,0,B|294:357|294:357|348:288,1,220.999989883423,12|0,0:0|0:0,0:0:0:0:
441,69,203372,6,0,L|318:92,1,118.999996368408,12|0,0:0|0:0,0:0:0:0:
53,126,203694,1,8,0:0:0:0:
309,237,203855,1,8,0:0:0:0:
166,21,204017,1,8,0:0:0:0:
0,292,204178,5,12,0:0:0:0:
383,157,204339,1,12,0:0:0:0:
35,209,204662,5,4,0:0:0:0:
256,192,204743,12,0,209823,0:0:0:0:
