osu file format v14

[General]
AudioFilename: audio.mp3
AudioLeadIn: 0
PreviewTime: 58997
Countdown: 0
SampleSet: Soft
StackLeniency: 0.4
Mode: 0
LetterboxInBreaks: 0
WidescreenStoryboard: 1

[Editor]
Bookmarks: 35852,46175,53916,74562
DistanceSpacing: 1.2
BeatDivisor: 4
GridSize: 8
TimelineZoom: 2.2

[Metadata]
Title:Heart no Atoaji
TitleUnicode:ハートの後味
Artist:yuikonnu
ArtistUnicode:ゆいこんぬ
Creator:Cappu
Version:Easy
Source:
Tags:eijikuinbii kyle y まふまふ mafumafu cut version dendymudak -rmdy hou rearu
BeatmapID:1
BeatmapSetID:-1

[Difficulty]
HPDrainRate:3
CircleSize:2.8
OverallDifficulty:3
ApproachRate:4
SliderMultiplier:0.899999999999999
SliderTickRate:1

[Events]
//Background and Video events
0,0,"BG.jpg",0,0
//Break Periods
2,25529,33080
//Storyboard Layer 0 (Background)
//Storyboard Layer 1 (Fail)
//Storyboard Layer 2 (Pass)
//Storyboard Layer 3 (Foreground)
//Storyboard Sound Samples

[TimingPoints]
12626,322.58064516129,4,2,0,100,1,0
15045,-100,4,2,1,80,0,0
35851,-100,4,2,1,75,0,0
46174,-100,4,2,1,60,0,0
53916,-100,4,2,1,85,0,0
59077,-100,4,2,1,90,0,1
74561,-100,4,2,1,90,0,1
75851,-100,4,2,1,90,0,1
77142,-100,4,2,1,90,0,1
78432,-100,4,2,1,90,0,0
78755,-100,4,2,1,90,0,0
79561,-100,4,2,1,90,0,0
83916,-100,4,2,0,90,0,0
84884,-100,4,2,0,60,0,0
87464,-100,4,2,0,80,0,0

[Colours]
Combo1 : 0,198,198
Combo2 : 16,105,254
Combo3 : 205,67,167
Combo4 : 206,206,0

[HitObjects]
136,132,15045,6,0,B|201:151|251:92|251:92|347:103,1,225,4|0,0:0|0:0,0:0:0:0:
461,32,16335,2,0,L|470:130,1,89.9999999999999,2|0,0:0|0:0,0:0:0:0:
401,180,16980,2,0,L|392:278,1,89.9999999999999,0|0,0:0|0:0,0:0:0:0:
317,318,17625,6,0,B|274:322|236:284|236:284|178:331|106:300,1,225,4|2,0:0|0:0,0:0:0:0:
29,193,18916,2,0,B|85:155|85:155|152:177,1,135,4|4,0:0|0:0,0:0:0:0:
239,161,19722,1,4,0:0:0:0:
323,192,20045,1,0,0:0:0:0:
407,223,20367,6,0,P|412:173|437:128,2,89.9999999999999,0|0|0,0:0|0:0|0:0,0:0:0:0:
512,370,21658,2,0,P|507:320|482:275,2,89.9999999999999,0|0|0,0:0|0:0|0:0,0:0:0:0:
343,309,22948,6,0,B|289:270|289:270|179:301,1,180,4|4,0:0|0:0,0:0:0:0:
51,339,24077,1,4,0:0:0:0:
82,208,24561,2,0,B|173:182,1,89.9999999999999,0|4,3:0|3:0,0:0:0:0:
127,180,34400,6,0,B|208:153|208:153|275:166,1,135,4|0,0:0|3:0,0:0:0:0:
345,183,35206,1,4,3:0:0:0:
228,43,35851,6,0,L|120:36,2,89.9999999999999,4|8|0,0:0|0:0|0:0,0:0:0:0:
316,62,36819,1,8,0:0:0:0:
395,21,37142,2,0,P|427:57|452:90,1,89.9999999999999,0|8,0:0|0:0,0:0:0:0:
469,179,37787,2,0,L|461:268,2,89.9999999999999,2|8|0,0:0|0:0|0:0,0:0:0:0:
383,147,38755,5,8,0:0:0:0:
294,160,39077,2,0,L|185:156,1,89.9999999999999,0|8,0:0|0:0,0:0:0:0:
238,73,39722,2,0,L|328:74,2,89.9999999999999,0|8|0,0:0|0:0|0:0,0:0:0:0:
149,84,40690,1,10,0:0:0:0:
93,159,41013,6,0,B|113:200|113:200|117:263,1,89.9999999999999,4|8,0:0|0:0,0:0:0:0:
114,334,41658,2,0,L|11:349,2,89.9999999999999,0|8|0,0:0|0:0|0:0,0:0:0:0:
192,291,42625,1,8,0:0:0:0:
281,304,42948,2,0,L|299:202,1,89.9999999999999,0|8,0:0|0:0,0:0:0:0:
217,173,43593,2,0,L|199:71,1,89.9999999999999,8|8,3:0|3:0,0:0:0:0:
281,42,44238,1,0,3:0:0:0:
368,66,44561,2,0,L|377:122,1,45,0|4,3:0|3:0,0:0:0:0:
477,199,45206,2,0,B|428:206|428:206|401:232|401:232|350:239,1,135,0|4,3:0|3:0,0:0:0:0:
232,299,46174,6,0,P|227:194|163:160,1,180,0|0,3:0|3:0,0:0:0:0:
157,250,47142,1,0,3:0:0:0:
86,195,47464,2,0,P|79:150|105:98,1,89.9999999999999,0|0,3:0|3:0,0:0:0:0:
175,70,48109,2,0,L|272:79,1,89.9999999999999,0|0,3:0|3:0,0:0:0:0:
344,35,48755,6,0,B|376:123|316:123|344:213,1,180,0|0,3:0|3:0,0:0:0:0:
387,290,49722,1,0,3:0:0:0:
297,289,50045,2,0,P|251:279|200:285,1,89.9999999999999,0|0,3:0|3:0,0:0:0:0:
127,322,50690,2,0,L|118:222,1,89.9999999999999,0|0,3:0|3:0,0:0:0:0:
141,145,51335,6,0,B|184:138|204:85|204:85|236:138|307:149|365:105,1,270,0|0,0:0|0:0,0:0:0:0:
443,73,52625,2,0,B|437:144|487:197|487:197|447:262|364:259,1,270,0|0,0:0|0:0,0:0:0:0:
285,250,53916,6,0,L|180:273,1,89.9999999999999,4|8,0:0|0:0,0:0:0:0:
150,192,54561,2,0,L|45:169,1,89.9999999999999,0|8,0:0|0:0,0:0:0:0:
15,250,55206,2,0,B|30:293|30:293|33:345,2,89.9999999999999,4|8|0,0:0|0:0|0:0,0:0:0:0:
62,172,56174,1,8,0:0:0:0:
10,99,56496,1,4,0:0:0:0:
99,86,56819,2,0,B|181:82|181:82|223:37|223:37|320:32,1,225,0|4,3:0|3:0,0:0:0:0:
439,29,58109,1,4,0:0:0:0:
324,272,59077,6,0,B|323:226|306:169,2,89.9999999999999,4|8|0,0:0|0:0|0:0,0:0:0:0:
283,352,60045,1,8,0:0:0:0:
193,346,60367,2,0,P|152:328|97:321,1,89.9999999999999,0|8,0:0|0:0,0:0:0:0:
18,312,61013,2,0,L|20:203,1,89.9999999999999,0|8,0:0|0:0,0:0:0:0:
6,133,61658,5,4,0:0:0:0:
143,16,62303,1,4,0:0:0:0:
183,190,62948,2,0,P|146:166|121:130,2,89.9999999999999,4|8|4,0:0|3:0|0:0,0:0:0:0:
274,183,63916,1,4,0:0:0:0:
336,118,64238,6,0,P|360:158|297:270,1,180,4|0,0:0|0:0,0:0:0:0:
218,282,65206,1,8,0:0:0:0:
128,279,65529,2,0,B|97:251|62:245|62:245|88:184|66:127,1,180,4|0,0:0|0:0,0:0:0:0:
139,83,66496,1,8,0:0:0:0:
227,103,66819,6,0,L|209:205,2,89.9999999999999,4|8|0,0:0|0:0|0:0,0:0:0:0:
300,51,67787,1,8,0:0:0:0:
381,90,68109,2,0,L|363:192,1,89.9999999999999,8|8,3:0|3:0,0:0:0:0:
441,228,68755,2,0,L|459:330,1,89.9999999999999,2|2,0:0|0:0,0:0:0:0:
381,366,69400,5,4,0:0:0:0:
297,333,69722,2,0,P|251:342|203:343,2,89.9999999999999,8|0|8,0:0|0:0|0:0,0:0:0:0:
290,243,70690,2,0,B|262:155|317:155|290:67,1,180,4|0,0:0|0:0,0:0:0:0:
213,20,71658,1,8,0:0:0:0:
140,73,71980,5,4,0:0:0:0:
199,243,72625,1,4,0:0:0:0:
22,208,73271,2,0,P|60:187|105:181,2,89.9999999999999,4|8|4,0:0|3:0|0:0,0:0:0:0:
0,296,74238,1,4,0:0:0:0:
85,326,74561,6,0,P|188:265|324:309,1,270,0|0,0:0|0:0,0:0:0:0:
402,353,75851,2,0,B|426:167|426:167|375:86,1,270,8|8,0:0|0:0,0:0:0:0:
316,36,77142,2,0,B|241:64|167:30|167:30|209:118|125:141|188:240,1,360,4|0,0:0|0:0,0:0:0:0:
499,140,79561,6,0,B|423:218|423:218|372:193|310:226,1,225,4|0,0:0|0:0,0:0:0:0:
244,342,80851,2,0,L|154:352,1,89.9999999999999,2|0,0:0|0:0,0:0:0:0:
146,262,81496,2,0,L|56:251,1,89.9999999999999,0|0,0:0|0:0,0:0:0:0:
70,160,82142,6,0,B|87:118|62:72|62:72|130:43|202:65,1,225,4|2,0:0|0:0,0:0:0:0:
327,82,83432,2,0,B|363:116|363:116|362:205,1,135,4|4,0:0|0:0,0:0:0:0:
301,267,84238,1,4,0:0:0:0:
229,213,84561,1,4,0:0:0:0:
182,290,84884,6,0,P|197:335|198:378,2,89.9999999999999,0|0|0,0:0|0:0|0:0,0:0:0:0:
47,171,86174,2,0,P|32:216|31:259,2,89.9999999999999,0|0|0,0:0|0:0|0:0,0:0:0:0:
195,70,87464,6,0,B|260:46|260:46|369:120,1,180,4|4,0:0|0:0,0:0:0:0:
376,241,88593,1,4,0:0:0:0:
477,152,89077,2,0,L|479:57,1,89.9999999999999,0|4,3:0|3:0,0:0:0:0:
256,192,89884,12,0,95045,0:0:0:0:
