osu file format v14

[General]
AudioFilename: hatsukoi no ehon.mp3
AudioLeadIn: 0
PreviewTime: 138865
Countdown: 0
SampleSet: Soft
StackLeniency: 0.7
Mode: 0
LetterboxInBreaks: 0
WidescreenStoryboard: 0

[Editor]
Bookmarks: 107997,128207,133260,135786
DistanceSpacing: 1
BeatDivisor: 2
GridSize: 4
TimelineZoom: 1.7

[Metadata]
Title:Hatsukoi no Ehon
TitleUnicode:初恋の絵本
Artist:yuikonnu
ArtistUnicode:yuikonnu
Creator:Feb
Version:Normal
Source:
Tags:豊崎 愛生 .合田 美桜 Toyosaki Aki Aida Miou 告白実行委員会 kokuhaku jikkou iinkai 僕じゃダメですか? boku ja dame desuka? Honeyworks
BeatmapID:946945
BeatmapSetID:439339

[Difficulty]
HPDrainRate:3
CircleSize:3.5
OverallDifficulty:3
ApproachRate:5
SliderMultiplier:1
SliderTickRate:1

[Events]
//Background and Video events
0,0,"lmao.jpg",0,0
//Break Periods
2,108197,116902
2,128407,132060
2,135828,139639
//Storyboard Layer 0 (Background)
//Storyboard Layer 1 (Fail)
//Storyboard Layer 2 (Pass)
//Storyboard Layer 3 (Foreground)
//Storyboard Sound Samples

[TimingPoints]
404,387.096774193548,4,2,2,15,1,0
1093,344.827586206897,4,2,2,15,1,0
10748,315.789473684211,4,2,2,15,1,0
11997,315.789473684211,4,2,2,50,1,0
11997,-100,4,2,2,55,0,0
19575,-100,4,2,2,60,0,0
23997,-100,4,2,2,5,0,0
24628,-100,4,2,2,60,0,0
27154,-100,4,2,2,45,0,0
58733,-100,4,2,2,35,0,0
62523,-100,4,2,2,25,0,0
65049,-100,4,2,2,60,0,1
73891,-100,4,2,2,45,0,0
75154,-100,4,2,2,60,0,1
81470,-100,4,2,2,60,0,0
84628,-100,4,2,2,5,0,0
85260,-100,4,2,2,60,0,0
118102,-100,4,2,2,45,0,0
123154,-100,4,2,2,60,0,0
140839,-100,4,2,2,60,0,1
149681,-100,4,2,2,60,0,0
150944,-100,4,2,2,70,0,1
166102,-100,4,2,2,60,0,0
168628,-100,4,2,2,60,0,0
171154,-100,4,2,2,70,0,1
177470,-100,4,2,2,60,0,0
181260,-100,4,2,2,5,0,0

[Colours]
Combo1 : 169,211,211
Combo2 : 255,128,128
Combo3 : 128,128,191
Combo4 : 255,164,119
Combo5 : 255,138,197
Combo6 : 255,149,255

[HitObjects]
310,104,11997,6,0,B|330:162|330:162|306:270,2,150,12|0|8,0:0|0:0|0:0,0:0:0:0:
239,33,13260,2,0,B|184:78|184:78|130:63|130:63|85:67|47:101|41:139|41:139|60:197,1,300,6|0,0:0|0:0,0:0:0:0:
143,231,14523,6,0,B|161:298|161:298|137:380,2,150,6|0|8,0:0|0:0|0:0,0:0:0:0:
211,158,15786,2,0,B|275:133|275:133|378:140,2,150,6|0|8,0:0|0:0|0:0,0:0:0:0:
115,126,17049,6,0,P|100:80|111:28,1,100,4|0,0:0|0:0,0:0:0:0:
208,46,17681,2,0,L|324:53,1,100,8|10,0:0|0:0,0:0:0:0:
403,22,18312,2,0,P|346:94|416:182,1,200,6|8,0:0|0:0,0:0:0:0:
496,181,19260,1,0,0:0:0:0:
436,261,19575,6,0,P|411:316|411:368,1,100,0|0,0:0|0:0,0:0:0:0:
311,378,20207,2,0,P|286:329|252:290,1,100,8|8,0:0|0:0,0:0:0:0:
164,257,20839,2,0,P|204:227|224:175,1,100,8|0,0:0|0:0,0:0:0:0:
179,92,21470,1,0,0:0:0:0:
84,123,21786,1,8,0:0:0:0:
256,192,22102,12,0,23997,0:0:0:0:
90,49,24628,6,0,B|149:67|189:57|189:57|241:70|273:109|273:109|369:90|369:90|353:172,1,350,14|0,3:0|0:0,0:0:0:0:
333,182,25891,2,0,B|297:223|311:268|347:297|395:299|423:285|446:250|436:202|436:202|457:103,1,350,0|0,0:0|0:0,0:0:0:0:
447,62,27154,6,0,P|407:27|345:14,1,100,2|2,0:0|0:0,0:0:0:0:
273,59,27786,2,0,P|214:83|160:82,1,100,2|0,0:0|0:0,0:0:0:0:
82,113,28418,2,0,B|67:65|67:65|73:6,2,100,2|2|2,0:0|0:0|0:0,0:0:0:0:
161,173,29365,1,0,0:0:0:0:
240,233,29681,6,0,P|273:278|289:323,1,100,2|2,0:0|0:0,0:0:0:0:
383,349,30312,2,0,L|398:243,1,100,2|2,0:0|0:0,0:0:0:0:
416,151,30944,2,0,B|462:130|462:130|523:129,2,100,2|2|0,0:0|0:0|0:0,0:0:0:0:
327,197,31891,1,0,0:0:0:0:
227,190,32207,6,0,P|184:152|167:102,1,100,6|2,0:0|0:0,0:0:0:0:
84,58,32839,2,0,L|62:178,1,100,10|10,0:0|0:0,0:0:0:0:
122,238,33470,2,0,B|139:292|139:292|132:348,2,100,10|8|10,0:0|0:0|0:0,0:0:0:0:
65,156,34418,1,8,0:0:0:0:
164,165,34733,6,0,P|224:148|258:116,1,100,8|8,0:0|0:0,0:0:0:0:
324,54,35365,1,10,0:0:0:0:
400,118,35681,1,10,0:0:0:0:
351,205,35997,2,0,P|341:237|343:268,1,50,10|0,0:0|0:0,0:0:0:0:
330,302,36312,2,0,P|313:286|281:274,1,50,10|0,0:0|0:0,0:0:0:0:
241,291,36628,2,0,P|214:311|194:320,1,50,10|0,0:0|0:0,0:0:0:0:
150,332,36944,2,0,P|128:299|127:278,1,50,10|0,0:0|0:0,0:0:0:0:
139,240,37260,6,0,B|150:192|150:192|134:105,2,100,6|0|0,0:0|0:0|0:0,0:0:0:0:
330,302,38523,2,0,B|375:288|375:288|457:293,2,100,2|0|0,0:0|0:0|0:0,0:0:0:0:
229,129,39786,6,0,B|211:78|211:78|226:9,2,100,6|0|0,0:0|0:0|0:0,0:0:0:0:
413,207,41049,2,0,B|470:211|470:211|520:191,2,100,6|0|0,0:0|0:0|0:0,0:0:0:0:
244,314,42312,5,10,0:0:0:0:
145,329,42628,2,0,P|114:302|107:288,1,50,10|0,0:0|0:0,0:0:0:0:
119,245,42944,2,0,P|127:217|126:196,1,50,10|0,0:0|0:0,0:0:0:0:
82,170,43260,2,0,P|81:135|89:114,1,50,10|0,0:0|0:0,0:0:0:0:
122,88,43575,6,0,B|143:71|172:62|201:64|226:75|249:93|258:123|258:123|239:175|239:175|259:227|259:227|237:265|251:307,1,350,14|0,0:0|0:0,0:0:0:0:
278,339,44839,6,0,P|331:325|365:283,1,100,6|8,0:0|0:0,0:0:0:0:
451,250,45470,2,0,P|462:192|447:123,1,100,2|8,0:0|0:0,0:0:0:0:
406,65,46102,2,0,B|355:57|355:57|295:69,2,100,6|8|2,0:0|0:0|0:0,0:0:0:0:
360,154,47049,1,8,0:0:0:0:
278,211,47365,6,0,P|222:206|177:177,1,100,2|10,0:0|0:0,0:0:0:0:
91,148,47997,2,0,L|110:268,1,100,2|8,0:0|0:0,0:0:0:0:
154,334,48628,2,0,B|203:348|203:348|268:334,2,100,6|8|0,0:0|0:0|0:0,0:0:0:0:
215,254,49575,1,8,0:0:0:0:
314,248,49891,6,0,P|365:273|403:317,1,100,6|8,0:0|0:0,0:0:0:0:
482,352,50523,2,0,L|493:239,1,100,2|8,0:0|0:0,0:0:0:0:
500,152,51154,2,0,P|444:171|394:162,1,100,6|8,0:0|0:0,0:0:0:0:
335,93,51786,2,0,P|287:67|237:67,1,100,2|8,0:0|0:0,0:0:0:0:
160,124,52418,6,0,P|108:106|71:70,1,100,6|8,0:0|0:0,0:0:0:0:
38,169,53049,2,0,P|72:211|84:256,1,100,2|8,0:0|0:0,0:0:0:0:
68,353,53681,1,2,0:0:0:0:
160,314,53997,1,8,0:0:0:0:
249,357,54312,2,0,B|315:366|315:366|364:354,1,100,0|0,0:0|0:0,0:0:0:0:
421,289,54944,6,0,B|439:235|439:235|424:178,2,100,0|2|0,0:0|0:0|0:0,0:0:0:0:
237,209,56207,2,0,B|226:160|226:160|239:104,2,100,0|2|0,0:0|0:0|0:0,0:0:0:0:
416,121,57470,6,0,B|429:68|429:68|415:24,2,100,0|0|0,0:0|0:0|0:0,0:0:0:0:
237,209,58733,2,0,B|155:187|155:187|64:203,2,150,6|0|0,0:0|0:0|0:0,0:0:0:0:
289,294,59997,1,0,0:0:0:0:
389,335,62523,6,0,B|421:328|439:307|450:271|431:236|412:224|383:211|355:218|335:233|323:260|323:260|276:250|276:250|243:270|205:273|186:238|192:227|213:221|222:232|225:242,1,400,2|2,0:0|0:0,0:0:0:0:
388,38,65049,6,0,P|413:90|395:164,1,100,6|0,0:0|0:0,0:0:0:0:
326,185,65681,2,0,P|301:242|291:310,1,100,0|8,0:0|0:0,0:0:0:0:
201,319,66312,2,0,L|192:206,1,100,6|0,0:0|0:0,0:0:0:0:
217,122,66944,1,2,0:0:0:0:
141,56,67260,1,8,0:0:0:0:
51,98,67575,6,0,P|130:156|226:108,1,200,2|2,0:0|0:0,0:0:0:0:
300,65,68523,1,8,0:0:0:0:
366,139,68839,2,0,B|419:117|419:117|445:73,2,100,6|8|2,0:0|0:0|0:0,0:0:0:0:
285,198,69786,1,8,0:0:0:0:
191,234,70102,6,0,P|141:289|127:342,1,100,6|0,0:0|0:0,0:0:0:0:
41,354,70733,2,0,L|24:244,1,100,2|8,0:0|0:0,0:0:0:0:
67,163,71365,1,6,0:0:0:0:
146,101,71681,1,8,0:0:0:0:
234,147,71997,2,0,P|286:167|353:159,1,100,2|8,0:0|0:0,0:0:0:0:
425,136,72628,6,0,P|458:147|426:198,1,100,6|0,0:0|0:0,0:0:0:0:
367,266,73260,2,0,P|322:322|312:363,1,100,2|8,0:0|0:0,0:0:0:0:
215,363,73891,2,0,B|199:232|199:232|188:262|176:275|161:289|139:298|107:298|79:282|61:251|64:219|86:182,1,350,6|0,0:0|0:0,0:0:0:0:
118,169,75154,6,0,P|141:122|144:60,1,100,14|0,0:0|0:0,0:0:0:0:
233,25,75786,2,0,P|276:70|323:88,1,100,2|8,0:0|0:0,0:0:0:0:
398,37,76418,2,0,B|337:68|331:153|331:153|363:217,1,200,6|2,0:0|0:0,0:0:0:0:
455,185,77365,1,8,0:0:0:0:
433,282,77681,6,0,P|399:304|320:305,1,100,6|0,0:0|0:0,0:0:0:0:
253,261,78312,1,2,0:0:0:0:
161,221,78628,1,8,0:0:0:0:
74,270,78944,2,0,B|55:217|55:217|59:171,2,100,0|0|2,0:0|0:0|0:0,0:0:0:0:
161,221,79891,1,0,0:0:0:0:
253,261,80207,6,0,B|298:272|298:272|373:255,2,100,0|8|0,0:0|0:0|0:0,0:0:0:0:
161,221,81154,2,0,L|153:159,2,50,0|0|12,0:0|0:0|0:0,0:0:0:0:
256,192,81628,12,0,84628,0:0:0:0:
266,103,85260,6,0,B|246:72|249:47|261:27|280:7|318:0|362:17|382:43|363:103|363:103|341:153|372:212,1,350,6|0,0:0|0:0,0:0:0:0:
404,239,86523,2,0,B|438:238|462:246|482:266|485:297|478:321|462:342|432:358|385:336|385:336|339:353|339:353|294:333|294:333|231:345,1,350,0|0,0:0|0:0,0:0:0:0:
215,355,87786,6,0,B|163:337|163:337|130:290,1,100,6|0,0:0|0:0,0:0:0:0:
176,208,88418,2,0,B|193:152|193:152|181:108,1,100,0|8,0:0|0:0,0:0:0:0:
91,69,89049,2,0,L|-20:58,2,100,2|8|4,0:0|0:0|0:3,0:0:0:0:
182,111,89997,1,8,0:0:0:0:
271,66,90312,6,0,P|357:72|367:189,1,200,6|0,0:0|0:0,0:0:0:0:
300,230,91260,1,10,0:0:0:0:
372,298,91575,2,0,B|410:321|410:321|475:318,2,100,6|8|0,0:0|0:0|0:0,0:0:0:0:
300,230,92523,2,0,P|269:236|246:246,1,50,10|0,0:0|0:0,0:0:0:0:
222,283,92839,6,0,B|160:273|160:273|127:239,1,100,6|8,0:0|0:0,0:0:0:0:
54,186,93470,2,0,P|93:156|162:153,1,100,2|10,0:0|0:0,0:0:0:0:
238,178,94102,2,0,B|285:154|285:154|315:109,2,100,10|0|0,0:0|0:0|0:0,0:0:0:0:
142,148,95049,2,0,P|126:117|123:100,1,50,8|0,0:0|0:0,0:0:0:0:
128,52,95365,6,0,B|141:26|169:12|200:7|231:12|253:35|267:71|252:105|252:105|279:140|279:140|249:201|249:201|274:260|274:260|247:303|263:361|320:384|361:371|380:357|402:318|395:278|395:278|411:240|411:240|391:207|400:160,1,750,6|0,0:0|0:0,0:0:0:0:
374,132,97891,6,0,P|419:108|477:97,1,100,14|0,0:0|0:0,0:0:0:0:
430,4,98523,2,0,L|324:19,1,100,2|8,0:0|0:0,0:0:0:0:
280,104,99154,2,0,B|224:89|224:89|189:53,2,100,6|0|2,0:0|0:0|0:0,0:0:0:0:
374,132,100102,1,8,0:0:0:0:
308,207,100418,6,0,P|262:282|258:310,1,100,6|0,0:0|0:0,0:0:0:0:
180,352,101049,2,0,L|144:249,1,100,2|0,0:0|0:0,0:0:0:0:
48,237,101681,2,0,P|146:251|206:170,1,200,6|2,0:0|0:0,0:0:0:0:
204,129,102470,2,0,L|196:72,2,50,0|8|0,0:0|0:0|0:0,0:0:0:0:
246,156,102944,6,0,P|307:146|349:107,1,100,6|0,0:0|0:0,0:0:0:0:
426,80,103575,2,0,P|495:110|518:142,1,100,0|8,0:0|0:0,0:0:0:0:
436,196,104207,2,0,P|413:250|419:298,1,100,6|0,0:0|0:0,0:0:0:0:
344,360,104839,2,0,P|326:312|282:280,1,100,0|8,0:0|0:0,0:0:0:0:
222,210,105470,6,0,B|198:198|174:194|144:196|120:217|111:249|109:277|130:309|153:324|181:334|223:315|223:315|254:281|254:281|300:282,1,350,8|0,0:0|0:0,0:0:0:0:
336,295,106733,6,0,P|368:302|400:319,1,50,10|0,0:0|0:0,0:0:0:0:
422,340,107049,2,0,P|451:326|466:310,1,50,8|0,0:0|0:0,0:0:0:0:
477,265,107365,1,10,0:0:0:0:
475,214,107523,1,8,0:0:0:0:
472,164,107681,1,0,0:0:0:0:
470,113,107839,1,8,0:0:0:0:
467,63,107997,1,6,0:0:0:0:
433,70,118102,6,0,P|406:131|402:171,1,100,6|0,0:0|0:0,0:0:0:0:
318,219,118733,2,0,L|300:107,1,100,2|8,0:0|0:0,0:0:0:0:
237,43,119365,2,0,P|185:78|135:83,1,100,2|0,0:0|0:0,0:0:0:0:
68,144,119997,2,0,P|110:182|127:227,1,100,2|8,0:0|0:0,0:0:0:0:
209,276,120628,6,0,L|324:288,2,100,6|8|2,0:0|0:0|0:0,0:0:0:0:
125,221,121575,1,8,0:0:0:0:
218,185,121891,2,0,P|272:132|284:96,1,100,6|0,0:0|0:0,0:0:0:0:
366,58,122523,2,0,P|374:108|411:158,1,100,2|0,0:0|0:0,0:0:0:0:
482,206,123154,6,0,B|508:252|508:252|468:298,1,100,10|10,0:0|0:0,0:0:0:0:
379,310,123786,2,0,B|332:291|332:291|324:232,1,100,10|10,0:0|0:0,0:0:0:0:
364,146,124418,2,0,B|328:109|328:109|263:111,1,100,10|10,0:0|0:0,0:0:0:0:
191,157,125049,2,0,B|142:184|142:184|59:171,1,100,10|10,0:0|0:0,0:0:0:0:
62,83,125681,6,0,B|64:53|91:32|119:27|150:31|180:64|186:89|160:135|160:135|177:184|177:184|151:236|162:293,1,350,8|0,0:0|0:0,0:0:0:0:
185,312,126944,6,0,L|195:371,1,50,14|0,0:0|0:0,0:0:0:0:
243,365,127260,2,0,L|258:302,1,50
304,316,127575,2,0,L|312:381,1,50,12|0,0:0|0:0,0:0:0:0:
360,365,127891,2,0,L|372:299,1,50
379,266,128207,5,6,0:0:0:0:
46,48,133260,6,0,P|62:76|67:111,1,50,14|0,0:0|0:0,0:0:0:0:
96,132,133575,2,0,P|108:97|116:82,1,50,8|0,0:0|0:0,0:0:0:0:
142,43,133891,2,0,P|159:79|161:106,1,50,10|0,0:0|0:0,0:0:0:0:
186,131,134207,2,0,P|206:96|220:83,1,50,8|0,0:0|0:0,0:0:0:0:
245,51,134523,6,0,P|266:83|270:112,1,50,14|0,0:3|0:0,0:0:0:0:
278,143,134839,2,0,P|303:104|313:94,1,50,12|0,0:3|0:0,0:0:0:0:
349,77,135154,1,12,0:3:0:0:
398,85,135312,1,0,0:0:0:0:
432,121,135470,1,12,0:3:0:0:
432,171,135628,1,0,0:0:0:0:
88,70,140839,6,0,P|136:94|166:145,1,100,6|0,0:0|0:0,0:0:0:0:
235,198,141470,2,0,L|257:78,1,100,2|8,0:0|0:0,0:0:0:0:
344,58,142102,2,0,B|391:44|391:44|447:48,2,100,6|8|2,0:0|0:0|0:0,0:0:0:0:
253,99,143049,1,8,0:0:0:0:
161,131,143365,6,0,P|104:92|88:56,1,100,6|8,0:0|0:0,0:0:0:0:
12,124,143997,2,0,L|32:232,1,100,2|8,0:0|0:0,0:0:0:0:
104,288,144628,2,0,P|140:252|192:244,1,100,6|8,0:0|0:0,0:0:0:0:
268,300,145260,1,2,0:0:0:0:
356,348,145575,1,8,0:0:0:0:
456,340,145891,6,0,B|480:280|480:280|456:240|456:240|480:196|460:136,1,200,6|2,0:0|0:0,0:0:0:0:
372,116,146839,1,8,0:0:0:0:
280,160,147154,2,0,B|232:156|232:156|184:120,2,100,6|8|2,0:0|0:0|0:0,0:0:0:0:
372,116,148102,1,8,0:0:0:0:
465,153,148418,6,0,P|485:207|476:247,1,100,6|8,0:0|0:0,0:0:0:0:
412,324,149049,1,2,0:0:0:0:
315,351,149365,1,8,0:0:0:0:
242,282,149681,6,0,B|224:258|205:237|179:226|150:224|124:232|99:260|99:260|82:206|82:206|105:177|121:145|106:84,1,350,10|0,0:0|0:0,0:0:0:0:
68,59,150944,6,0,P|130:42|182:49,1,100,14|0,0:0|0:0,0:0:0:0:
211,133,151575,2,0,P|271:117|312:68,1,100,0|8,0:0|0:0,0:0:0:0:
383,38,152207,2,0,B|398:83|398:83|391:141,2,100,6|8|2,0:0|0:0|0:0,0:0:0:0:
298,92,153154,1,8,0:0:0:0:
211,133,153470,6,0,B|132:116|132:116|83:119,1,100,6|8,0:0|0:0,0:0:0:0:
32,177,154102,1,2,0:0:0:0:
19,276,154418,1,8,0:0:0:0:
88,347,154733,2,0,P|144:327|174:288,1,100,6|8,0:0|0:0,0:0:0:0:
248,235,155365,2,0,P|276:278|323:310,1,100,0|8,0:0|0:0,0:0:0:0:
388,374,155997,6,0,P|354:307|428:206,1,200,6|2,0:0|0:0,0:0:0:0:
451,116,156944,1,8,0:0:0:0:
352,134,157260,2,0,B|302:141|302:141|240:119,1,100,6|8,0:0|0:0,0:0:0:0:
208,35,157891,2,0,B|158:43|158:43|108:77,1,100,2|8,0:0|0:0,0:0:0:0:
34,13,158523,6,0,B|66:62|66:62|44:115|44:115|64:157|55:215,1,200,6|12,0:0|0:0,0:0:0:0:
58,297,159470,1,8,0:0:0:0:
139,355,159786,2,0,B|171:377|199:369|233:350|249:324|247:301|247:273|219:244|219:244|252:243|281:255|293:233|293:233|335:239|368:216,1,350,12|0,0:0|0:0,0:0:0:0:
404,202,161049,6,0,B|425:278|425:278|411:355,2,150,12|4|8,0:0|0:0|0:0,0:0:0:0:
327,140,162312,2,0,B|371:73|371:73|450:31,2,150,12|4|8,0:0|0:0|0:0,0:0:0:0:
294,235,163575,6,0,B|306:255|302:279|296:296|281:314|273:319|251:323|234:323|219:318|203:311|187:299|178:286|173:269|172:246|183:223|193:214|193:214|151:201|151:201|81:245|81:245,1,350,12|0,0:0|0:0,0:0:0:0:
76,262,164839,2,0,B|64:280|41:283|21:276|7:258|7:236|13:207|18:182|27:164|41:156|61:142|86:124|103:102|102:84|94:58|94:44|81:36|56:31|34:30|14:44|8:61|19:78|31:90|69:78,1,400,10|14,0:0|0:0,0:0:0:0:
167,42,168628,6,0,L|176:105,1,50,6|0,0:0|0:0,0:0:0:0:
212,124,168944,2,0,L|222:72,1,50,8|0,0:0|0:0,0:0:0:0:
256,38,169260,2,0,L|268:102,1,50,10|0,0:0|0:0,0:0:0:0:
304,118,169575,2,0,L|316:61,1,50,10|0,0:0|0:0,0:0:0:0:
356,41,169891,6,0,B|374:9|412:2|456:25|470:54|466:82|448:111|431:137|424:157|407:197|417:233|420:258|441:285,1,350,10|0,0:0|0:0,0:0:0:0:
470,318,171154,6,0,P|380:286|267:365,1,200,6|2,0:0|0:0,0:0:0:0:
193,354,172102,1,8,0:0:0:0:
124,280,172418,2,0,P|101:226|94:174,1,100,6|8,0:0|0:0,0:0:0:0:
111,86,173049,2,0,P|166:107|221:107,1,100,2|8,0:0|0:0,0:0:0:0:
285,46,173681,6,0,B|311:89|311:89|313:158,2,100,2|10|6,0:0|0:0|0:0,0:0:0:0:
206,108,174628,1,8,0:0:0:0:
148,189,174944,2,0,P|117:213|38:221,1,100,6|8,0:0|0:0,0:0:0:0:
117,305,175575,2,0,P|182:320|222:354,1,100,2|8,0:0|0:0,0:0:0:0:
305,364,176207,6,0,B|334:321|334:321|339:271|305:251|305:251|293:207|313:174,1,200,6|2,0:0|0:0,0:0:0:0:
394,134,177154,1,8,0:0:0:0:
307,83,177470,2,0,B|260:57|260:57|208:55,2,100,6|2|2,0:0|0:0|0:0,0:0:0:0:
307,184,178418,1,2,0:0:0:0:
256,192,178575,12,0,181260,0:0:0:0:
