osu file format v14

[General]
AudioFilename: hatsukoi no ehon.mp3
AudioLeadIn: 0
PreviewTime: 138865
Countdown: 0
SampleSet: Soft
StackLeniency: 0.7
Mode: 0
LetterboxInBreaks: 0
WidescreenStoryboard: 0

[Editor]
Bookmarks: 151970
DistanceSpacing: 0.7
BeatDivisor: 4
GridSize: 4
TimelineZoom: 1.7

[Metadata]
Title:Hatsukoi no Ehon
TitleUnicode:初恋の絵本
Artist:yuikonnu
ArtistUnicode:yuikonnu
Creator:Feb
Version:Insane
Source:
Tags:豊崎 愛生 .合田 美桜 Toyosaki Aki Aida Miou 告白実行委員会 kokuhaku jikkou iinkai 僕じゃダメですか? boku ja dame desuka? Honeyworks
BeatmapID:952143
BeatmapSetID:439339

[Difficulty]
HPDrainRate:6
CircleSize:4
OverallDifficulty:8
ApproachRate:9
SliderMultiplier:1.5
SliderTickRate:1

[Events]
//Background and Video events
0,0,"lmao.jpg",0,0
//Break Periods
2,137049,139607
//Storyboard Layer 0 (Background)
//Storyboard Layer 1 (Fail)
//Storyboard Layer 2 (Pass)
//Storyboard Layer 3 (Foreground)
//Storyboard Sound Samples

[TimingPoints]
404,387.096774193548,4,2,2,15,1,0
404,-166.666666666667,4,2,2,15,0,0
1093,344.827586206897,4,2,2,15,1,0
1093,-142.857142857143,4,2,2,15,0,0
10748,315.789473684211,4,2,2,15,1,0
11379,-133.333333333333,4,2,2,25,0,0
11997,315.789473684211,4,2,2,50,1,0
11997,-100,4,2,2,60,0,0
14523,-133.333333333333,4,2,2,60,0,0
15470,-117.647058823529,4,2,2,60,0,0
15786,-100,4,2,2,60,0,0
24312,-100,4,2,2,5,0,0
24628,-90.9090909090909,4,2,2,45,0,0
25575,-83.3333333333333,4,2,2,45,0,0
27154,-100,4,2,2,40,0,0
35997,-90.9090909090909,4,2,2,45,0,0
37260,-133.333333333333,4,2,2,45,0,0
41997,-133.333333333333,4,2,2,40,0,0
42312,-100,4,2,2,40,0,0
44207,-100,4,2,2,40,0,0
44839,-100,4,2,2,40,0,0
47365,-100,4,2,2,40,0,0
49812,-100,4,2,2,5,0,0
49891,-100,4,2,2,40,0,0
52654,-100,4,2,2,5,0,0
52733,-100,4,2,2,40,0,0
56207,-100,4,2,2,40,0,0
57470,-100,4,2,2,40,0,0
58733,-166.666666666667,4,2,2,40,0,0
59049,-125,4,2,2,40,0,0
59207,-166.666666666667,4,2,2,40,0,0
59681,-125,4,2,2,40,0,0
59839,-166.666666666667,4,2,2,40,0,0
63154,-125,4,2,2,25,0,0
65049,-90.9090909090909,4,2,2,60,0,1
73891,-90.9090909090909,4,2,2,45,0,0
75154,-90.9090909090909,4,2,2,60,0,1
81470,-133.333333333333,4,2,2,60,0,0
84312,-133.333333333333,4,2,2,5,0,0
84628,-133.333333333333,4,2,2,60,0,0
85260,-100,4,2,2,60,0,0
95365,-90.9090909090909,4,2,2,60,0,0
97891,-100,4,2,2,60,0,0
107997,-153.846153846153,4,2,2,35,0,0
118102,-111.111111111111,4,2,2,60,0,0
126312,-90.9090909090909,4,2,2,60,0,0
128207,-133.333333333333,4,2,2,45,0,0
133260,-90.9090909090909,4,2,2,60,0,0
140839,-90.9090909090909,4,2,2,60,0,1
149681,-90.9090909090909,4,2,2,60,0,0
150944,-90.9090909090909,4,2,2,70,0,1
166102,-142.857142857143,4,2,2,60,0,0
168628,-111.111111111111,4,2,2,60,0,0
171154,-90.9090909090909,4,2,2,70,0,1
177470,-133.333333333333,4,2,2,60,0,0
181260,-133.333333333333,4,2,2,5,0,0

[Colours]
Combo1 : 169,211,211
Combo2 : 255,128,128
Combo3 : 128,128,191
Combo4 : 255,164,119
Combo5 : 255,138,197
Combo6 : 255,149,255

[HitObjects]
72,64,404,6,0,P|104:96|164:88,1,89.9999972534181,0|0,0:0|0:0,0:0:0:0:
223,46,1093,2,0,P|269:37|326:70,1,104.999996795654,0|0,0:0|0:0,0:0:0:0:
384,144,1782,2,0,L|370:263,1,104.999996795654,0|0,0:0|0:0,0:0:0:0:
271,280,2472,2,0,L|256:161,2,104.999996795654,0|0|0,0:0|0:0|0:0,0:0:0:0:
271,280,3506,1,0,0:0:0:0:
168,302,3851,6,0,B|113:302|113:302|50:323,2,104.999996795654,0|0|0,0:0|0:0|0:0,0:0:0:0:
271,280,4886,1,0,0:0:0:0:
271,280,5230,2,0,B|326:284|326:284|394:258,2,104.999996795654,0|0|0,0:0|0:0|0:0,0:0:0:0:
193,208,6265,1,0,0:0:0:0:
267,133,6610,6,0,P|288:96|235:91,1,104.999996795654,0|0,0:0|0:0,0:0:0:0:
193,208,7299,2,0,L|374:214,1,157.499995193482,0|0,0:0|0:0,0:0:0:0:
415,169,7989,5,0,0:0:0:0:
350,213,8334,1,0,0:0:0:0:
356,288,8679,1,0,0:0:0:0:
410,343,9024,1,0,0:0:0:0:
488,332,9368,5,0,0:0:0:0:
256,192,9713,12,0,10748,0:0:0:0:
350,32,11379,6,0,B|343:140|343:140|316:121,1,140.625005364418,0|0,0:0|0:0,0:0:0:0:
290,108,11853,1,0,0:0:0:0:
290,108,11932,1,0,0:0:0:0:
290,108,11997,6,0,L|272:271,1,150,12|0,0:0|0:0,0:0:0:0:
178,351,12470,2,0,L|161:307,2,37.5,0|0|8,0:0|0:0|0:0,0:0:0:0:
151,219,12786,1,0,0:0:0:0:
151,219,12944,2,0,P|108:228|81:256,1,75,8|0,0:0|0:0,0:0:0:0:
261,261,13260,6,0,P|312:280|372:240,1,100,6|0,0:0|0:0,0:0:0:0:
360,236,13575,2,0,P|344:192|360:152,1,75,8|0,0:0|0:0,0:0:0:0:
432,120,13891,2,0,B|446:69|446:69|434:9,2,100,8|0|0,0:0|0:0|0:0,0:0:0:0:
271,101,14523,6,0,P|221:82|162:98,1,112.500004291535,6|0,0:0|0:0,0:0:0:0:
93,180,14997,2,0,L|96:217,2,28.1250010728836,0|0|0,0:0|0:0|0:0,0:0:0:0:
178,248,15312,2,0,L|181:286,2,28.1250010728836,0|0|8,0:0|0:0|0:0,0:0:0:0:
290,290,15628,1,0,0:0:0:0:
290,290,15707,1,0,0:0:0:0:
290,290,15786,6,0,B|420:283|420:283|398:271,1,150,6|8,0:0|0:0,0:0:0:0:
306,133,16260,1,0,0:0:0:0:
438,159,16418,2,0,B|537:152,2,75,2|0|8,0:0|0:0|0:0,0:0:0:0:
237,204,16891,1,0,0:0:0:0:
237,204,16970,1,0,0:0:0:0:
237,204,17049,6,0,P|307:233|383:184,1,150,4|0,0:0|0:0,0:0:0:0:
303,58,17523,1,0,0:0:0:0:
303,58,17602,1,0,0:0:0:0:
303,58,17681,2,0,L|306:155,1,75,8|0,0:0|0:0,0:0:0:0:
176,23,17997,1,10,0:0:0:0:
282,55,18154,1,0,0:0:0:0:
130,165,18312,6,0,B|114:200|114:200|114:76,1,150,6|0,0:0|0:0,0:0:0:0:
227,211,18786,1,0,0:0:0:0:
227,211,18944,2,0,L|336:217,1,75,8|0,0:0|0:0,0:0:0:0:
400,143,19260,2,0,P|357:123|343:94,1,75,0|0,0:0|0:0,0:0:0:0:
336,54,19497,1,0,0:0:0:0:
336,54,19575,6,0,L|328:223,1,150,0|0,0:0|0:0,0:0:0:0:
387,279,20049,1,0,0:0:0:0:
322,334,20207,1,8,0:0:0:0:
413,258,20365,1,0,0:0:0:0:
245,288,20523,5,8,0:0:0:0:
433,248,20681,1,0,0:0:0:0:
218,300,20839,6,0,L|128:289,1,75,8|0,0:0|0:0,0:0:0:0:
55,239,21154,1,8,0:0:0:0:
125,323,21312,1,0,0:0:0:0:
206,213,21470,6,0,P|215:163|200:120,1,75,12|8,0:0|0:0,0:0:0:0:
104,85,21786,1,8,0:0:0:0:
262,59,21944,5,0,0:0:0:0:
132,78,22102,1,12,0:0:0:0:
256,192,22181,12,0,24312,0:0:0:0:
107,69,24628,5,14,3:0:0:0:
170,125,24786,2,0,L|232:117,2,41.2500012588501,0|0|8,3:0|3:0|3:0,0:0:0:0:
176,209,25102,2,0,L|229:218,2,41.2500012588501,0|0|8,3:0|3:0|3:0,0:0:0:0:
129,283,25418,2,0,L|174:313,2,41.2500012588501,0|0|8,3:0|3:0|3:0,0:0:0:0:
51,213,25733,1,0,3:0:0:0:
51,213,25812,1,0,3:0:0:0:
51,213,25891,6,0,B|68:189|96:181|127:170|159:174|178:182|211:198|222:226|221:264|250:232|250:232|262:312|262:312|282:283|318:267|318:267|354:294|412:293|439:280|456:256|444:227|428:194|412:200|382:217|376:232|413:260,1,629.999980773926,0|0,0:0|0:0,0:0:0:0:
504,286,27154,6,0,P|515:245|502:194,1,75,2|0,0:0|0:0,0:0:0:0:
409,162,27470,2,0,P|386:119|386:85,1,75,2|0,0:0|0:0,0:0:0:0:
463,31,27786,2,0,L|282:44,1,150,2|0,0:0|0:0,0:0:0:0:
215,5,28260,1,2,0:0:0:0:
145,62,28418,6,0,P|126:108|127:148,1,75,2|0,0:0|0:0,0:0:0:0:
226,216,28733,2,0,P|236:173|228:141,1,75,2|0,0:0|0:0,0:0:0:0:
129,252,29049,2,0,L|44:254,1,75,2|0,0:0|0:0,0:0:0:0:
198,304,29365,2,0,P|244:317|273:343,1,75,0|0,0:0|0:0,0:0:0:0:
352,376,29681,6,0,L|366:274,1,75,2|0,0:0|0:0,0:0:0:0:
419,208,29997,2,0,P|464:225|485:248,1,75,2|0,0:0|0:0,0:0:0:0:
313,216,30312,2,0,P|285:175|285:145,1,75,2|0,0:0|0:0,0:0:0:0:
383,117,30628,1,2,0:0:0:0:
383,117,30786,1,0,0:0:0:0:
201,194,30944,6,0,L|113:193,1,75,2|0,0:0|0:0,0:0:0:0:
49,134,31260,2,0,P|90:176|57:263,1,150,2|0,0:0|0:0,0:0:0:0:
66,256,31733,1,0,0:0:0:0:
173,272,31891,2,0,P|211:285|239:310,1,75,0|0,0:0|0:0,0:0:0:0:
428,270,32207,6,0,P|374:313|353:368,1,112.5,6|0,0:0|0:0,0:0:0:0:
356,351,32523,2,0,L|344:259,1,75,2|0,0:0|0:0,0:0:0:0:
242,208,32839,2,0,L|257:129,1,75,10|0,0:0|0:0,0:0:0:0:
354,67,33154,1,10,0:0:0:0:
275,114,33312,1,8,0:0:0:0:
404,175,33470,6,0,P|442:148|458:120,1,75,10|0,0:0|0:0,0:0:0:0:
401,0,33786,1,8,0:0:0:0:
449,88,33944,1,8,0:0:0:0:
275,114,34102,6,0,L|189:105,1,75,10|0,0:0|0:0,0:0:0:0:
121,24,34418,1,8,0:0:0:0:
175,112,34575,1,8,0:0:0:0:
112,217,34733,6,0,P|67:188|55:162,1,75,8|0,0:0|0:0,0:0:0:0:
241,188,35049,2,0,P|266:223|271:267,1,75,8|0,0:0|0:0,0:0:0:0:
175,112,35365,2,0,L|164:22,1,75,10|0,0:0|0:0,0:0:0:0:
348,72,35681,2,0,L|339:164,1,75,10|0,0:0|0:0,0:0:0:0:
183,150,35997,5,10,0:0:0:0:
344,47,36154,1,10,0:0:0:0:
215,139,36312,5,10,0:0:0:0:
386,124,36470,1,10,0:0:0:0:
240,35,36628,5,10,0:0:0:0:
284,220,36786,1,10,0:0:0:0:
252,71,36944,5,10,0:0:0:0:
288,247,37102,1,10,0:0:0:0:
386,124,37260,6,0,L|507:109,2,112.500004291535,6|0|0,0:0|0:0|0:0,0:0:0:0:
386,124,38207,1,2,0:0:0:0:
280,143,38523,6,0,B|151:133,2,112.500004291535,2|0|0,0:0|0:0|0:0,0:0:0:0:
280,143,39470,1,2,0:0:0:0:
344,209,39786,6,0,B|367:266|367:266|348:341,2,112.500004291535,6|0|0,0:0|0:0|0:0,0:0:0:0:
344,209,40733,1,2,0:0:0:0:
280,143,41049,6,0,B|262:82|262:82|275:28,2,112.500004291535,6|0|0,0:0|0:0|0:0,0:0:0:0:
378,154,41997,2,0,L|471:145,1,84.3750032186509,2|0,0:0|0:0,0:0:0:0:
461,145,42312,6,0,P|439:187|431:229,1,75,10|0,0:0|0:0,0:0:0:0:
370,327,42628,2,0,P|346:286|322:266,1,75,10|10,0:0|0:0,0:0:0:0:
195,252,42944,2,0,P|223:218|231:184,1,75,10|0,0:0|0:0,0:0:0:0:
154,50,43260,1,10,0:0:0:0:
212,153,43418,1,10,0:0:0:0:
326,63,43575,6,0,L|378:55,3,37.5,14|2|2|2,0:0|0:0|0:0|0:0,0:0:0:0:
329,144,43891,2,0,L|365:162,3,37.5,10|2|2|2,0:0|0:0|0:0|0:0,0:0:0:0:
293,230,44207,1,12,3:0:0:0:
284,254,44286,1,0,3:0:0:0:
279,279,44365,1,0,3:0:0:0:
283,304,44444,1,0,3:0:0:0:
298,325,44523,2,0,L|288:363,3,37.5,10|0|0|0,0:0|0:0|0:0|0:0,0:0:0:0:
209,336,44839,6,0,P|171:318|121:320,1,75,6|0,0:0|0:0,0:0:0:0:
22,267,45154,2,0,P|64:237|79:209,1,75,8|0,0:0|0:0,0:0:0:0:
71,94,45470,2,0,P|108:136|220:110,1,150,2|8,0:0|0:0,0:0:0:0:
253,37,45944,1,0,0:0:0:0:
404,93,46102,6,0,L|480:76,1,75,6|0,0:0|0:0,0:0:0:0:
318,125,46418,2,0,P|309:170|312:209,1,75,8|0,0:0|0:0,0:0:0:0:
388,268,46733,2,0,B|501:244|501:244|459:237,1,150,2|8,0:0|0:0,0:0:0:0:
280,301,47207,1,0,0:0:0:0:
181,235,47365,5,2,0:0:0:0:
181,235,47523,1,0,0:0:0:0:
105,305,47681,2,0,P|55:279|35:253,1,75,10|0,0:0|0:0,0:0:0:0:
24,136,47997,2,0,P|60:117|98:115,1,75,2|0,0:0|0:0,0:0:0:0:
209,159,48312,1,8,0:0:0:0:
123,121,48470,1,0,0:0:0:0:
246,163,48628,6,0,L|399:137,1,150,6|8,0:0|0:0,0:0:0:0:
471,214,49102,1,0,0:0:0:0:
471,214,49260,2,0,P|440:246|416:285,1,75,0|0,0:0|0:0,0:0:0:0:
355,364,49575,2,0,P|326:337|240:343,1,112.5,8|0,0:0|0:0,0:0:0:0:
229,354,49891,6,0,L|151:337,1,75,6|0,0:0|0:0,0:0:0:0:
61,248,50207,2,0,L|140:238,1,75,8|0,0:0|0:0,0:0:0:0:
226,168,50523,2,0,L|141:147,1,75,2|0,0:0|0:0,0:0:0:0:
67,75,50839,2,0,L|154:59,1,75,8|0,0:0|0:0,0:0:0:0:
359,16,51154,6,0,P|329:73|330:108,1,75,6|0,0:0|0:0,0:0:0:0:
403,210,51470,2,0,P|421:159|421:130,1,75,8|0,0:0|0:0,0:0:0:0:
308,224,51786,2,0,L|317:311,1,75,2|0,0:0|0:0,0:0:0:0:
422,354,52102,1,8,0:0:0:0:
325,317,52260,1,0,0:0:0:0:
482,278,52418,6,0,B|491:232|491:232|475:134,1,112.5,6|0,0:0|0:0,0:0:0:0:
464,152,52733,2,0,P|456:108|464:69,1,75,8|0,0:0|0:0,0:0:0:0:
360,9,53049,2,0,P|347:47|323:74,1,75,2|0,0:0|0:0,0:0:0:0:
204,78,53365,2,0,P|229:109|245:146,1,75,8|0,0:0|0:0,0:0:0:0:
161,257,53681,6,0,L|82:253,1,75,2|0,0:0|0:0,0:0:0:0:
274,253,53997,2,0,P|306:288|317:363,1,112.5,8|0,0:0|0:0,0:0:0:0:
318,350,54312,2,0,L|327:267,1,75,0|0,0:0|0:0,0:0:0:0:
427,166,54628,2,0,L|414:302,1,112.5,0|0,0:0|0:0,0:0:0:0:
407,298,54944,5,0,0:0:0:0:
500,234,55102,1,0,0:0:0:0:
315,288,55260,2,0,B|261:301|261:301|162:272,1,150,2|0,0:0|0:0,0:0:0:0:
95,213,55733,1,0,0:0:0:0:
95,213,55891,2,0,L|84:96,1,112.5,0|0,0:0|0:0,0:0:0:0:
80,80,56207,5,0,0:0:0:0:
0,156,56365,1,12,3:0:0:0:
183,196,56523,2,0,P|257:193|287:111,1,150,2|0,0:0|0:0,0:0:0:0:
398,126,56997,1,0,0:0:0:0:
398,126,57154,2,0,L|390:251,1,112.5,0|0,0:0|0:0,0:0:0:0:
386,262,57470,5,0,0:0:0:0:
491,174,57628,1,4,3:0:0:0:
295,238,57786,2,0,B|208:246|208:246|126:227,2,150,0|0|0,0:0|0:0|0:0,0:0:0:0:
256,83,58733,6,0,P|206:96|168:135,1,89.9999972534181,6|8,0:0|3:0,0:0:0:0:
85,168,59207,1,6,0:0:0:0:
85,168,59286,1,0,0:0:0:0:
85,168,59365,2,0,L|71:67,1,89.9999972534181,0|8,0:0|3:0,0:0:0:0:
166,219,59839,1,0,0:0:0:0:
166,219,59918,1,0,0:0:0:0:
166,219,59997,6,0,B|148:313|148:313|169:348|204:366|231:365|256:359|301:335|306:297|295:270|262:268|252:274|232:296|263:326,1,359.999989013672,0|0,0:0|0:0,0:0:0:0:
332,207,61575,2,0,P|382:208|432:229,2,89.9999972534181,0|0|0,0:0|0:0|0:0,0:0:0:0:
414,91,62523,6,0,L|448:67,3,22.4999993133545,2|0|2|0,0:0|0:0|0:0|0:0,0:0:0:0:
413,123,62839,2,0,L|440:141,3,22.4999993133545,2|0|2|0,0:0|0:0|0:0|0:0,0:0:0:0:
373,102,63154,6,0,L|362:189,1,80,6|0,0:0|0:0,0:0:0:0:
332,207,63470,2,0,L|318:80,1,120,2|2,0:0|0:0,0:0:0:0:
318,87,64418,5,2,0:0:0:0:
324,70,64733,1,2,0:0:0:0:
342,51,65049,6,0,P|317:122|348:216,1,165.000005035401,6|8,0:0|0:0,0:0:0:0:
421,144,65523,1,0,0:0:0:0:
239,130,65681,2,0,L|146:120,1,82.5000025177003,0|0,0:0|0:0,0:0:0:0:
134,109,65918,1,0,0:0:0:0:
134,109,65997,1,8,0:0:0:0:
47,160,66154,1,0,0:0:0:0:
192,204,66312,6,0,P|235:171|331:221,1,165.000005035401,6|8,0:0|0:0,0:0:0:0:
354,307,66786,1,0,0:0:0:0:
284,361,66944,2,0,P|241:367|191:348,1,82.5000025177003,2|0,0:0|0:0,0:0:0:0:
354,307,67260,2,0,P|404:299|450:319,1,82.5000025177003,8|0,0:0|0:0,0:0:0:0:
490,240,67576,5,2,0:0:0:0:
490,240,67733,1,0,0:0:0:0:
384,172,67891,2,0,L|376:86,1,82.5000025177003,8|0,0:0|0:0,0:0:0:0:
512,76,68207,2,0,L|498:180,1,82.5000025177003,2|0,0:0|0:0,0:0:0:0:
334,113,68523,2,0,P|285:93|265:21,1,123.75000377655,8|0,0:0|0:0,0:0:0:0:
263,29,68839,6,0,L|255:138,1,82.5000025177003,6|0,0:0|0:0,0:0:0:0:
141,114,69154,2,0,L|160:204,1,82.5000025177003,8|0,0:0|0:0,0:0:0:0:
160,301,69470,2,0,P|93:293|61:313,1,82.5000025177003,2|0,0:0|0:0,0:0:0:0:
228,359,69786,2,0,P|282:337|302:303,1,82.5000025177003,8|0,0:0|0:0,0:0:0:0:
292,288,70023,1,0,0:0:0:0:
292,288,70102,6,0,L|465:281,1,165.000005035401,6|8,0:0|0:0,0:0:0:0:
376,188,70576,1,0,0:0:0:0:
279,172,70733,2,0,P|241:118|316:120,1,165.000005035401,2|8,0:0|0:0,0:0:0:0:
376,188,71207,1,0,0:0:0:0:
193,250,71365,6,0,P|149:239|117:218,1,82.5000025177003,6|0,0:0|0:0,0:0:0:0:
188,370,71681,2,0,P|236:353|285:352,1,82.5000025177003,8|0,0:0|0:0,0:0:0:0:
392,373,71997,1,2,0:0:0:0:
392,373,72154,1,0,0:0:0:0:
333,283,72312,2,0,P|316:239|362:174,1,123.75000377655,8|0,0:0|0:0,0:0:0:0:
353,177,72628,6,0,L|259:160,1,82.5000025177003,6|0,0:0|0:0,0:0:0:0:
135,93,72944,2,0,P|196:70|223:43,1,82.5000025177003,8|0,0:0|0:0,0:0:0:0:
352,7,73260,2,0,L|347:99,1,82.5000025177003,2|0,0:0|0:0,0:0:0:0:
426,175,73575,1,8,0:0:0:0:
336,121,73733,1,0,0:0:0:0:
181,158,73891,6,0,P|150:128|134:90,1,82.5000025177003,6|0,0:0|0:0,0:0:0:0:
140,67,74128,1,0,0:0:0:0:
139,56,74207,2,0,L|130:5,3,41.2500012588501,8|0|0|0,0:0|0:0|0:0|0:0,0:0:0:0:
243,73,74523,2,0,L|235:29,3,41.2500012588501,12|0|0|0,0:0|0:0|0:0|0:0,0:0:0:0:
333,89,74839,2,0,L|327:38,3,41.2500012588501,12|0|0|0,0:0|0:0|0:0|0:0,0:0:0:0:
416,71,75154,6,0,B|389:115|389:115|382:184|422:247,1,165.000005035401,14|8,0:0|0:0,0:0:0:0:
487,163,75628,1,0,0:0:0:0:
318,254,75786,2,0,P|278:255|232:233,1,82.5000025177003,2|0,0:0|0:0,0:0:0:0:
98,212,76102,2,0,P|145:194|168:166,1,82.5000025177003,8|0,0:0|0:0,0:0:0:0:
236,76,76418,6,0,B|252:188|252:188|232:264,1,165.000005035401,6|8,0:0|0:0,0:0:0:0:
129,304,76891,1,0,0:0:0:0:
220,334,77049,2,0,P|266:343|310:332,1,82.5000025177003,2|0,0:0|0:0,0:0:0:0:
129,304,77365,2,0,P|68:284|-4:308,1,123.75000377655,8|0,0:0|0:0,0:0:0:0:
11,297,77681,6,0,L|-8:197,1,82.5000025177003,6|0,0:0|0:0,0:0:0:0:
126,174,77997,2,0,L|140:88,1,82.5000025177003,8|0,0:0|0:0,0:0:0:0:
5,33,78312,2,0,P|24:85|46:110,1,82.5000025177003,2|0,0:0|0:0,0:0:0:0:
223,138,78628,2,0,P|267:117|292:81,1,82.5000025177003,8|0,0:0|0:0,0:0:0:0:
386,15,78944,6,0,P|332:78|347:173,1,165.000005035401,0|0,0:0|0:0,0:0:0:0:
405,294,79418,1,0,0:0:0:0:
405,294,79497,1,0,0:0:0:0:
405,294,79576,2,0,P|455:280|488:251,1,82.5000025177003,2|0,0:0|0:0,0:0:0:0:
459,151,79891,1,0,0:0:0:0:
274,250,80049,1,0,0:0:0:0:
274,250,80128,1,0,0:0:0:0:
274,250,80207,6,0,P|207:233|188:219,2,82.5000025177003,0|0|8,0:0|0:0|0:0,0:0:0:0:
120,171,80681,1,0,0:0:0:0:
195,142,80839,2,0,P|220:104|228:62,1,82.5000025177003,0|0,0:0|0:0,0:0:0:0:
122,26,81154,5,8,0:0:0:0:
291,0,81312,1,8,0:0:0:0:
149,24,81470,1,12,0:0:0:0:
256,192,81628,12,0,84312,0:0:0:0:
256,114,84628,6,0,P|294:107|325:83,2,56.2500021457673,2|0|0,0:0|0:0|0:0,0:0:0:0:
155,108,85102,1,0,0:0:0:0:
155,108,85181,1,0,0:0:0:0:
155,108,85260,6,0,L|136:190,1,75,6|0,0:0|0:0,0:0:0:0:
75,296,85575,2,0,P|40:265|25:228,1,75,10|0,0:0|0:0,0:0:0:0:
138,181,85891,2,0,P|182:177|218:195,1,75,10|0,0:0|0:0,0:0:0:0:
290,289,86207,1,10,0:0:0:0:
229,204,86365,1,0,0:0:0:0:
374,169,86523,6,0,L|425:152,3,37.5,10|0|0|0,0:0|0:0|0:0|0:0,0:0:0:0:
289,120,86839,2,0,L|237:100,3,37.5,10|0|0|0,0:0|0:0|0:0|0:0,0:0:0:0:
362,51,87154,2,0,L|413:34,3,37.5,8|0|0|0,0:0|0:0|0:0|0:0,0:0:0:0:
244,74,87470,1,8,0:0:0:0:
218,79,87549,1,0,0:0:0:0:
192,84,87628,1,0,0:0:0:0:
166,91,87707,1,0,0:0:0:0:
145,107,87786,6,0,P|199:131|237:221,1,150,6|8,0:0|0:0,0:0:0:0:
191,331,88260,1,0,0:0:0:0:
104,327,88418,2,0,P|60:284|54:261,1,75,2|0,0:0|0:0,0:0:0:0:
271,288,88733,2,0,P|309:276|346:276,1,75,8|0,0:0|0:0,0:0:0:0:
436,323,89049,5,2,0:0:0:0:
436,323,89207,1,0,0:0:0:0:
386,193,89365,2,0,B|379:150|379:150|391:99,1,75,8|0,0:0|0:3,0:0:0:0:
401,101,89602,1,0,0:3:0:0:
401,101,89681,1,4,0:3:0:0:
486,166,89839,1,2,0:0:0:0:
301,195,89997,2,0,L|200:179,1,75,8|0,0:0|0:0,0:0:0:0:
19,216,90312,6,0,B|128:169|128:169|96:159,1,150,6|8,0:0|0:0,0:0:0:0:
98,159,90786,1,0,0:0:0:0:
141,286,90944,1,2,0:0:0:0:
263,241,91102,1,2,0:0:0:0:
263,241,91181,1,0,0:0:0:0:
263,241,91260,2,0,L|269:188,3,37.5,10|0|2|0,0:0|0:0|0:0|0:0,0:0:0:0:
307,338,91575,6,0,P|264:325|222:327,1,75,6|0,0:0|0:0,0:0:0:0:
87,333,91891,2,0,P|131:304|142:282,1,75,8|2,0:0|0:0,0:0:0:0:
125,126,92207,1,0,0:0:0:0:
181,207,92365,1,2,0:0:0:0:
288,206,92523,1,10,0:0:0:0:
313,198,92602,1,0,0:0:0:0:
338,202,92681,1,0,0:0:0:0:
361,214,92760,1,0,0:0:0:0:
381,230,92839,6,0,L|394:129,1,75,6|0,0:0|0:0,0:0:0:0:
286,108,93154,2,0,L|280:33,1,75,8|0,0:0|0:0,0:0:0:0:
176,80,93470,1,2,0:0:0:0:
279,128,93628,5,0,0:0:0:0:
199,200,93786,1,10,0:0:0:0:
157,93,93944,1,0,0:0:0:0:
286,207,94102,6,0,P|338:200|386:173,1,75,10|0,0:0|0:0,0:0:0:0:
454,135,94418,1,8,0:0:0:0:
429,255,94575,2,0,P|408:295|405:350,1,75,2|0,0:0|0:0,0:0:0:0:
306,349,94891,1,10,0:0:0:0:
235,287,95049,2,0,P|194:277|156:285,1,75,8|8,0:0|0:0,0:0:0:0:
73,212,95365,6,0,P|137:192|152:174,1,82.5000025177003,14|0,0:0|0:0,0:0:0:0:
159,150,95602,1,0,0:0:0:0:
159,133,95681,2,0,L|153:83,3,41.2500012588501,8|0|0|0,0:0|0:0|0:0|0:0,0:0:0:0:
248,149,95997,2,0,L|271:97,3,41.2500012588501,10|0|0|0,0:0|0:0|0:0|0:0,0:0:0:0:
305,207,96312,2,0,L|356:199,3,41.2500012588501,10|0|0|0,0:0|0:0|0:0|0:0,0:0:0:0:
266,280,96628,6,0,L|290:318,3,41.2500012588501,10|0|0|0,0:0|0:0|0:0|0:0,0:0:0:0:
179,279,96944,2,0,L|171:334,3,41.2500012588501,10|0|0|0,0:0|0:0|0:0|0:0,0:0:0:0:
104,243,97260,2,0,L|63:270,3,41.2500012588501,10|2|2|2,0:0|0:0|0:0|0:0,0:0:0:0:
91,155,97575,2,0,L|49:142,3,41.2500012588501,10|2|2|0,0:0|0:0|0:0|0:0,0:0:0:0:
139,78,97891,6,0,B|179:48|179:48|210:47|305:74,1,150,14|8,0:0|0:0,0:0:0:0:
379,36,98365,1,0,0:0:0:0:
334,132,98523,2,0,P|321:187|323:217,1,75,2|0,0:0|0:0,0:0:0:0:
440,236,98839,2,0,P|455:273|454:311,1,75,8|0,0:0|0:0,0:0:0:0:
322,354,99154,6,0,B|201:350|201:350|241:328,1,150,6|8,0:0|0:0,0:0:0:0:
327,233,99628,1,0,0:0:0:0:
217,253,99786,2,0,L|137:248,1,75,2|0,0:0|0:0,0:0:0:0:
67,181,100102,2,0,P|121:163|146:146,1,75,8|0,0:0|0:0,0:0:0:0:
232,116,100418,6,0,L|62:100,1,150,6|8,0:0|0:0,0:0:0:0:
82,101,100891,1,0,0:0:0:0:
231,212,101049,2,0,P|277:196|303:193,1,75,2|0,0:0|0:0,0:0:0:0:
447,167,101365,2,0,P|403:131|388:71,1,112.5,0|0,0:0|0:0,0:0:0:0:
387,79,101681,6,0,L|374:178,1,75,6|0,0:0|0:0,0:0:0:0:
271,27,101997,2,0,L|279:120,1,75,8|0,0:0|0:0,0:0:0:0:
177,133,102312,2,0,P|110:126|62:87,1,112.5,2|0,0:0|0:0,0:0:0:0:
61,85,102628,2,0,L|38:29,2,37.5,8|0|0,0:0|0:0|0:0,0:0:0:0:
117,218,102944,6,0,P|180:178|269:215,1,150,6|8,0:0|0:0,0:0:0:0:
294,276,103418,1,0,0:0:0:0:
378,224,103575,2,0,P|398:184|399:150,1,75,2|0,0:0|0:0,0:0:0:0:
294,276,103891,2,0,B|283:316|283:316|290:360,1,75,8|0,0:0|0:0,0:0:0:0:
249,195,104207,6,0,B|190:182|190:182|74:196,1,150,6|8,0:0|0:0,0:0:0:0:
101,192,104681,1,0,0:0:0:0:
238,111,104839,2,0,P|250:69|242:31,1,75,2|0,0:0|0:0,0:0:0:0:
103,22,105154,1,8,0:0:0:0:
225,35,105312,1,0,0:0:0:0:
81,37,105470,5,8,0:0:0:0:
147,175,105628,1,4,0:3:0:0:
147,175,105707,1,4,0:3:0:0:
147,175,105786,1,12,0:3:0:0:
147,175,105865,1,4,0:3:0:0:
147,175,105944,1,4,0:3:0:0:
281,226,106102,2,0,P|314:190|321:164,1,75,4|0,0:0|0:0,0:0:0:0:
196,305,106418,2,0,L|191:369,2,37.5,12|0|0,0:0|0:0|0:0,0:0:0:0:
156,198,106733,5,10,0:0:0:0:
90,261,106891,1,10,0:0:0:0:
173,165,107049,2,0,P|174:109|158:76,1,75,10|10,0:0|0:0,0:0:0:0:
41,82,107365,5,10,0:0:0:0:
156,68,107523,1,10,0:0:0:0:
263,125,107681,5,10,0:0:0:0:
143,52,107839,1,10,0:0:0:0:
286,135,107997,6,0,B|337:120|337:120|392:125,2,97.4999955368044,6|0|0,0:0|0:0|0:0,0:0:0:0:
129,68,108944,1,2,0:0:0:0:
129,68,109260,6,0,B|89:103|89:103|65:153,2,97.4999955368044,2|0|0,0:0|0:0|0:0,0:0:0:0:
286,135,110207,1,2,0:0:0:0:
286,135,110523,6,0,B|310:182|310:182|318:246,2,97.4999955368044,2|0|0,0:0|0:0|0:0,0:0:0:0:
134,223,111470,1,2,0:0:0:0:
134,223,111786,6,0,B|80:233|80:233|25:217,2,97.4999955368044,2|0|0,0:0|0:0|0:0,0:0:0:0:
226,185,112733,1,4,0:3:0:0:
226,185,112891,1,0,0:3:0:0:
286,135,113049,5,2,0:0:0:0:
363,128,113365,1,2,0:0:0:0:
432,162,113681,1,2,0:0:0:0:
471,229,113997,1,2,0:0:0:0:
432,162,114312,5,2,0:0:0:0:
363,128,114628,1,2,0:0:0:0:
286,135,114944,1,2,0:0:0:0:
226,185,115260,1,2,0:0:0:0:
286,135,115575,5,2,0:0:0:0:
363,128,115891,1,2,0:0:0:0:
432,162,116207,1,2,0:0:0:0:
471,229,116523,1,2,0:0:0:0:
432,162,116838,5,2,0:0:0:0:
363,128,117154,1,2,0:0:0:0:
286,135,117470,1,2,0:0:0:0:
226,185,117786,1,2,0:0:0:0:
249,259,118102,6,0,P|253:314|206:282,1,134.999995880127,6|8,0:0|0:0,0:0:0:0:
329,212,118575,1,0,0:0:0:0:
329,212,118733,2,0,P|391:202|452:251,1,134.999995880127,2|8,0:0|0:0,0:0:0:0:
447,241,119207,1,0,0:0:0:0:
386,318,119365,6,0,P|376:381|374:406,1,67.4999979400635,2|0,0:0|0:0,0:0:0:0:
266,384,119681,2,0,L|253:310,1,67.4999979400635,8|0,0:0|0:0,0:0:0:0:
206,226,119997,2,0,P|167:212|134:217,1,67.4999979400635,2|0,0:0|0:0,0:0:0:0:
295,183,120312,2,0,P|315:147|312:114,1,67.4999979400635,8|0,0:0|0:0,0:0:0:0:
299,95,120549,1,0,0:0:0:0:
299,95,120628,6,0,B|388:113|388:113|441:86,1,134.999995880127,6|8,0:0|0:0,0:0:0:0:
253,22,121102,1,0,0:0:0:0:
253,22,121260,2,0,P|215:67|235:151,1,134.999995880127,2|8,0:0|0:0,0:0:0:0:
267,224,121733,1,0,0:0:0:0:
267,224,121891,6,0,B|270:329|270:329|238:305,1,134.999995880127,6|8,0:0|0:0,0:0:0:0:
93,271,122365,1,0,0:0:0:0:
93,271,122444,1,0,0:0:0:0:
93,271,122523,2,0,L|90:197,1,67.4999979400635,2|0,0:0|0:0,0:0:0:0:
36,67,122839,2,0,P|73:85|103:86,1,67.4999979400635,8|0,0:0|0:0,0:0:0:0:
247,36,123154,6,0,P|216:71|210:99,1,67.4999979400635,10|0,0:0|0:0,0:0:0:0:
366,178,123470,2,0,P|374:136|364:103,1,67.4999979400635,10|0,0:0|0:0,0:0:0:0:
200,210,123786,2,0,L|210:289,1,67.4999979400635,10|0,0:0|0:0,0:0:0:0:
339,353,124102,2,0,L|348:281,1,67.4999979400635,10|0,0:0|0:0,0:0:0:0:
439,221,124418,5,10,0:0:0:0:
439,221,124575,1,10,0:0:0:0:
287,164,124733,1,10,0:0:0:0:
287,164,124891,1,10,0:0:0:0:
433,107,125049,5,10,0:0:0:0:
362,214,125207,1,10,0:0:0:0:
300,67,125365,1,10,0:0:0:0:
455,101,125523,1,10,0:0:0:0:
242,144,125681,6,0,L|192:130,3,33.7499989700318,8|0|0|0,0:0|0:0|0:0|0:0,0:0:0:0:
347,128,125997,2,0,L|392:110,3,33.7499989700318,10|0|0|0,0:0|0:0|0:0|0:0,0:0:0:0:
317,233,126312,5,12,0:3:0:0:
317,233,126391,1,0,0:3:0:0:
317,233,126470,1,12,0:3:0:0:
317,233,126549,1,0,0:3:0:0:
317,233,126628,2,0,L|301:285,3,41.2500012588501,12|0|12|0,0:3|0:3|0:3|0:3,0:0:0:0:
272,298,126944,5,14,0:3:0:0:
395,290,127102,1,12,0:3:0:0:
253,334,127260,1,12,0:3:0:0:
414,277,127418,1,12,0:3:0:0:
250,210,127575,5,12,0:3:0:0:
367,165,127733,1,12,0:3:0:0:
233,190,127891,1,12,0:3:0:0:
388,132,128049,1,12,0:3:0:0:
263,99,128207,6,0,P|254:57|255:28,1,56.2500021457673,6|0,0:0|0:0,0:0:0:0:
388,132,128523,2,0,P|386:182|378:202,1,56.2500021457673,2|0,0:0|0:0,0:0:0:0:
235,219,128839,2,0,L|101:211,1,112.500004291535,2|2,0:0|0:0,0:0:0:0:
57,274,129312,1,0,0:0:0:0:
57,274,129470,5,2,0:0:0:0:
138,325,129628,2,0,L|202:308,2,56.2500021457673,0|2|0,0:0|0:0|0:0,0:0:0:0:
285,313,130102,2,0,P|318:329|348:363,1,56.2500021457673,2|0,0:0|0:0,0:0:0:0:
392,269,130418,2,0,L|401:209,1,56.2500021457673,2|0,0:0|0:0,0:0:0:0:
401,214,130733,5,2,0:0:0:0:
274,213,130891,2,0,P|251:173|246:141,1,56.2500021457673,0|2,0:0|0:0,0:0:0:0:
292,79,131207,1,0,0:0:0:0:
292,79,131365,2,0,L|228:71,1,56.2500021457673,2|0,0:0|0:0,0:0:0:0:
92,31,131681,2,0,P|118:59|129:87,1,56.2500021457673,2|0,0:0|0:0,0:0:0:0:
59,192,131997,6,0,P|41:231|44:254,1,56.2500021457673,2|0,0:0|0:0,0:0:0:0:
175,267,132312,2,0,P|190:297|195:323,1,56.2500021457673,2|0,0:0|0:0,0:0:0:0:
158,174,132628,2,0,P|181:148|272:153,1,112.500004291535,2|2,0:0|0:0,0:0:0:0:
317,211,133102,1,0,0:0:0:0:
317,211,133260,6,0,L|415:202,1,82.5000025177003,14|0,0:0|0:0,0:0:0:0:
273,64,133575,2,0,P|253:114|256:148,1,82.5000025177003,8|0,0:0|0:0,0:0:0:0:
437,90,133891,2,0,P|405:50|362:41,1,82.5000025177003,10|0,0:0|0:0,0:0:0:0:
186,104,134207,2,0,P|233:116|257:149,1,82.5000025177003,8|0,0:0|0:0,0:0:0:0:
226,278,134523,5,14,0:3:0:0:
262,175,134681,1,12,0:3:0:0:
262,309,134839,1,12,0:3:0:0:
152,220,134997,5,12,0:3:0:0:
320,245,135154,1,12,0:3:0:0:
156,263,135312,1,12,0:3:0:0:
250,167,135470,5,12,0:3:0:0:
266,341,135628,1,12,0:3:0:0:
166,285,140207,5,2,0:0:0:0:
208,165,140365,1,2,0:0:0:0:
170,321,140839,6,0,P|147:271|34:227,1,165.000005035401,6|8,0:0|0:0,0:0:0:0:
51,225,141312,1,0,0:0:0:0:
222,206,141470,2,0,B|223:203|258:180|267:122,1,82.5000025177003,2|0,0:0|0:0,0:0:0:0:
115,50,141786,2,0,P|118:101|132:132,1,82.5000025177003,8|0,0:0|0:0,0:0:0:0:
264,136,142102,6,0,B|380:125|380:125|415:89,2,165.000005035401,6|8|2,0:0|0:0|0:0,0:0:0:0:
84,106,142891,1,0,0:0:0:0:
152,172,143049,2,0,P|173:196|193:262,1,82.5000025177003,8|0,0:0|0:0,0:0:0:0:
266,350,143365,6,0,P|276:301|315:355,1,123.75000377655,6|0,0:0|0:0,0:0:0:0:
344,355,143681,2,0,P|396:338|424:313,1,82.5000025177003,8|0,0:0|0:0,0:0:0:0:
491,211,143997,2,0,L|401:197,1,82.5000025177003,2|0,0:0|0:0,0:0:0:0:
312,135,144312,2,0,P|359:108|379:80,1,82.5000025177003,8|0,0:0|0:0,0:0:0:0:
211,13,144628,6,0,L|202:164,1,123.75000377655,6|0,0:0|0:0,0:0:0:0:
186,166,144944,2,0,P|210:208|218:258,1,82.5000025177003,8|0,0:0|0:0,0:0:0:0:
86,264,145260,2,0,P|74:310|77:359,1,82.5000025177003,2|0,0:0|0:0,0:0:0:0:
200,368,145575,1,8,0:0:0:0:
98,356,145733,1,0,0:0:0:0:
238,378,145891,6,0,B|374:363|374:363|341:348,1,165.000005035401,6|8,0:0|0:0,0:0:0:0:
217,240,146365,1,0,0:0:0:0:
311,252,146523,2,0,P|351:235|378:198,1,82.5000025177003,2|0,0:0|0:0,0:0:0:0:
221,157,146839,2,0,P|180:165|147:193,1,82.5000025177003,8|0,0:0|0:0,0:0:0:0:
43,252,147154,6,0,P|76:204|48:127,1,123.75000377655,6|0,0:0|0:0,0:0:0:0:
41,127,147470,2,0,P|38:81|54:45,1,82.5000025177003,8|0,0:0|0:0,0:0:0:0:
179,75,147786,2,0,L|299:66,1,82.5000025177003,2|0,0:0|0:0,0:0:0:0:
396,101,148102,2,0,P|356:134|341:164,1,82.5000025177003,8|0,0:0|0:0,0:0:0:0:
345,286,148418,6,0,P|399:265|475:296,1,123.75000377655,6|0,0:0|0:0,0:0:0:0:
460,282,148733,2,0,L|472:195,1,82.5000025177003,8|0,0:0|0:0,0:0:0:0:
345,286,149049,2,0,L|356:381,1,82.5000025177003,2|0,0:0|0:0,0:0:0:0:
308,196,149365,2,0,P|268:177|223:182,1,82.5000025177003,8|0,0:0|0:0,0:0:0:0:
146,246,149681,6,0,L|137:302,3,41.2500012588501,10|0|0|0,0:0|0:0|0:0|0:0,0:0:0:0:
82,169,149997,2,0,L|73:121,3,41.2500012588501,10|0|0|0,0:0|0:0|0:0|0:0,0:0:0:0:
102,270,150312,6,0,L|97:320,3,41.2500012588501,10|2|2|2,0:0|0:0|0:0|0:0,0:0:0:0:
50,172,150628,2,0,L|39:119,3,41.2500012588501,10|2|2|2,0:0|0:0|0:0|0:0,0:0:0:0:
189,195,150944,6,0,P|234:132|199:40,1,165.000005035401,14|8,0:0|0:0,0:0:0:0:
111,47,151418,1,0,0:0:0:0:
267,135,151575,2,0,P|320:114|346:91,1,82.5000025177003,0|0,0:0|0:0,0:0:0:0:
339,199,151891,2,0,P|305:245|295:274,1,82.5000025177003,8|0,0:0|0:0,0:0:0:0:
202,360,152207,6,0,B|193:292|193:292|150:249,1,123.75000377655,6|0,0:0|0:0,0:0:0:0:
123,243,152523,2,0,P|174:226|210:194,1,82.5000025177003,8|0,0:0|0:0,0:0:0:0:
80,138,152839,2,0,P|52:115|30:66,1,82.5000025177003,2|0,0:0|0:0,0:0:0:0:
211,103,153154,2,0,P|238:60|242:23,1,82.5000025177003,8|0,0:0|0:0,0:0:0:0:
130,40,153470,6,0,L|141:190,1,123.75000377655,6|0,0:0|0:0,0:0:0:0:
150,192,153786,2,0,P|177:231|189:276,1,82.5000025177003,8|0,0:0|0:0,0:0:0:0:
48,252,154102,2,0,P|27:294|24:336,1,82.5000025177003,2|0,0:0|0:0,0:0:0:0:
187,264,154418,2,0,L|274:259,1,82.5000025177003,8|0,0:0|0:0,0:0:0:0:
397,305,154733,6,0,B|407:266|392:238|392:238|414:202|414:202|398:136,2,165.000005035401,6|8|0,0:0|0:0|0:0,0:0:0:0:
283,181,155523,1,0,0:0:0:0:
283,181,155681,2,0,P|261:130|266:92,1,82.5000025177003,8|0,0:0|0:0,0:0:0:0:
342,47,155997,6,0,L|165:70,1,165.000005035401,6|8,0:0|0:0,0:0:0:0:
31,44,156470,1,0,0:0:0:0:
123,123,156628,2,0,P|163:126|208:153,1,82.5000025177003,2|0,0:0|0:0,0:0:0:0:
115,270,156944,2,0,P|65:266|37:245,1,82.5000025177003,8|0,0:0|0:0,0:0:0:0:
221,254,157260,6,0,P|244:298|250:337,1,82.5000025177003,6|0,0:0|0:0,0:0:0:0:
337,373,157575,2,0,P|341:330|359:288,1,82.5000025177003,8|0,0:0|0:0,0:0:0:0:
442,224,157891,2,0,P|396:210|365:187,1,82.5000025177003,2|0,0:0|0:0,0:0:0:0:
237,176,158207,2,0,P|274:155|300:119,1,82.5000025177003,8|0,0:0|0:0,0:0:0:0:
368,28,158523,6,0,P|354:101|373:202,1,165.000005035401,6|0,0:0|0:0,0:0:0:0:
378,212,158918,1,0,0:0:0:0:
388,234,158997,1,0,0:0:0:0:
398,256,159076,1,0,0:0:0:0:
408,278,159154,2,0,B|294:260|294:260|226:280,1,165.000005035401,12|8,0:0|0:0,0:0:0:0:
224,286,159549,1,0,0:0:0:0:
200,293,159628,1,0,0:0:0:0:
178,304,159707,1,0,0:0:0:0:
155,314,159786,6,0,B|130:267|130:267|144:140,1,165.000005035401,12|8,0:0|0:0,0:0:0:0:
155,126,160181,1,0,0:0:0:0:
163,110,160260,2,0,L|167:56,3,41.2500012588501,0|0|8|0,0:0|0:0|0:0|0:0,0:0:0:0:
265,83,160575,2,0,L|269:35,3,41.2500012588501,0|0|8|0,0:0|0:0|0:0|0:0,0:0:0:0:
330,144,160891,1,0,0:0:0:0:
350,152,160970,1,0,0:0:0:0:
372,155,161049,6,0,P|418:143|446:118,1,82.5000025177003,12|0,0:0|0:0,0:0:0:0:
247,187,161365,1,8,0:0:0:0:
247,187,161444,1,0,0:0:0:0:
247,187,161523,2,0,P|216:250|291:254,1,165.000005035401,4|0,0:0|0:0,0:0:0:0:
309,252,161918,1,0,0:0:0:0:
324,252,161997,2,0,L|338:295,3,41.2500012588501,8|0|0|0,0:0|0:0|0:0|0:0,0:0:0:0:
433,270,162312,6,0,P|446:230|441:180,1,82.5000025177003,12|0,0:0|0:0,0:0:0:0:
434,166,162549,1,0,0:0:0:0:
421,144,162628,1,0,0:0:0:0:
416,119,162707,1,0,0:0:0:0:
425,96,162786,6,0,L|527:91,2,82.5000025177003,4|12|0,0:0|0:0|0:0,0:0:0:0:
388,83,163181,1,0,0:0:0:0:
363,80,163260,1,8,0:0:0:0:
338,80,163339,1,0,0:0:0:0:
313,78,163418,1,0,0:0:0:0:
288,79,163497,1,0,0:0:0:0:
263,78,163575,6,0,P|217:121|209:146,1,82.5000025177003,12|0,0:0|0:0,0:0:0:0:
312,310,163891,2,0,P|302:265|268:233,1,82.5000025177003,12|0,0:0|0:0,0:0:0:0:
243,225,164128,1,0,0:0:0:0:
227,227,164207,2,0,L|166:235,3,41.2500012588501,10|0|0|0,0:0|0:0|0:0|0:0,0:0:0:0:
226,316,164523,2,0,L|197:349,3,41.2500012588501,8|0|0|0,0:0|0:0|0:0|0:0,0:0:0:0:
317,344,164839,2,0,L|326:387,3,41.2500012588501,10|2|2|2,0:0|0:0|0:0|0:0,0:0:0:0:
395,297,165154,2,0,L|442:322,3,41.2500012588501,10|2|2|2,0:0|0:0|0:0|0:0,0:0:0:0:
391,199,165470,5,10,0:0:0:0:
391,174,165549,1,2,0:0:0:0:
391,149,165628,1,0,0:0:0:0:
391,124,165707,1,0,0:0:0:0:
389,100,165786,5,8,0:0:0:0:
365,90,165865,1,0,0:0:0:0:
340,89,165944,1,0,0:0:0:0:
317,98,166023,1,0,0:0:0:0:
302,116,166102,6,0,B|180:110,2,104.999996795654,14|0|0,0:0|0:0|0:0,0:0:0:0:
246,219,167049,1,0,0:0:0:0:
246,219,167365,2,0,L|123:243,2,104.999996795654,0|0|0,0:0|0:0|0:0,0:0:0:0:
302,116,168312,1,0,0:0:0:0:
375,183,168628,6,0,P|402:125|381:53,1,134.999995880127,6|8,0:0|0:0,0:0:0:0:
271,43,169102,1,10,0:0:0:0:
271,43,169260,1,10,0:0:0:0:
441,123,169418,5,10,0:0:0:0:
311,146,169575,1,10,0:0:0:0:
475,201,169733,1,10,0:0:0:0:
390,259,169891,5,10,0:0:0:0:
384,278,169970,1,0,0:0:0:0:
379,297,170049,1,0,0:0:0:0:
376,317,170128,1,0,0:0:0:0:
377,337,170207,5,10,0:0:0:0:
347,331,170286,1,0,0:0:0:0:
316,329,170365,1,0,0:0:0:0:
286,337,170444,1,0,0:0:0:0:
259,351,170523,2,0,L|249:314,3,33.7499989700318,10|0|0|0,0:0|0:0|0:0|0:0,0:0:0:0:
178,259,170839,2,0,L|171:292,3,33.7499989700318,10|2|2|2,0:0|0:0|0:0|0:0,0:0:0:0:
79,300,171154,6,0,B|64:247|64:247|89:117,1,165.000005035401,6|8,0:0|0:0,0:0:0:0:
205,140,171628,1,0,0:0:0:0:
296,87,171786,2,0,P|316:37|308:3,1,82.5000025177003,2|0,0:0|0:0,0:0:0:0:
205,140,172102,2,0,P|209:192|222:223,1,82.5000025177003,8|0,0:0|0:0,0:0:0:0:
425,293,172418,6,0,P|462:281|407:258,1,123.75000377655,6|0,0:0|0:0,0:0:0:0:
396,258,172733,2,0,P|377:302|385:337,1,82.5000025177003,8|0,0:0|0:0,0:0:0:0:
455,156,173049,2,0,P|422:128|383:126,1,82.5000025177003,2|0,0:0|0:0,0:0:0:0:
217,130,173365,2,0,P|265:103|276:77,1,82.5000025177003,8|0,0:0|0:0,0:0:0:0:
149,30,173681,5,2,0:0:0:0:
149,30,173839,1,0,0:0:0:0:
275,79,173997,2,0,L|404:68,1,123.75000377655,10|0,0:0|0:0,0:0:0:0:
398,68,174312,2,0,P|380:112|373:152,1,82.5000025177003,6|0,0:0|0:0,0:0:0:0:
239,174,174628,2,0,P|262:222|266:258,1,82.5000025177003,8|0,0:0|0:0,0:0:0:0:
275,79,174944,6,0,P|216:137|136:108,1,165.000005035401,6|8,0:0|0:0,0:0:0:0:
144,116,175418,1,0,0:0:0:0:
275,79,175575,2,0,P|317:84|361:109,1,82.5000025177003,2|0,0:0|0:0,0:0:0:0:
485,159,175891,2,0,P|433:172|382:239,1,123.75000377655,8|0,0:0|0:0,0:0:0:0:
374,253,176207,6,0,P|398:289|402:330,1,82.5000025177003,6|0,0:0|0:0,0:0:0:0:
273,373,176523,1,8,0:0:0:0:
376,350,176681,1,0,0:0:0:0:
245,371,176839,2,0,B|146:368|146:368|165:341,1,123.75000377655,2|0,0:0|0:0,0:0:0:0:
176,323,177154,2,0,B|195:275|195:275|175:184,1,123.75000377655,8|0,0:0|0:0,0:0:0:0:
154,184,177470,6,0,P|126:180|90:155,1,56.2500021457673,6|0,0:0|0:0,0:0:0:0:
246,100,177786,2,0,P|275:126|283:150,1,56.2500021457673,2|0,0:0|0:0,0:0:0:0:
127,68,178102,2,0,P|118:41|121:9,1,56.2500021457673,2|0,0:0|0:0,0:0:0:0:
246,100,178418,1,2,0:0:0:0:
256,192,178575,12,0,181260,0:0:0:0:
