osu file format v14

[General]
AudioFilename: audio.mp3
AudioLeadIn: 0
PreviewTime: 68744
Countdown: 0
SampleSet: Soft
StackLeniency: 0.4
Mode: 0
LetterboxInBreaks: 0
WidescreenStoryboard: 0

[Editor]
DistanceSpacing: 1
BeatDivisor: 4
GridSize: 32
TimelineZoom: 1

[Metadata]
Title:Golden Journey
TitleUnicode:ゴールデンジャーニー
Artist:yuikonnu
ArtistUnicode:ゆいこんぬ
Creator:sanairrt
Version:Emotions
Source:
Tags:Astromi Mujina Airiesu yuiko primary utaite cover mel mer メル hatsune miku 初音ミク flower おかず vocaloid japanese female vocals pop j-pop jpop seasonal magic
BeatmapID:3127075
BeatmapSetID:1528682

[Difficulty]
HPDrainRate:6
CircleSize:4
OverallDifficulty:8.5
ApproachRate:9.3
SliderMultiplier:1.8
SliderTickRate:1

[Events]
//Background and Video events
0,0,"1116534.jpg",0,0
//Break Periods
//Storyboard Layer 0 (Background)
//Storyboard Layer 1 (Fail)
//Storyboard Layer 2 (Pass)
//Storyboard Layer 3 (Foreground)
//Storyboard Layer 4 (Overlay)
//Storyboard Sound Samples

[TimingPoints]
65,337.078651685393,4,2,1,70,1,0
2761,-100,4,2,2,70,0,0
3772,-100,4,2,1,70,0,0
4109,-100,4,2,1,70,0,0
4447,-100,4,2,1,65,0,0
25682,-111.111111111111,4,2,1,60,0,0
28632,-111.111111111111,4,2,1,5,0,0
28716,-111.111111111111,4,2,1,60,0,0
47256,-100,4,2,1,60,0,0
63435,-100,4,2,1,65,0,0
66132,-83.3333333333333,4,2,1,65,0,0
67480,-142.857142857143,4,2,1,55,0,0
68154,-142.857142857143,4,2,1,40,0,0
68829,-90.909090909091,4,2,1,80,0,0
78267,-90.909090909091,4,2,2,80,0,0
79615,-90.909090909091,4,2,1,80,0,0
90402,-100,4,2,1,65,0,0
101188,-111.111111111111,4,2,1,60,0,0
111975,-142.857142857143,4,2,1,40,0,0
117031,-125,4,2,1,40,0,0
117284,-125,4,2,1,5,0,0
117368,-111.111111111111,4,2,1,45,0,0
118042,-111.111111111111,4,2,1,50,0,0
118716,-111.111111111111,4,2,1,55,0,0
119390,-111.111111111111,4,2,1,60,0,0
120065,-111.111111111111,4,2,1,65,0,0
120739,-111.111111111111,4,2,1,70,0,0
121413,-111.111111111111,4,2,1,75,0,0
122087,-90.9090909090908,4,2,1,80,0,0
122424,-90.9090909090908,4,2,1,65,0,0
122761,-99.9999999999999,4,2,1,65,0,0
138941,-208.333333333333,4,2,1,65,0,0
141300,-208.333333333333,4,2,1,50,0,0
141975,-208.333333333333,4,2,1,55,0,0
142312,-208.333333333333,4,2,1,60,0,0
142649,-208.333333333333,4,2,1,65,0,0
142986,-208.333333333333,4,2,1,70,0,0
143323,-208.333333333333,4,2,1,75,0,0
143660,-208.333333333333,4,2,1,80,0,0
144334,-90.9090909090909,4,2,1,80,0,0
153772,-90.9090909090909,4,2,2,80,0,0
155121,-90.9090909090909,4,2,1,80,0,0
165907,-90.9090909090909,4,2,1,65,0,0
182087,-100,4,2,1,65,0,0
184784,-285.714285714286,4,2,1,50,0,0
187480,-166.666666666667,4,2,1,40,0,0
206357,-166.666666666667,4,2,1,60,0,0
207368,-166.666666666667,4,2,1,70,0,0
208042,-166.666666666667,4,2,1,80,0,0
209053,-90.9090909090909,4,2,1,80,0,0
218491,-90.9090909090909,4,2,2,80,0,0
219840,-90.9090909090909,4,2,1,80,0,0
230626,-100,4,2,1,65,0,0
252199,-222.222222222222,4,2,1,50,0,0

[Colours]
Combo1 : 243,82,98
Combo2 : 253,161,136
Combo3 : 254,251,148
Combo4 : 255,168,52

[HitObjects]
256,192,570,12,2,2761,2:0:0:0:
219,150,3098,5,2,2:0:0:0:
211,133,3435,5,2,2:0:0:0:
288,26,3772,5,8,2:0:0:0:
327,6,3857,1,8,2:0:0:0:
372,12,3941,1,8,2:0:0:0:
406,40,4025,1,8,2:0:0:0:
419,82,4109,6,0,P|402:147|377:248,1,135,4|0,3:2|0:0,0:0:0:0:
376,252,4447,1,10,2:0:0:0:
202,360,4615,1,0,3:2:0:0:
157,145,4784,2,0,B|237:160|285:168,1,90,2|0,2:0|3:2,0:0:0:0:
432,328,5121,2,0,P|392:347|348:343,1,90,10|0,2:0|0:0,0:0:0:0:
302,74,5458,6,0,P|348:142|316:241,1,180,2|8,3:2|2:0,0:0:0:0:
182,349,5963,2,0,B|160:268|133:175,1,180,2|2,3:2|3:2,0:0:0:0:
193,6,6469,1,10,2:0:0:0:
35,172,6638,1,2,2:0:0:0:
300,118,6806,6,0,P|244:103|177:86,1,90,2|0,3:2|0:0,0:0:0:0:
72,286,7143,2,0,P|115:274|159:263,1,90,10|2,2:0|3:2,0:0:0:0:
165,29,7480,2,0,P|135:69|139:124,1,90,0|2,0:0|3:2,0:0:0:0:
212,329,7817,2,0,P|242:289|238:234,1,90,10|2,2:0|2:0,0:0:0:0:
36,129,8154,6,0,P|122:112|232:91,1,180,2|10,3:2|2:0,0:0:0:0:
371,6,8660,2,0,P|319:56|347:176,1,180,2|2,3:2|3:2,0:0:0:0:
489,278,9166,1,10,2:0:0:0:
407,97,9334,1,2,2:0:0:0:
294,264,9503,6,0,P|250:274|145:302,1,135,2|0,3:2|0:0,0:0:0:0:
127,304,9840,1,10,2:0:0:0:
212,94,10008,1,0,3:2:0:0:
359,209,10177,2,0,P|379:249|365:310,1,90,2|0,2:0|3:2,0:0:0:0:
212,94,10514,2,0,B|234:12|244:-16,1,90,10|0,2:0|0:0,0:0:0:0:
24,243,10851,6,0,P|81:224|162:326,1,180,2|8,3:2|2:0,0:0:0:0:
318,384,11357,2,0,B|334:312|358:208,1,180,2|2,3:2|3:2,0:0:0:0:
322,43,11862,1,10,2:0:0:0:
484,192,12031,1,2,2:0:0:0:
302,263,12199,6,0,B|262:232|194:249|233:275|152:295|101:249,1,180,2|10,3:2|2:0,0:0:0:0:
53,113,12705,2,0,P|133:94|153:196,1,180,2|2,3:2|3:2,0:0:0:0:
35,345,13211,2,0,P|19:285|5:232,1,90,10|2,2:0|2:0,0:0:0:0:
168,83,13548,6,0,P|247:99|361:125,1,180,2|10,3:2|2:0,0:0:0:0:
450,322,14053,2,0,P|381:331|297:245,1,180,6|2,3:2|3:2,0:0:0:0:
414,55,14559,2,0,P|440:105|427:155,1,90,10|2,2:0|2:0,0:0:0:0:
301,262,14896,6,0,P|233:279|152:302,1,135,6|0,3:2|0:0,0:0:0:0:
137,305,15233,1,10,2:0:0:0:
30,165,15402,1,0,3:2:0:0:
255,93,15570,2,0,B|232:153|224:177,1,90,2|0,2:0|3:2,0:0:0:0:
58,378,15907,2,0,B|35:318|24:291,1,90,10|0,2:0|0:0,0:0:0:0:
164,102,16244,6,0,P|211:174|298:173,1,180,2|8,3:2|2:0,0:0:0:0:
451,23,16750,2,0,P|377:36|247:63,1,180,2|2,3:2|3:2,0:0:0:0:
81,177,17256,1,10,2:0:0:0:
193,0,17424,1,2,2:0:0:0:
298,173,17593,6,0,P|278:238|264:288,1,90,2|0,3:2|0:0,0:0:0:0:
21,116,17930,2,0,P|66:91|125:103,1,90,10|2,2:0|3:2,0:0:0:0:
197,313,18267,2,0,P|153:300|110:287,1,90,0|2,0:0|3:2,0:0:0:0:
235,102,18604,2,0,P|280:77|339:89,1,90,10|2,2:0|2:0,0:0:0:0:
411,311,18941,6,0,P|357:245|253:280,1,180,2|10,3:2|2:0,0:0:0:0:
128,384,19447,2,0,B|100:313|100:313|110:279|110:279|85:215,1,180,2|2,3:2|3:2,0:0:0:0:
255,14,19952,2,0,P|241:75|228:130,1,90,10|2,2:0|2:0,0:0:0:0:
5,187,20289,6,0,P|57:133|138:149,1,135,2|0,3:2|0:0,0:0:0:0:
145,148,20626,1,10,2:0:0:0:
273,0,20795,1,0,3:2:0:0:
326,219,20963,1,2,2:0:0:0:
173,39,21132,1,0,3:2:0:0:
89,282,21300,2,0,P|160:262|204:251,1,90,10|0,2:0|0:0,0:0:0:0:
465,121,21638,6,0,P|385:149|311:87,1,180,2|8,3:2|2:0,0:0:0:0:
150,0,22143,2,0,P|136:63|110:181,1,180,2|2,3:2|3:2,0:0:0:0:
182,343,22649,1,10,2:0:0:0:
0,223,22817,1,2,2:0:0:0:
206,131,22986,6,0,P|291:130|336:204,1,180,2|10,3:2|2:0,0:0:0:0:
433,373,23491,2,0,P|447:286|470:167,1,180,2|2,3:2|3:2,0:0:0:0:
286,102,23997,2,0,P|236:132|179:122,1,90,10|2,2:0|2:0,0:0:0:0:
4,311,24334,6,0,P|82:323|185:343,1,180,2|10,3:2|2:0,0:0:0:0:
281,150,24840,2,0,B|257:200|188:197|188:197|165:165|130:160,1,180,10|8,2:0|3:0,0:0:0:0:
4,311,25345,1,4,3:0:0:0:
113,250,25514,1,0,0:0:0:0:
176,384,25682,6,0,P|268:368|364:353,1,161.999995056153,6|8,3:2|2:0,0:0:0:0:
449,229,26188,1,2,3:2:0:0:
299,167,26357,2,0,P|315:224|328:274,1,80.9999975280763,2|0,2:0|3:2,0:0:0:0:
413,86,26694,2,0,P|356:70|306:57,1,80.9999975280763,8|2,2:0|2:0,0:0:0:0:
161,128,27031,6,0,P|227:180|322:144,1,161.999995056153,2|10,3:2|2:0,0:0:0:0:
212,48,27536,2,0,P|134:35|74:86,1,161.999995056153,2|2,3:2|3:2,0:0:0:0:
0,222,28042,1,8,2:0:0:0:
161,128,28211,1,2,2:0:0:0:
212,305,28379,6,0,P|273:292|351:276,1,121.499996292114,2|0,3:2|0:0,0:0:0:0:
364,271,28716,2,0,P|378:230|360:180,1,80.9999975280763,8|0,2:0|3:2,0:0:0:0:
246,85,29053,1,2,2:0:0:0:
294,229,29222,1,0,3:2:0:0:
356,73,29390,2,0,P|293:61|247:52,1,80.9999975280763,10|0,2:0|0:0,0:0:0:0:
96,203,29727,5,2,3:2:0:0:
246,85,29896,1,2,2:0:0:0:
82,0,30064,2,0,P|97:52|108:100,1,80.9999975280763,10|2,2:0|3:2,0:0:0:0:
212,282,30402,2,0,P|220:242|230:202,1,80.9999975280763,0|2,2:0|3:2,0:0:0:0:
359,37,30739,2,0,P|370:75|380:115,1,80.9999975280763,10|2,2:0|2:0,0:0:0:0:
413,143,30991,1,2,2:0:0:0:
413,143,31076,6,0,P|395:215|366:336,1,161.999995056153,2|8,3:2|2:0,0:0:0:0:
253,371,31581,1,2,3:2:0:0:
229,202,31750,2,0,P|285:222|335:238,1,80.9999975280763,2|0,2:0|3:2,0:0:0:0:
114,306,32087,2,0,P|94:250|78:200,1,80.9999975280763,8|2,2:0|2:0,0:0:0:0:
192,65,32424,6,0,P|243:124|228:201,1,161.999995056153,2|10,3:2|2:0,0:0:0:0:
114,306,32930,1,0,3:2:0:0:
33,151,33098,1,2,2:0:0:0:
213,220,33267,1,0,3:2:0:0:
36,328,33435,2,0,P|76:316|128:301,1,80.9999975280763,10|2,2:0|2:0,0:0:0:0:
146,299,33688,1,2,2:0:0:0:
146,299,33772,6,0,B|200:314|330:345,1,161.999995056153,2|10,3:2|2:0,0:0:0:0:
439,233,34278,1,0,3:2:0:0:
290,151,34447,2,0,P|308:214|319:255,1,80.9999975280763,2|2,2:0|3:2,0:0:0:0:
441,346,34784,2,0,P|459:283|470:242,1,80.9999975280763,8|0,2:0|0:0,0:0:0:0:
397,96,35121,5,2,3:2:0:0:
312,228,35289,1,2,2:0:0:0:
253,32,35458,1,10,2:0:0:0:
469,142,35626,2,0,P|409:129|353:119,1,80.9999975280763,2|0,3:2|2:0,0:0:0:0:
253,32,35963,1,2,3:2:0:0:
196,224,36132,2,0,P|235:216|275:207,1,80.9999975280763,8|2,2:0|2:0,0:0:0:0:
130,138,36469,6,0,P|89:198|124:306,1,161.999995056153,2|8,3:2|2:0,0:0:0:0:
166,384,36975,1,2,3:2:0:0:
274,273,37143,2,0,P|257:217|243:167,1,80.9999975280763,2|0,2:0|3:2,0:0:0:0:
444,307,37480,2,0,P|427:363|413:413,1,80.9999975280763,8|2,2:0|2:0,0:0:0:0:
293,183,37817,6,0,B|322:180|351:211|351:211|408:204|435:163,1,161.999995056153,2|10,3:2|2:0,0:0:0:0:
512,33,38323,2,0,B|468:7|416:26|448:39|389:53|346:28,1,161.999995056153,2|2,3:2|3:2,0:0:0:0:
203,166,38829,1,10,2:0:0:0:
341,51,38997,1,2,2:0:0:0:
134,18,39166,6,0,P|148:67|163:125,1,80.9999975280763,2|0,3:2|0:0,0:0:0:0:
271,261,39503,2,0,P|281:221|292:182,1,80.9999975280763,10|0,2:0|3:2,0:0:0:0:
65,211,39840,2,0,P|104:221|143:232,1,80.9999975280763,2|0,2:0|3:2,0:0:0:0:
354,128,40177,2,0,P|323:104|283:100,1,80.9999975280763,10|0,2:0|0:0,0:0:0:0:
143,232,40514,5,2,3:2:0:0:
292,182,40682,1,2,2:0:0:0:
127,95,40851,1,10,2:0:0:0:
232,259,41020,2,0,P|299:280|377:226,1,161.999995056153,2|2,3:2|3:2,0:0:0:0:
442,125,41525,1,8,2:0:0:0:
320,34,41694,1,2,2:0:0:0:
320,34,41778,1,2,2:0:0:0:
320,34,41862,6,0,P|253:47|146:68,1,161.999995056153,2|8,3:2|2:0,0:0:0:0:
15,194,42368,1,2,3:2:0:0:
46,17,42536,2,0,P|66:79|79:124,1,80.9999975280763,2|0,2:0|3:2,0:0:0:0:
255,182,42873,2,0,P|223:157|183:153,1,80.9999975280763,8|2,2:0|2:0,0:0:0:0:
44,325,43211,6,0,B|101:313|203:294,1,161.999995056153,2|10,3:2|2:0,0:0:0:0:
337,164,43716,2,0,P|287:104|209:111,1,161.999995056153,2|2,3:2|3:2,0:0:0:0:
112,274,44222,1,10,2:0:0:0:
255,182,44390,1,2,2:0:0:0:
320,343,44559,6,0,P|271:330|208:314,1,80.9999975280763,2|0,3:2|0:0,0:0:0:0:
442,208,44896,1,10,2:0:0:0:
494,366,45064,1,0,3:2:0:0:
352,242,45233,2,0,P|346:190|376:142,1,80.9999975280763,2|0,2:0|3:2,0:0:0:0:
494,366,45570,2,0,P|445:353|382:337,1,80.9999975280763,8|0,2:0|0:0,0:0:0:0:
273,203,45907,6,0,P|317:159|402:172,1,121.499996292114,2|0,3:2|0:0,0:0:0:0:
442,208,46244,1,8,2:0:0:0:
350,36,46413,1,0,3:0:0:0:
251,238,46581,1,4,3:0:0:0:
434,99,46750,1,8,3:2:0:0:
205,4,46918,2,0,P|213:43|221:86,1,80.9999975280763,2|2,3:2|2:0,0:0:0:0:
112,306,47256,6,0,P|144:249|273:254,1,180,6|8,3:2|2:0,0:0:0:0:
355,378,47761,2,0,P|370:316|383:263,1,90,2|0,3:2|0:0,0:0:0:0:
416,119,48098,1,0,3:0:0:0:
250,237,48267,2,0,P|199:266|112:226,1,135,14|0,2:0|0:0,0:0:0:0:
36,248,48604,6,0,B|66:176|66:176|56:146|56:146|85:82,1,180,2|8,3:2|2:0,0:0:0:0:
214,30,49109,1,2,3:2:0:0:
323,161,49278,2,0,P|261:146|207:134,1,90,2|2,2:0|3:2,0:0:0:0:
66,176,49615,1,10,2:0:0:0:
214,30,49784,1,2,2:0:0:0:
267,248,49952,6,0,P|352:262|420:174,1,180,2|10,3:2|2:0,0:0:0:0:
471,48,50458,1,0,3:2:0:0:
323,161,50626,1,2,2:0:0:0:
512,234,50795,1,2,3:2:0:0:
375,70,50963,2,0,P|328:52|269:71,1,90,14|0,2:0|0:0,0:0:0:0:
129,244,51300,5,0,3:0:0:0:
323,161,51469,1,8,3:0:0:0:
133,49,51638,1,8,2:0:0:0:
249,254,51806,1,4,3:0:0:0:
352,64,51975,2,0,P|286:75|238:86,1,90,0|0,0:0|3:0,0:0:0:0:
40,228,52312,2,0,P|106:239|154:250,1,90,8|0,2:0|0:0,0:0:0:0:
336,316,52649,6,0,P|294:260|340:148,1,180,6|8,3:2|2:0,0:0:0:0:
489,75,53154,2,0,P|477:118|460:194,1,90,2|0,3:2|0:0,0:0:0:0:
422,316,53491,1,0,3:0:0:0:
275,236,53660,2,0,P|200:254|102:277,1,135,14|0,2:0|0:0,0:0:0:0:
101,354,53997,6,0,P|56:309|75:201,1,180,2|8,3:2|2:0,0:0:0:0:
176,102,54503,1,2,3:2:0:0:
275,236,54671,2,0,P|294:171|307:127,1,90,2|0,2:0|3:0,0:0:0:0:
346,5,55008,1,10,2:0:0:0:
176,102,55177,1,2,2:0:0:0:
420,68,55345,6,0,P|347:48|238:18,1,180,2|10,3:2|2:0,0:0:0:0:
97,171,55851,1,2,3:2:0:0:
268,65,56020,1,2,2:0:0:0:
77,4,56188,1,0,3:0:0:0:
233,162,56357,2,0,P|276:170|317:154,1,90,14|0,2:0|0:0,0:0:0:0:
465,0,56694,5,8,2:0:0:0:
268,65,56862,1,4,3:0:0:0:
480,181,57031,1,0,3:0:0:0:
356,2,57199,1,8,2:0:0:0:
224,201,57368,2,0,P|285:187|344:175,1,90,0|0,3:0|3:0,0:0:0:0:
486,26,57705,2,0,P|441:16|398:6,1,90,12|0,2:0|0:0,0:0:0:0:
367,253,58042,6,0,P|403:174|357:101,1,180,6|8,3:2|2:0,0:0:0:0:
200,0,58548,2,0,P|189:43|177:87,1,90,2|0,3:2|0:0,0:0:0:0:
311,181,58885,1,0,3:0:0:0:
184,291,59053,2,0,P|139:247|61:266,1,135,14|0,2:0|0:0,0:0:0:0:
58,355,59390,6,0,P|40:294|4:178,1,180,2|8,3:2|2:0,0:0:0:0:
152,39,59896,1,2,3:2:0:0:
26,174,60064,2,0,P|87:184|138:193,1,90,2|2,2:0|3:2,0:0:0:0:
307,126,60402,1,10,2:0:0:0:
152,39,60570,1,2,2:0:0:0:
237,238,60739,6,0,P|263:152|291:64,1,180,2|10,3:2|2:0,0:0:0:0:
477,39,61244,1,2,3:2:0:0:
307,126,61413,1,2,2:0:0:0:
512,210,61581,1,2,3:2:0:0:
368,48,61750,2,0,P|323:27|270:34,1,90,14|2,2:0|2:0,0:0:0:0:
137,251,62087,5,0,3:0:0:0:
307,126,62256,1,8,2:0:0:0:
228,344,62424,1,8,2:0:0:0:
121,130,62593,1,0,3:0:0:0:
367,222,62761,2,0,P|323:231|279:243,1,90,2|0,2:0|3:0,0:0:0:0:
75,303,63098,1,10,2:0:0:0:
214,121,63267,1,0,0:0:0:0:
352,309,63435,6,0,P|434:287|454:204,1,180,6|8,3:2|2:0,0:0:0:0:
347,20,63941,1,2,2:0:0:0:
367,222,64109,1,2,3:2:0:0:
465,36,64278,1,0,3:0:0:0:
238,127,64447,1,8,2:0:0:0:
454,204,64615,1,2,2:0:0:0:
256,30,64784,6,0,P|172:48|141:129,1,180,2|10,3:2|2:0,0:0:0:0:
253,318,65289,1,2,2:0:0:0:
50,201,65458,1,0,3:0:0:0:
238,127,65626,1,2,3:2:0:0:
157,378,65795,2,0,P|139:320|123:268,1,90,8|2,2:0|2:0,0:0:0:0:
358,57,66132,5,8,2:0:0:0:
112,154,66300,1,0,2:0:0:0:
368,279,66469,1,8,2:0:0:0:
95,156,66638,1,0,2:0:0:0:
358,57,66806,5,8,2:0:0:0:
227,311,66975,1,0,3:0:0:0:
179,0,67143,1,8,2:0:0:0:
460,209,67312,1,0,3:0:0:0:
105,316,67480,6,0,B|103:280|121:255|121:255|116:246|116:246|133:222|128:193,1,125.999996154785,6|0,2:0|0:0,0:0:0:0:
128,197,68154,2,0,B|163:188|204:177,2,62.9999980773926,2|0|0,2:0|0:0|0:0,0:0:0:0:
231,311,68829,6,0,P|286:283|333:298,1,99.0000030212403,6|0,3:2|0:0,0:0:0:0:
386,370,69081,2,0,P|410:343|412:259,1,99.0000030212403,2|0,2:0|0:0,0:0:0:0:
402,196,69334,1,2,3:2:0:0:
297,37,69503,2,0,P|280:95|264:154,1,99.0000030212403,2|0,2:0|3:2,0:0:0:0:
193,205,69756,2,0,P|179:157|165:109,1,99.0000030212403,2|0,2:0|0:0,0:0:0:0:
140,29,70008,1,2,2:0:0:0:
15,273,70177,6,0,P|53:241|122:250,1,99.0000030212403,2|0,3:2|0:0,0:0:0:0:
165,311,70430,2,0,P|218:297|287:278,1,99.0000030212403,2|0,2:0|0:0,0:0:0:0:
343,262,70682,1,2,3:2:0:0:
170,189,70851,1,2,2:0:0:0:
313,366,71020,1,0,3:2:0:0:
302,100,71188,2,0,P|291:148|281:196,1,99.0000030212403,8|2,2:0|2:0,0:0:0:0:
387,37,71525,6,0,P|324:-5|230:21,1,148.50000453186,2|0,3:2|0:0,0:0:0:0:
179,50,71862,2,0,P|123:34|69:22,1,99.0000030212403,10|0,2:0|3:2,0:0:0:0:
149,216,72199,1,2,2:0:0:0:
254,3,72368,1,0,3:2:0:0:
75,151,72536,2,0,P|50:200|63:267,1,99.0000030212403,10|2,2:0|2:0,0:0:0:0:
235,381,72873,6,0,P|250:323|268:258,1,99.0000030212403,2|0,3:2|0:0,0:0:0:0:
351,258,73126,2,0,P|338:210|325:162,1,99.0000030212403,2|0,2:0|0:0,0:0:0:0:
304,83,73379,1,2,3:2:0:0:
225,259,73548,1,2,2:0:0:0:
421,118,73716,1,0,3:2:0:0:
165,31,73885,2,0,P|180:92|197:160,1,99.0000030212403,8|0,2:0|0:0,0:0:0:0:
351,258,74222,6,0,B|385:245|404:207|404:207|486:199|526:268,1,198.000006042481,2|8,3:2|2:0,0:0:0:0:
316,164,74727,1,2,3:2:0:0:
175,310,74896,2,0,P|156:245|138:181,1,99.0000030212403,0|0,0:0|3:2,0:0:0:0:
343,68,75233,2,0,P|324:133|306:197,1,99.0000030212403,10|0,2:0|0:0,0:0:0:0:
44,209,75570,6,0,P|89:125|184:117,1,198.000006042481,2|8,3:2|2:0,0:0:0:0:
315,163,76076,1,2,3:2:0:0:
175,310,76244,1,0,0:0:0:0:
178,98,76413,1,0,3:2:0:0:
344,284,76581,2,0,P|407:261|464:243,1,99.0000030212403,10|0,2:0|0:0,0:0:0:0:
481,42,76918,6,0,P|410:27|258:-3,1,198.000006042481,2|8,3:2|2:0,0:0:0:0:
127,189,77424,2,0,P|221:194|279:119,1,198.000006042481,2|0,3:2|3:2,0:0:0:0:
72,13,77930,2,0,P|54:69|34:133,1,99.0000030212403,8|0,2:0|0:0,0:0:0:0:
81,330,78267,5,2,3:2:0:0:
178,98,78435,1,0,3:2:0:0:
209,367,78604,5,10,2:0:0:0:
168,88,78772,1,0,3:2:0:0:
341,311,78941,5,2,2:0:0:0:
155,75,79109,1,0,3:2:0:0:
448,155,79278,5,10,2:0:0:0:
142,63,79447,1,0,0:0:0:0:
245,338,79615,6,0,P|299:322|355:306,1,99.0000030212403,6|0,3:2|0:0,0:0:0:0:
421,242,79868,2,0,P|373:228|325:214,1,99.0000030212403,2|0,2:0|0:0,0:0:0:0:
244,184,80121,1,2,3:2:0:0:
81,330,80289,2,0,P|69:282|95:223,1,99.0000030212403,2|0,2:0|3:2,0:0:0:0:
149,165,80542,2,0,P|161:117|145:71,1,99.0000030212403,2|0,2:0|0:0,0:0:0:0:
94,1,80795,1,2,2:0:0:0:
0,256,80963,6,0,P|74:241|136:230,1,99.0000030212403,2|0,3:2|0:0,0:0:0:0:
149,165,81216,2,0,P|223:180|285:191,1,99.0000030212403,2|0,2:0|0:0,0:0:0:0:
294,256,81469,1,2,3:2:0:0:
443,136,81638,1,2,2:0:0:0:
236,62,81806,1,0,3:2:0:0:
294,256,81975,2,0,P|312:317|327:372,1,99.0000030212403,8|2,2:0|2:0,0:0:0:0:
443,136,82312,6,0,P|372:154|306:73,1,148.50000453186,2|0,3:2|0:0,0:0:0:0:
263,40,82649,2,0,P|208:52|147:66,1,99.0000030212403,10|0,2:0|3:2,0:0:0:0:
7,191,82986,1,2,2:0:0:0:
98,0,83154,1,0,3:2:0:0:
246,201,83323,2,0,P|191:189|130:175,1,99.0000030212403,10|2,2:0|2:0,0:0:0:0:
374,20,83660,6,0,P|363:66|346:140,1,99.0000030212403,2|0,3:2|0:0,0:0:0:0:
409,179,83913,2,0,P|420:227|431:275,1,99.0000030212403,2|0,2:0|0:0,0:0:0:0:
453,356,84166,1,2,3:2:0:0:
276,245,84334,1,2,2:0:0:0:
498,190,84503,1,0,3:2:0:0:
336,372,84671,2,0,P|286:361|213:348,1,99.0000030212403,8|0,2:0|0:0,0:0:0:0:
272,107,85008,6,0,P|340:176|317:268,1,198.000006042481,2|8,3:2|2:0,0:0:0:0:
204,375,85514,1,2,3:2:0:0:
114,202,85682,2,0,P|133:126|146:74,1,99.0000030212403,0|0,0:0|3:2,0:0:0:0:
379,261,86020,2,0,P|358:266|282:285,1,99.0000030212403,10|0,2:0|0:0,0:0:0:0:
77,41,86357,6,0,P|169:23|226:98,1,198.000006042481,2|8,3:2|2:0,0:0:0:0:
282,284,86862,1,0,3:2:0:0:
41,125,87031,2,0,P|98:113|164:100,1,99.0000030212403,2|0,2:0|3:2,0:0:0:0:
378,264,87368,2,0,P|321:276|255:289,1,99.0000030212403,10|0,2:0|0:0,0:0:0:0:
418,5,87705,6,0,B|473:58|473:58|420:174,1,198.000006042481,6|10,3:2|2:0,0:0:0:0:
349,361,88211,2,0,P|283:292|304:199,1,198.000006042481,2|2,3:2|3:2,0:0:0:0:
461,48,88716,1,10,2:0:0:0:
244,123,88885,1,2,2:0:0:0:
378,264,89053,6,0,P|391:205|404:143,1,99.0000030212403,2|2,3:2|2:0,0:0:0:0:
137,35,89390,2,0,P|147:83|157:131,1,99.0000030212403,8|2,2:0|2:0,0:0:0:0:
283,291,89727,1,8,2:0:0:0:
283,291,89812,1,8,2:0:0:0:
283,291,89896,1,10,2:0:0:0:
71,192,90064,1,10,2:0:0:0:
332,72,90233,1,8,2:0:0:0:
345,78,90317,1,8,2:0:0:0:
358,84,90402,6,0,P|387:138|353:223,1,135,4|0,3:2|0:0,0:0:0:0:
345,234,90739,1,10,2:2:0:0:
189,124,90907,1,0,3:2:0:0:
80,319,91076,2,0,P|136:299|194:280,1,90,2|0,2:2|3:2,0:0:0:0:
366,129,91413,2,0,P|323:114|281:99,1,90,10|0,2:2|0:0,0:0:0:0:
85,24,91750,6,0,P|151:79|139:164,1,180,2|8,3:2|2:2,0:0:0:0:
6,287,92256,2,0,B|106:236|86:323|200:263,1,180,2|2,3:2|3:2,0:0:0:0:
332,72,92761,1,10,2:2:0:0:
139,164,92930,1,2,0:2:0:0:
262,330,93098,6,0,P|279:288|268:232,1,90,2|0,3:2|0:0,0:0:0:0:
64,112,93435,2,0,P|47:154|58:210,1,90,10|2,2:2|3:2,0:0:0:0:
319,140,93772,2,0,P|263:152|204:168,1,90,0|2,0:0|3:2,0:0:0:0:
51,320,94109,2,0,P|107:332|166:348,1,90,10|2,2:2|0:2,0:0:0:0:
373,311,94447,6,0,B|352:244|317:136,1,180,2|10,3:2|2:2,0:0:0:0:
182,40,94952,2,0,P|117:98|33:79,1,180,2|2,3:2|3:2,0:0:0:0:
0,311,95458,2,0,P|43:298|86:285,1,90,10|2,2:2|0:0,0:0:0:0:
268,191,95795,6,0,B|310:245|310:245|257:369,1,180,2|10,3:2|2:2,0:0:0:0:
86,285,96300,1,0,3:2:0:0:
190,135,96469,2,0,P|231:99|289:100,1,90,2|0,2:2|3:2,0:0:0:0:
428,275,96806,2,0,P|384:262|341:251,1,90,10|0,2:2|0:0,0:0:0:0:
258,0,97143,6,0,P|339:32|357:117,1,180,2|8,3:2|2:2,0:0:0:0:
152,222,97649,2,0,P|126:135|99:33,1,180,2|2,3:2|3:2,0:0:0:0:
255,255,98154,1,10,2:2:0:0:
44,174,98323,1,2,0:0:0:0:
264,94,98491,6,0,B|308:66|376:79|336:100|407:116|459:78,1,180,2|10,3:2|2:2,0:0:0:0:
475,309,98997,2,0,P|423:238|332:259,1,180,2|2,3:2|3:2,0:0:0:0:
189,383,99503,2,0,B|167:314|147:258,1,90,10|2,2:2|0:0,0:0:0:0:
3,130,99840,6,0,P|60:187|158:160,1,180,2|10,3:2|2:2,0:0:0:0:
308,24,100345,2,0,P|284:110|263:198,1,180,10|2,2:2|3:2,0:0:0:0:
223,349,100851,1,4,3:0:0:0:
150,168,101020,1,0,0:0:0:0:
340,250,101188,6,0,P|415:265|484:180,1,161.999995056153,6|8,3:2|2:0,0:0:0:0:
505,34,101694,1,2,2:0:0:0:
394,178,101862,1,2,3:2:0:0:
320,3,102031,1,0,3:2:0:0:
498,135,102199,2,0,P|481:195|465:249,1,80.9999975280763,8|2,2:0|2:0,0:0:0:0:
257,275,102536,5,2,3:2:0:0:
394,178,102705,1,2,2:0:0:0:
389,370,102873,1,10,2:0:0:0:
302,188,103042,1,2,2:0:0:0:
467,350,103211,2,0,P|427:360|361:377,1,80.9999975280763,0|2,3:0|3:2,0:0:0:0:
178,255,103548,2,0,P|217:265|256:274,1,80.9999975280763,10|0,2:0|2:0,0:0:0:0:
394,178,103885,6,0,P|424:107|378:25,1,161.999995056153,2|10,3:2|2:0,0:0:0:0:
257,2,104390,1,2,2:0:0:0:
190,179,104559,1,2,3:2:0:0:
390,34,104727,1,2,3:2:0:0:
164,71,104896,2,0,P|203:81|241:92,1,80.9999975280763,10|0,2:0|0:0,0:0:0:0:
417,207,105233,6,0,P|378:218|331:233,1,80.9999975280763,0|0,3:0|0:0,0:0:0:0:
241,92,105570,1,8,2:0:0:0:
171,210,105739,2,0,B|193:272|193:272|186:299|186:299|209:363,1,161.999995056153,0|0,2:0|3:0,0:0:0:0:
339,230,106244,2,0,P|356:187|336:140,1,80.9999975280763,8|2,2:0|2:0,0:0:0:0:
330,120,106497,1,2,2:0:0:0:
330,120,106581,6,0,B|261:110|155:94,1,161.999995056153,2|8,3:2|2:0,0:0:0:0:
41,144,107087,1,2,2:0:0:0:
222,15,107256,1,2,3:2:0:0:
171,205,107424,1,0,3:2:0:0:
32,7,107593,2,0,P|81:16|136:26,1,80.9999975280763,8|2,2:0|2:0,0:0:0:0:
257,185,107930,6,0,P|228:135|122:136,2,161.999995056153,2|10|2,3:2|2:0|3:2,0:0:0:0:
312,331,108772,1,2,3:2:0:0:
171,205,108941,1,10,2:0:0:0:
356,178,109109,1,2,2:0:0:0:
213,293,109278,6,0,P|174:304|134:296,1,80.9999975280763,2|0,3:2|0:0,0:0:0:0:
356,178,109615,2,0,P|394:166|434:174,1,80.9999975280763,10|0,2:0|2:0,0:0:0:0:
171,205,109952,1,2,3:2:0:0:
283,70,110121,1,2,3:0:0:0:
398,253,110289,2,0,P|385:299|372:349,1,80.9999975280763,10|0,2:0|0:0,0:0:0:0:
171,205,110626,6,0,P|210:194|249:183,1,80.9999975280763,2|0,3:2|0:0,0:0:0:0:
68,303,110963,2,0,P|52:236|33:162,1,121.499996292114,8|0,2:0|0:0,0:0:0:0:
29,148,111300,1,0,3:0:0:0:
200,20,111469,1,8,2:0:0:0:
171,205,111638,1,8,3:0:0:0:
107,70,111806,1,4,3:0:0:0:
275,103,111975,6,0,P|329:90|425:68,3,125.999996154785,6|0|2|0,2:0|0:0|2:0|0:0,0:0:0:0:
171,205,113323,2,0,P|100:188|31:172,3,125.999996154785,2|2|2|2,2:0|2:0|2:0|2:0,0:0:0:0:
275,307,114671,2,0,P|345:290|412:274,3,125.999996154785,2|2|2|2,2:0|2:0|2:0|2:0,0:0:0:0:
171,205,116020,6,0,P|182:153|190:121,1,62.9999980773926,2|0,0:0|0:0,0:0:0:0:
285,88,116357,2,0,P|277:123|271:155,1,62.9999980773926,2|0,2:0|0:0,0:0:0:0:
71,251,116694,2,0,P|78:215|83:184,1,62.9999980773926,2|2,2:0|2:0,0:0:0:0:
4,42,117031,2,0,P|42:73|99:62,1,108,2|0,2:0|0:0,0:0:0:0:
136,40,117368,6,0,P|156:91|174:135,1,80.9999975280763,10|8,3:2|2:0,0:0:0:0:
314,163,117705,2,0,P|299:125|284:87,1,80.9999975280763,8|8,3:2|2:0,0:0:0:0:
71,251,118042,2,0,P|112:228|161:238,1,80.9999975280763,8|8,3:2|2:0,0:0:0:0:
217,314,118379,2,0,P|176:337|127:327,1,80.9999975280763,8|8,3:2|2:0,0:0:0:0:
314,163,118716,5,8,3:2:0:0:
384,339,118885,1,8,2:0:0:0:
307,178,119053,1,8,3:2:0:0:
377,354,119222,1,8,2:0:0:0:
196,295,119390,5,10,3:2:0:0:
406,224,119559,1,8,2:0:0:0:
187,162,119727,1,10,3:2:0:0:
377,354,119896,1,8,2:0:0:0:
330,87,120064,5,10,3:2:0:0:
196,295,120233,1,8,2:0:0:0:
116,35,120402,1,8,3:2:0:0:
329,271,120570,1,10,2:0:0:0:
224,0,120739,5,8,3:2:0:0:
102,259,120907,1,8,2:0:0:0:
346,67,121076,1,10,3:2:0:0:
376,352,121244,1,8,2:0:0:0:
95,45,121413,5,8,3:2:0:0:
422,186,121581,1,8,2:0:0:0:
71,283,121750,1,10,3:2:0:0:
362,46,121918,1,10,2:0:0:0:
264,333,122087,6,0,P|249:282|231:219,1,99.0000030212403,2|2,3:2|3:2,0:0:0:0:
93,52,122424,2,0,P|81:90|62:155,1,99.0000030212403,14|0,2:0|0:0,0:0:0:0:
121,379,122761,6,0,P|182:315|274:343,1,180,6|8,3:2|2:0,0:0:0:0:
446,368,123267,2,0,P|433:324|419:281,1,90,2|0,3:2|0:0,0:0:0:0:
374,132,123604,1,0,3:0:0:0:
236,237,123772,2,0,P|180:263|111:229,1,135,14|0,2:0|0:0,0:0:0:0:
24,226,124109,6,0,P|71:154|163:156,1,180,2|8,3:2|2:0,0:0:0:0:
288,221,124615,1,2,3:2:0:0:
91,322,124784,2,0,P|110:257|121:218,1,90,2|2,2:0|3:2,0:0:0:0:
215,65,125121,1,10,2:0:0:0:
288,221,125289,1,2,2:0:0:0:
103,69,125458,6,0,P|182:50|301:23,1,180,2|10,3:2|2:0,0:0:0:0:
392,153,125963,1,2,3:2:0:0:
215,65,126132,1,2,2:0:0:0:
393,0,126300,1,0,3:2:0:0:
242,165,126469,2,0,P|197:170|153:148,1,90,14|0,2:0|0:0,0:0:0:0:
31,4,126806,5,0,3:0:0:0:
215,65,126975,1,8,3:0:0:0:
1,172,127143,1,8,2:0:0:0:
138,1,127312,1,4,3:0:0:0:
242,165,127480,2,0,P|310:149|357:139,1,90,0|0,0:0|3:0,0:0:0:0:
138,1,127817,2,0,P|128:44|117:88,1,90,8|0,2:0|0:0,0:0:0:0:
204,310,128154,6,0,P|262:253|215:145,1,180,6|8,3:2|2:0,0:0:0:0:
8,208,128660,2,0,B|65:197|116:188,1,90,2|0,3:2|0:0,0:0:0:0:
204,310,128997,1,0,3:0:0:0:
344,221,129166,2,0,P|326:172|288:73,1,135,14|0,2:0|0:0,0:0:0:0:
373,45,129503,6,0,P|299:0|217:39,1,180,2|8,3:2|2:0,0:0:0:0:
128,136,130008,1,2,3:2:0:0:
258,249,130177,2,0,P|307:232|367:213,1,90,2|0,2:0|3:0,0:0:0:0:
128,136,130514,1,10,2:0:0:0:
66,310,130682,1,2,2:0:0:0:
223,165,130851,6,0,B|279:134|331:153|331:153|345:192|383:207,1,180,2|10,3:2|2:0,0:0:0:0:
498,309,131357,1,2,3:2:0:0:
413,128,131525,1,2,2:0:0:0:
326,307,131694,1,0,3:0:0:0:
512,157,131862,2,0,P|498:97|484:38,1,90,14|0,2:0|0:0,0:0:0:0:
228,21,132199,5,8,2:0:0:0:
413,128,132368,1,4,3:0:0:0:
189,192,132536,1,0,3:0:0:0:
347,5,132705,1,8,2:0:0:0:
393,225,132873,2,0,P|343:209|282:193,1,90,0|0,0:0|3:0,0:0:0:0:
141,46,133211,2,0,P|184:33|227:20,1,90,12|0,2:0|0:0,0:0:0:0:
267,289,133548,6,0,P|210:223|228:138,1,180,6|8,3:2|2:0,0:0:0:0:
370,39,134053,2,0,P|429:50|468:59,1,90,2|0,3:2|0:0,0:0:0:0:
306,199,134390,1,0,3:0:0:0:
479,268,134559,2,0,B|450:246|404:250|404:250|388:289|328:305,1,135,14|0,2:0|0:0,0:0:0:0:
337,384,134896,6,0,P|294:331|177:354,1,180,2|8,3:2|2:0,0:0:0:0:
36,206,135402,1,2,3:2:0:0:
87,363,135570,2,0,B|105:302|120:253,1,90,2|2,2:0|3:2,0:0:0:0:
207,116,135907,1,10,2:0:0:0:
36,206,136076,1,2,2:0:0:0:
227,284,136244,6,0,P|318:266|434:244,1,180,2|10,3:2|2:0,0:0:0:0:
490,66,136750,1,2,3:2:0:0:
389,229,136918,1,2,2:0:0:0:
312,37,137087,1,2,3:2:0:0:
511,194,137256,2,0,P|497:254|484:313,1,90,14|0,2:0|0:0,0:0:0:0:
242,263,137593,5,0,3:0:0:0:
401,114,137761,1,8,2:0:0:0:
194,62,137930,1,8,2:0:0:0:
389,229,138098,1,0,3:0:0:0:
191,338,138267,2,0,P|208:270|221:222,1,90,2|0,2:0|3:0,0:0:0:0:
316,41,138604,1,10,2:0:0:0:
115,167,138772,1,0,0:0:0:0:
318,298,138941,6,0,B|376:285|415:326|415:326|498:277|498:277|488:269|488:269|498:262|498:262|522:229|517:161|517:161|454:134|355:108|392:206|254:149,1,604.800014765626,4|2,3:2|2:0,0:0:0:0:
172,110,141469,1,2,2:0:0:0:
48,285,141638,5,8,2:0:0:0:
312,148,141806,1,8,2:0:0:0:
35,90,141975,1,8,2:0:0:0:
230,299,142143,1,8,2:0:0:0:
278,46,142312,5,8,2:0:0:0:
130,337,142480,1,8,2:0:0:0:
118,22,142649,1,8,2:0:0:0:
327,254,142817,1,8,2:0:0:0:
372,7,142986,5,8,2:0:0:0:
240,332,143154,1,8,2:0:0:0:
134,0,143323,1,8,2:0:0:0:
423,251,143491,1,8,2:0:0:0:
39,190,143660,5,8,2:0:0:0:
475,104,143829,1,8,2:0:0:0:
427,368,144334,6,0,P|391:339|314:360,1,99.0000030212403,6|0,3:2|0:0,0:0:0:0:
262,384,144587,2,0,P|249:333|231:266,1,99.0000030212403,2|0,2:0|0:0,0:0:0:0:
215,202,144840,1,2,3:2:0:0:
398,74,145008,2,0,P|344:99|287:69,1,99.0000030212403,2|0,2:0|3:2,0:0:0:0:
235,37,145261,2,0,P|190:48|130:64,1,99.0000030212403,2|0,2:0|0:0,0:0:0:0:
60,83,145514,1,2,2:0:0:0:
0,239,145682,6,0,P|74:255|131:268,1,99.0000030212403,2|0,3:2|0:0,0:0:0:0:
157,333,145935,2,0,P|205:322|253:311,1,99.0000030212403,2|0,2:0|0:0,0:0:0:0:
334,293,146188,1,2,3:2:0:0:
398,74,146357,1,2,2:0:0:0:
215,202,146525,1,0,3:2:0:0:
434,316,146694,2,0,P|414:242|401:195,1,99.0000030212403,8|2,2:0|2:0,0:0:0:0:
477,57,147031,6,0,P|430:98|345:75,1,148.50000453186,2|0,3:2|0:0,0:0:0:0:
282,31,147368,2,0,P|230:46|161:68,1,99.0000030212403,10|0,2:0|3:2,0:0:0:0:
78,241,147705,1,2,2:0:0:0:
193,78,147873,1,0,3:2:0:0:
0,0,148042,2,0,P|25:78|39:128,1,99.0000030212403,10|2,2:0|2:0,0:0:0:0:
207,204,148379,6,0,P|241:173|315:180,1,99.0000030212403,2|0,3:2|0:0,0:0:0:0:
370,204,148632,2,0,P|358:251|344:306,1,99.0000030212403,2|0,2:0|0:0,0:0:0:0:
326,380,148885,1,2,3:2:0:0:
207,204,149053,1,2,2:0:0:0:
428,304,149222,1,0,3:2:0:0:
209,353,149390,2,0,P|162:341|107:327,1,99.0000030212403,8|0,2:0|0:0,0:0:0:0:
235,104,149727,6,0,P|303:171|284:264,1,198.000006042481,2|8,3:2|2:0,0:0:0:0:
182,381,150233,1,2,3:2:0:0:
80,198,150402,2,0,P|53:255|27:312,1,99.0000030212403,0|0,0:0|3:2,0:0:0:0:
324,146,150739,2,0,P|267:119|210:93,1,99.0000030212403,10|0,2:0|0:0,0:0:0:0:
182,381,151076,6,0,P|230:312|352:340,1,198.000006042481,2|8,3:2|2:0,0:0:0:0:
509,204,151581,1,2,3:2:0:0:
311,337,151750,1,0,0:0:0:0:
357,127,151918,1,0,3:2:0:0:
512,329,152087,2,0,P|450:310|383:291,1,99.0000030212403,10|0,2:0|0:0,0:0:0:0:
251,120,152424,6,0,B|318:107|470:85,1,198.000006042481,2|8,3:2|2:0,0:0:0:0:
201,235,152930,2,0,P|134:165|142:69,1,198.000006042481,2|0,3:2|3:2,0:0:0:0:
324,226,153435,2,0,P|301:281|278:338,1,99.0000030212403,8|0,2:0|0:0,0:0:0:0:
82,276,153772,5,2,3:2:0:0:
247,93,153941,1,0,0:0:0:0:
201,369,154109,5,10,2:0:0:0:
237,79,154278,1,0,3:2:0:0:
353,345,154447,5,2,2:0:0:0:
228,63,154615,1,0,3:2:0:0:
484,216,154784,5,10,2:0:0:0:
219,48,154952,1,0,0:0:0:0:
87,275,155121,6,0,P|162:258|223:245,1,99.0000030212403,6|0,3:2|0:0,0:0:0:0:
246,308,155373,2,0,P|294:319|342:329,1,99.0000030212403,2|0,2:0|0:0,0:0:0:0:
416,291,155626,1,2,3:2:0:0:
338,124,155795,2,0,P|322:74|354:10,1,99.0000030212403,2|0,2:0|3:2,0:0:0:0:
428,34,156048,2,0,P|444:84|412:148,1,99.0000030212403,2|0,2:0|0:0,0:0:0:0:
386,201,156300,1,2,2:0:0:0:
242,332,156469,6,0,B|225:276|205:215,1,99.0000030212403,2|0,3:2|0:0,0:0:0:0:
133,213,156722,2,0,B|145:174|162:118,1,99.0000030212403,2|0,2:0|0:0,0:0:0:0:
189,46,156975,1,2,3:2:0:0:
339,153,157143,1,2,2:0:0:0:
133,213,157312,1,0,3:2:0:0:
332,384,157480,2,0,B|343:332|354:288,1,99.0000030212403,8|2,2:0|2:0,0:0:0:0:
313,73,157817,6,0,P|257:127|271:206,1,148.50000453186,2|0,3:2|0:0,0:0:0:0:
327,256,158154,2,0,B|370:244|423:234,1,99.0000030212403,10|0,2:0|3:2,0:0:0:0:
313,73,158491,1,2,2:0:0:0:
210,240,158660,1,0,3:2:0:0:
383,130,158829,2,0,P|404:77|376:13,1,99.0000030212403,10|2,2:0|2:0,0:0:0:0:
154,2,159166,6,0,P|167:49|179:97,1,99.0000030212403,2|0,3:2|0:0,0:0:0:0:
117,161,159418,2,0,P|104:209|91:256,1,99.0000030212403,2|0,2:0|0:0,0:0:0:0:
72,336,159671,1,2,3:2:0:0:
296,270,159840,1,2,2:0:0:0:
117,161,160008,1,0,3:2:0:0:
261,359,160177,2,0,P|310:368|372:319,1,99.0000030212403,8|0,2:0|0:0,0:0:0:0:
333,86,160514,6,0,B|306:158|306:158|324:197|324:197|286:296,1,198.000006042481,2|8,3:2|2:0,0:0:0:0:
416,375,161020,1,2,3:2:0:0:
504,213,161188,2,0,P|430:195|377:184,1,99.0000030212403,0|0,0:0|3:2,0:0:0:0:
225,318,161525,2,0,P|274:354|340:344,1,99.0000030212403,10|0,2:0|0:0,0:0:0:0:
333,86,161862,6,0,P|233:98|111:116,1,198.000006042481,2|8,3:2|2:0,0:0:0:0:
0,225,162368,1,0,3:2:0:0:
144,20,162536,1,2,2:0:0:0:
204,225,162705,1,0,3:2:0:0:
35,96,162873,2,0,B|57:33|71:-9,1,99.0000030212403,10|0,2:0|0:0,0:0:0:0:
254,137,163211,6,0,P|303:196|241:323,1,198.000006042481,6|10,3:2|2:0,0:0:0:0:
39,262,163716,2,0,B|79:203|79:203|244:232,1,198.000006042481,2|2,3:2|3:2,0:0:0:0:
373,326,164222,1,10,2:0:0:0:
254,137,164390,1,2,2:0:0:0:
155,342,164559,6,0,P|223:327|285:314,1,99.0000030212403,2|2,3:2|2:0,0:0:0:0:
461,147,164896,2,0,P|412:136|364:125,1,99.0000030212403,8|2,2:0|2:0,0:0:0:0:
251,320,165233,1,8,2:0:0:0:
170,129,165402,1,10,2:0:0:0:
170,129,165486,1,8,2:0:0:0:
170,129,165570,1,10,2:0:0:0:
396,218,165739,1,8,2:0:0:0:
390,231,165823,1,8,2:0:0:0:
385,245,165907,6,0,B|305:250|305:250|274:284|274:284|191:289,1,198.000006042481,6|8,3:2|2:0,0:0:0:0:
43,161,166413,1,2,2:0:0:0:
235,70,166581,2,0,P|260:121|251:170,1,99.0000030212403,2|0,3:2|0:0,0:0:0:0:
14,255,166918,2,0,P|33:189|53:130,1,99.0000030212403,8|2,2:0|2:0,0:0:0:0:
202,288,167256,5,2,3:2:0:0:
138,91,167424,2,0,P|195:78|249:66,1,99.0000030212403,2|8,2:0|2:0,0:0:0:0:
385,245,167761,2,0,P|336:234|288:223,1,99.0000030212403,2|0,2:0|3:2,0:0:0:0:
138,91,168098,1,2,2:0:0:0:
373,17,168267,2,0,P|353:77|336:132,1,99.0000030212403,10|0,2:0|0:0,0:0:0:0:
233,333,168604,6,0,P|169:261|188:160,1,198.000006042481,2|8,3:2|2:0,0:0:0:0:
342,111,169109,1,2,2:0:0:0:
175,24,169278,2,0,P|121:37|55:52,1,99.0000030212403,2|0,3:2|0:0,0:0:0:0:
312,214,169615,2,0,P|360:218|403:195,1,99.0000030212403,8|2,2:0|2:0,0:0:0:0:
287,15,169952,5,2,3:2:0:0:
140,179,170121,2,0,P|120:95|109:58,1,99.0000030212403,2|8,2:0|2:0,0:0:0:0:
288,310,170458,2,0,P|300:262|311:213,1,99.0000030212403,2|0,2:0|3:2,0:0:0:0:
115,306,170795,1,2,2:0:0:0:
251,157,170963,2,0,P|329:131|392:197,1,148.50000453186,10|0,2:0|0:0,0:0:0:0:
396,259,171300,6,0,B|354:230|279:246|316:265|252:293|189:245,1,198.000006042481,2|8,3:2|2:0,0:0:0:0:
31,166,171806,1,2,2:0:0:0:
187,339,171975,1,2,3:2:0:0:
183,103,172143,1,0,0:0:0:0:
2,309,172312,2,0,P|85:285|127:273,1,99.0000030212403,8|2,2:0|2:0,0:0:0:0:
378,137,172649,6,0,P|310:125|166:100,1,198.000006042481,2|8,3:2|2:0,0:0:0:0:
48,175,173154,1,2,2:0:0:0:
255,14,173323,1,2,3:2:0:0:
226,265,173491,1,2,2:0:0:0:
107,7,173660,1,10,2:0:0:0:
378,137,173829,1,2,2:0:0:0:
137,259,173997,6,0,P|182:187|299:214,1,198.000006042481,2|8,3:2|2:0,0:0:0:0:
426,304,174503,1,2,2:0:0:0:
199,360,174671,2,0,B|221:280|234:231,1,99.0000030212403,2|0,3:2|0:0,0:0:0:0:
351,41,175008,2,0,B|373:121|386:170,1,99.0000030212403,8|2,2:0|2:0,0:0:0:0:
225,264,175345,6,0,B|153:237|153:237|106:258|106:258|16:218,1,198.000006042481,2|8,3:2|2:0,0:0:0:0:
158,357,175851,1,0,0:0:0:0:
309,214,176020,2,0,P|328:280|342:329,1,99.0000030212403,0|0,3:2|0:0,0:0:0:0:
105,169,176357,1,8,2:0:0:0:
81,126,176441,1,8,2:0:0:0:
87,78,176525,1,8,2:0:0:0:
120,42,176609,1,8,2:0:0:0:
168,33,176694,6,0,P|254:45|397:64,1,198.000006042481,2|8,3:2|2:0,0:0:0:0:
482,177,177199,1,2,2:0:0:0:
275,307,177368,2,0,P|295:250|315:195,1,99.0000030212403,2|0,3:2|0:0,0:0:0:0:
435,0,177705,2,0,P|460:59|446:108,1,99.0000030212403,8|2,2:0|2:0,0:0:0:0:
367,294,178042,6,0,P|322:225|197:253,1,198.000006042481,2|8,3:2|2:0,0:0:0:0:
38,354,178548,1,2,2:0:0:0:
171,101,178716,1,2,3:2:0:0:
275,307,178885,1,2,2:0:0:0:
53,160,179053,1,10,2:0:0:0:
291,69,179222,1,2,2:0:0:0:
125,319,179390,6,0,B|96:242|96:242|108:206|108:206|81:127,1,198.000006042481,2|8,3:2|2:0,0:0:0:0:
202,1,179896,1,2,2:0:0:0:
338,218,180064,2,0,B|252:195|209:185,1,99.0000030212403,2|0,3:2|0:0,0:0:0:0:
19,85,180402,2,0,P|64:55|131:70,1,99.0000030212403,8|2,2:0|2:0,0:0:0:0:
242,193,180739,5,2,3:2:0:0:
320,0,180907,1,0,0:0:0:0:
156,140,181076,2,0,P|138:185|146:233,1,99.0000030212403,8|0,2:0|0:0,0:0:0:0:
389,133,181413,1,0,3:2:0:0:
182,11,181581,1,8,2:0:0:0:
242,193,181750,1,8,3:0:0:0:
326,29,181918,1,0,0:0:0:0:
357,248,182087,6,0,B|294:236|162:214,1,180,2|8,3:2|2:0,0:0:0:0:
0,318,182593,1,2,2:0:0:0:
57,109,182761,2,0,P|78:169|96:222,1,90,0|0,3:2|3:0,0:0:0:0:
204,384,183098,2,0,P|226:343|212:271,1,90,10|0,2:0|0:0,0:0:0:0:
57,109,183435,6,0,B|114:91|167:75,1,90,2|0,3:2|0:0,0:0:0:0:
328,221,183772,2,0,B|299:212|242:194,1,90,10|0,2:0|0:0,0:0:0:0:
24,259,184109,1,2,3:2:0:0:
142,82,184278,1,8,2:0:0:0:
185,326,184447,1,10,2:0:0:0:
37,131,184615,1,8,2:0:0:0:
242,194,184784,6,0,B|340:173|307:210|387:230|413:218|413:218|468:194|481:137|481:137|386:130|359:55,1,440.999986541748,6|0,2:0|0:0,0:0:0:0:
205,1,187480,6,0,B|218:45|228:79,2,80.9999975280763,2|2|2,2:0|2:0|2:0,0:0:0:0:
140,147,188154,2,0,B|130:113|117:69,2,80.9999975280763,2|2|2,2:0|2:0|2:0,0:0:0:0:
242,194,188829,2,0,B|255:238|265:272,2,80.9999975280763,2|2|2,2:0|2:0|2:0,0:0:0:0:
222,370,189503,2,0,P|197:339|121:345,1,107.999996704102,2|0,2:0|0:0,0:0:0:0:
48,382,190008,1,2,2:0:0:0:
0,237,190177,6,0,B|12:195|21:165,1,53.9999983520508,2|0,2:0|0:0,0:0:0:0:
121,125,190514,2,0,B|117:134|105:176,1,53.9999983520508,2|0,2:0|0:0,0:0:0:0:
187,250,190851,2,0,P|235:234|310:212,1,107.999996704102,2|2,2:0|2:0,0:0:0:0:
371,273,191357,1,0,0:0:0:0:
430,175,191525,6,0,P|447:138|424:83,2,80.9999975280763,2|2|2,2:0|2:0|2:0,0:0:0:0:
371,273,192199,2,0,P|324:260|243:242,1,107.999996704102,2|0,2:0|0:0,0:0:0:0:
149,356,192873,6,0,B|127:295|104:234,1,107.999996704102,2|0,2:0|0:0,0:0:0:0:
26,188,193379,2,0,B|41:147|63:86,1,107.999996704102,2|0,2:0|0:0,0:0:0:0:
136,42,193885,1,0,0:0:0:0:
136,42,194053,1,0,0:0:0:0:
199,136,194222,6,0,P|232:128|268:121,1,53.9999983520508,2|0,2:0|0:0,0:0:0:0:
351,61,194559,2,0,P|318:53|282:46,1,53.9999983520508,2|2,0:0|2:0,0:0:0:0:
418,240,194896,2,0,P|432:188|427:175,1,53.9999983520508,2|0,2:0|0:0,0:0:0:0:
342,170,195233,2,0,P|328:222|333:235,1,53.9999983520508,2|0,0:0|0:0,0:0:0:0:
402,351,195570,6,0,B|365:343|278:325,1,107.999996704102,2|2,2:0|2:0,0:0:0:0:
239,237,196076,2,0,B|202:245|115:263,1,107.999996704102,2|2,2:0|2:0,0:0:0:0:
84,336,196581,1,2,2:0:0:0:
84,336,196750,1,2,2:0:0:0:
0,192,196918,6,0,B|14:141|36:69,1,107.999996704102,2|2,2:0|2:0,0:0:0:0:
141,47,197424,2,0,B|124:99|110:150,1,107.999996704102,2|2,2:0|2:0,0:0:0:0:
133,259,197930,1,2,2:0:0:0:
133,259,198098,1,2,2:0:0:0:
222,180,198267,6,0,P|261:156|316:172,2,80.9999975280763,2|2|2,2:0|2:0|2:0,0:0:0:0:
133,259,198941,2,0,P|93:260|60:237,2,80.9999975280763,2|2|2,2:0|2:0|2:0,0:0:0:0:
225,332,199615,2,0,P|257:309|297:310,2,80.9999975280763,2|2|2,2:0|2:0|2:0,0:0:0:0:
387,358,200289,2,0,P|398:322|373:246,1,107.999996704102,2|0,2:0|0:0,0:0:0:0:
322,175,200795,1,2,2:0:0:0:
206,243,200963,6,0,B|169:235|133:228,1,53.9999983520508,2|0,2:0|0:0,0:0:0:0:
65,153,201300,2,0,B|80:149|117:141,1,53.9999983520508,2|0,2:0|0:0,0:0:0:0:
238,74,201638,2,0,P|172:61|119:54,1,107.999996704102,2|2,2:0|2:0,0:0:0:0:
65,153,202143,1,0,0:0:0:0:
159,268,202312,6,0,B|171:217|183:169,2,80.9999975280763,2|2|2,2:0|2:0|2:0,0:0:0:0:
244,346,202986,2,0,P|270:320|347:327,1,107.999996704102,2|0,2:0|0:0,0:0:0:0:
413,364,203491,1,0,0:0:0:0:
502,260,203660,6,0,P|487:210|467:142,1,107.999996704102,2|0,2:0|0:0,0:0:0:0:
388,106,204166,2,0,P|357:133|279:133,1,107.999996704102,2|0,2:0|0:0,0:0:0:0:
186,96,204671,1,2,2:0:0:0:
319,59,204840,1,2,2:0:0:0:
155,199,205008,6,0,P|170:147|185:95,1,107.999996704102,2|2,2:0|2:0,0:0:0:0:
216,4,205514,1,0,0:0:0:0:
292,138,205682,2,0,P|336:109|405:133,1,107.999996704102,2|2,2:0|2:0,0:0:0:0:
475,185,206188,1,0,0:0:0:0:
319,319,206357,5,0,3:0:0:0:
319,319,206694,5,8,2:0:0:0:
184,248,206862,1,8,2:0:0:0:
353,197,207031,1,8,2:0:0:0:
198,362,207199,5,8,2:0:0:0:
147,161,207368,1,10,2:0:0:0:
319,319,207536,1,8,2:0:0:0:
306,108,207705,5,10,2:0:0:0:
198,362,207873,1,8,2:0:0:0:
110,76,208042,1,8,2:0:0:0:
382,210,208211,5,8,2:0:0:0:
94,244,208379,1,8,2:0:0:0:
375,52,208548,1,8,3:2:0:0:
504,261,209053,6,0,P|467:233|395:240,1,99.0000030212403,6|0,3:2|0:0,0:0:0:0:
376,305,209306,2,0,P|339:333|267:326,1,99.0000030212403,2|0,2:0|0:0,0:0:0:0:
211,304,209559,1,2,3:2:0:0:
76,163,209727,2,0,P|55:219|35:278,1,99.0000030212403,2|0,2:0|3:2,0:0:0:0:
131,251,209980,2,0,P|147:204|164:157,1,99.0000030212403,2|0,2:0|0:0,0:0:0:0:
194,80,210233,1,2,2:0:0:0:
408,173,210402,6,0,B|457:195|457:195|517:171,1,99.0000030212403,2|0,3:2|0:0,0:0:0:0:
458,98,210654,2,0,B|409:76|409:76|349:100,1,99.0000030212403,2|0,2:0|0:0,0:0:0:0:
293,125,210907,1,2,3:2:0:0:
97,12,211076,1,2,2:0:0:0:
143,228,211244,1,0,3:2:0:0:
309,27,211413,2,0,B|299:83|293:124,1,99.0000030212403,8|2,2:0|2:0,0:0:0:0:
62,200,211750,6,0,P|105:150|193:159,1,148.50000453186,2|0,3:2|0:0,0:0:0:0:
249,213,212087,2,0,P|306:199|371:183,1,99.0000030212403,10|0,2:0|3:2,0:0:0:0:
195,13,212424,1,2,2:0:0:0:
140,224,212593,1,0,3:2:0:0:
324,29,212761,2,0,P|275:17|227:5,1,99.0000030212403,10|2,2:0|2:0,0:0:0:0:
37,104,213098,6,0,P|54:172|70:233,1,99.0000030212403,2|0,3:2|0:0,0:0:0:0:
139,271,213351,2,0,P|150:222|163:175,1,99.0000030212403,2|0,2:0|0:0,0:0:0:0:
184,94,213604,1,2,3:2:0:0:
352,204,213772,1,2,2:0:0:0:
139,271,213941,1,0,3:2:0:0:
247,33,214109,2,0,P|271:77|262:129,1,99.0000030212403,8|0,2:0|0:0,0:0:0:0:
6,212,214447,6,0,P|95:185|153:258,1,198.000006042481,2|8,3:2|2:0,0:0:0:0:
346,231,214952,1,2,3:2:0:0:
180,350,215121,2,0,P|134:354|76:302,1,99.0000030212403,0|0,0:0|3:2,0:0:0:0:
313,145,215458,2,0,P|365:155|440:172,1,99.0000030212403,10|0,2:0|0:0,0:0:0:0:
153,258,215795,6,0,B|137:199|99:67,1,198.000006042481,2|8,3:2|2:0,0:0:0:0:
242,210,216300,1,2,3:2:0:0:
16,160,216469,1,0,0:0:0:0:
245,27,216638,1,0,3:2:0:0:
153,258,216806,2,0,P|105:245|45:229,1,99.0000030212403,10|0,2:0|0:0,0:0:0:0:
245,27,217143,6,0,P|335:11|394:117,1,198.000006042481,2|8,3:2|2:0,0:0:0:0:
504,269,217649,2,0,B|463:242|386:257|428:279|354:307|289:250,1,198.000006042481,2|0,3:2|3:2,0:0:0:0:
129,161,218154,2,0,B|145:222|156:276,1,99.0000030212403,8|0,2:0|0:0,0:0:0:0:
404,184,218491,5,2,3:2:0:0:
218,6,218660,1,0,0:0:0:0:
285,286,218829,5,10,2:0:0:0:
232,17,218997,1,0,3:2:0:0:
126,303,219166,5,2,2:0:0:0:
245,27,219334,1,0,3:2:0:0:
10,218,219503,5,10,2:0:0:0:
259,40,219671,1,0,0:0:0:0:
381,306,219840,6,0,P|329:294|248:280,1,99.0000030212403,6|0,3:2|0:0,0:0:0:0:
234,209,220093,2,0,P|185:220|137:229,1,99.0000030212403,2|0,2:0|0:0,0:0:0:0:
83,294,220345,1,2,3:2:0:0:
0,70,220514,2,0,P|43:100|99:91,1,99.0000030212403,2|0,2:0|3:2,0:0:0:0:
153,43,220767,2,0,P|196:13|252:22,1,99.0000030212403,2|0,2:0|0:0,0:0:0:0:
315,61,221020,1,2,2:0:0:0:
455,201,221188,6,0,P|467:152|480:101,1,99.0000030212403,2|0,3:2|0:0,0:0:0:0:
385,131,221441,2,0,P|373:179|360:227,1,99.0000030212403,2|0,2:0|0:0,0:0:0:0:
335,316,221694,1,2,3:2:0:0:
173,184,221862,1,2,2:0:0:0:
385,131,222031,1,0,3:2:0:0:
261,384,222199,2,0,P|250:335|239:287,1,99.0000030212403,8|2,2:0|2:0,0:0:0:0:
140,99,222536,6,0,P|93:140|107:247,1,148.50000453186,2|0,3:2|0:0,0:0:0:0:
135,301,222873,2,0,P|191:285|248:268,1,99.0000030212403,10|0,2:0|3:2,0:0:0:0:
382,76,223211,1,2,2:0:0:0:
191,189,223379,1,0,3:2:0:0:
384,314,223548,2,0,P|404:252|425:185,1,99.0000030212403,10|2,2:0|2:0,0:0:0:0:
270,31,223885,6,0,P|222:45|175:61,1,99.0000030212403,2|0,3:2|0:0,0:0:0:0:
80,120,224138,2,0,P|127:135|174:150,1,99.0000030212403,2|0,2:0|0:0,0:0:0:0:
252,180,224390,1,2,3:2:0:0:
164,333,224559,1,2,2:0:0:0:
80,120,224727,1,0,3:2:0:0:
278,84,224896,2,0,P|263:136|247:198,1,99.0000030212403,8|0,2:0|0:0,0:0:0:0:
0,100,225233,6,0,B|74:85|74:85|116:115|116:115|201:98,1,198.000006042481,2|8,3:2|2:0,0:0:0:0:
324,224,225739,1,2,3:2:0:0:
437,10,225907,2,0,P|376:22|318:34,1,99.0000030212403,0|0,0:0|3:2,0:0:0:0:
226,243,226244,2,0,P|274:233|323:223,1,99.0000030212403,10|0,2:0|0:0,0:0:0:0:
153,134,226581,6,0,P|104:190|126:335,1,198.000006042481,2|8,3:2|2:0,0:0:0:0:
323,223,227087,1,0,3:2:0:0:
224,54,227256,2,0,P|168:26|124:32,1,99.0000030212403,2|0,2:0|3:2,0:0:0:0:
341,240,227593,2,0,P|389:230|438:220,1,99.0000030212403,10|0,2:0|0:0,0:0:0:0:
153,134,227930,6,0,B|127:208|127:208|142:249|142:249|115:319,1,198.000006042481,6|10,3:2|2:0,0:0:0:0:
323,223,228435,2,0,P|363:139|300:44,1,198.000006042481,2|2,3:2|3:2,0:0:0:0:
55,114,228941,2,0,P|124:127|180:141,1,99.0000030212403,10|2,2:0|2:0,0:0:0:0:
418,253,229278,6,0,P|353:322|259:306,1,198.000006042481,2|8,3:2|2:0,0:0:0:0:
125,202,229784,1,2,2:0:0:0:
326,124,229952,1,8,2:0:0:0:
326,124,230036,1,8,2:0:0:0:
326,124,230121,1,10,2:0:0:0:
234,321,230289,1,10,2:0:0:0:
102,113,230458,1,8,2:0:0:0:
106,98,230542,1,8,2:0:0:0:
110,84,230626,6,0,P|188:93|247:44,1,135,4|0,3:2|0:0,0:0:0:0:
285,0,230963,1,10,2:2:0:0:
403,181,231132,1,0,3:2:0:0:
162,237,231300,2,0,P|179:177|195:119,1,90,2|0,2:2|3:2,0:0:0:0:
375,0,231638,2,0,P|392:60|408:118,1,90,10|0,2:2|0:0,0:0:0:0:
505,292,231975,6,0,P|468:238|353:268,1,180,2|8,3:2|2:2,0:0:0:0:
218,376,232480,2,0,P|196:290|162:170,1,180,2|2,3:2|3:2,0:0:0:0:
260,32,232986,1,10,2:2:0:0:
80,174,233154,1,2,0:2:0:0:
289,256,233323,6,0,B|342:239|403:219,1,90,2|0,3:2|0:0,0:0:0:0:
136,95,233660,2,0,P|85:75|28:97,1,90,10|2,2:2|3:2,0:0:0:0:
112,314,233997,2,0,B|129:261|149:200,1,90,0|2,0:0|3:2,0:0:0:0:
260,32,234334,2,0,B|277:85|297:146,1,90,10|2,2:2|0:2,0:0:0:0:
463,298,234671,6,0,P|394:280|269:252,1,180,2|10,3:2|2:2,0:0:0:0:
116,378,235177,2,0,P|165:323|122:216,1,180,2|2,3:2|3:2,0:0:0:0:
0,113,235682,1,10,2:2:0:0:
85,296,235851,1,2,0:2:0:0:
287,117,236020,6,0,P|217:132|145:148,1,135,2|0,3:2|0:0,0:0:0:0:
120,155,236357,1,10,2:2:0:0:
291,284,236525,1,0,3:2:0:0:
222,35,236694,2,0,P|209:90|195:152,1,90,2|0,2:2|3:2,0:0:0:0:
377,264,237031,2,0,P|347:214|299:199,1,90,10|0,2:2|0:0,0:0:0:0:
102,354,237368,6,0,P|177:335|296:309,1,180,2|8,3:2|2:2,0:0:0:0:
447,187,237873,2,0,P|359:165|271:145,1,180,2|2,3:2|3:2,0:0:0:0:
103,177,238379,1,10,2:2:0:0:
277,16,238548,1,2,0:2:0:0:
191,226,238716,6,0,P|120:277|36:254,1,180,2|10,3:2|2:2,0:0:0:0:
122,24,239222,2,0,P|203:38|330:63,1,180,2|2,3:2|3:2,0:0:0:0:
492,54,239727,2,0,P|463:92|472:159,1,90,10|2,2:2|0:2,0:0:0:0:
358,288,240064,6,0,P|304:224|192:266,1,180,2|10,3:2|2:2,0:0:0:0:
74,370,240570,2,0,B|117:343|184:353|142:370|215:397|267:358,1,180,6|2,3:2|3:2,0:0:0:0:
150,167,241076,2,0,P|121:213|121:264,1,90,10|2,2:2|0:2,0:0:0:0:
375,299,241413,6,0,P|355:222|335:143,1,135,6|0,3:2|0:0,0:0:0:0:
331,136,241750,1,10,2:2:0:0:
210,282,241918,1,0,3:2:0:0:
418,157,242087,2,0,P|350:140|291:126,1,90,2|0,2:2|3:2,0:0:0:0:
122,303,242424,2,0,P|165:292|209:281,1,90,10|0,2:2|0:0,0:0:0:0:
308,44,242761,6,0,P|256:72|256:197,1,180,2|8,3:2|2:2,0:0:0:0:
437,305,243267,2,0,B|413:232|413:232|418:200|418:200|399:131,1,180,2|2,3:2|3:2,0:0:0:0:
233,32,243772,1,10,2:2:0:0:
424,124,243941,1,2,0:2:0:0:
255,272,244109,6,0,P|203:259|146:246,1,90,2|0,3:2|0:0,0:0:0:0:
1,64,244447,2,0,P|44:53|88:42,1,90,10|2,2:2|3:2,0:0:0:0:
104,311,244784,2,0,P|81:263|96:205,1,90,0|2,0:0|3:2,0:0:0:0:
233,32,245121,2,0,P|256:80|241:138,1,90,10|2,2:2|0:2,0:0:0:0:
104,311,245458,6,0,P|171:254|261:293,1,180,2|10,3:2|2:2,0:0:0:0:
402,371,245963,2,0,B|445:323|445:323|382:185,1,180,2|2,3:2|3:2,0:0:0:0:
201,104,246469,1,10,2:2:0:0:
251,280,246638,1,2,0:2:0:0:
471,176,246806,6,0,P|418:136|353:145,1,135,2|0,3:2|0:0,0:0:0:0:
320,163,247143,1,10,2:2:0:0:
214,6,247312,1,0,3:2:0:0:
84,145,247480,2,0,P|147:126|202:110,1,90,2|0,2:2|3:2,0:0:0:0:
337,305,247817,2,0,P|293:292|250:279,1,90,10|0,2:2|0:0,0:0:0:0:
214,6,248154,6,0,P|269:58|247:164,1,180,2|8,3:2|2:2,0:0:0:0:
104,293,248660,2,0,P|81:218|44:94,1,180,2|2,3:2|3:2,0:0:0:0:
214,6,249166,1,10,2:2:0:0:
31,132,249334,1,2,0:2:0:0:
218,270,249503,6,0,P|278:208|363:225,1,180,2|10,3:2|2:2,0:0:0:0:
507,379,250008,2,0,B|481:312|481:312|489:275|489:275|462:201,1,180,2|2,3:2|3:2,0:0:0:0:
306,89,250514,2,0,P|288:147|270:203,1,90,10|2,2:2|0:2,0:0:0:0:
169,365,250851,6,0,P|152:302|120:197,1,135,2|0,3:2|0:0,0:0:0:0:
121,202,251188,1,10,2:2:0:0:
298,318,251357,2,0,P|344:336|437:262,1,180,10|2,2:2|3:2,0:0:0:0:
273,68,251862,1,8,3:0:0:0:
351,249,252031,1,0,0:0:0:0:
501,51,252199,6,0,B|332:38|382:115|243:101|201:72|201:72|186:142|145:191|104:177|133:275|183:291|183:291|225:288|246:267|248:228|342:241|393:306|363:362|363:362|319:383|265:375|191:348|243:183|276:179|324:154|376:152|404:194,1,1214.99996292114,6|0,3:2|0:0,0:0:0:0:
