osu file format v14

[General]
AudioFilename: audio.mp3
AudioLeadIn: 0
PreviewTime: 68744
Countdown: 0
SampleSet: Soft
StackLeniency: 0.7
Mode: 0
LetterboxInBreaks: 0
WidescreenStoryboard: 1

[Editor]
Bookmarks: 65,4109,25682,47256,63435,66132,68829,90402,101188,111975,117368,122761,138941,141638,144334,165907,184784,187480,206357,209053,230626,252199,257256
DistanceSpacing: 1
BeatDivisor: 4
GridSize: 16
TimelineZoom: 1

[Metadata]
Title:Golden Journey
TitleUnicode:ゴールデンジャーニー
Artist:yuikonnu
ArtistUnicode:ゆいこんぬ
Creator:sanairrt
Version:Astromi's Insane
Source:
Tags:Astromi Mujina Airiesu yuiko primary utaite cover mel mer メル hatsune miku 初音ミク flower おかず vocaloid japanese female vocals pop j-pop jpop seasonal magic
BeatmapID:3133078
BeatmapSetID:1528682

[Difficulty]
HPDrainRate:5
CircleSize:3.6
OverallDifficulty:7.5
ApproachRate:9
SliderMultiplier:1.7
SliderTickRate:1

[Events]
//Background and Video events
0,0,"1116534.jpg",0,0
//Break Periods
//Storyboard Layer 0 (Background)
//Storyboard Layer 1 (Fail)
//Storyboard Layer 2 (Pass)
//Storyboard Layer 3 (Foreground)
//Storyboard Layer 4 (Overlay)
//Storyboard Sound Samples

[TimingPoints]
65,337.078651685393,4,2,1,70,1,0
2761,-100,4,2,2,70,0,0
3772,-100,4,2,1,70,0,0
4447,-100,4,2,1,65,0,0
25682,-125,4,2,1,60,0,0
47256,-111.111111111111,4,2,1,60,0,0
63435,-100,4,2,1,65,0,0
67480,-142.857142857143,4,2,1,55,0,0
68154,-142.857142857143,4,2,1,40,0,0
68829,-95.2380952380952,4,2,1,80,0,1
78267,-95.2380952380952,4,2,2,80,0,1
79615,-95.2380952380952,4,2,1,80,0,1
90402,-100,4,2,1,65,0,0
101188,-125,4,2,1,60,0,0
111975,-200,4,2,1,40,0,0
117368,-125,4,2,1,45,0,0
118042,-125,4,2,1,50,0,0
118716,-111.111111111111,4,2,1,55,0,0
119390,-111.111111111111,4,2,1,60,0,0
120064,-100,4,2,1,65,0,0
120739,-100,4,2,1,70,0,0
121413,-100,4,2,1,75,0,0
122087,-111.111111111111,4,2,1,80,0,0
122424,-111.111111111111,4,2,1,65,0,0
122761,-111.111111111111,4,2,1,65,0,0
138941,-181.818181818182,4,2,1,65,0,0
141300,-181.818181818182,4,2,1,50,0,0
141638,-100,4,2,1,50,0,0
141975,-100,4,2,1,55,0,0
142312,-100,4,2,1,60,0,0
142649,-100,4,2,1,65,0,0
142986,-100,4,2,1,70,0,0
143323,-100,4,2,1,75,0,0
143660,-100,4,2,1,80,0,0
144334,-95.2380952380952,4,2,1,80,0,1
153772,-95.2380952380952,4,2,2,80,0,1
155121,-95.2380952380952,4,2,1,80,0,1
165907,-100,4,2,1,65,0,0
182087,-111.111111111111,4,2,1,65,0,0
184784,-111.111111111111,4,2,1,50,0,0
187480,-166.666666666667,4,2,1,40,0,0
203660,-142.857142857143,4,2,1,40,0,0
206357,-111.111111111111,4,2,1,60,0,0
207368,-111.111111111111,4,2,1,70,0,0
208042,-111.111111111111,4,2,1,80,0,0
209053,-95.2380952380952,4,2,1,80,0,1
218491,-95.2380952380952,4,2,2,80,0,1
219840,-95.2380952380952,4,2,1,80,0,1
230626,-100,4,2,1,65,0,0
251862,-166.666666666667,4,2,1,50,0,0
252115,-166.666666666667,4,2,1,5,0,0
252199,-250,4,2,1,50,0,0

[Colours]
Combo1 : 243,82,98
Combo2 : 253,161,136
Combo3 : 254,251,148
Combo4 : 255,168,52

[HitObjects]
256,192,570,12,2,2761,2:0:0:0:
271,59,3098,5,2,2:0:0:0:
256,192,3435,5,2,2:0:0:0:
153,99,3772,5,8,2:0:0:0:
133,96,3857,1,8,2:0:0:0:
112,93,3941,1,8,2:0:0:0:
91,89,4025,1,8,2:0:0:0:
70,86,4109,6,0,B|29:129|29:129|55:237,1,170,4|10,3:2|2:0,0:0:0:0:
119,336,4615,1,0,3:2:0:0:
254,231,4784,2,0,L|169:223,1,85,2|0,2:0|3:2,0:0:0:0:
344,281,5121,2,0,P|358:241|351:200,1,85,10|0,2:0|0:0,0:0:0:0:
236,81,5458,6,0,P|314:102|377:49,1,170,2|8,3:2|2:0,0:0:0:0:
512,193,5963,2,0,B|424:156|439:236|351:200,1,170,2|2,3:2|3:2,0:0:0:0:
266,375,6469,1,10,2:0:0:0:
385,301,6638,1,2,2:0:0:0:
237,205,6806,6,0,P|170:250|173:337,1,170,2|10,3:2|2:0,0:0:0:0:
50,207,7312,2,0,L|72:33,1,170,2|2,3:2|3:2,0:0:0:0:
228,0,7817,1,10,2:0:0:0:
163,119,7986,1,2,2:0:0:0:
344,22,8154,6,0,P|361:60|361:102,1,85,2|0,3:2|0:0,0:0:0:0:
219,225,8491,2,0,P|243:190|280:170,1,85,10|2,2:0|3:2,0:0:0:0:
408,273,8829,2,0,L|318:262,1,85,0|2,0:0|3:2,0:0:0:0:
175,356,9166,2,0,L|265:345,1,85,10|2,2:0|2:0,0:0:0:0:
61,221,9503,6,0,B|20:264|20:264|46:372,1,170,2|10,3:2|2:0,0:0:0:0:
170,255,10008,1,0,3:2:0:0:
102,131,10177,2,0,P|61:119|21:132,1,85,2|0,2:0|3:2,0:0:0:0:
194,95,10514,2,0,P|173:58|136:39,1,85,10|0,2:0|0:0,0:0:0:0:
255,177,10851,6,0,B|320:168|320:168|357:187|357:187|419:177,1,170,2|8,3:2|2:0,0:0:0:0:
421,339,11357,2,0,P|340:347|293:280,1,170,2|2,3:2|3:2,0:0:0:0:
418,177,11862,1,10,2:0:0:0:
494,269,12031,1,2,2:0:0:0:
512,88,12199,6,0,L|338:66,1,170,2|10,3:2|2:0,0:0:0:0:
195,160,12705,2,0,B|236:117|236:117|210:9,1,170,2|2,3:2|3:2,0:0:0:0:
37,154,13211,1,10,2:0:0:0:
114,60,13379,1,2,2:0:0:0:
258,233,13548,6,0,P|184:259|112:208,1,170,2|10,3:2|2:0,0:0:0:0:
5,362,14053,2,0,B|93:325|78:405|166:369,1,170,6|2,3:2|3:2,0:0:0:0:
356,289,14559,1,10,2:0:0:0:
258,233,14727,1,2,2:0:0:0:
452,371,14896,6,0,L|474:197,1,170,6|10,3:2|2:0,0:0:0:0:
391,66,15402,1,0,3:2:0:0:
303,176,15570,2,0,P|262:186|221:174,1,85,2|0,2:0|3:2,0:0:0:0:
222,9,15907,2,0,P|251:39|261:79,1,85,10|0,2:0|0:0,0:0:0:0:
130,247,16244,6,0,B|104:139|104:139|145:96,1,170,2|8,3:2|2:0,0:0:0:0:
215,306,16750,2,0,P|146:352|67:330,1,170,2|2,3:2|3:2,0:0:0:0:
221,174,17256,1,10,2:0:0:0:
312,262,17424,1,2,2:0:0:0:
392,77,17593,6,0,B|327:68|327:68|290:87|290:87|228:77,1,170,2|10,3:2|2:0,0:0:0:0:
473,0,18098,2,0,B|514:43|514:43|488:151,1,170,2|2,3:2|3:2,0:0:0:0:
451,304,18604,1,10,2:0:0:0:
375,177,18772,1,2,2:0:0:0:
317,311,18941,6,0,P|276:323|236:312,1,85,2|0,3:2|0:0,0:0:0:0:
234,152,19278,2,0,P|264:180|275:221,1,85,10|2,2:0|3:2,0:0:0:0:
129,313,19615,2,0,L|118:228,1,85,0|2,0:0|3:2,0:0:0:0:
13,144,19952,2,0,L|2:228,1,85,10|2,2:0|2:0,0:0:0:0:
176,52,20289,6,0,P|105:9|27:36,1,170,2|10,3:2|2:0,0:0:0:0:
140,148,20795,1,0,3:2:0:0:
278,29,20963,2,0,L|289:113,1,85,2|0,2:0|3:2,0:0:0:0:
396,195,21300,2,0,L|407:111,1,85,10|0,2:0|0:0,0:0:0:0:
269,284,21638,6,0,B|357:247|342:327|430:291,1,170,2|8,3:2|2:0,0:0:0:0:
173,350,22143,2,0,B|147:242|147:242|188:199,1,170,2|2,3:2|3:2,0:0:0:0:
333,156,22649,1,10,2:0:0:0:
269,284,22817,1,2,2:0:0:0:
230,100,22986,6,0,B|165:91|165:91|128:110|128:110|66:100,1,170,2|10,3:2|2:0,0:0:0:0:
295,8,23491,2,0,P|346:73|332:155,1,170,2|2,3:2|3:2,0:0:0:0:
387,275,23997,1,10,2:0:0:0:
449,159,24166,1,2,2:0:0:0:
512,361,24334,6,0,B|424:324|439:404|351:368,1,170,2|10,3:2|2:0,0:0:0:0:
253,219,24840,2,0,B|212:262|212:262|238:370,1,170,10|8,2:0|3:0,0:0:0:0:
103,218,25345,1,4,3:0:0:0:
60,301,25514,1,0,0:0:0:0:
0,103,25682,6,0,P|53:63|116:80,1,136,6|8,3:2|2:0,0:0:0:0:
183,151,26188,1,2,3:2:0:0:
234,9,26357,2,0,L|244:90,1,68,2|0,2:0|3:2,0:0:0:0:
341,150,26694,2,0,L|351:69,1,68,8|2,2:0|2:0,0:0:0:0:
407,222,27031,6,0,P|348:252|285:230,1,136,2|10,3:2|2:0,0:0:0:0:
181,167,27536,2,0,B|142:201|142:201|161:285,1,136,2|2,3:2|3:2,0:0:0:0:
47,246,28042,1,8,2:0:0:0:
47,246,28211,1,2,2:0:0:0:
38,83,28379,6,0,P|57:110|61:144,1,68,2|0,3:2|0:0,0:0:0:0:
176,15,28716,2,0,P|156:42|152:76,1,68,8|0,2:0|3:2,0:0:0:0:
330,87,29053,2,0,L|256:78,1,68,2|0,2:0|3:2,0:0:0:0:
231,236,29390,2,0,P|251:208|255:175,1,68,10|0,2:0|0:0,0:0:0:0:
360,237,29727,6,0,L|370:304,1,68,2|2,3:2|2:0,0:0:0:0:
451,373,30064,1,10,2:0:0:0:
477,235,30233,2,0,L|494:100,1,136,2|2,3:2|3:2,0:0:0:0:
365,21,30739,2,0,L|376:104,1,68,10|2,2:0|2:0,0:0:0:0:
250,21,31076,6,0,B|180:-9|187:54|118:24,1,136,2|8,3:2|2:0,0:0:0:0:
115,172,31581,1,2,3:2:0:0:
212,107,31750,2,0,P|230:136|231:170,1,68,2|0,2:0|3:2,0:0:0:0:
127,296,32087,2,0,P|143:266|171:248,1,68,8|2,2:0|2:0,0:0:0:0:
23,374,32424,6,0,L|10:239,1,136,2|10,3:2|2:0,0:0:0:0:
194,303,32930,1,0,3:2:0:0:
194,303,33098,2,0,L|109:294,1,68,2|0,2:0|3:2,0:0:0:0:
273,377,33435,2,0,L|358:368,1,68,10|2,2:0|2:0,0:0:0:0:
434,251,33772,6,0,B|472:283|472:283|457:368,1,136,2|10,3:2|2:0,0:0:0:0:
319,248,34278,1,0,3:2:0:0:
319,248,34447,2,0,P|319:214|333:183,1,68,2|2,2:0|3:2,0:0:0:0:
194,117,34784,2,0,P|207:147|208:181,1,68,8|0,2:0|0:0,0:0:0:0:
358,55,35121,6,0,P|325:46|292:56,1,68,2|2,3:2|2:0,0:0:0:0:
333,183,35458,1,10,2:0:0:0:
485,122,35626,2,0,P|509:183|488:247,1,136,2|2,3:2|3:2,0:0:0:0:
333,183,36132,2,0,P|366:174|399:184,1,68,8|2,2:0|2:0,0:0:0:0:
406,365,36469,6,0,B|336:335|343:398|274:368,1,136,2|8,3:2|2:0,0:0:0:0:
181,305,36975,1,2,3:2:0:0:
282,215,37143,2,0,P|300:243|302:277,1,68,2|0,2:0|3:2,0:0:0:0:
192,147,37480,2,0,P|174:175|172:209,1,68,8|2,2:0|2:0,0:0:0:0:
59,65,37817,6,0,P|124:70|172:25,1,136,2|10,3:2|2:0,0:0:0:0:
15,162,38323,2,0,L|3:313,1,136,2|2,3:2|3:2,0:0:0:0:
185,201,38829,2,0,L|107:195,1,68,10|2,2:0|2:0,0:0:0:0:
266,268,39166,6,0,P|282:238|286:205,1,68,2|0,3:2|0:0,0:0:0:0:
181,360,39503,2,0,P|164:330|160:297,1,68,10|0,2:0|3:2,0:0:0:0:
285,377,39840,2,0,L|352:371,1,68,2|0,2:0|3:2,0:0:0:0:
436,310,40177,2,0,L|504:318,1,68,10|0,2:0|0:0,0:0:0:0:
398,162,40514,6,0,P|382:192|378:225,1,68,2|2,3:2|2:0,0:0:0:0:
502,213,40851,1,10,2:0:0:0:
429,75,41020,2,0,B|359:45|366:108|297:78,1,136,2|2,3:2|3:2,0:0:0:0:
186,16,41525,2,0,L|195:95,1,68,8|2,2:0|2:0,0:0:0:0:
158,225,41862,6,0,P|213:189|278:203,1,136,2|8,3:2|2:0,0:0:0:0:
233,290,42368,1,2,3:2:0:0:
69,169,42536,2,0,P|54:199|55:233,1,68,2|0,2:0|3:2,0:0:0:0:
147,362,42873,2,0,P|127:334|97:318,1,68,8|2,2:0|2:0,0:0:0:0:
334,309,43211,6,0,L|325:389,1,68,2|0,3:2|0:0,0:0:0:0:
233,290,43548,1,10,2:0:0:0:
433,236,43716,2,0,L|448:371,1,136,2|2,3:2|3:2,0:0:0:0:
329,195,44222,2,0,P|296:187|263:195,1,68,10|2,2:0|2:0,0:0:0:0:
380,52,44559,6,0,B|432:43|432:43|466:59|466:59|511:51,1,136,2|10,3:2|2:0,0:0:0:0:
416,139,45064,1,0,3:2:0:0:
285,0,45233,2,0,P|276:33|279:67,1,68,2|0,2:0|3:2,0:0:0:0:
317,145,45570,2,0,P|326:178|323:212,1,68,8|0,2:0|0:0,0:0:0:0:
149,194,45907,6,0,L|216:185,1,68,2|0,3:2|0:0,0:0:0:0:
304,311,46244,2,0,L|236:302,1,68,8|0,2:0|3:0,0:0:0:0:
448,186,46581,1,4,3:0:0:0:
409,320,46750,1,8,3:2:0:0:
317,145,46918,2,0,L|326:213,1,68,2|2,3:2|2:0,0:0:0:0:
451,45,47256,6,0,B|392:34|392:34|354:52|354:52|304:43,1,152.999995330811,6|8,3:2|2:0,0:0:0:0:
178,143,47761,2,0,B|200:44|200:44|164:6,1,152.999995330811,2|0,3:2|3:0,0:0:0:0:
99,213,48267,2,0,P|162:250|233:227,2,152.999995330811,14|2|8,2:0|3:2|2:0,0:0:0:0:
18,142,49109,1,2,3:2:0:0:
0,327,49278,2,0,L|77:318,1,76.4999976654053,2|2,2:0|3:2,0:0:0:0:
233,228,49615,1,10,2:0:0:0:
179,369,49784,1,2,2:0:0:0:
239,204,49952,6,0,B|315:174|304:245|386:213,1,152.999995330811,2|10,3:2|2:0,0:0:0:0:
465,126,50458,2,0,P|484:158|487:196,1,76.4999976654053,0|2,3:2|2:0,0:0:0:0:
355,125,50795,1,2,3:2:0:0:
313,332,50963,2,0,B|368:362|419:327|419:327|393:321|385:307,1,152.999995330811,14|0,2:0|3:0,0:0:0:0:
235,241,51469,5,8,3:0:0:0:
201,360,51638,2,0,P|164:370|128:360,1,76.4999976654053,8|4,2:0|3:0,0:0:0:0:
71,256,51975,1,0,0:0:0:0:
10,358,52143,1,0,3:0:0:0:
0,171,52312,2,0,L|88:159,1,76.4999976654053,8|0,2:0|0:0,0:0:0:0:
185,45,52649,6,0,B|130:36|130:36|94:56|94:56|38:45,1,152.999995330811,6|8,3:2|2:0,0:0:0:0:
246,131,53154,2,0,P|292:73|283:0,1,152.999995330811,2|0,3:2|3:0,0:0:0:0:
170,207,53660,2,0,B|209:241|209:241|308:221,2,152.999995330811,14|2|8,2:0|3:2|2:0,0:0:0:0:
170,374,54503,1,2,3:2:0:0:
268,323,54671,2,0,L|351:330,1,76.4999976654053,2|0,2:0|3:0,0:0:0:0:
436,374,55008,2,0,L|512:367,1,76.4999976654053,10|2,2:0|2:0,0:0:0:0:
511,189,55345,6,0,P|440:207|380:160,1,152.999995330811,2|10,3:2|2:0,0:0:0:0:
467,33,55851,2,0,L|459:115,1,76.4999976654053,2|2,3:2|2:0,0:0:0:0:
348,35,56188,1,0,3:0:0:0:
287,206,56357,2,0,B|234:227|186:208|186:208|209:225|218:247,1,152.999995330811,14|8,2:0|2:0,0:0:0:0:
149,354,56862,5,4,3:0:0:0:
76,209,57031,2,0,L|65:297,1,76.4999976654053,0|8,3:0|2:0,0:0:0:0:
19,129,57368,1,0,3:0:0:0:
187,208,57536,1,0,3:0:0:0:
125,53,57705,2,0,L|136:141,1,76.4999976654053,12|0,2:0|0:0,0:0:0:0:
231,29,58042,6,0,B|286:20|286:20|325:43|325:43|377:34,1,152.999995330811,6|8,3:2|2:0,0:0:0:0:
464,160,58548,2,0,B|500:122|500:122|478:23,1,152.999995330811,2|0,3:2|3:0,0:0:0:0:
382,218,59053,2,0,P|441:263|514:244,2,152.999995330811,14|2|8,2:0|3:2|2:0,0:0:0:0:
297,132,59896,1,2,3:2:0:0:
238,320,60064,2,0,P|274:329|310:320,1,76.4999976654053,2|2,2:0|3:2,0:0:0:0:
169,178,60402,1,10,2:0:0:0:
124,326,60570,1,2,2:0:0:0:
276,232,60739,6,0,B|298:133|298:133|262:95,1,152.999995330811,2|10,3:2|2:0,0:0:0:0:
93,168,61244,2,0,L|181:179,1,76.4999976654053,2|2,3:2|2:0,0:0:0:0:
17,245,61581,1,2,3:2:0:0:
23,79,61750,2,0,L|111:68,1,76.4999976654053,14|2,2:0|2:0,0:0:0:0:
201,9,62087,5,0,3:0:0:0:
325,149,62256,1,8,2:0:0:0:
307,8,62424,1,8,2:0:0:0:
220,149,62593,1,0,3:0:0:0:
421,71,62761,2,0,L|433:155,1,76.4999976654053,2|0,2:0|3:0,0:0:0:0:
314,224,63098,2,0,L|326:140,1,76.4999976654053,10|0,2:0|0:0,0:0:0:0:
465,328,63435,6,0,B|403:317|403:317|360:337|360:337|294:325,1,170,6|8,3:2|2:0,0:0:0:0:
209,205,63941,1,2,2:0:0:0:
155,362,64109,2,0,P|114:373|73:362,1,85,2|0,3:2|3:0,0:0:0:0:
92,134,64447,1,8,2:0:0:0:
0,286,64615,1,2,2:0:0:0:
191,103,64784,6,0,B|235:66|285:89|285:89|309:122|357:119,1,170,2|10,3:2|2:0,0:0:0:0:
260,272,65289,2,0,L|249:188,1,85,2|0,2:0|3:0,0:0:0:0:
456,94,65626,2,0,L|445:178,1,85,2|8,3:2|2:0,0:0:0:0:
355,24,65963,1,2,2:0:0:0:
402,266,66132,6,0,P|442:277|483:267,1,85,8|0,2:0|2:0,0:0:0:0:
299,358,66469,2,0,P|258:369|217:359,1,85,8|0,2:0|2:0,0:0:0:0:
84,144,66806,1,8,2:0:0:0:
112,312,66975,1,0,3:0:0:0:
288,103,67143,1,8,2:0:0:0:
260,271,67312,1,0,3:0:0:0:
160,37,67480,6,0,B|100:11|107:63|45:37,1,118.999996368408,6|0,2:0|0:0,0:0:0:0:
121,229,68154,2,0,B|151:196|151:196|132:120,1,118.999996368408,2|0,2:0|0:0,0:0:0:0:
83,338,68829,6,0,L|182:325,1,89.2499972763062,6|0,3:2|0:0,0:0:0:0:
257,279,69081,2,0,L|356:292,1,89.2499972763062,2|0,2:0|0:0,0:0:0:0:
441,306,69334,1,2,3:2:0:0:
390,112,69503,2,0,P|368:150|368:194,1,89.2499972763062,2|0,2:0|3:2,0:0:0:0:
461,214,69756,2,0,P|482:175|482:131,1,89.2499972763062,2|0,2:0|0:0,0:0:0:0:
453,41,70008,1,2,2:0:0:0:
275,171,70177,6,0,L|176:158,1,89.2499972763062,2|0,3:2|0:0,0:0:0:0:
122,222,70430,2,0,P|81:235|37:229,1,89.2499972763062,2|0,2:0|0:0,0:0:0:0:
0,149,70682,1,2,3:2:0:0:
138,33,70851,2,0,B|203:20|203:20|247:45|247:45|307:33,1,178.499994552612,2|8,2:0|2:0,0:0:0:0:
96,125,71357,1,2,2:0:0:0:
165,247,71525,6,0,P|206:261|250:252,1,89.2499972763062,2|0,3:2|0:0,0:0:0:0:
369,109,71862,2,0,P|339:141|330:185,1,89.2499972763062,10|0,2:0|3:2,0:0:0:0:
460,281,72199,2,0,L|448:180,1,89.2499972763062,2|0,2:0|3:2,0:0:0:0:
246,21,72536,1,10,2:0:0:0:
329,184,72705,1,2,2:0:0:0:
384,15,72873,6,0,B|452:-11|442:50|512:20,2,133.874995914459,2|2|2,3:2|2:0|3:2,0:0:0:0:
202,105,73548,2,0,L|212:196,1,89.2499972763062,2|0,2:0|3:2,0:0:0:0:
319,272,73885,2,0,L|329:181,1,89.2499972763062,8|0,2:0|0:0,0:0:0:0:
103,37,74222,6,0,B|59:72|59:72|89:190,1,178.499994552612,2|8,3:2|2:0,0:0:0:0:
183,323,74727,2,0,B|118:366|62:323|62:323|90:318|108:300,1,178.499994552612,2|0,3:2|3:2,0:0:0:0:
299,274,75233,2,0,L|311:362,1,89.2499972763062,10|0,2:0|0:0,0:0:0:0:
469,194,75570,6,0,B|419:175|385:207|385:207|356:166|310:170,1,178.499994552612,2|8,3:2|2:0,0:0:0:0:
178,26,76076,2,0,L|202:202,1,178.499994552612,2|0,3:2|3:2,0:0:0:0:
224,367,76581,1,10,2:0:0:0:
100,238,76750,1,0,0:0:0:0:
309,170,76918,6,0,B|352:207|352:207|324:326,1,178.499994552612,2|8,3:2|2:0,0:0:0:0:
214,112,77424,2,0,P|281:57|365:77,1,178.499994552612,2|0,3:2|3:2,0:0:0:0:
177,208,77930,2,0,P|134:199|106:165,1,89.2499972763062,8|0,2:0|0:0,0:0:0:0:
386,275,78267,5,2,3:2:0:0:
212,329,78435,1,0,3:2:0:0:
337,161,78604,1,10,2:0:0:0:
177,208,78772,1,0,3:2:0:0:
346,363,78941,2,0,P|388:374|431:363,1,89.2499972763062,2|0,2:0|3:2,0:0:0:0:
428,201,79278,2,0,P|397:232|385:275,1,89.2499972763062,10|0,2:0|0:0,0:0:0:0:
312,71,79615,6,0,P|355:65|396:82,1,89.2499972763062,6|0,3:2|0:0,0:0:0:0:
337,161,79868,2,0,P|293:166|252:149,1,89.2499972763062,2|0,2:0|0:0,0:0:0:0:
198,76,80121,1,2,3:2:0:0:
147,234,80289,2,0,L|132:140,1,89.2499972763062,2|0,2:0|3:2,0:0:0:0:
53,78,80542,2,0,L|38:172,1,89.2499972763062,2|0,2:0|0:0,0:0:0:0:
28,251,80795,1,2,2:0:0:0:
211,365,80963,6,0,P|167:374|126:359,1,89.2499972763062,2|0,3:2|0:0,0:0:0:0:
137,266,81216,2,0,P|180:256|221:271,1,89.2499972763062,2|0,2:0|0:0,0:0:0:0:
310,323,81469,1,2,3:2:0:0:
382,173,81638,2,0,B|426:211|426:211|404:329,1,178.499994552612,2|8,2:0|2:0,0:0:0:0:
222,272,82143,1,2,2:0:0:0:
322,98,82312,6,0,P|360:80|406:83,1,89.2499972763062,2|0,3:2|0:0,0:0:0:0:
226,165,82649,2,0,L|213:66,1,89.2499972763062,10|0,2:0|3:2,0:0:0:0:
74,242,82986,2,0,P|112:260|158:257,1,89.2499972763062,2|0,2:0|3:2,0:0:0:0:
110,53,83323,1,10,2:0:0:0:
27,157,83491,1,2,2:0:0:0:
214,76,83660,6,0,B|261:67|261:67|293:83|293:83|342:74,2,133.874995914459,2|2|2,3:2|2:0|3:2,0:0:0:0:
431,151,84334,2,0,P|450:111|447:67,1,89.2499972763062,2|0,2:0|3:2,0:0:0:0:
341,270,84671,2,0,P|321:230|324:186,1,89.2499972763062,8|0,2:0|0:0,0:0:0:0:
471,353,85008,6,0,B|378:317|396:399|300:361,1,178.499994552612,2|8,3:2|2:0,0:0:0:0:
77,305,85514,2,0,P|159:323|223:263,1,178.499994552612,2|0,3:2|3:2,0:0:0:0:
124,126,86020,2,0,L|133:216,1,89.2499972763062,10|0,2:0|0:0,0:0:0:0:
276,31,86357,6,0,B|211:-12|155:31|155:31|185:42|200:58,1,178.499994552612,2|8,3:2|2:0,0:0:0:0:
271,186,86862,1,0,3:2:0:0:
420,66,87031,2,0,L|518:53,1,89.2499972763062,2|0,2:0|3:2,0:0:0:0:
430,241,87368,1,10,2:0:0:0:
271,157,87536,1,0,0:0:0:0:
164,302,87705,6,0,B|257:266|239:348|335:310,1,178.499994552612,6|10,3:2|2:0,0:0:0:0:
93,202,88211,2,0,B|49:240|49:240|71:358,1,178.499994552612,2|2,3:2|3:2,0:0:0:0:
275,200,88716,1,10,2:0:0:0:
173,109,88885,1,2,2:0:0:0:
182,300,89053,6,0,P|224:312|267:302,1,89.2499972763062,2|2,3:2|2:0,0:0:0:0:
462,204,89390,2,0,P|420:216|377:206,1,89.2499972763062,8|2,2:0|2:0,0:0:0:0:
306,34,89727,1,8,2:0:0:0:
306,34,89812,1,8,2:0:0:0:
306,34,89896,1,10,2:0:0:0:
415,111,90064,1,10,2:0:0:0:
272,177,90233,1,8,2:0:0:0:
272,177,90317,1,8,2:0:0:0:
272,177,90402,6,0,B|207:168|207:168|170:187|170:187|108:177,1,170,4|10,3:2|2:2,0:0:0:0:
33,105,90907,1,0,3:2:0:0:
0,288,91076,2,0,L|91:278,1,85,2|0,2:2|3:2,0:0:0:0:
228,376,91413,2,0,L|137:366,1,85,10|0,2:2|0:0,0:0:0:0:
273,273,91750,6,0,L|441:254,1,170,2|8,3:2|2:2,0:0:0:0:
461,75,92256,2,0,P|380:85|354:161,1,170,2|2,3:2|3:2,0:0:0:0:
228,20,92761,1,10,2:2:0:0:
253,160,92930,1,2,0:2:0:0:
12,88,93098,6,0,B|96:50|87:133|173:94,1,170,2|10,3:2|2:2,0:0:0:0:
68,337,93604,2,0,B|27:294|27:294|53:186,1,170,2|2,3:2|3:2,0:0:0:0:
243,193,94109,1,10,2:2:0:0:
174,293,94278,1,2,0:2:0:0:
325,379,94447,6,0,P|325:336|309:297,1,85,2|0,3:2|0:0,0:0:0:0:
461,214,94784,2,0,P|444:253|445:295,1,85,10|2,2:2|3:2,0:0:0:0:
500,125,95121,2,0,P|459:112|419:122,1,85,0|2,0:0|3:2,0:0:0:0:
271,203,95458,2,0,P|311:215|351:205,1,85,10|2,2:2|0:0,0:0:0:0:
423,21,95795,6,0,B|339:-17|348:66|261:27,1,170,2|10,3:2|2:2,0:0:0:0:
225,156,96300,1,0,3:2:0:0:
146,29,96469,2,0,L|136:115,1,85,2|0,2:2|3:2,0:0:0:0:
33,226,96806,2,0,L|23:140,1,85,10|0,2:2|0:0,0:0:0:0:
157,227,97143,6,0,P|234:254|304:210,1,170,2|8,3:2|2:2,0:0:0:0:
172,357,97649,2,0,B|107:348|107:348|70:367|70:367|8:357,1,170,2|2,3:2|3:2,0:0:0:0:
37,158,98154,1,10,2:2:0:0:
115,252,98323,1,2,0:0:0:0:
143,100,98491,6,0,L|317:78,1,170,2|10,3:2|2:2,0:0:0:0:
464,0,98997,2,0,B|427:45|427:45|448:154,1,170,2|2,3:2|3:2,0:0:0:0:
298,259,99503,1,10,2:2:0:0:
350,158,99671,1,2,0:0:0:0:
480,319,99840,6,0,P|418:373|338:356,1,170,2|10,3:2|2:2,0:0:0:0:
136,252,100345,2,0,B|220:214|211:297|298:258,1,170,10|2,2:2|3:2,0:0:0:0:
435,212,100851,1,4,3:0:0:0:
350,158,101020,1,0,0:0:0:0:
468,17,101188,6,0,B|507:47|507:47|492:132,1,136,6|8,3:2|2:0,0:0:0:0:
350,158,101694,1,2,2:0:0:0:
294,56,101862,2,0,L|369:48,1,68,2|0,3:2|3:2,0:0:0:0:
236,150,102199,2,0,L|161:142,1,68,8|2,2:0|2:0,0:0:0:0:
0,79,102536,5,2,3:2:0:0:
8,202,102705,1,2,2:0:0:0:
95,82,102873,1,10,2:0:0:0:
109,208,103042,2,0,L|101:283,1,68,2|0,2:0|3:0,0:0:0:0:
91,371,103379,1,2,3:2:0:0:
210,276,103548,2,0,L|218:351,1,68,10|0,2:0|2:0,0:0:0:0:
358,172,103885,6,0,B|288:142|295:205|226:175,1,136,2|10,3:2|2:0,0:0:0:0:
242,70,104390,1,2,2:0:0:0:
339,9,104559,2,0,P|356:38|359:71,1,68,2|2,3:2|3:2,0:0:0:0:
491,8,104896,2,0,P|467:71|463:139,1,136,10|0,2:0|3:0,0:0:0:0:
512,223,105402,5,0,0:0:0:0:
358,172,105570,2,0,P|340:201|337:234,1,68,8|0,2:0|2:0,0:0:0:0:
473,339,105907,1,0,3:0:0:0:
473,339,106076,2,0,P|456:308|429:289,1,68,0|8,3:0|2:0,0:0:0:0:
331,345,106413,1,2,2:0:0:0:
206,235,106581,6,0,B|258:226|258:226|290:242|290:242|337:234,1,136,2|8,3:2|2:0,0:0:0:0:
191,123,107087,1,2,2:0:0:0:
100,209,107256,2,0,P|67:218|35:210,1,68,2|0,3:2|3:2,0:0:0:0:
31,59,107593,2,0,P|55:81|64:114,1,68,8|2,2:0|2:0,0:0:0:0:
175,22,107930,6,0,L|310:11,1,136,2|10,3:2|2:0,0:0:0:0:
397,114,108435,1,0,2:0:0:0:
397,113,108604,2,0,P|411:82|412:48,1,68,2|2,3:2|3:2,0:0:0:0:
301,181,108941,2,0,P|286:150|285:116,1,68,10|2,2:0|2:0,0:0:0:0:
411,269,109278,6,0,B|341:239|348:302|279:272,1,136,2|10,3:2|2:0,0:0:0:0:
408,360,109784,1,0,2:0:0:0:
504,202,109952,2,0,L|514:280,1,68,2|2,3:2|3:0,0:0:0:0:
415,155,110289,2,0,L|425:77,1,68,10|0,2:0|0:0,0:0:0:0:
283,17,110626,6,0,L|300:151,2,136,2|8|0,3:2|2:0|3:0,0:0:0:0:
92,119,111469,1,8,2:0:0:0:
154,199,111638,1,8,3:0:0:0:
189,102,111806,1,4,3:0:0:0:
57,216,111975,6,0,L|43:310,3,85,6|0|2|0,2:0|0:0|2:0|0:0,0:0:0:0:
174,384,113323,2,0,L|160:290,3,85,2|2|2|2,2:0|2:0|2:0|2:0,0:0:0:0:
291,216,114671,2,0,L|277:310,3,85,2|2|2|2,2:0|2:0|2:0|2:0,0:0:0:0:
361,371,116020,2,0,P|402:383|443:371,1,85,2|2,0:0|2:0,0:0:0:0:
409,237,116694,2,0,L|402:284,2,42.5,2|2|2,2:0|2:0|2:0,0:0:0:0:
424,119,117368,6,0,P|456:110|489:117,1,68,10|8,3:2|2:0,0:0:0:0:
336,82,117705,2,0,P|352:52|380:34,1,68,8|8,3:2|2:0,0:0:0:0:
247,118,118042,2,0,P|238:85|245:52,1,68,8|8,3:2|2:0,0:0:0:0:
209,206,118379,2,0,P|179:189|161:161,1,68,8|8,3:2|2:0,0:0:0:0:
290,311,118716,5,8,3:2:0:0:
315,199,118885,1,8,2:0:0:0:
391,329,119053,1,8,3:2:0:0:
416,217,119222,1,8,2:0:0:0:
192,293,119390,2,0,L|202:373,1,76.4999976654053,10|8,3:2|2:0,0:0:0:0:
86,213,119727,2,0,L|77:289,1,76.4999976654053,10|8,3:2|2:0,0:0:0:0:
172,73,120064,5,10,3:2:0:0:
27,142,120233,1,8,2:0:0:0:
100,4,120402,1,8,3:2:0:0:
295,187,120570,1,10,2:0:0:0:
232,1,120739,1,8,3:2:0:0:
169,193,120907,1,8,2:0:0:0:
355,96,121076,2,0,L|340:7,1,85,10|8,3:2|2:0,0:0:0:0:
169,193,121413,5,8,3:2:0:0:
382,257,121581,1,8,2:0:0:0:
231,95,121750,1,10,3:2:0:0:
280,304,121918,1,10,2:0:0:0:
355,96,122087,2,0,P|391:88|428:95,2,76.4999976654053,2|2|14,3:2|3:2|2:0,0:0:0:0:
169,193,122761,6,0,B|245:160|239:232|315:197,1,152.999995330811,6|8,3:2|2:0,0:0:0:0:
67,259,123267,2,0,B|45:160|45:160|81:122,1,152.999995330811,2|0,3:2|3:0,0:0:0:0:
265,60,123772,2,0,P|191:70|136:21,2,152.999995330811,14|2|8,2:0|3:2|2:0,0:0:0:0:
365,0,124615,1,2,3:2:0:0:
433,149,124784,2,0,L|509:141,1,76.4999976654053,2|2,2:0|3:2,0:0:0:0:
288,188,125121,1,10,2:0:0:0:
354,89,125289,1,2,2:0:0:0:
461,253,125458,6,0,P|398:293|327:273,1,152.999995330811,2|10,3:2|2:0,0:0:0:0:
186,365,125963,2,0,L|269:355,1,76.4999976654053,2|2,3:2|2:0,0:0:0:0:
175,212,126300,1,0,3:2:0:0:
66,375,126469,2,0,L|47:223,1,152.999995330811,14|0,2:0|3:0,0:0:0:0:
0,121,126975,5,8,3:0:0:0:
84,52,127143,2,0,P|106:82|113:119,1,76.4999976654053,8|4,2:0|3:0,0:0:0:0:
175,212,127480,1,0,0:0:0:0:
230,88,127649,1,0,3:0:0:0:
289,213,127817,2,0,P|326:223|363:213,1,76.4999976654053,8|0,2:0|0:0,0:0:0:0:
485,75,128154,6,0,B|449:113|449:113|471:212,1,152.999995330811,6|8,3:2|2:0,0:0:0:0:
498,325,128660,2,0,B|422:292|428:364|352:329,1,152.999995330811,2|0,3:2|3:0,0:0:0:0:
236,178,129166,2,0,P|307:162|361:212,2,152.999995330811,14|2|8,2:0|3:2|2:0,0:0:0:0:
144,245,130008,1,2,3:2:0:0:
245,364,130177,2,0,L|254:283,1,76.4999976654053,2|0,2:0|3:0,0:0:0:0:
135,168,130514,2,0,L|144:249,1,76.4999976654053,10|2,2:0|2:0,0:0:0:0:
193,59,130851,6,0,L|40:75,1,152.999995330811,2|10,3:2|2:0,0:0:0:0:
284,118,131357,2,0,P|298:83|297:45,1,76.4999976654053,2|2,3:2|2:0,0:0:0:0:
233,202,131694,1,0,3:0:0:0:
400,84,131862,2,0,B|454:53|506:87|506:87|480:93|472:107,1,152.999995330811,14|8,2:0|2:0,0:0:0:0:
346,216,132368,5,4,3:0:0:0:
425,321,132536,2,0,L|513:310,1,76.4999976654053,0|8,3:0|2:0,0:0:0:0:
449,205,132873,1,0,0:0:0:0:
327,330,133042,1,0,3:0:0:0:
270,206,133211,2,0,L|358:217,1,76.4999976654053,12|0,2:0|0:0,0:0:0:0:
178,338,133548,6,0,P|138:274|158:203,1,152.999995330811,6|8,3:2|2:0,0:0:0:0:
255,69,134053,2,0,B|291:107|291:107|269:206,1,152.999995330811,2|0,3:2|3:0,0:0:0:0:
149,98,134559,2,0,B|92:88|92:88|54:110|54:110|3:100,2,152.999995330811,14|2|8,2:0|3:2|2:0,0:0:0:0:
255,69,135402,1,2,3:2:0:0:
342,203,135570,2,0,P|305:214|269:204,1,76.4999976654053,2|2,2:0|3:2,0:0:0:0:
401,102,135907,1,10,2:0:0:0:
466,205,136076,1,2,2:0:0:0:
512,18,136244,6,0,L|359:5,1,152.999995330811,2|10,3:2|2:0,0:0:0:0:
217,115,136750,2,0,L|293:108,1,76.4999976654053,2|2,3:2|2:0,0:0:0:0:
155,206,137087,1,2,3:2:0:0:
118,51,137256,2,0,L|41:44,1,76.4999976654053,14|0,2:0|0:0,0:0:0:0:
155,206,137593,5,0,3:0:0:0:
2,141,137761,1,8,2:0:0:0:
19,295,137930,1,8,2:0:0:0:
96,136,138098,1,0,3:0:0:0:
120,294,138267,2,0,P|156:303|193:294,1,76.4999976654053,2|0,2:0|3:0,0:0:0:0:
292,146,138604,2,0,P|265:172|254:209,1,76.4999976654053,10|0,2:0|0:0,0:0:0:0:
424,366,138941,38,1,B|499:427|586:333|499:213|396:270|433:316|356:369|281:316,1,374.000011413575,4|0,3:2|0:0,0:0:0:0:
333,184,141300,6,0,L|340:240,1,46.7500014266968,2|2,2:0|2:0,0:0:0:0:
155,120,141638,5,8,2:0:0:0:
295,93,141806,1,8,2:0:0:0:
93,199,141975,1,8,2:0:0:0:
233,226,142143,1,8,2:0:0:0:
147,30,142312,2,0,L|50:19,1,85,8|8,2:0|2:0,0:0:0:0:
295,93,142649,2,0,L|392:82,1,85,8|8,2:0|2:0,0:0:0:0:
252,318,142986,5,8,2:0:0:0:
194,139,143154,1,8,2:0:0:0:
357,216,143323,1,8,2:0:0:0:
173,270,143491,1,8,2:0:0:0:
295,93,143660,1,8,2:0:0:0:
342,305,143829,1,8,2:0:0:0:
123,29,144334,6,0,P|108:70|107:114,1,89.2499972763062,6|0,3:2|0:0,0:0:0:0:
28,165,144587,2,0,P|44:206|45:250,1,89.2499972763062,2|0,2:0|0:0,0:0:0:0:
71,334,144840,1,2,3:2:0:0:
155,216,145008,2,0,L|249:228,1,89.2499972763062,2|0,2:0|3:2,0:0:0:0:
331,182,145261,2,0,P|343:224|340:268,1,89.2499972763062,2|0,2:0|0:0,0:0:0:0:
258,321,145514,1,2,2:0:0:0:
274,104,145682,6,0,P|315:89|359:95,1,89.2499972763062,2|0,3:2|0:0,0:0:0:0:
439,150,145935,2,0,L|451:244,1,89.2499972763062,2|0,2:0|0:0,0:0:0:0:
420,330,146188,1,2,3:2:0:0:
258,321,146357,2,0,B|165:285|183:367|87:329,1,178.499994552612,2|8,2:0|2:0,0:0:0:0:
94,213,146862,1,2,2:0:0:0:
278,137,147031,6,0,L|295:238,1,89.2499972763062,2|0,3:2|0:0,0:0:0:0:
183,53,147368,2,0,L|166:154,1,89.2499972763062,10|0,2:0|3:2,0:0:0:0:
381,53,147705,2,0,P|341:32|297:36,1,89.2499972763062,2|0,2:0|3:2,0:0:0:0:
421,185,148042,1,10,2:0:0:0:
495,52,148211,1,2,2:0:0:0:
316,140,148379,6,0,L|302:281,2,133.874995914459,2|2|2,3:2|2:0|3:2,0:0:0:0:
504,267,149053,2,0,P|462:280|419:268,1,89.2499972763062,2|0,2:0|3:2,0:0:0:0:
258,357,149390,2,0,P|299:370|342:358,1,89.2499972763062,8|0,2:0|0:0,0:0:0:0:
198,211,149727,6,0,B|138:232|84:213|84:213|115:228|127:256,1,178.499994552612,2|8,3:2|2:0,0:0:0:0:
0,62,150233,2,0,B|67:52|67:52|107:76|107:76|171:65,1,178.499994552612,2|0,3:2|3:2,0:0:0:0:
283,97,150739,2,0,P|284:51|270:9,1,89.2499972763062,10|0,2:0|0:0,0:0:0:0:
402,183,151076,6,0,P|399:94|424:8,1,178.499994552612,2|8,3:2|2:0,0:0:0:0:
281,194,151581,2,0,P|197:215|129:162,1,178.499994552612,2|0,3:2|3:2,0:0:0:0:
59,381,152087,1,10,2:0:0:0:
201,302,152256,1,0,0:0:0:0:
32,140,152424,6,0,B|-12:175|-12:175|18:293,1,178.499994552612,2|8,3:2|2:0,0:0:0:0:
113,71,152930,2,0,B|152:35|199:50|199:50|225:88|273:81,1,178.499994552612,2|0,3:2|3:2,0:0:0:0:
410,129,153435,2,0,L|399:17,1,89.2499972763062,8|0,2:0|0:0,0:0:0:0:
223,189,153772,5,2,3:2:0:0:
402,223,153941,1,0,0:0:0:0:
274,81,154109,1,10,2:0:0:0:
299,274,154278,1,0,3:2:0:0:
495,128,154447,2,0,P|453:117|410:128,1,89.2499972763062,2|0,2:0|3:2,0:0:0:0:
470,316,154784,2,0,P|501:285|513:242,1,89.2499972763062,10|0,2:0|0:0,0:0:0:0:
299,274,155121,6,0,P|257:289|202:274,1,89.2499972763062,6|0,3:2|0:0,0:0:0:0:
149,223,155373,2,0,P|107:208|52:223,1,89.2499972763062,2|0,2:0|0:0,0:0:0:0:
10,288,155626,1,2,3:2:0:0:
0,147,155795,2,0,L|10:47,1,89.2499972763062,2|0,2:0|3:2,0:0:0:0:
99,0,156048,2,0,L|109:100,1,89.2499972763062,2|0,2:0|0:0,0:0:0:0:
190,139,156300,1,2,2:0:0:0:
314,63,156469,6,0,P|274:43|230:46,1,89.2499972763062,2|0,3:2|0:0,0:0:0:0:
289,152,156722,2,0,P|334:155|373:135,1,89.2499972763062,2|0,2:0|0:0,0:0:0:0:
435,62,156975,1,2,3:2:0:0:
466,187,157143,2,0,L|445:382,1,178.499994552612,2|8,2:0|2:0,0:0:0:0:
339,277,157649,1,2,2:0:0:0:
243,360,157817,6,0,P|201:372|157:360,1,89.2499972763062,2|0,3:2|0:0,0:0:0:0:
158,188,158154,2,0,P|189:218|200:262,1,89.2499972763062,10|0,2:0|3:2,0:0:0:0:
52,348,158491,2,0,P|62:305|94:273,1,89.2499972763062,2|0,2:0|3:2,0:0:0:0:
263,155,158829,1,10,2:0:0:0:
131,72,158997,1,2,2:0:0:0:
200,261,159166,6,0,B|264:279|264:279|328:259,2,133.874995914459,2|2|2,3:2|2:0|3:2,0:0:0:0:
59,171,159840,2,0,L|72:267,1,89.2499972763062,2|0,2:0|3:2,0:0:0:0:
215,77,160177,2,0,P|173:62|130:71,1,89.2499972763062,8|0,2:0|0:0,0:0:0:0:
316,156,160514,6,0,B|346:38|346:38|302:3,1,178.499994552612,2|8,3:2|2:0,0:0:0:0:
229,202,161020,2,0,P|294:257|377:234,1,178.499994552612,2|0,3:2|3:2,0:0:0:0:
101,155,161525,2,0,L|110:245,1,89.2499972763062,10|0,2:0|0:0,0:0:0:0:
211,349,161862,6,0,B|118:313|136:395|40:357,1,178.499994552612,2|8,3:2|2:0,0:0:0:0:
109,243,162368,1,0,3:2:0:0:
318,323,162536,2,0,P|318:278|299:238,1,89.2499972763062,2|0,2:0|3:2,0:0:0:0:
145,138,162873,1,10,2:0:0:0:
209,321,163042,1,0,0:0:0:0:
282,137,163211,6,0,B|375:101|357:183|453:145,1,178.499994552612,6|10,3:2|2:0,0:0:0:0:
212,50,163716,2,0,P|169:126|198:207,1,178.499994552612,2|2,3:2|3:2,0:0:0:0:
380,323,164222,1,10,2:0:0:0:
315,219,164390,1,2,2:0:0:0:
193,361,164559,6,0,P|235:372|281:360,1,89.2499972763062,2|2,3:2|2:0,0:0:0:0:
99,289,164896,2,0,P|57:300|11:288,1,89.2499972763062,8|2,2:0|2:0,0:0:0:0:
130,161,165233,1,8,2:0:0:0:
219,261,165402,1,10,2:0:0:0:
219,261,165486,1,8,2:0:0:0:
219,261,165570,1,10,2:0:0:0:
31,176,165739,1,8,2:0:0:0:
217,98,165907,6,0,B|276:59|337:96|337:96|312:103|300:117,1,170,6|8,3:2|2:0,0:0:0:0:
364,199,166413,1,2,2:0:0:0:
466,94,166581,2,0,L|477:180,1,85,2|0,3:2|0:0,0:0:0:0:
353,283,166918,2,0,L|364:197,1,85,8|2,2:0|2:0,0:0:0:0:
494,286,167256,5,2,3:2:0:0:
391,366,167424,2,0,P|350:378|309:367,1,85,2|8,2:0|2:0,0:0:0:0:
150,278,167761,2,0,P|190:289|232:278,1,85,2|0,2:0|3:2,0:0:0:0:
128,175,168098,1,2,2:0:0:0:
49,365,168267,2,0,L|40:280,1,85,10|0,2:0|0:0,0:0:0:0:
169,81,168604,6,0,B|81:44|96:124|8:88,1,170,2|8,3:2|2:0,0:0:0:0:
237,167,169109,1,2,2:0:0:0:
264,33,169278,2,0,P|304:21|346:31,1,85,2|0,3:2|0:0,0:0:0:0:
403,203,169615,2,0,P|372:174|360:133,1,85,8|2,2:0|2:0,0:0:0:0:
495,134,169952,5,2,3:2:0:0:
453,297,170121,2,0,L|354:305,1,85,2|8,2:0|2:0,0:0:0:0:
191,207,170458,2,0,L|290:215,1,85,2|0,2:0|3:2,0:0:0:0:
360,133,170795,1,2,2:0:0:0:
264,33,170963,2,0,P|243:69|239:111,1,85,10|0,2:0|0:0,0:0:0:0:
441,34,171300,6,0,B|482:71|482:71|458:183,1,170,2|8,3:2|2:0,0:0:0:0:
401,300,171806,1,2,2:0:0:0:
334,187,171975,2,0,P|293:177|252:186,1,85,2|0,3:2|0:0,0:0:0:0:
249,352,172312,2,0,P|278:321|290:281,1,85,8|2,2:0|2:0,0:0:0:0:
142,121,172649,6,0,B|133:183|133:183|148:217|148:217|138:286,1,170,2|8,3:2|2:0,0:0:0:0:
238,87,173154,1,2,2:0:0:0:
30,36,173323,2,0,L|40:124,2,85,2|2|10,3:2|2:0|2:0,0:0:0:0:
142,121,173829,1,2,2:0:0:0:
43,216,173997,6,0,P|14:293|48:369,1,170,2|8,3:2|2:0,0:0:0:0:
134,284,174503,1,2,2:0:0:0:
220,367,174671,2,0,P|260:377|301:367,1,85,2|0,3:2|0:0,0:0:0:0:
301,204,175008,2,0,P|272:233|260:274,1,85,8|2,2:0|2:0,0:0:0:0:
512,275,175345,6,0,B|473:240|427:255|427:255|402:292|355:285,1,170,2|8,3:2|2:0,0:0:0:0:
301,204,175851,1,0,0:0:0:0:
425,70,176020,2,0,L|433:155,1,85,0|0,3:2|0:0,0:0:0:0:
309,78,176357,1,8,2:0:0:0:
287,79,176441,1,8,2:0:0:0:
266,81,176525,1,8,2:0:0:0:
245,83,176609,1,8,2:0:0:0:
224,85,176694,6,0,B|159:76|159:76|122:95|122:95|60:85,1,170,2|8,3:2|2:0,0:0:0:0:
48,229,177199,1,2,2:0:0:0:
174,188,177368,2,0,B|213:247|176:308|176:308|169:283|155:271,1,170,2|8,3:2|2:0,0:0:0:0:
96,373,177873,1,2,2:0:0:0:
278,350,178042,6,0,B|366:313|351:393|439:357,1,170,2|8,3:2|2:0,0:0:0:0:
512,262,178548,1,2,2:0:0:0:
425,182,178716,2,0,P|403:218|400:260,1,85,2|2,3:2|2:0,0:0:0:0:
280,99,179053,2,0,P|301:135|304:177,1,85,10|2,2:0|2:0,0:0:0:0:
176,323,179390,6,0,B|152:211|152:211|193:174,1,170,2|8,3:2|2:0,0:0:0:0:
280,99,179896,1,2,2:0:0:0:
60,41,180064,2,0,L|42:212,1,170,2|8,3:2|2:0,0:0:0:0:
64,330,180570,1,2,2:0:0:0:
259,252,180739,6,0,L|346:261,1,85,2|0,3:2|0:0,0:0:0:0:
463,350,181076,2,0,L|376:359,1,85,8|0,2:0|0:0,0:0:0:0:
475,131,181413,1,0,3:2:0:0:
453,247,181581,1,8,2:0:0:0:
364,145,181750,1,8,3:0:0:0:
343,260,181918,1,0,0:0:0:0:
271,77,182087,6,0,B|195:47|206:118|124:86,1,152.999995330811,2|8,3:2|2:0,0:0:0:0:
226,246,182593,2,0,P|241:211|241:173,1,76.4999976654053,2|0,2:0|3:2,0:0:0:0:
124,180,182930,1,0,3:0:0:0:
116,335,183098,2,0,L|201:339,1,76.4999976654053,10|0,2:0|0:0,0:0:0:0:
42,250,183435,6,0,B|3:290|3:290|29:401,2,152.999995330811,2|10|2,3:2|2:0|3:2,0:0:0:0:
198,110,184278,1,8,2:0:0:0:
140,254,184447,1,10,2:0:0:0:
79,112,184615,1,8,2:0:0:0:
256,192,184784,1,6,2:0:0:0:
256,192,184868,12,0,187143,0:0:0:0:
330,114,187480,6,0,P|364:97|401:102,2,76.4999976654053,2|2|2,2:0|2:0|2:0,0:0:0:0:
378,195,188154,2,0,P|413:207|436:237,2,76.4999976654053,2|2|2,2:0|2:0|2:0,0:0:0:0:
354,286,188829,2,0,P|370:320|365:357,2,76.4999976654053,2|2|2,2:0|2:0|2:0,0:0:0:0:
272,332,189503,2,0,P|223:346|175:332,1,101.999996887207,2|0,2:0|0:0,0:0:0:0:
86,241,190008,5,2,2:0:0:0:
86,241,190177,2,0,B|61:270|61:270|75:334,1,101.999996887207,2|2,2:0|2:0,0:0:0:0:
191,149,190851,2,0,B|216:178|216:178|202:242,1,101.999996887207,2|2,2:0|2:0,0:0:0:0:
105,84,191525,2,0,B|90:98|87:117|87:117|80:99|65:88,2,76.4999976654053,2|2|2,2:0|2:0|2:0,0:0:0:0:
213,40,192199,2,0,B|263:20|261:61|311:41,1,101.999996887207,2|0,2:0|0:0,0:0:0:0:
442,1,192873,6,0,L|429:117,1,101.999996887207,2|0,2:0|0:0,0:0:0:0:
346,151,193379,2,0,L|359:267,1,101.999996887207,2|0,2:0|0:0,0:0:0:0:
440,310,193885,2,0,L|507:317,1,50.9999984436036
354,360,194222,6,0,P|306:376|259:361,1,101.999996887207,2|2,2:0|0:0,0:0:0:0:
138,258,194727,2,0,P|185:274|232:259,1,101.999996887207,2|0,2:0|0:0,0:0:0:0:
174,120,195233,2,0,L|181:187,1,50.9999984436036,2|0,0:0|0:0,0:0:0:0:
75,69,195570,6,0,L|63:170,1,101.999996887207,2|2,2:0|2:0,0:0:0:0:
3,250,196076,2,0,L|14:351,1,101.999996887207,2|2,2:0|2:0,0:0:0:0:
110,372,196581,2,0,P|135:376|160:372,1,50.9999984436036,2|2,2:0|2:0,0:0:0:0:
255,282,196918,6,0,B|280:311|280:311|266:375,1,101.999996887207,2|2,2:0|2:0,0:0:0:0:
141,281,197424,2,0,B|128:218|128:218|153:189,1,101.999996887207,2|2,2:0|2:0,0:0:0:0:
250,136,197930,2,0,L|257:203,1,50.9999984436036,2|2,2:0|2:0,0:0:0:0:
168,83,198267,6,0,P|178:46|205:20,2,76.4999976654053,2|2|2,2:0|2:0|2:0,0:0:0:0:
163,180,198941,2,0,P|126:189|90:178,2,76.4999976654053,2|2|2,2:0|2:0|2:0,0:0:0:0:
250,136,199615,2,0,P|276:163|285:199,2,76.4999976654053,2|2|2,2:0|2:0|2:0,0:0:0:0:
237,288,200289,2,0,P|284:304|331:289,1,101.999996887207,2|0,2:0|0:0,0:0:0:0:
396,200,200795,1,2,2:0:0:0:
396,200,200963,6,0,L|501:188,1,101.999996887207,2|2,2:0|2:0,0:0:0:0:
394,95,201638,2,0,L|289:83,1,101.999996887207,2|2,2:0|2:0,0:0:0:0:
191,114,202312,2,0,P|181:77|192:41,2,76.4999976654053,2|2|2,2:0|2:0|2:0,0:0:0:0:
264,179,202986,2,0,P|280:226|265:273,1,101.999996887207,2|0,2:0|0:0,0:0:0:0:
38,237,203660,6,0,B|100:211|94:263|152:237,1,118.999996368408,2|0,2:0|0:0,0:0:0:0:
214,93,204166,2,0,P|156:94|128:143,1,118.999996368408,2|0,2:0|0:0,0:0:0:0:
255,237,204671,2,0,L|264:178,1,59.4999981842042,2|2,2:0|2:0,0:0:0:0:
363,65,205008,6,0,L|380:182,1,118.999996368408,2|2,2:0|2:0,0:0:0:0:
445,261,205514,1,0,0:0:0:0:
445,260,205682,2,0,P|394:289|337:279,1,118.999996368408,2|2,2:0|2:0,0:0:0:0:
255,237,206188,1,0,0:0:0:0:
164,348,206357,5,0,3:0:0:0:
164,348,206694,1,8,2:0:0:0:
105,273,206862,1,8,2:0:0:0:
38,334,207031,1,8,2:0:0:0:
76,188,207199,1,8,2:0:0:0:
208,263,207368,1,10,2:0:0:0:
131,112,207536,1,8,2:0:0:0:
323,259,207705,5,10,2:0:0:0:
240,84,207873,1,8,2:0:0:0:
208,263,208042,1,8,2:0:0:0:
346,84,208211,1,8,2:0:0:0:
169,184,208379,1,8,2:0:0:0:
357,258,208548,1,8,3:2:0:0:
60,176,209053,6,0,L|48:275,1,89.2499972763062,6|0,3:2|0:0,0:0:0:0:
80,341,209306,2,0,P|123:352|166:340,1,89.2499972763062,2|0,2:0|0:0,0:0:0:0:
208,263,209559,1,2,3:2:0:0:
346,347,209727,2,0,L|355:258,1,89.2499972763062,2|0,2:0|3:2,0:0:0:0:
300,190,209980,2,0,L|290:101,1,89.2499972763062,2|0,2:0|0:0,0:0:0:0:
228,30,210233,1,2,2:0:0:0:
109,188,210402,6,0,P|65:192|24:175,1,89.2499972763062,2|0,3:2|0:0,0:0:0:0:
42,86,210654,2,0,P|85:81|126:98,1,89.2499972763062,2|0,2:0|0:0,0:0:0:0:
199,159,210907,1,2,3:2:0:0:
323,30,211076,2,0,B|416:-6|398:76|494:38,1,178.499994552612,2|8,2:0|2:0,0:0:0:0:
389,167,211581,1,2,2:0:0:0:
207,128,211750,6,0,P|249:139|292:126,1,89.2499972763062,2|0,3:2|0:0,0:0:0:0:
147,43,212087,2,0,P|116:74|105:117,1,89.2499972763062,10|0,2:0|3:2,0:0:0:0:
192,277,212424,2,0,P|180:234|148:203,1,89.2499972763062,2|0,2:0|3:2,0:0:0:0:
0,364,212761,1,10,2:0:0:0:
48,203,212930,1,2,2:0:0:0:
135,357,213098,6,0,P|196:378|256:351,2,133.874995914459,2|2|2,3:2|2:0|3:2,0:0:0:0:
148,203,213772,2,0,L|238:190,1,89.2499972763062,2|0,2:0|3:2,0:0:0:0:
404,273,214109,2,0,L|314:260,1,89.2499972763062,8|0,2:0|0:0,0:0:0:0:
218,93,214447,6,0,B|268:74|302:106|302:106|331:65|377:69,1,178.499994552612,2|8,3:2|2:0,0:0:0:0:
481,155,214952,2,0,B|509:36|509:36|466:-1,1,178.499994552612,2|0,3:2|3:2,0:0:0:0:
376,174,215458,2,0,L|389:264,1,89.2499972763062,10|0,2:0|0:0,0:0:0:0:
228,349,215795,6,0,B|267:313|314:328|314:328|340:366|388:359,1,178.499994552612,2|8,3:2|2:0,0:0:0:0:
191,243,216300,2,0,P|120:291|121:377,1,178.499994552612,2|0,3:2|3:2,0:0:0:0:
49,171,216806,1,10,2:0:0:0:
0,299,216975,1,0,0:0:0:0:
157,139,217143,6,0,B|250:103|232:185|328:147,1,178.499994552612,2|8,3:2|2:0,0:0:0:0:
453,25,217649,2,0,L|435:202,1,178.499994552612,2|0,3:2|3:2,0:0:0:0:
340,21,218154,2,0,P|298:10|255:23,1,89.2499972763062,8|0,2:0|0:0,0:0:0:0:
68,174,218491,5,2,3:2:0:0:
161,15,218660,1,0,0:0:0:0:
184,171,218829,1,10,2:0:0:0:
50,19,218997,1,0,3:2:0:0:
299,99,219166,2,0,L|308:188,1,89.2499972763062,2|0,2:0|3:2,0:0:0:0:
175,259,219503,2,0,L|184:170,1,89.2499972763062,10|0,2:0|0:0,0:0:0:0:
360,334,219840,6,0,P|318:345|275:334,1,89.2499972763062,6|0,3:2|0:0,0:0:0:0:
279,238,220093,2,0,P|321:227|364:238,1,89.2499972763062,2|0,2:0|0:0,0:0:0:0:
452,283,220345,1,2,3:2:0:0:
477,127,220514,2,0,L|388:138,1,89.2499972763062,2|0,2:0|3:2,0:0:0:0:
304,93,220767,2,0,L|215:81,1,89.2499972763062,2|0,2:0|0:0,0:0:0:0:
142,145,221020,1,2,2:0:0:0:
49,2,221188,6,0,P|64:43|64:88,1,89.2499972763062,2|0,3:2|0:0,0:0:0:0:
18,161,221441,2,0,P|1:202|1:246,1,89.2499972763062,2|0,2:0|0:0,0:0:0:0:
55,326,221694,1,2,3:2:0:0:
287,239,221862,2,0,B|194:203|212:285|116:247,1,178.499994552612,2|8,2:0|2:0,0:0:0:0:
233,113,222368,1,2,2:0:0:0:
385,169,222536,6,0,P|384:124|370:82,1,89.2499972763062,2|0,3:2|0:0,0:0:0:0:
495,261,222873,2,0,P|495:216|509:174,1,89.2499972763062,10|0,2:0|3:2,0:0:0:0:
301,281,223211,2,0,L|399:271,1,89.2499972763062,2|0,2:0|3:2,0:0:0:0:
205,221,223548,1,10,2:0:0:0:
297,379,223716,1,2,2:0:0:0:
195,193,223885,6,0,B|127:167|137:228|67:198,2,133.874995914459,2|2|2,3:2|2:0|3:2,0:0:0:0:
130,21,224559,2,0,P|102:55|97:99,1,89.2499972763062,2|0,2:0|3:2,0:0:0:0:
298,95,224896,2,0,L|200:85,1,89.2499972763062,8|0,2:0|0:0,0:0:0:0:
325,200,225233,6,0,L|502:181,1,178.499994552612,2|8,3:2|2:0,0:0:0:0:
280,308,225739,2,0,B|241:272|194:287|194:287|168:325|120:318,1,178.499994552612,2|0,3:2|3:2,0:0:0:0:
2,232,226244,2,0,L|10:320,1,89.2499972763062,10|0,2:0|0:0,0:0:0:0:
97,65,226581,6,0,B|140:102|140:102|112:221,1,178.499994552612,2|8,3:2|2:0,0:0:0:0:
13,131,227087,1,0,3:2:0:0:
243,43,227256,2,0,L|251:131,1,89.2499972763062,2|0,2:0|3:2,0:0:0:0:
449,193,227593,1,10,2:0:0:0:
359,31,227761,1,0,0:0:0:0:
320,214,227930,6,0,P|240:240|166:182,1,178.499994552612,6|10,3:2|2:0,0:0:0:0:
11,342,228435,2,0,B|104:306|86:388|182:350,1,178.499994552612,2|2,3:2|3:2,0:0:0:0:
59,150,228941,2,0,P|35:187|32:231,1,89.2499972763062,10|2,2:0|2:0,0:0:0:0:
259,79,229278,6,0,B|194:36|138:79|138:79|166:84|182:100,1,178.499994552612,2|8,3:2|2:0,0:0:0:0:
267,233,229784,1,2,2:0:0:0:
361,88,229952,1,8,2:0:0:0:
361,88,230036,1,8,2:0:0:0:
361,88,230121,1,10,2:0:0:0:
183,176,230289,1,10,2:0:0:0:
369,237,230458,1,8,2:0:0:0:
369,237,230542,1,8,2:0:0:0:
369,237,230626,6,0,P|449:252|513:197,1,170,4|10,3:2|2:2,0:0:0:0:
273,133,231132,1,0,3:2:0:0:
209,323,231300,2,0,L|294:331,1,85,2|0,2:2|3:2,0:0:0:0:
123,252,231638,2,0,L|38:260,1,85,10|0,2:2|0:0,0:0:0:0:
17,134,231975,6,0,B|82:125|82:125|119:144|119:144|181:135,1,170,2|8,3:2|2:2,0:0:0:0:
267,24,232480,2,0,B|308:67|308:67|282:175,1,170,2|2,3:2|3:2,0:0:0:0:
217,338,232986,1,10,2:2:0:0:
179,216,233154,1,2,0:2:0:0:
316,286,233323,6,0,L|501:268,1,170,2|10,3:2|2:2,0:0:0:0:
443,125,233829,2,0,P|365:149|302:97,1,170,2|2,3:2|3:2,0:0:0:0:
214,9,234334,1,10,2:2:0:0:
159,120,234503,1,2,0:2:0:0:
106,12,234671,6,0,P|65:1|25:13,1,85,2|0,3:2|0:0,0:0:0:0:
23,175,235008,2,0,P|52:145|62:104,1,85,10|2,2:2|3:2,0:0:0:0:
169,281,235345,2,0,P|139:251|129:210,1,85,0|2,0:0|3:2,0:0:0:0:
266,299,235682,2,0,P|255:339|224:368,1,85,10|2,2:2|0:2,0:0:0:0:
240,199,236020,6,0,B|328:162|313:242|401:206,1,170,2|10,3:2|2:2,0:0:0:0:
496,111,236525,1,0,3:2:0:0:
382,29,236694,2,0,L|370:115,1,85,2|0,2:2|3:2,0:0:0:0:
507,195,237031,2,0,L|495:109,1,85,10|0,2:2|0:0,0:0:0:0:
371,312,237368,6,0,P|445:343|514:294,1,170,2|8,3:2|2:2,0:0:0:0:
293,233,237873,2,0,B|252:276|252:276|278:384,1,170,2|2,3:2|3:2,0:0:0:0:
160,221,238379,1,10,2:2:0:0:
105,316,238548,1,2,0:2:0:0:
0,137,238716,6,0,L|168:115,1,170,2|10,3:2|2:2,0:0:0:0:
298,15,239222,2,0,P|275:95|304:173,1,170,2|2,3:2|3:2,0:0:0:0:
475,253,239727,1,10,2:2:0:0:
412,143,239896,1,2,0:2:0:0:
360,314,240064,6,0,B|295:305|295:305|258:324|258:324|196:314,1,170,2|10,3:2|2:2,0:0:0:0:
78,199,240570,2,0,B|38:259|78:311|78:311|82:285|99:268,1,170,6|2,3:2|3:2,0:0:0:0:
148,102,241076,1,10,2:2:0:0:
223,192,241244,1,2,0:2:0:0:
377,24,241413,6,0,B|289:-13|304:67|216:31,1,170,6|10,3:2|2:2,0:0:0:0:
223,192,241918,1,0,3:2:0:0:
347,123,242087,2,0,P|388:113|429:125,1,85,2|0,2:2|3:2,0:0:0:0:
427,283,242424,2,0,P|397:252|387:210,1,85,10|0,2:2|0:0,0:0:0:0:
323,343,242761,6,0,P|243:322|176:370,1,170,2|8,3:2|2:2,0:0:0:0:
53,365,243267,2,0,B|79:257|79:257|38:214,1,170,2|2,3:2|3:2,0:0:0:0:
112,135,243772,1,10,2:2:0:0:
186,235,243941,1,2,0:2:0:0:
247,55,244109,6,0,L|79:33,1,170,2|10,3:2|2:2,0:0:0:0:
311,146,244615,2,0,P|360:79|343:0,1,170,2|2,3:2|3:2,0:0:0:0:
512,146,245121,1,10,2:2:0:0:
454,37,245289,1,2,0:2:0:0:
384,222,245458,6,0,L|480:230,1,85,2|0,3:2|0:0,0:0:0:0:
310,303,245795,2,0,L|214:311,1,85,10|2,2:2|3:2,0:0:0:0:
196,132,246132,2,0,P|222:164|230:206,1,85,0|2,0:0|3:2,0:0:0:0:
76,276,246469,2,0,P|91:236|123:209,1,85,10|2,2:2|0:2,0:0:0:0:
230,36,246806,6,0,B|142:-1|157:79|69:43,1,170,2|10,3:2|2:2,0:0:0:0:
196,132,247312,1,0,3:2:0:0:
340,37,247480,2,0,L|351:121,1,85,2|0,2:2|3:2,0:0:0:0:
446,230,247817,2,0,P|464:192|460:150,1,85,10|0,2:2|0:0,0:0:0:0:
313,329,248154,6,0,B|378:320|378:320|415:339|415:339|477:329,1,170,2|8,3:2|2:2,0:0:0:0:
246,241,248660,2,0,P|193:304|210:384,1,170,2|2,3:2|3:2,0:0:0:0:
109,202,249166,1,10,2:2:0:0:
35,312,249334,1,2,0:2:0:0:
0,118,249503,6,0,L|168:96,1,170,2|10,3:2|2:2,0:0:0:0:
272,12,250008,2,0,B|313:55|313:55|287:163,1,170,2|2,3:2|3:2,0:0:0:0:
466,293,250514,1,10,2:2:0:0:
402,156,250682,1,2,0:2:0:0:
339,298,250851,6,0,B|251:261|266:341|178:305,1,170,2|10,3:2|2:2,0:0:0:0:
25,331,251357,2,0,B|42:347|47:373|47:373|85:319|43:261,1,170,10|2,2:2|3:2,0:0:0:0:
23,58,251862,6,0,L|33:141,1,76.4999976654053,8|0,3:0|0:0,0:0:0:0:
36,159,252199,2,0,B|136:214|248:161|248:161|391:100|322:-52|178:-52|111:94|248:161|248:161|370:111|424:114|482:153|482:153|420:178|399:240,1,1020,6|0,3:2|0:0,0:0:0:0:
