osu file format v14

[General]
AudioFilename: audio.mp3
AudioLeadIn: 0
PreviewTime: 68744
Countdown: 0
SampleSet: Soft
StackLeniency: 0.7
Mode: 0
LetterboxInBreaks: 0
WidescreenStoryboard: 0

[Editor]
Bookmarks: 25702,47276,68849,90422,101208,111995,117388,122781,144354,165927,184804,187500,206377,209073,230646,252219,257613
DistanceSpacing: 0.8
BeatDivisor: 4
GridSize: 8
TimelineZoom: 1.5

[Metadata]
Title:Golden Journey
TitleUnicode:ゴールデンジャーニー
Artist:yuikonnu
ArtistUnicode:ゆいこんぬ
Creator:sanairrt
Version:Airiesu's Extra
Source:
Tags:Astromi Mujina Airiesu yuiko primary utaite cover mel mer メル hatsune miku 初音ミク flower おかず vocaloid japanese female vocals pop j-pop jpop seasonal magic
BeatmapID:3129065
BeatmapSetID:1528682

[Difficulty]
HPDrainRate:5.5
CircleSize:4
OverallDifficulty:8
ApproachRate:9.2
SliderMultiplier:1.7
SliderTickRate:1

[Events]
//Background and Video events
0,0,"1116534.jpg",0,0
//Break Periods
//Storyboard Layer 0 (Background)
//Storyboard Layer 1 (Fail)
//Storyboard Layer 2 (Pass)
//Storyboard Layer 3 (Foreground)
//Storyboard Layer 4 (Overlay)
//Storyboard Sound Samples

[TimingPoints]
65,337.078651685393,4,2,1,70,1,0
402,-100,4,2,1,5,0,0
2761,-100,4,2,2,70,0,0
3772,-100,4,2,1,70,0,0
4362,-100,4,2,1,5,0,0
4447,-100,4,2,1,65,0,0
5373,-100,4,2,1,5,0,0
5458,-100,4,2,1,65,0,0
7059,-100,4,2,1,5,0,0
7143,-100,4,2,1,65,0,0
8407,-100,4,2,1,5,0,0
8491,-100,4,2,1,65,0,0
9756,-100,4,2,1,5,0,0
9840,-100,4,2,1,65,0,0
10767,-100,4,2,1,5,0,0
10851,-100,4,2,1,65,0,0
12452,-100,4,2,1,5,0,0
12536,-100,4,2,1,65,0,0
13800,-100,4,2,1,5,0,0
13885,-100,4,2,1,65,0,0
14306,-100,4,2,1,5,0,0
14390,-100,4,2,1,65,0,0
15149,-100,4,2,1,5,0,0
15233,-100,4,2,1,65,0,0
16160,-100,4,2,1,5,0,0
16244,-100,4,2,1,65,0,0
17845,-100,4,2,1,5,0,0
17930,-100,4,2,1,65,0,0
19194,-100,4,2,1,5,0,0
19278,-100,4,2,1,65,0,0
20542,-100,4,2,1,5,0,0
20626,-100,4,2,1,65,0,0
21553,-100,4,2,1,5,0,0
21638,-100,4,2,1,65,0,0
23239,-100,4,2,1,5,0,0
23323,-100,4,2,1,65,0,0
24587,-100,4,2,1,5,0,0
24671,-100,4,2,1,65,0,0
25345,-200,4,2,1,65,0,0
25598,-200,4,2,1,5,0,0
25682,-111.111111111111,4,2,1,60,0,0
51216,-111.111111111111,4,2,1,5,0,0
51300,-111.111111111111,4,2,1,60,0,0
56609,-111.111111111111,4,2,1,5,0,0
56694,-111.111111111111,4,2,1,60,0,0
63098,-200,4,2,1,60,0,0
63351,-200,4,2,1,5,0,0
63435,-100,4,2,1,65,0,0
67480,-200,4,2,1,55,0,0
68154,-200,4,2,1,40,0,0
68744,-200,4,2,1,5,0,0
68829,-95.2380952380952,4,2,1,80,0,1
71525,-95.2380952380952,4,2,1,80,0,1
78267,-95.2380952380952,4,2,2,80,0,1
79615,-95.2380952380952,4,2,1,80,0,1
87958,-95.2380952380952,4,2,1,5,0,1
88042,-95.2380952380952,4,2,1,80,0,1
90402,-100,4,2,1,65,0,1
90654,-100,4,2,1,5,0,0
90739,-100,4,2,1,65,0,0
91666,-100,4,2,1,5,0,0
91750,-100,4,2,1,65,0,0
93351,-100,4,2,1,5,0,0
93435,-100,4,2,1,65,0,0
94699,-100,4,2,1,5,0,0
94784,-100,4,2,1,65,0,0
96048,-100,4,2,1,5,0,0
96132,-100,4,2,1,65,0,0
97059,-100,4,2,1,5,0,0
97143,-100,4,2,1,65,0,0
98744,-100,4,2,1,5,0,0
98829,-100,4,2,1,65,0,0
100093,-100,4,2,1,5,0,0
100177,-100,4,2,1,65,0,0
100851,-200,4,2,1,65,0,0
101104,-200,4,2,1,5,0,0
101188,-111.111111111111,4,2,1,60,0,0
111975,-200,4,2,1,40,0,0
117284,-200,4,2,1,5,0,0
117367,-117.647058823529,4,2,1,45,0,0
118041,-111.111111111111,4,2,1,50,0,0
118716,-105.263157894737,4,2,1,55,0,0
119390,-100,4,2,1,60,0,0
120064,-95.2380952380952,4,2,1,65,0,0
120739,-90.9090909090909,4,2,1,70,0,0
121413,-86.9565217391304,4,2,1,75,0,0
122087,-83.3333333333333,4,2,1,80,0,0
122423,-83.3333333333333,4,2,1,65,0,0
122761,-111.111111111111,4,2,1,65,0,0
126722,-111.111111111111,4,2,1,5,0,0
126806,-111.111111111111,4,2,1,65,0,0
132115,-111.111111111111,4,2,1,5,0,0
132199,-111.111111111111,4,2,1,65,0,0
138604,-200,4,2,1,65,0,0
138857,-200,4,2,1,5,0,0
138941,-200,4,2,1,65,0,0
141300,-200,4,2,1,50,0,0
141638,-200,4,2,1,50,0,0
141975,-200,4,2,1,55,0,0
142312,-200,4,2,1,60,0,0
142649,-200,4,2,1,65,0,0
142986,-200,4,2,1,70,0,0
143323,-200,4,2,1,75,0,0
143660,-200,4,2,1,80,0,0
144334,-95.2380952380952,4,2,1,80,0,1
153772,-95.2380952380952,4,2,2,80,0,1
155121,-95.2380952380952,4,2,1,80,0,1
163463,-95.2380952380952,4,2,1,5,0,1
163548,-95.2380952380952,4,2,1,80,0,1
165907,-100,4,2,1,65,0,0
184784,-222.222222222222,4,2,1,50,0,0
187480,-133.333333333333,4,2,1,40,0,0
192873,-200,4,2,1,40,0,0
194222,-400,4,2,1,40,0,0
195570,-133.333333333333,4,2,1,40,0,0
206357,-133.333333333333,4,2,1,60,0,0
207368,-133.333333333333,4,2,1,70,0,0
208042,-133.333333333333,4,2,1,80,0,0
209053,-95.2380952380952,4,2,1,80,0,1
218491,-95.2380952380952,4,2,2,80,0,1
219840,-95.2380952380952,4,2,1,80,0,1
228182,-95.2380952380952,4,2,1,5,0,1
228267,-95.2380952380952,4,2,1,80,0,1
230626,-100,4,2,1,65,0,0
230879,-100,4,2,1,5,0,0
230963,-100,4,2,1,65,0,0
231890,-100,4,2,1,5,0,0
231975,-100,4,2,1,65,0,0
233576,-100,4,2,1,5,0,0
233660,-100,4,2,1,65,0,0
234924,-100,4,2,1,5,0,0
235008,-100,4,2,1,65,0,0
236272,-100,4,2,1,5,0,0
236357,-100,4,2,1,65,0,0
237284,-100,4,2,1,5,0,0
237368,-100,4,2,1,65,0,0
238969,-100,4,2,1,5,0,0
239053,-100,4,2,1,65,0,0
240317,-100,4,2,1,5,0,0
240402,-100,4,2,1,65,0,0
241666,-100,4,2,1,5,0,0
241750,-100,4,2,1,65,0,0
242677,-100,4,2,1,5,0,0
242761,-100,4,2,1,65,0,0
244362,-100,4,2,1,5,0,0
244447,-100,4,2,1,65,0,0
245711,-100,4,2,1,5,0,0
245795,-100,4,2,1,65,0,0
247059,-100,4,2,1,5,0,0
247143,-100,4,2,1,65,0,0
248070,-100,4,2,1,5,0,0
248154,-100,4,2,1,65,0,0
249756,-100,4,2,1,5,0,0
249840,-100,4,2,1,65,0,0
251104,-100,4,2,1,5,0,0
251188,-100,4,2,1,65,0,0
251862,-200,4,2,1,65,0,0
252115,-200,4,2,1,5,0,0
252199,-370.37037037037,4,2,1,50,0,0
252284,-400,4,2,1,50,0,0

[Colours]
Combo1 : 243,82,98
Combo2 : 253,161,136
Combo3 : 254,251,148
Combo4 : 255,168,52

[HitObjects]
256,192,402,12,0,2424,0:0:0:0:
26,73,2761,5,2,2:0:0:0:
34,81,3098,1,2,2:0:0:0:
42,89,3435,1,2,2:0:0:0:
49,95,3772,5,8,2:0:0:0:
69,91,3857,1,8,2:0:0:0:
90,88,3941,1,8,2:0:0:0:
111,85,4025,1,8,2:0:0:0:
130,81,4109,6,0,B|206:68|206:68|227:100|276:104,1,127.5,4|0,3:2|0:0,0:0:0:0:
316,121,4447,2,0,P|366:111|424:103,1,85,10|0,2:0|3:2,0:0:0:0:
264,195,4784,2,0,P|274:245|282:303,1,85,2|0,2:0|3:2,0:0:0:0:
185,150,5121,2,0,P|135:160|56:173,1,127.5,10|0,2:0|0:0,0:0:0:0:
0,222,5458,6,0,P|11:276|47:314,1,85,2|0,3:2|0:0,0:0:0:0:
195,235,5795,1,8,2:0:0:0:
122,155,5963,2,0,P|91:200|90:253,1,85,2|0,3:2|0:0,0:0:0:0:
252,380,6300,1,2,3:2:0:0:
306,193,6469,1,10,2:0:0:0:
177,271,6638,1,2,2:0:0:0:
402,273,6806,6,0,P|450:250|481:176,1,127.5,2|0,3:2|0:0,0:0:0:0:
478,163,7143,1,10,2:0:0:0:
350,37,7312,2,0,P|306:35|244:29,1,85,2|0,3:2|0:0,0:0:0:0:
165,161,7649,1,2,3:2:0:0:
307,121,7817,1,10,2:0:0:0:
184,14,7986,1,2,2:0:0:0:
165,161,8154,6,0,B|190:253|190:253|229:291,1,127.5,2|0,3:2|0:0,0:0:0:0:
239,287,8491,1,10,2:0:0:0:
94,222,8660,2,0,P|42:211|-1:203,1,85,2|0,3:2|0:0,0:0:0:0:
106,317,8997,1,2,3:2:0:0:
258,208,9166,1,10,2:0:0:0:
86,118,9334,1,2,2:0:0:0:
258,208,9503,6,0,P|331:201|395:199,1,127.5,2|0,3:2|0:0,0:0:0:0:
455,222,9840,2,0,P|466:152|478:113,1,85,10|0,2:0|3:2,0:0:0:0:
353,27,10177,2,0,P|362:68|367:110,1,85,2|0,2:0|3:2,0:0:0:0:
266,118,10514,2,0,P|202:105|113:92,1,127.5,10|0,2:0|0:0,0:0:0:0:
63,87,10851,6,0,P|52:27|76:-16,1,85,2|0,3:2|0:0,0:0:0:0:
184,142,11188,1,8,2:0:0:0:
67,243,11357,2,0,P|16:208|3:160,1,85,2|0,3:2|0:0,0:0:0:0:
207,277,11694,1,2,3:2:0:0:
74,346,11862,1,10,2:0:0:0:
88,164,12031,1,2,2:0:0:0:
207,277,12199,6,0,B|278:297|269:240|345:264,1,127.5,2|0,3:2|0:0,0:0:0:0:
355,275,12536,1,10,2:0:0:0:
223,117,12705,2,0,P|218:171|238:221,1,85,2|0,3:2|0:0,0:0:0:0:
315,346,13042,1,2,3:2:0:0:
379,178,13211,1,10,2:0:0:0:
226,200,13379,1,2,2:0:0:0:
440,324,13548,6,0,P|359:333|282:359,1,127.5,2|0,3:2|0:0,0:0:0:0:
302,359,13885,1,10,2:0:0:0:
108,151,14053,2,0,P|109:217|120:307,1,127.5,6|0,3:2|0:0,0:0:0:0:
118,303,14390,1,2,3:2:0:0:
15,211,14559,1,10,2:0:0:0:
226,200,14727,1,2,2:0:0:0:
15,211,14896,6,0,B|36:138|-8:144|31:58,1,127.5,6|0,3:2|0:0,0:0:0:0:
42,15,15233,2,0,P|88:34|131:33,1,85,10|0,2:0|3:2,0:0:0:0:
246,28,15570,2,0,L|221:119,1,85,2|0,2:0|3:2,0:0:0:0:
361,216,15907,2,0,P|351:157|283:127,1,127.5,10|0,2:0|0:0,0:0:0:0:
223,109,16244,6,0,L|214:207,1,85,2|0,3:2|0:0,0:0:0:0:
284,268,16581,1,8,2:0:0:0:
123,146,16750,2,0,L|132:244,1,85,2|0,3:2|0:0,0:0:0:0:
194,369,17087,1,2,3:2:0:0:
218,217,17256,1,10,2:0:0:0:
85,301,17424,1,2,2:0:0:0:
282,347,17593,6,0,L|435:331,1,127.5,2|0,3:2|0:0,0:0:0:0:
434,330,17930,1,10,2:0:0:0:
494,133,18098,2,0,P|472:175|412:193,1,85,2|0,3:2|0:0,0:0:0:0:
261,151,18435,1,2,3:2:0:0:
411,102,18604,1,10,2:0:0:0:
370,260,18772,1,2,2:0:0:0:
261,151,18941,6,0,B|181:140|213:184|111:161,1,127.5,2|0,3:2|0:0,0:0:0:0:
106,155,19278,1,10,2:0:0:0:
150,0,19447,2,0,L|164:99,1,85,2|0,3:2|0:0,0:0:0:0:
99,280,19784,1,2,3:2:0:0:
263,225,19952,1,10,2:0:0:0:
99,280,20121,1,2,2:0:0:0:
263,225,20289,6,0,P|335:210|424:208,1,127.5,2|0,3:2|0:0,0:0:0:0:
467,226,20626,2,0,P|496:184|496:141,1,85,10|0,2:0|3:2,0:0:0:0:
374,58,20963,2,0,P|395:104|433:125,1,85,2|0,2:0|3:2,0:0:0:0:
452,16,21300,2,0,P|386:22|292:33,1,127.5,10|0,2:0|0:0,0:0:0:0:
261,71,21638,6,0,P|208:72|164:47,1,85,2|0,3:2|0:0,0:0:0:0:
326,143,21975,1,8,2:0:0:0:
146,145,22143,2,0,P|107:108|94:59,1,85,2|0,3:2|0:0,0:0:0:0:
226,0,22480,1,2,3:2:0:0:
228,184,22649,1,10,2:0:0:0:
67,86,22817,1,2,2:0:0:0:
228,184,22986,6,0,B|280:180|280:180|311:193|311:193|371:186,1,127.5,2|0,3:2|0:0,0:0:0:0:
377,183,23323,1,10,2:0:0:0:
307,28,23491,2,0,P|302:79|320:119,1,85,2|0,3:2|0:0,0:0:0:0:
432,314,23829,1,2,3:2:0:0:
453,142,23997,1,10,2:0:0:0:
282,258,24166,1,2,2:0:0:0:
457,145,24334,6,0,P|477:90|466:19,1,127.5,2|0,3:2|0:0,0:0:0:0:
446,4,24671,1,10,2:0:0:0:
307,158,24840,1,10,2:0:0:0:
307,158,25177,5,8,3:0:0:0:
180,76,25345,2,0,P|155:69|100:63,1,63.75,4|0,3:0|0:0,0:0:0:0:
47,46,25682,6,0,L|209:31,1,153,6|8,3:2|2:0,0:0:0:0:
295,97,26188,1,2,3:2:0:0:
295,97,26357,2,0,B|400:89|356:133|453:119,1,153,2|8,2:0|2:0,0:0:0:0:
464,231,26862,1,2,2:0:0:0:
464,231,27031,2,0,P|436:183|498:105,1,153,2|10,3:2|2:0,0:0:0:0:
436,303,27536,2,0,P|393:274|376:240,1,76.5000000000001,2|0,3:2|2:0,0:0:0:0:
468,379,27873,1,2,3:2:0:0:
303,249,28042,2,0,L|191:254,1,76.5000000000001,8|2,2:0|2:0,0:0:0:0:
100,190,28379,6,0,B|135:245|135:245|105:333,2,153,2|8|2,3:2|2:0|2:0,0:0:0:0:
26,136,29222,1,0,3:2:0:0:
144,0,29390,2,0,L|129:89,1,76.5000000000001,10|0,2:0|0:0,0:0:0:0:
249,170,29727,6,0,L|236:94,1,76.5000000000001,2|2,3:2|2:0,0:0:0:0:
335,68,30064,1,10,2:0:0:0:
331,235,30233,2,0,P|369:178|469:187,1,152.999995330811,2|2,3:2|3:2,0:0:0:0:
411,341,30739,1,10,2:0:0:0:
245,229,30907,1,2,2:0:0:0:
245,229,30991,1,2,2:0:0:0:
245,229,31076,6,0,B|164:212|166:273|81:242,1,153,2|8,3:2|2:0,0:0:0:0:
32,143,31581,1,2,3:2:0:0:
32,143,31750,2,0,P|61:200|22:281,1,153,2|8,2:0|2:0,0:0:0:0:
26,58,32256,1,2,2:0:0:0:
26,58,32424,2,0,B|116:35|89:92|197:64,1,153,2|10,3:2|2:0,0:0:0:0:
265,9,32930,1,0,3:2:0:0:
265,9,33098,2,0,L|251:96,1,76.5000000000001,2|0,2:0|3:2,0:0:0:0:
183,180,33435,1,10,2:0:0:0:
341,119,33604,1,2,2:0:0:0:
341,119,33688,1,2,2:0:0:0:
341,119,33772,6,0,L|425:114,1,76.5000000000001,2|0,3:2|0:0,0:0:0:0:
468,219,34109,2,0,L|384:214,1,76.5000000000001,10|0,2:0|3:2,0:0:0:0:
296,283,34447,2,0,L|289:195,1,76.5000000000001,2|2,2:0|3:2,0:0:0:0:
195,115,34784,2,0,L|189:191,1,76.5000000000001,8|0,2:0|0:0,0:0:0:0:
78,254,35121,6,0,P|38:223|32:182,1,76.5000000000001,2|2,3:2|2:0,0:0:0:0:
25,97,35458,1,10,2:0:0:0:
115,185,35626,2,0,B|184:180|184:180|206:191|206:191|276:188,1,153,2|2,3:2|3:2,0:0:0:0:
372,155,36132,2,0,L|354:234,1,76.5000000000001,8|2,2:0|2:0,0:0:0:0:
467,161,36469,6,0,P|455:104|365:60,1,153,2|8,3:2|2:0,0:0:0:0:
273,104,36975,1,2,3:2:0:0:
273,104,37143,2,0,B|186:118|215:72|124:81,1,153,2|8,2:0|2:0,0:0:0:0:
50,138,37649,1,2,2:0:0:0:
50,138,37817,2,0,B|37:250|37:250|51:227|77:217,1,153,2|10,3:2|2:0,0:0:0:0:
186,297,38323,2,0,P|134:298|109:280,1,76.5000000000001,2|2,3:2|2:0,0:0:0:0:
227,208,38660,1,2,3:2:0:0:
265,357,38829,2,0,P|309:346|348:340,1,76.5000000000001,10|2,2:0|2:0,0:0:0:0:
454,360,39166,6,0,P|409:308|439:230,1,152.999995330811,2|10,3:2|2:0,0:0:0:0:
488,291,39671,1,0,3:2:0:0:
325,305,39840,2,0,P|330:237|330:176,1,114.749996498108,2|2,2:0|0:0,0:0:0:0:
335,174,40177,2,0,P|281:166|222:163,1,76.5000000000001,10|0,2:0|0:0,0:0:0:0:
159,49,40514,6,0,P|151:92|149:126,1,76.5000000000001,2|2,3:2|2:0,0:0:0:0:
119,297,40851,1,10,2:0:0:0:
32,190,41020,2,0,B|87:186|87:186|121:206|121:206|179:203,1,152.999995330811,2|2,3:2|3:2,0:0:0:0:
63,107,41525,1,8,2:0:0:0:
24,333,41694,1,2,2:0:0:0:
24,333,41778,1,2,2:0:0:0:
24,333,41862,6,0,P|105:324|206:319,1,153,2|8,3:2|2:0,0:0:0:0:
266,217,42368,1,2,3:2:0:0:
266,217,42536,2,0,B|251:275|251:275|279:368,1,153,2|8,2:0|2:0,0:0:0:0:
457,311,43042,1,2,2:0:0:0:
457,311,43211,2,0,P|414:267|316:303,1,153,2|10,3:2|2:0,0:0:0:0:
506,239,43716,2,0,P|475:207|428:190,1,76.5000000000001,2|2,3:2|2:0,0:0:0:0:
388,339,44053,1,2,3:2:0:0:
336,163,44222,1,10,2:0:0:0:
287,328,44390,1,2,2:0:0:0:
287,328,44475,1,2,2:0:0:0:
287,328,44559,6,0,L|207:317,1,76.5000000000001,2|0,3:2|0:0,0:0:0:0:
144,234,44896,2,0,L|224:223,1,76.5000000000001,10|0,2:0|3:2,0:0:0:0:
279,97,45233,2,0,P|246:53|192:57,1,114.749996498108,2|2,2:0|0:0,0:0:0:0:
172,76,45570,2,0,L|159:151,1,76.5000000000001,8|0,2:0|0:0,0:0:0:0:
126,353,45907,6,0,P|161:312|263:320,1,153,2|8,3:2|2:0,0:0:0:0:
328,362,46413,1,0,3:0:0:0:
328,362,46581,1,4,3:0:0:0:
461,266,46750,1,8,3:2:0:0:
278,239,46918,1,2,3:2:0:0:
435,361,47087,1,2,2:0:0:0:
278,239,47256,6,0,B|192:220|219:277|122:254,1,153,6|8,3:2|2:0,0:0:0:0:
59,134,47761,2,0,P|119:116|153:200,1,153,2|0,3:2|3:0,0:0:0:0:
71,351,48267,2,0,P|142:332|244:334,2,153,14|2|8,2:0|3:2|2:0,0:0:0:0:
21,274,49109,1,2,3:2:0:0:
159,183,49278,2,0,P|170:133|162:102,1,76.5000000000001,2|2,2:0|3:2,0:0:0:0:
24,96,49615,2,0,P|61:130|92:139,1,76.5000000000001,10|2,2:0|2:0,0:0:0:0:
257,125,49952,6,0,L|425:95,1,153,2|10,3:2|2:0,0:0:0:0:
475,55,50458,1,0,3:2:0:0:
475,55,50626,2,0,P|487:104|480:138,1,76.5000000000001,2|2,2:0|3:2,0:0:0:0:
351,232,50963,2,0,P|263:214|220:215,1,114.75,14|0,2:0|0:0,0:0:0:0:
198,226,51300,5,0,3:0:0:0:
305,321,51469,1,8,3:0:0:0:
262,170,51638,1,8,2:0:0:0:
165,353,51806,1,4,3:0:0:0:
121,157,51975,1,0,0:0:0:0:
121,157,52143,2,0,L|130:245,1,76.5000000000001,0|8,3:0|2:0,0:0:0:0:
207,96,52480,1,0,0:0:0:0:
306,202,52649,6,0,B|331:184|331:184|382:196|382:196|397:230|421:245|456:239,1,153,6|8,3:2|2:0,0:0:0:0:
485,97,53154,2,0,B|453:63|453:63|429:110|466:197,1,153,2|0,3:2|3:0,0:0:0:0:
493,351,53660,2,0,P|431:322|331:341,2,153,14|2|8,2:0|3:2|2:0,0:0:0:0:
512,255,54503,1,2,3:2:0:0:
386,197,54671,2,0,P|363:149|368:119,1,76.5000000000001,2|0,2:0|3:0,0:0:0:0:
505,87,55008,2,0,P|474:130|446:141,1,76.5000000000001,10|2,2:0|2:0,0:0:0:0:
277,144,55345,6,0,B|245:152|245:152|178:98|178:98|130:107,1,153,2|10,3:2|2:0,0:0:0:0:
269,66,55851,1,2,3:2:0:0:
157,191,56020,1,2,2:0:0:0:
157,191,56188,1,0,3:0:0:0:
49,36,56357,2,0,B|64:81|64:81|37:175,1,114.75,14|0,2:0|0:0,0:0:0:0:
32,164,56694,5,8,2:0:0:0:
172,104,56862,1,4,3:0:0:0:
39,251,57031,1,0,3:0:0:0:
184,310,57199,1,8,2:0:0:0:
89,90,57368,1,0,3:0:0:0:
245,160,57536,2,0,P|287:141|324:136,1,76.5000000000001,0|12,3:0|2:0,0:0:0:0:
172,104,57873,1,0,0:0:0:0:
331,169,58042,6,0,B|325:260|325:260|286:276|269:318,1,153,6|8,3:2|2:0,0:0:0:0:
394,302,58548,2,0,B|416:309|426:330|426:330|351:317|329:375,1,153,2|0,3:2|3:0,0:0:0:0:
179,340,59053,2,0,B|146:307|99:307|99:307|76:338|28:351,2,153,14|2|8,2:0|3:2|2:0,0:0:0:0:
231,266,59896,1,2,3:2:0:0:
117,155,60064,2,0,P|150:194|193:204,1,76.5000000000001,2|2,2:0|3:2,0:0:0:0:
268,99,60402,2,0,P|217:108|187:140,1,76.5000000000001,10|2,2:0|2:0,0:0:0:0:
355,206,60739,6,0,P|350:118|351:41,1,153,2|10,3:2|2:0,0:0:0:0:
218,22,61244,1,2,3:2:0:0:
218,22,61413,2,0,P|243:53|288:62,1,76.5000000000001,2|2,2:0|3:2,0:0:0:0:
431,35,61750,1,14,2:0:0:0:
431,35,61918,1,2,2:0:0:0:
296,165,62087,5,0,3:0:0:0:
453,226,62256,1,8,2:0:0:0:
352,67,62424,1,8,2:0:0:0:
299,275,62593,1,0,3:0:0:0:
460,119,62761,1,2,2:0:0:0:
460,119,62930,1,0,3:0:0:0:
249,160,63098,2,0,P|217:152|179:147,1,63.75,10|0,2:0|0:0,0:0:0:0:
112,137,63435,6,0,L|281:115,1,170,6|8,3:2|2:0,0:0:0:0:
376,55,63941,1,2,2:0:0:0:
338,207,64109,1,2,3:2:0:0:
338,207,64278,1,0,3:0:0:0:
482,42,64447,2,0,L|464:142,1,85,8|2,2:0|2:0,0:0:0:0:
441,264,64784,6,0,B|357:292|371:228|270:261,1,170,2|10,3:2|2:0,0:0:0:0:
186,325,65289,1,2,2:0:0:0:
180,156,65458,1,0,3:0:0:0:
180,156,65626,1,2,3:2:0:0:
52,230,65795,2,0,L|68:330,1,85,8|2,2:0|2:0,0:0:0:0:
247,236,66132,5,8,2:0:0:0:
64,109,66300,1,0,2:0:0:0:
266,239,66469,5,8,2:0:0:0:
187,30,66638,1,0,2:0:0:0:
163,316,66806,5,8,2:0:0:0:
318,97,66975,1,0,3:0:0:0:
334,338,67143,5,8,2:0:0:0:
177,113,67312,1,0,3:0:0:0:
141,351,67480,6,0,B|63:317|63:317|47:331|15:339,1,127.5,6|0,2:0|0:0,0:0:0:0:
45,217,68154,1,2,2:0:0:0:
45,217,68323,1,0,0:0:0:0:
158,136,68491,2,0,L|143:212,1,63.75
134,276,68829,6,0,P|183:281|216:310,1,89.2499972763062,6|0,3:2|0:0,0:0:0:0:
257,235,69081,2,0,P|288:273|290:317,1,89.2499972763062,2|0,2:0|0:0,0:0:0:0:
369,296,69334,2,0,P|364:340|338:370,1,44.6249986381531,2|0,3:2|0:0,0:0:0:0:
487,171,69503,6,0,P|438:176|405:205,1,89.2499972763062,2|0,2:0|3:2,0:0:0:0:
364,130,69756,2,0,P|332:168|330:212,1,89.2499972763062,2|0,2:0|0:0,0:0:0:0:
252,191,70008,2,0,P|256:235|282:265,1,44.6249986381531,2|0,2:0|0:0,0:0:0:0:
133,66,70177,6,0,P|182:71|215:100,1,89.2499972763062,2|0,3:2|0:0,0:0:0:0:
256,25,70430,2,0,P|287:63|289:107,1,89.2499972763062,2|0,2:0|0:0,0:0:0:0:
368,86,70682,2,0,P|363:130|337:160,1,44.6249986381531,2|0,3:2|0:0,0:0:0:0:
157,256,70851,6,0,P|141:185|126:143,1,89.25,2|0,2:0|3:2,0:0:0:0:
71,48,71188,1,8,2:0:0:0:
54,215,71357,1,2,2:0:0:0:
236,62,71525,6,0,L|347:42,1,89.25,2|0,3:2|0:0,0:0:0:0:
411,172,71862,2,0,L|300:152,1,89.25,10|0,2:0|3:2,0:0:0:0:
445,0,72199,2,0,L|460:87,1,89.25,2|0,2:0|3:2,0:0:0:0:
316,241,72536,1,10,2:0:0:0:
323,46,72705,1,2,2:0:0:0:
316,241,72873,6,0,B|302:262|274:268|274:268|191:242,2,133.875,2|2|2,3:2|2:0|3:2,0:0:0:0:
237,85,73548,2,0,L|248:182,1,89.25,2|0,2:0|3:2,0:0:0:0:
402,289,73885,2,0,L|413:201,1,89.25,8|0,2:0|0:0,0:0:0:0:
259,293,74222,6,0,B|230:273|230:273|175:278|175:278|153:324|88:337,1,178.5,2|8,3:2|2:0,0:0:0:0:
51,168,74727,2,0,P|81:207|77:258,1,89.25,2|0,3:2|0:0,0:0:0:0:
0,317,75064,1,0,3:2:0:0:
157,201,75233,2,0,L|271:188,1,89.25,10|0,2:0|0:0,0:0:0:0:
373,151,75570,2,0,B|334:211|334:211|371:316,1,178.5,2|8,3:2|2:0,0:0:0:0:
465,125,76076,2,0,L|450:224,1,89.25,2|0,3:2|0:0,0:0:0:0:
373,44,76413,1,0,3:2:0:0:
262,144,76581,2,0,P|221:161|181:145,1,89.25,10|0,2:0|0:0,0:0:0:0:
40,32,76918,6,0,B|62:108|62:108|13:152|47:223,1,178.5,2|8,3:2|2:0,0:0:0:0:
171,227,77424,2,0,P|153:187|113:171,1,89.25,2|0,3:2|0:0,0:0:0:0:
208,327,77761,1,0,3:2:0:0:
315,169,77930,2,0,L|310:274,1,89.25,8|0,2:0|0:0,0:0:0:0:
443,268,78267,5,2,3:2:0:0:
338,61,78435,1,0,3:2:0:0:
225,246,78604,1,10,2:0:0:0:
434,109,78772,1,0,3:2:0:0:
380,326,78941,5,2,2:0:0:0:
202,110,79109,1,0,3:2:0:0:
158,341,79278,1,10,2:0:0:0:
306,148,79447,1,0,0:0:0:0:
107,229,79615,6,0,B|43:216|91:202|7:182,1,89.2499972763062,6|0,3:2|0:0,0:0:0:0:
182,205,79868,2,0,B|202:266|166:232|191:315,1,89.2499972763062,2|0,2:0|0:0,0:0:0:0:
124,153,80121,2,0,P|147:134|173:128,1,44.6249986381531,2|0,3:2|0:0,0:0:0:0:
384,211,80289,6,0,B|448:224|400:238|484:258,1,89.2499972763062,2|0,2:0|3:2,0:0:0:0:
309,235,80542,2,0,B|288:173|324:207|299:124,1,89.2499972763062,2|0,2:0|0:0,0:0:0:0:
367,287,80795,2,0,P|344:306|318:312,1,44.6249986381531,2|0,2:0|0:0,0:0:0:0:
124,153,80963,6,0,B|60:140|108:126|24:106,1,89.2499972763062,2|0,3:2|0:0,0:0:0:0:
199,129,81216,2,0,B|219:190|183:156|208:239,1,89.2499972763062,2|0,2:0|0:0,0:0:0:0:
141,77,81469,2,0,P|164:58|190:52,1,44.6249986381531,2|0,3:2|0:0,0:0:0:0:
403,24,81638,6,0,P|413:66|399:108,1,89.25,2|0,2:0|3:2,0:0:0:0:
284,202,81975,1,8,2:0:0:0:
226,38,82143,1,2,2:0:0:0:
102,199,82312,6,0,L|123:296,1,89.25,2|0,3:2|0:0,0:0:0:0:
241,379,82649,2,0,L|259:291,1,89.25,10|0,2:0|3:2,0:0:0:0:
84,199,82986,2,0,L|105:296,1,89.2499972763062,2|0,2:0|3:2,0:0:0:0:
167,132,83323,1,10,2:0:0:0:
0,287,83491,1,2,2:0:0:0:
167,132,83660,6,0,B|187:114|187:114|135:93|63:135,2,133.875,2|2|2,3:2|2:0|3:2,0:0:0:0:
93,219,84334,2,0,L|4:206,1,89.25,2|0,2:0|3:2,0:0:0:0:
205,296,84671,2,0,L|293:283,1,89.25,8|0,2:0|0:0,0:0:0:0:
353,139,85008,6,0,B|336:202|336:202|393:232|389:309,1,178.5,2|8,3:2|2:0,0:0:0:0:
472,263,85514,2,0,P|461:213|431:174,1,89.25,2|0,3:2|0:0,0:0:0:0:
293,283,85851,1,0,3:2:0:0:
397,363,86020,2,0,L|386:258,1,89.25,10|0,2:0|0:0,0:0:0:0:
226,198,86357,2,0,B|184:199|158:183|158:183|122:195|122:195|88:173|50:179,1,178.5,2|8,3:2|2:0,0:0:0:0:
11,268,86862,1,0,3:2:0:0:
136,100,87031,2,0,L|145:0,1,89.25,2|0,2:0|3:2,0:0:0:0:
226,198,87368,2,0,L|234:286,1,89.25,10|0,2:0|0:0,0:0:0:0:
317,92,87705,6,0,B|396:81|369:116|457:99,1,133.874995914459,6|0,3:2|0:0,0:0:0:0:
464,87,88042,1,10,2:0:0:0:
341,214,88211,2,0,L|355:315,1,89.25,2|0,3:2|0:0,0:0:0:0:
486,372,88548,1,2,3:2:0:0:
446,196,88716,1,10,2:0:0:0:
486,372,88885,1,2,2:0:0:0:
446,196,89053,6,0,L|421:103,1,89.25,2|2,3:2|2:0,0:0:0:0:
346,257,89390,1,8,2:0:0:0:
322,75,89559,1,2,2:0:0:0:
191,214,89727,1,8,2:0:0:0:
191,214,89812,1,8,2:0:0:0:
191,214,89896,1,10,2:0:0:0:
352,159,90064,1,10,2:0:0:0:
238,24,90233,1,8,2:0:0:0:
220,38,90317,1,8,2:0:0:0:
202,52,90402,6,0,P|142:38|65:35,1,127.5,4|0,3:2|0:0,0:0:0:0:
2,28,90739,2,0,L|12:124,1,85,10|0,2:2|3:2,0:0:0:0:
114,198,91076,2,0,L|122:113,1,85,2|0,2:2|3:2,0:0:0:0:
34,290,91413,2,0,P|90:279|181:298,1,127.5,10|0,2:2|0:0,0:0:0:0:
233,315,91750,6,0,P|282:328|327:314,1,85,2|0,3:2|0:0,0:0:0:0:
351,198,92087,1,8,2:2:0:0:
369,383,92256,2,0,P|412:357|434:315,1,85,2|0,3:2|0:0,0:0:0:0:
278,251,92593,1,2,3:2:0:0:
469,258,92761,1,10,2:2:0:0:
377,105,92930,1,2,0:2:0:0:
278,251,93098,6,0,P|214:238|144:232,1,127.5,2|0,3:2|0:0,0:0:0:0:
121,243,93435,1,10,2:2:0:0:
234,81,93604,2,0,P|229:136|222:177,1,85,2|0,3:2|0:0,0:0:0:0:
204,342,93941,1,2,3:2:0:0:
361,265,94109,1,10,2:2:0:0:
224,165,94278,1,2,0:2:0:0:
361,265,94447,6,0,P|421:267|471:193,1,127.5,2|0,3:2|0:0,0:0:0:0:
479,186,94784,1,10,2:2:0:0:
363,84,94952,2,0,L|384:189,1,85,2|0,3:2|0:0,0:0:0:0:
479,40,95289,1,2,3:2:0:0:
285,29,95458,1,10,2:2:0:0:
479,40,95626,1,2,0:0:0:0:
285,29,95795,6,0,B|232:37|232:37|204:25|204:25|128:36,1,127.5,2|0,3:2|0:0,0:0:0:0:
103,80,96132,2,0,P|62:71|18:68,1,85,10|0,2:2|3:2,0:0:0:0:
197,182,96469,2,0,P|225:150|249:114,1,85,2|0,2:2|3:2,0:0:0:0:
93,196,96806,2,0,P|112:256|141:316,1,127.5,10|0,2:2|0:0,0:0:0:0:
209,356,97143,6,0,L|298:336,1,85,2|0,3:2|0:0,0:0:0:0:
328,170,97480,1,8,2:2:0:0:
432,293,97649,2,0,L|343:273,1,85,2|0,3:2|0:0,0:0:0:0:
236,140,97986,1,2,3:2:0:0:
424,127,98154,1,10,2:2:0:0:
349,274,98323,1,2,0:0:0:0:
236,140,98491,6,0,B|149:156|193:109|83:125,1,127.5,2|0,3:2|0:0,0:0:0:0:
85,134,98829,1,10,2:2:0:0:
130,297,98997,2,0,L|123:199,1,85,2|0,3:2|0:0,0:0:0:0:
46,334,99334,1,2,3:2:0:0:
220,246,99503,1,10,2:2:0:0:
46,334,99671,1,2,0:0:0:0:
220,246,99840,6,0,B|267:262|267:262|281:281|281:281|334:299,1,127.5,2|0,3:2|0:0,0:0:0:0:
351,301,100177,1,10,2:2:0:0:
276,119,100345,1,10,2:2:0:0:
276,119,100682,5,2,3:2:0:0:
374,79,100851,2,0,P|412:69|446:71,1,63.75,4|0,3:0|0:0,0:0:0:0:
512,63,101188,6,0,P|437:54|353:30,1,153,6|8,3:2|2:0,0:0:0:0:
250,68,101694,1,2,2:0:0:0:
250,68,101862,2,0,P|181:68|83:82,1,153,2|8,3:2|2:0,0:0:0:0:
50,153,102368,1,2,2:0:0:0:
17,236,102536,5,2,3:2:0:0:
83,293,102705,1,2,2:0:0:0:
155,249,102873,1,10,2:0:0:0:
134,167,103042,1,2,2:0:0:0:
209,350,103211,1,0,3:0:0:0:
209,350,103379,1,2,3:2:0:0:
264,211,103548,2,0,L|351:203,1,76.5000000000001,10|0,2:0|2:0,0:0:0:0:
449,266,103885,6,0,B|431:211|431:211|461:110,1,153,2|10,3:2|2:0,0:0:0:0:
495,31,104390,1,2,2:0:0:0:
368,115,104559,2,0,L|272:107,1,76.5000000000001,2|2,3:2|3:2,0:0:0:0:
258,6,104896,2,0,L|354:-2,1,76.5000000000001,10|0,2:0|0:0,0:0:0:0:
171,143,105233,2,0,L|177:66,1,76.5000000000001,0|0,3:0|0:0,0:0:0:0:
254,219,105570,1,8,2:0:0:0:
254,219,105739,2,0,L|260:295,1,76.5000000000001,0|0,2:0|3:0,0:0:0:0:
141,251,106076,1,0,3:0:0:0:
271,131,106244,1,8,2:0:0:0:
122,63,106413,1,2,2:0:0:0:
122,63,106497,1,2,2:0:0:0:
122,63,106581,6,0,B|134:151|134:151|164:160|190:195,1,152.999995330811,2|8,3:2|2:0,0:0:0:0:
18,293,107087,1,2,2:0:0:0:
18,293,107256,2,0,P|27:243|122:232,1,153,2|8,3:2|2:0,0:0:0:0:
205,321,107761,1,2,2:0:0:0:
205,321,107930,6,0,B|302:340|265:290|364:307,1,153,2|10,3:2|2:0,0:0:0:0:
467,349,108435,1,0,2:0:0:0:
387,191,108604,1,2,3:2:0:0:
353,305,108772,1,2,3:2:0:0:
475,234,108941,2,0,L|491:137,1,76.5000000000001,10|2,2:0|2:0,0:0:0:0:
377,115,109278,6,0,L|386:190,1,76.5000000000001,2|0,3:2|0:0,0:0:0:0:
270,237,109615,2,0,L|279:161,1,76.5000000000001,10|0,2:0|2:0,0:0:0:0:
183,93,109952,2,0,L|192:168,1,76.5000000000001,2|2,3:2|3:0,0:0:0:0:
76,215,110289,2,0,L|85:139,1,76.5000000000001,10|0,2:0|0:0,0:0:0:0:
140,291,110626,2,0,P|104:311|-3:271,1,153,2|8,3:2|2:0,0:0:0:0:
0,170,111132,1,0,2:0:0:0:
138,29,111300,5,0,3:0:0:0:
76,215,111469,1,8,2:0:0:0:
49,85,111638,1,8,3:0:0:0:
187,204,111806,1,4,3:0:0:0:
264,146,111975,6,0,P|310:144|355:142,1,85,6|0,2:0|0:0,0:0:0:0:
395,230,112480,1,2,2:0:0:0:
395,230,112649,2,0,P|352:231|310:233,1,85,2|0,2:0|0:0,0:0:0:0:
252,288,113154,1,2,2:0:0:0:
252,288,113323,2,0,P|196:272|175:237,2,85,2|2|2,2:0|2:0|2:0,0:0:0:0:
310,233,114166,1,0,0:0:0:0:
310,233,114334,2,0,L|366:228,1,42.5,2|2,2:0|2:0,0:0:0:0:
426,277,114671,6,0,P|440:237|422:182,1,85,2|2,2:0|2:0,0:0:0:0:
304,152,115345,2,0,P|295:193|309:232,1,85,2|2,2:0|2:0,0:0:0:0:
349,66,116020,2,0,L|287:70,1,42.5,2|0,0:0|0:0,0:0:0:0:
227,106,116357,2,0,L|184:103,2,42.5,2|0|2,2:0|0:0|2:0,0:0:0:0:
190,199,116862,1,2,2:0:0:0:
85,107,117031,2,0,L|95:182,1,63.75,2|0,2:0|0:0,0:0:0:0:
100,194,117368,6,0,P|71:205|26:197,1,72.2500013780594,10|8,3:2|2:0,0:0:0:0:
85,107,117705,2,0,P|114:96|159:104,1,72.2500013780594,8|8,3:2|2:0,0:0:0:0:
226,273,118042,6,0,L|217:186,1,76.4999976654053,8|8,3:2|2:0,0:0:0:0:
346,66,118379,2,0,L|338:142,1,76.4999976654053,8|8,3:2|2:0,0:0:0:0:
218,196,118716,5,8,3:2:0:0:
228,106,118885,1,8,2:0:0:0:
422,146,119053,1,8,3:2:0:0:
412,236,119222,1,8,2:0:0:0:
235,363,119390,6,0,P|213:322|223:274,1,85,10|8,3:2|2:0,0:0:0:0:
481,89,119727,2,0,P|503:130|493:178,1,85,10|8,3:2|2:0,0:0:0:0:
301,303,120064,5,10,3:2:0:0:
233,114,120233,1,8,2:0:0:0:
367,178,120402,1,8,3:2:0:0:
165,228,120570,1,10,2:0:0:0:
126,10,120739,5,8,3:2:0:0:
337,89,120907,1,8,2:0:0:0:
70,228,121076,2,0,P|57:180|78:127,1,93.5000028533936,10|8,3:2|2:0,0:0:0:0:
227,72,121413,5,8,3:2:0:0:
300,285,121581,1,8,2:0:0:0:
70,228,121750,1,10,3:2:0:0:
351,84,121918,1,10,2:0:0:0:
157,321,122087,5,2,3:2:0:0:
139,16,122256,1,2,3:2:0:0:
421,193,122424,1,14,2:0:0:0:
421,193,122761,6,0,B|386:180|348:205|348:205|298:188|307:138,1,152.999995330811,6|8,3:2|2:0,0:0:0:0:
220,251,123267,2,0,B|207:232|177:224|177:224|167:281|208:341,1,153,2|0,3:2|3:0,0:0:0:0:
305,149,123772,2,0,B|220:171|239:111|146:131,2,152.999995330811,14|2|8,2:0|3:2|2:0,0:0:0:0:
470,83,124615,1,2,3:2:0:0:
376,6,124784,2,0,L|390:97,1,76.5000000000001,2|2,2:0|3:2,0:0:0:0:
236,106,125121,2,0,L|247:30,1,76.5000000000001,10|2,2:0|2:0,0:0:0:0:
118,136,125458,6,0,B|91:185|91:185|114:284,1,153,2|10,3:2|2:0,0:0:0:0:
81,360,125963,1,2,3:2:0:0:
81,360,126132,2,0,P|125:365|168:342,1,76.5000000000001,2|0,2:0|3:2,0:0:0:0:
328,296,126469,2,0,P|282:294|232:237,1,114.749996498108,14|0,2:0|0:0,0:0:0:0:
227,231,126806,5,0,3:0:0:0:
346,193,126975,1,8,3:0:0:0:
186,349,127143,1,8,2:0:0:0:
272,140,127312,1,4,3:0:0:0:
368,353,127480,1,0,0:0:0:0:
368,353,127649,2,0,L|452:342,1,76.4999976654053,0|8,3:0|2:0,0:0:0:0:
274,248,127986,1,0,0:0:0:0:
125,366,128154,6,0,B|54:380|16:347|16:347|41:343|65:322,1,153,6|8,3:2|2:0,0:0:0:0:
63,183,128660,2,0,B|38:177|22:149|22:149|46:272,1,153,2|0,3:2|3:0,0:0:0:0:
201,186,129166,2,0,P|192:129|90:127,2,153,14|2|8,2:0|3:2|2:0,0:0:0:0:
147,273,130008,1,2,3:2:0:0:
280,213,130177,2,0,L|372:202,1,76.5000000000001,2|0,2:0|3:0,0:0:0:0:
404,315,130514,2,0,L|328:305,1,76.5000000000001,10|2,2:0|2:0,0:0:0:0:
414,112,130851,6,0,P|457:157|423:247,1,153,2|10,3:2|2:0,0:0:0:0:
355,203,131357,1,2,3:2:0:0:
387,30,131525,1,2,2:0:0:0:
387,30,131694,1,0,3:0:0:0:
271,102,131862,2,0,B|200:116|228:76|134:89,1,114.75,14|0,2:0|0:0,0:0:0:0:
133,104,132199,5,8,2:0:0:0:
228,217,132368,1,4,3:0:0:0:
199,52,132536,1,0,3:0:0:0:
102,211,132705,1,8,2:0:0:0:
41,31,132873,1,0,0:0:0:0:
41,31,133042,2,0,L|51:110,1,76.5000000000001,0|12,3:0|2:0,0:0:0:0:
136,0,133379,1,0,0:0:0:0:
285,146,133548,6,0,B|277:116|277:116|316:134|316:134|335:176|310:228,1,153,6|8,3:2|2:0,0:0:0:0:
161,325,134053,2,0,B|139:260|139:260|184:219|184:219|176:249,1,153,2|0,3:2|3:0,0:0:0:0:
315,319,134559,2,0,B|329:301|354:286|354:286|226:323,2,153,14|2|8,2:0|3:2|2:0,0:0:0:0:
429,362,135402,1,2,3:2:0:0:
474,280,135570,2,0,L|490:196,1,76.5000000000001,2|2,2:0|3:2,0:0:0:0:
361,133,135907,2,0,L|375:208,1,76.5000000000001,10|2,2:0|2:0,0:0:0:0:
462,17,136244,6,0,B|440:108|440:108|429:68|387:51,1,153,2|10,3:2|2:0,0:0:0:0:
312,25,136750,1,2,3:2:0:0:
312,25,136918,2,0,P|255:40|216:35,1,76.5000000000001,2|2,2:0|3:2,0:0:0:0:
124,22,137256,1,14,2:0:0:0:
124,22,137424,1,0,0:0:0:0:
36,169,137593,5,0,3:0:0:0:
234,143,137761,1,8,2:0:0:0:
47,66,137930,1,8,2:0:0:0:
156,176,138098,1,0,3:0:0:0:
201,0,138267,1,2,2:0:0:0:
110,251,138435,1,0,3:0:0:0:
372,178,138604,2,0,P|368:147|351:120,1,63.75,10|0,2:0|0:0,0:0:0:0:
294,170,138941,6,0,P|422:119|383:255,1,340,4|0,3:2|0:0,0:0:0:0:
290,301,141300,1,2,2:0:0:0:
290,301,141469,1,2,2:0:0:0:
251,204,141638,5,8,2:0:0:0:
363,229,141806,1,8,2:0:0:0:
195,286,141975,1,8,2:0:0:0:
303,122,142143,1,8,2:0:0:0:
369,335,142312,5,8,2:0:0:0:
305,104,142480,1,8,2:0:0:0:
178,297,142649,1,8,2:0:0:0:
393,148,142817,1,8,2:0:0:0:
191,82,142986,5,8,2:0:0:0:
286,300,143154,1,8,2:0:0:0:
379,40,143323,1,8,2:0:0:0:
127,165,143491,1,8,2:0:0:0:
441,227,143660,5,8,2:0:0:0:
270,0,143829,1,8,2:0:0:0:
270,0,144334,6,0,B|255:12|245:37|245:37|253:73|281:100,1,89.2499972763062,6|0,3:2|0:0,0:0:0:0:
142,57,144587,2,0,B|139:76|150:100|150:100|181:120|220:119,1,89.2499972763062,2|0,2:0|0:0,0:0:0:0:
91,187,144840,2,0,P|112:206|138:209,1,44.6249986381531,2|0,3:2|0:0,0:0:0:0:
401,52,145008,6,0,B|381:49|357:60|357:60|337:91|338:130,1,89.2499972763062,2|0,2:0|3:2,0:0:0:0:
270,0,145261,2,0,B|255:12|245:37|245:37|252:73|281:99,1,89.2499972763062,2|0,2:0|0:0,0:0:0:0:
142,57,145514,2,0,P|143:85|159:105,1,44.6249986381531,2|0,2:0|0:0,0:0:0:0:
457,182,145682,6,0,B|445:167|419:157|419:157|383:164|357:193,1,89.2499972763062,2|0,3:2|0:0,0:0:0:0:
401,52,145935,2,0,B|381:49|357:60|357:60|337:91|338:130,1,89.2499972763062,2|0,2:0|0:0,0:0:0:0:
270,0,146188,2,0,P|251:21|248:47,1,44.6249986381531,2|0,3:2|0:0,0:0:0:0:
277,266,146357,6,0,L|296:353,1,89.25,2|0,2:0|3:2,0:0:0:0:
378,297,146694,1,8,2:0:0:0:
297,128,146862,1,2,2:0:0:0:
142,215,147031,6,0,L|32:206,1,89.2499972763062,2|0,3:2|0:0,0:0:0:0:
297,128,147368,2,0,L|407:119,1,89.25,10|0,2:0|3:2,0:0:0:0:
194,16,147705,2,0,L|203:126,1,89.25,2|0,2:0|3:2,0:0:0:0:
219,278,148042,1,10,2:0:0:0:
93,120,148211,1,2,2:0:0:0:
219,278,148379,6,0,B|286:265|286:265|296:269|296:269|373:253,2,133.875,2|2|2,3:2|2:0|3:2,0:0:0:0:
96,350,149053,2,0,L|-3:334,1,89.25,2|0,2:0|3:2,0:0:0:0:
193,195,149390,2,0,L|292:179,1,89.25,8|0,2:0|0:0,0:0:0:0:
61,75,149727,6,0,B|39:96|31:139|31:139|112:247,1,178.5,2|8,3:2|2:0,0:0:0:0:
224,46,150233,2,0,B|180:36|180:36|144:62,1,89.25,2|0,3:2|0:0,0:0:0:0:
285,125,150570,1,0,3:2:0:0:
372,16,150739,2,0,L|468:23,1,89.25,10|0,2:0|0:0,0:0:0:0:
428,240,151076,2,0,B|407:199|358:200|358:200|322:241|261:221,1,178.499994552612,2|8,3:2|2:0,0:0:0:0:
260,67,151581,2,0,P|294:99|296:147,1,89.25,2|0,3:2|0:0,0:0:0:0:
125,176,151918,1,0,3:2:0:0:
189,0,152087,2,0,L|181:95,1,89.25,10|0,2:0|0:0,0:0:0:0:
96,312,152424,6,0,B|98:268|76:237|76:237|65:233|65:233|36:190|59:126,1,178.5,2|8,3:2|2:0,0:0:0:0:
184,288,152930,2,0,P|191:241|209:196,1,89.25,2|0,3:2|0:0,0:0:0:0:
269,351,153267,1,0,3:2:0:0:
323,195,153435,2,0,P|316:148|298:103,1,89.25,8|0,2:0|0:0,0:0:0:0:
161,223,153772,5,2,3:2:0:0:
242,14,153941,1,0,0:0:0:0:
308,272,154109,1,10,2:0:0:0:
163,99,154278,1,0,3:2:0:0:
213,301,154447,5,2,2:0:0:0:
359,79,154615,1,0,3:2:0:0:
411,321,154784,1,10,2:0:0:0:
256,114,154952,1,0,0:0:0:0:
492,170,155121,6,0,P|506:128|504:84,1,89.2499972763062,6|0,3:2|0:0,0:0:0:0:
393,180,155373,2,0,P|434:194|478:192,1,89.2499972763062,2|0,2:0|0:0,0:0:0:0:
383,81,155626,2,0,P|371:108|368:132,1,44.6249986381531,2|0,3:2|0:0,0:0:0:0:
202,314,155795,6,0,P|243:328|287:326,1,89.2499972763062,2|0,2:0|3:2,0:0:0:0:
192,215,156048,2,0,P|177:256|179:300,1,89.2499972763062,2|0,2:0|0:0,0:0:0:0:
291,205,156300,2,0,P|264:193|240:190,1,44.6249986381531,2|0,2:0|0:0,0:0:0:0:
37,44,156469,6,0,P|22:85|24:129,1,89.2499972763062,2|0,3:2|0:0,0:0:0:0:
136,34,156722,2,0,P|94:19|50:21,1,89.2499972763062,2|0,2:0|0:0,0:0:0:0:
146,133,156975,2,0,P|158:106|161:82,1,44.6249986381531,2|0,3:2|0:0,0:0:0:0:
22,219,157143,6,0,P|40:259|74:288,1,89.2499972763062,2|0,2:0|3:2,0:0:0:0:
313,226,157480,1,8,2:0:0:0:
146,133,157649,1,2,2:0:0:0:
303,337,157817,6,0,L|405:318,1,89.25,2|0,3:2|0:0,0:0:0:0:
487,236,158154,2,0,L|385:217,1,89.25,10|0,2:0|3:2,0:0:0:0:
306,44,158491,2,0,L|325:146,1,89.25,2|0,2:0|3:2,0:0:0:0:
240,222,158829,1,10,2:0:0:0:
188,35,158997,1,2,2:0:0:0:
240,222,159166,6,0,B|185:245|185:245|143:237|108:266,2,133.875,2|2|2,3:2|2:0|3:2,0:0:0:0:
97,75,159840,2,0,L|117:175,1,89.25,2|0,2:0|3:2,0:0:0:0:
271,35,160177,2,0,L|253:122,1,89.25,8|0,2:0|0:0,0:0:0:0:
218,330,160514,6,0,B|265:287|265:287|394:320,1,178.499994552612,2|8,3:2|2:0,0:0:0:0:
479,363,161020,2,0,L|458:263,1,89.25,2|0,3:2|0:0,0:0:0:0:
376,315,161357,1,0,3:2:0:0:
512,211,161525,2,0,P|488:167|443:148,1,89.25,10|0,2:0|0:0,0:0:0:0:
273,143,161862,2,0,B|241:177|241:177|315:204|385:152,1,178.499994552612,2|8,3:2|2:0,0:0:0:0:
331,36,162368,1,0,3:2:0:0:
190,96,162536,2,0,P|146:90|86:83,1,89.25,2|0,2:0|3:2,0:0:0:0:
45,225,162873,2,0,P|89:219|149:212,1,89.25,10|0,2:0|0:0,0:0:0:0:
310,340,163211,6,0,B|220:330|272:301|176:287,1,133.874995914459,6|0,3:2|0:0,0:0:0:0:
157,298,163548,1,10,2:0:0:0:
316,173,163716,2,0,L|300:284,1,89.25,2|0,3:2|0:0,0:0:0:0:
222,143,164053,1,2,3:2:0:0:
411,238,164222,1,10,2:0:0:0:
222,143,164390,1,2,2:0:0:0:
411,238,164559,6,0,P|470:246|502:232,1,89.25,2|2,3:2|2:0,0:0:0:0:
465,129,164896,1,8,2:0:0:0:
321,276,165064,1,2,2:0:0:0:
368,92,165233,1,8,2:0:0:0:
416,335,165402,1,10,2:0:0:0:
416,335,165486,1,8,2:0:0:0:
416,335,165570,1,10,2:0:0:0:
250,161,165739,1,8,2:0:0:0:
431,206,165907,6,0,B|333:215|387:263|254:271,1,170,6|8,3:2|2:0,0:0:0:0:
162,125,166413,1,2,2:0:0:0:
162,125,166581,2,0,P|233:112|288:190,1,170,2|8,3:2|2:0,0:0:0:0:
91,185,167087,1,2,2:0:0:0:
91,185,167256,2,0,P|77:128|63:93,1,85,2|2,3:2|2:0,0:0:0:0:
183,277,167593,1,8,2:0:0:0:
183,277,167761,2,0,P|197:220|211:185,1,85,2|0,2:0|3:2,0:0:0:0:
66,269,168098,1,2,2:0:0:0:
66,269,168267,2,0,P|80:309|89:350,1,85,10|0,2:0|0:0,0:0:0:0:
206,195,168604,6,0,B|242:177|296:207|296:207|337:183|337:130,1,170,2|8,3:2|2:0,0:0:0:0:
329,283,169109,1,2,2:0:0:0:
329,283,169278,2,0,P|377:240|412:134,1,170,2|8,3:2|2:0,0:0:0:0:
257,37,169784,1,2,2:0:0:0:
257,37,169952,2,0,L|269:128,1,85,2|2,3:2|2:0,0:0:0:0:
368,0,170289,1,8,2:0:0:0:
368,0,170458,2,0,L|356:91,1,85,2|0,2:0|3:2,0:0:0:0:
474,156,170795,1,2,2:0:0:0:
474,156,170963,2,0,L|462:71,1,85,10|0,2:0|0:0,0:0:0:0:
312,173,171300,6,0,B|241:188|241:188|215:142|150:145,1,170,2|8,3:2|2:0,0:0:0:0:
57,277,171806,1,2,2:0:0:0:
61,281,171975,2,0,P|141:297|155:210,1,170,2|8,3:2|2:0,0:0:0:0:
24,117,172480,1,2,2:0:0:0:
24,117,172649,2,0,B|82:137|82:137|200:97,1,170,2|8,3:2|2:0,0:0:0:0:
327,41,173154,1,2,2:0:0:0:
250,159,173323,2,0,L|260:253,1,85,2|2,3:2|2:0,0:0:0:0:
402,181,173660,2,0,L|410:96,1,85,10|2,2:0|2:0,0:0:0:0:
248,42,173997,6,0,B|176:62|176:62|156:85|156:85|88:104,1,170,2|8,3:2|2:0,0:0:0:0:
26,189,174503,1,2,2:0:0:0:
26,189,174671,2,0,B|63:242|63:242|35:345,1,170,2|8,3:2|2:0,0:0:0:0:
143,295,175177,1,2,2:0:0:0:
143,295,175345,2,0,B|240:325|225:259|313:282,1,170,2|8,3:2|2:0,0:0:0:0:
405,308,175851,1,0,0:0:0:0:
405,308,176020,2,0,L|410:224,1,85,0|0,3:2|0:0,0:0:0:0:
485,103,176357,5,8,2:0:0:0:
446,87,176441,1,8,2:0:0:0:
404,90,176525,1,8,2:0:0:0:
368,112,176609,1,8,2:0:0:0:
346,148,176694,6,0,B|266:189|266:189|234:164|162:161,1,170,2|8,3:2|2:0,0:0:0:0:
100,63,177199,1,2,2:0:0:0:
100,63,177368,2,0,L|121:151,1,85,2|0,3:2|0:0,0:0:0:0:
35,151,177705,1,8,2:0:0:0:
35,151,177873,1,2,2:0:0:0:
216,24,178042,2,0,L|193:210,1,170,2|8,3:2|2:0,0:0:0:0:
178,346,178548,5,2,2:0:0:0:
331,258,178716,1,2,3:2:0:0:
223,273,178885,1,2,2:0:0:0:
345,351,179053,1,10,2:0:0:0:
127,276,179222,1,2,2:0:0:0:
345,351,179390,6,0,B|456:328|456:328|483:358|518:361,1,170,2|8,3:2|2:0,0:0:0:0:
458,143,179896,1,2,2:0:0:0:
458,143,180064,2,0,B|428:208|428:208|453:321,1,170,2|8,3:2|2:0,0:0:0:0:
491,59,180570,1,2,2:0:0:0:
491,59,180739,2,0,B|400:86|414:32|316:57,1,170,2|8,3:2|2:0,0:0:0:0:
216,100,181244,1,0,0:0:0:0:
216,100,181413,5,0,3:2:0:0:
177,214,181581,1,8,2:0:0:0:
305,41,181750,1,8,3:0:0:0:
356,157,181918,1,0,0:0:0:0:
151,30,182087,6,0,B|126:31|97:56|97:56|58:41|58:41|41:65|-1:68,2,170,2|8|0,3:2|2:0|3:2,0:0:0:0:
303,112,182930,1,0,3:0:0:0:
303,112,183098,2,0,L|405:102,1,85,10|0,2:0|0:0,0:0:0:0:
429,243,183435,2,0,L|327:233,1,85,2|0,3:2|0:0,0:0:0:0:
220,109,183772,2,0,L|230:211,1,85,10|0,2:0|0:0,0:0:0:0:
128,271,184109,1,2,3:2:0:0:
124,126,184278,5,8,2:0:0:0:
236,337,184447,1,10,2:0:0:0:
242,92,184615,1,8,2:0:0:0:
113,245,184784,2,1,B|84:236|63:213|58:185|58:185|27:229|35:287|77:321|77:321|120:354|178:351|214:311|214:311|251:271|250:210|214:174,1,535.500000000001,6|0,2:0|0:0,0:0:0:0:
172,97,187480,6,0,P|220:83|267:101,2,95.6250000000002,2|2|2,2:0|2:0|2:0,0:0:0:0:
92,193,188154,2,0,L|71:87,2,95.6250000000002,2|2|2,2:0|2:0|2:0,0:0:0:0:
190,240,188829,2,0,L|171:333,2,95.6250000000002,2|2|2,2:0|2:0|2:0,0:0:0:0:
283,205,189503,2,0,P|332:195|407:233,1,127.5,2|0,2:0|0:0,0:0:0:0:
463,299,190008,1,2,2:0:0:0:
463,299,190177,2,0,L|449:162,2,127.5,2|2|2,2:0|2:0|2:0,0:0:0:0:
391,341,191020,1,0,0:0:0:0:
391,341,191188,2,0,L|314:332,1,63.7500000000002,2|0,2:0|0:0,0:0:0:0:
234,266,191525,6,0,P|211:291|143:294,2,95.6250000000002,2|2|2,2:0|2:0|2:0,0:0:0:0:
163,157,192199,2,0,L|175:234,1,63.7500000000002,2|0,2:0|0:0,0:0:0:0:
269,123,192536,2,0,L|257:200,1,63.7500000000002
172,219,192873,6,0,P|146:220|108:185,2,63.75,2|2|2,2:0|2:0|2:0,0:0:0:0:
180,84,193548,2,0,L|172:139,1,42.5,2|0,2:0|0:0,0:0:0:0:
276,67,193885,2,0,L|284:122,1,42.5
173,126,194222,6,0,P|160:126|141:109,2,31.875,2|2|2,2:0|2:0|2:0,0:0:0:0:
193,26,194896,2,0,L|190:49,1,21.25,2|0,2:0|0:0,0:0:0:0:
295,0,195233,2,0,L|298:23,1,21.25,2|0,0:0|0:0,0:0:0:0:
285,178,195570,6,0,P|328:138|408:147,1,127.5,2|2,2:0|2:0,0:0:0:0:
353,275,196076,2,0,L|358:197,1,63.7500000000002,2|2,2:0|2:0,0:0:0:0:
368,55,196413,1,2,2:0:0:0:
455,42,196581,1,2,2:0:0:0:
503,114,196750,1,2,2:0:0:0:
458,189,196918,6,0,B|391:209|403:165|325:182,1,127.5,2|2,2:0|2:0,0:0:0:0:
268,229,197424,2,0,P|235:221|189:216,1,63.7500000000002,2|0,2:0|0:0,0:0:0:0:
133,257,197761,1,2,2:0:0:0:
50,232,197930,1,2,2:0:0:0:
30,147,198098,1,2,2:0:0:0:
87,81,198267,6,0,L|187:70,2,95.6250000000002,2|2|2,2:0|2:0|2:0,0:0:0:0:
231,178,198941,2,0,L|131:167,2,95.6250000000002,2|2|2,2:0|2:0|2:0,0:0:0:0:
307,84,199615,2,0,L|318:184,2,95.6250000000002,2|2|2,2:0|2:0|2:0,0:0:0:0:
392,223,200289,2,0,P|364:254|279:257,1,127.5,2|0,2:0|0:0,0:0:0:0:
231,178,200795,1,2,2:0:0:0:
231,178,200963,2,0,L|93:160,2,127.5,2|2|2,2:0|2:0|2:0,0:0:0:0:
297,109,201806,1,0,0:0:0:0:
297,109,201975,2,0,L|380:101,1,63.7500000000002,2|0,2:0|0:0,0:0:0:0:
464,157,202312,6,0,P|471:202|441:261,2,95.6250000000002,2|2|2,2:0|2:0|2:0,0:0:0:0:
363,52,202986,2,0,L|380:122,1,63.7500000000002,2|0,2:0|0:0,0:0:0:0:
259,31,203323,2,0,L|242:101,1,63.7500000000002
172,150,203660,6,0,B|101:170|131:120|43:137,1,127.5,2|0,2:0|0:0,0:0:0:0:
259,113,204166,2,0,P|228:67|157:81,1,127.5,2|0,2:0|0:0,0:0:0:0:
225,242,204671,1,2,2:0:0:0:
225,242,204840,1,2,2:0:0:0:
351,197,205008,2,0,P|280:195|221:219,1,127.5,2|2,2:0|2:0,0:0:0:0:
299,283,205514,1,0,0:0:0:0:
438,214,205682,2,0,B|458:127|458:127|416:103,1,127.5,2|2,2:0|2:0,0:0:0:0:
349,121,206188,1,0,0:0:0:0:
401,314,206357,5,0,3:0:0:0:
401,314,206694,5,8,2:0:0:0:
333,248,206862,1,8,2:0:0:0:
418,226,207031,1,8,2:0:0:0:
324,330,207199,1,8,2:0:0:0:
354,161,207368,5,10,2:0:0:0:
480,290,207536,1,8,2:0:0:0:
257,200,207705,1,10,2:0:0:0:
444,115,207873,1,8,2:0:0:0:
213,352,208042,5,8,2:0:0:0:
205,72,208211,1,8,2:0:0:0:
418,226,208379,1,8,2:0:0:0:
93,194,208548,1,8,3:2:0:0:
93,194,209053,6,0,B|117:281,1,89.2499972763062,6|0,3:2|0:0,0:0:0:0:
200,231,209306,2,0,B|193:320,1,89.2499972763062,2|0,2:0|0:0,0:0:0:0:
269,341,209559,2,0,B|251:382,1,44.6249986381531,2|0,3:2|0:0,0:0:0:0:
428,154,209727,6,0,B|404:240,1,89.2499972763062,2|0,2:0|3:2,0:0:0:0:
321,190,209980,2,0,B|328:278,1,89.2499972763062,2|0,2:0|0:0,0:0:0:0:
251,300,210233,2,0,B|269:340,1,44.6249986381531,2|0,2:0|0:0,0:0:0:0:
92,113,210402,6,0,B|115:199,1,89.2499972763062,2|0,3:2|0:0,0:0:0:0:
199,149,210654,2,0,B|191:237,1,89.2499972763062,2|0,2:0|0:0,0:0:0:0:
269,259,210907,2,0,B|250:299,1,44.6249986381531,2|0,3:2|0:0,0:0:0:0:
49,349,211076,6,0,P|26:308|32:260,1,89.2499972763062,2|0,2:0|3:2,0:0:0:0:
4,75,211413,1,8,2:0:0:0:
199,127,211581,1,2,2:0:0:0:
4,75,211750,6,0,L|14:174,1,89.25,2|0,3:2|0:0,0:0:0:0:
117,88,212087,2,0,L|125:0,1,89.25,10|0,2:0|3:2,0:0:0:0:
105,236,212424,2,0,L|193:227,1,89.25,2|0,2:0|3:2,0:0:0:0:
383,261,212761,1,10,2:0:0:0:
238,131,212930,1,2,2:0:0:0:
383,261,213098,6,0,B|416:240|423:177|423:177|399:185|370:169,2,133.875,2|2|2,3:2|2:0|3:2,0:0:0:0:
303,34,213772,2,0,P|295:77|310:118,1,89.25,2|0,2:0|3:2,0:0:0:0:
436,103,214109,2,0,P|444:59|429:18,1,89.25,8|0,2:0|0:0,0:0:0:0:
221,95,214447,6,0,B|187:83|187:83|147:102|147:102|139:163|78:174,1,178.5,2|8,3:2|2:0,0:0:0:0:
67,12,214952,2,0,P|52:54|81:102,1,89.25,2|0,3:2|0:0,0:0:0:0:
189,201,215289,1,0,3:2:0:0:
297,51,215458,2,0,L|406:45,1,89.25,10|0,2:0|0:0,0:0:0:0:
475,198,215795,6,0,B|453:195|431:209|431:209|418:139|462:76,1,178.5,2|8,3:2|2:0,0:0:0:0:
432,298,216300,2,0,P|390:285|351:234,1,89.25,2|0,3:2|0:0,0:0:0:0:
309,82,216638,1,0,3:2:0:0:
183,189,216806,2,0,L|94:179,1,89.25,10|0,2:0|0:0,0:0:0:0:
64,341,217143,6,0,B|106:295|106:295|94:179,1,178.5,2|8,3:2|2:0,0:0:0:0:
192,360,217649,2,0,L|182:268,1,89.25,2|0,3:2|0:0,0:0:0:0:
163,91,217986,1,0,3:2:0:0:
271,232,218154,2,0,L|364:220,1,89.25,8|0,2:0|0:0,0:0:0:0:
470,316,218491,5,2,3:2:0:0:
310,86,218660,1,0,0:0:0:0:
286,350,218829,1,10,2:0:0:0:
413,97,218997,1,0,3:2:0:0:
197,281,219166,5,2,2:0:0:0:
250,19,219334,1,0,3:2:0:0:
386,220,219503,1,10,2:0:0:0:
145,71,219671,1,0,0:0:0:0:
386,220,219840,6,0,B|432:226|432:226|471:207,1,89.2499972763062,6|0,3:2|0:0,0:0:0:0:
308,203,220093,2,0,B|278:240|278:240|275:282,1,89.2499972763062,2|0,2:0|0:0,0:0:0:0:
361,143,220345,2,0,B|338:84,1,44.6249986381531,2|0,3:2|0:0,0:0:0:0:
145,62,220514,6,0,B|98:55|98:55|59:74,1,89.2499972763062,2|0,2:0|3:2,0:0:0:0:
223,79,220767,2,0,B|252:41|252:41|255:0,1,89.2499972763062,2|0,2:0|0:0,0:0:0:0:
170,139,221020,2,0,B|193:198,1,44.6249986381531,2|0,2:0|0:0,0:0:0:0:
349,321,221188,6,0,B|395:327|395:327|434:308,1,89.2499972763062,2|0,3:2|0:0,0:0:0:0:
271,304,221441,2,0,B|241:341|241:341|238:383,1,89.2499972763062,2|0,2:0|0:0,0:0:0:0:
324,244,221694,2,0,B|301:185,1,44.6249986381531,2|0,3:2|0:0,0:0:0:0:
424,106,221862,6,0,L|414:194,1,89.25,2|0,2:0|3:2,0:0:0:0:
231,210,222199,1,8,2:0:0:0:
433,309,222368,1,2,2:0:0:0:
231,210,222536,6,0,L|132:219,1,89.25,2|0,3:2|0:0,0:0:0:0:
49,325,222873,2,0,L|148:334,1,89.25,10|0,2:0|3:2,0:0:0:0:
45,137,223211,2,0,L|54:236,1,89.25,2|0,2:0|3:2,0:0:0:0:
235,312,223548,1,10,2:0:0:0:
135,128,223716,1,2,2:0:0:0:
235,312,223885,6,0,B|283:298|327:326|327:326|364:307|364:268,2,133.875,2|2|2,3:2|2:0|3:2,0:0:0:0:
324,141,224559,2,0,L|312:245,1,89.25,2|0,2:0|3:2,0:0:0:0:
154,338,224896,2,0,L|143:249,1,89.25,8|0,2:0|0:0,0:0:0:0:
30,127,225233,6,0,B|126:152|103:88|212:119,1,178.499994552612,2|8,3:2|2:0,0:0:0:0:
209,270,225739,2,0,P|173:233|169:182,1,89.25,2|0,3:2|0:0,0:0:0:0:
235,46,226076,1,0,3:2:0:0:
321,185,226244,2,0,L|328:96,1,89.25,10|0,2:0|0:0,0:0:0:0:
469,319,226581,6,0,B|400:303|400:303|374:321|374:321|295:303,1,178.5,2|8,3:2|2:0,0:0:0:0:
241,198,227087,1,0,3:2:0:0:
120,308,227256,2,0,L|22:299,1,89.25,2|0,2:0|3:2,0:0:0:0:
241,198,227593,2,0,L|339:189,1,89.25,10|0,2:0|0:0,0:0:0:0:
166,112,227930,6,0,B|124:105|84:136|84:136|35:122|32:88,1,133.875,6|0,3:2|0:0,0:0:0:0:
22,89,228267,1,10,2:0:0:0:
156,195,228435,2,0,L|162:286,1,89.25,2|0,3:2|0:0,0:0:0:0:
252,113,228772,1,2,3:2:0:0:
71,252,228941,1,10,2:0:0:0:
252,113,229109,1,2,2:0:0:0:
71,252,229278,6,0,P|142:235|254:248,1,178.5,2|8,3:2|2:0,0:0:0:0:
427,329,229784,1,2,2:0:0:0:
307,186,229952,1,8,2:0:0:0:
307,186,230036,1,8,2:0:0:0:
307,186,230121,1,10,2:0:0:0:
276,344,230289,1,10,2:0:0:0:
422,194,230458,1,8,2:0:0:0:
424,171,230542,1,8,2:0:0:0:
426,149,230626,6,0,B|386:142|373:106|373:106|338:89|308:107,1,127.5,4|0,3:2|0:0,0:0:0:0:
247,119,230963,2,0,L|141:103,1,85,10|0,2:2|3:2,0:0:0:0:
44,17,231300,2,0,L|56:101,1,85,2|0,2:2|3:2,0:0:0:0:
21,227,231638,2,0,P|79:207|172:217,1,127.5,10|0,2:2|0:0,0:0:0:0:
211,242,231975,6,0,P|259:254|311:241,1,85,2|0,3:2|0:0,0:0:0:0:
295,131,232312,1,8,2:2:0:0:
315,331,232480,2,0,P|357:305|385:259,1,85,2|0,3:2|0:0,0:0:0:0:
417,147,232817,1,2,3:2:0:0:
293,248,232986,1,10,2:2:0:0:
454,329,233154,1,2,0:2:0:0:
417,147,233323,6,0,B|341:165|368:127|270:139,1,127.5,2|0,3:2|0:0,0:0:0:0:
256,151,233660,1,10,2:2:0:0:
324,300,233829,2,0,L|308:210,1,85,2|0,3:2|0:0,0:0:0:0:
284,56,234166,1,2,3:2:0:0:
193,242,234334,1,10,2:2:0:0:
402,245,234503,1,2,0:2:0:0:
193,242,234671,6,0,B|145:227|145:227|117:237|117:237|40:212,1,127.5,2|0,3:2|0:0,0:0:0:0:
44,226,235008,1,10,2:2:0:0:
104,68,235177,2,0,L|115:171,1,85,2|0,3:2|0:0,0:0:0:0:
134,329,235514,1,2,3:2:0:0:
216,155,235682,1,10,2:2:0:0:
44,226,235851,1,2,0:2:0:0:
258,235,236020,6,0,P|325:222|408:220,1,127.5,2|0,3:2|0:0,0:0:0:0:
456,221,236357,2,0,P|488:183|488:140,1,85,10|0,2:2|3:2,0:0:0:0:
347,63,236694,2,0,P|364:110|401:131,1,85,2|0,2:2|3:2,0:0:0:0:
251,74,237031,2,0,B|171:103|196:43|91:75,1,127.5,10|0,2:2|0:0,0:0:0:0:
47,80,237368,6,0,L|58:172,1,85,2|0,3:2|0:0,0:0:0:0:
230,0,237705,1,8,2:2:0:0:
212,173,237873,2,0,L|201:265,1,85,2|0,3:2|0:0,0:0:0:0:
297,235,238211,1,2,3:2:0:0:
140,142,238379,1,10,2:2:0:0:
119,332,238548,1,2,0:2:0:0:
297,235,238716,6,0,B|379:214|379:214|415:241|436:249,1,127.5,2|0,3:2|0:0,0:0:0:0:
433,259,239053,1,10,2:2:0:0:
361,94,239222,2,0,L|375:189,1,85,2|0,3:2|0:0,0:0:0:0:
398,340,239559,1,2,3:2:0:0:
265,147,239727,1,10,2:2:0:0:
495,172,239896,1,2,0:2:0:0:
265,147,240064,6,0,B|217:147|196:176|196:176|147:176|119:149,1,127.5,2|0,3:2|0:0,0:0:0:0:
118,148,240402,1,10,2:2:0:0:
243,308,240570,2,0,L|258:215,1,85,6|0,3:2|0:0,0:0:0:0:
176,79,240907,1,2,3:2:0:0:
146,269,241076,1,10,2:2:0:0:
345,197,241244,1,2,0:2:0:0:
260,13,241413,6,0,P|271:82|274:159,1,127.5,6|0,3:2|0:0,0:0:0:0:
258,218,241750,2,0,L|276:320,1,85,10|0,2:2|3:2,0:0:0:0:
427,261,242087,2,0,L|442:177,1,85,2|0,2:2|3:2,0:0:0:0:
343,50,242424,2,0,L|358:185,1,127.5,10|0,2:2|0:0,0:0:0:0:
330,249,242761,6,0,P|278:262|236:245,1,85,2|0,3:2|0:0,0:0:0:0:
219,97,243098,1,8,2:2:0:0:
222,333,243267,2,0,P|176:305|158:264,1,85,2|0,3:2|0:0,0:0:0:0:
141,140,243604,1,2,3:2:0:0:
282,184,243772,1,10,2:2:0:0:
89,259,243941,1,2,0:2:0:0:
257,103,244109,6,0,B|341:92|301:140|413:122,1,127.5,2|0,3:2|0:0,0:0:0:0:
404,114,244447,1,10,2:2:0:0:
290,268,244615,2,0,L|279:164,1,85,2|0,3:2|0:0,0:0:0:0:
263,14,244952,1,2,3:2:0:0:
388,208,245121,1,10,2:2:0:0:
170,140,245289,1,2,0:2:0:0:
388,208,245458,6,0,P|446:159|444:90,1,127.5,2|0,3:2|0:0,0:0:0:0:
451,83,245795,1,10,2:2:0:0:
301,35,245963,2,0,P|260:34|217:49,1,85,2|0,3:2|0:0,0:0:0:0:
102,228,246300,1,2,3:2:0:0:
252,151,246469,1,10,2:2:0:0:
87,30,246638,1,2,0:2:0:0:
252,151,246806,6,0,B|310:156|310:156|330:142|330:142|401:150,1,127.5,2|0,3:2|0:0,0:0:0:0:
449,166,247143,2,0,L|446:268,1,85,10|0,2:2|3:2,0:0:0:0:
330,334,247480,2,0,L|328:249,1,85,2|0,2:2|3:2,0:0:0:0:
222,158,247817,2,0,P|175:215|101:206,1,127.5,10|0,2:2|0:0,0:0:0:0:
47,210,248154,6,0,L|55:108,1,85,2|0,3:2|0:0,0:0:0:0:
62,0,248491,1,8,2:2:0:0:
148,141,248660,2,0,L|140:39,1,85,2|0,3:2|0:0,0:0:0:0:
54,294,248997,1,2,3:2:0:0:
199,224,249166,1,10,2:2:0:0:
10,140,249334,1,2,0:2:0:0:
199,224,249503,6,0,B|253:225|283:265|283:265|299:226,1,127.5,2|0,3:2|0:0,0:0:0:0:
310,209,249840,1,10,2:2:0:0:
201,323,250008,2,0,L|94:311,1,85,2|0,3:2|0:0,0:0:0:0:
176,142,250345,1,2,3:2:0:0:
315,283,250514,1,10,2:2:0:0:
111,219,250682,1,2,0:2:0:0:
315,283,250851,6,0,P|385:265|446:258,1,127.5,2|0,3:2|0:0,0:0:0:0:
465,267,251188,1,10,2:2:0:0:
344,88,251357,1,10,2:2:0:0:
344,88,251694,5,2,3:2:0:0:
200,131,251862,2,0,P|231:140|264:133,1,63.75,8|0,3:0|0:0,0:0:0:0:
344,88,252199,6,0,B|305:82|270:48|270:48|306:138|337:249|337:249|337:249|337:249|351:348|213:422|101:291|161:182|246:179,1,688.500016809082,6|0,3:2|0:0,0:0:0:0:
