osu file format v14

[General]
AudioFilename: audio.mp3
AudioLeadIn: 0
PreviewTime: 41636
Countdown: 0
SampleSet: Soft
StackLeniency: 0.4
Mode: 0
LetterboxInBreaks: 0
WidescreenStoryboard: 1

[Editor]
DistanceSpacing: 1
BeatDivisor: 4
GridSize: 4
TimelineZoom: 2.5

[Metadata]
Title:Gigantic O.T.N
TitleUnicode:ギガンティックO.T.N
Artist:yuikonnu
ArtistUnicode:ゆいこんぬ
Creator:Camo
Version:Normal
Source:
Tags:ストロベリズム宣言 giga giga-p cover ギガ 鏡音レン kagamine len electronic oriental japanese pop j-pop jpop camocratic calliecube strawberrhythm sengen gigap utaite nico douga
BeatmapID:2826941
BeatmapSetID:1362797

[Difficulty]
HPDrainRate:3
CircleSize:3.2
OverallDifficulty:4
ApproachRate:6
SliderMultiplier:1.1
SliderTickRate:1

[Events]
//Background and Video events
0,0,"bg-min.jpg",0,0
//Break Periods
2,129033,137882
//Storyboard Layer 0 (Background)
//Storyboard Layer 1 (Fail)
//Storyboard Layer 2 (Pass)
//Storyboard Layer 3 (Foreground)
//Storyboard Layer 4 (Overlay)
//Storyboard Sound Samples

[TimingPoints]
623,315.789473684211,4,2,1,70,1,0
623,-100,4,2,1,70,0,0
859,-100,4,2,1,5,0,0
938,-100,4,2,1,70,0,0
1175,-100,4,2,1,5,0,0
1255,315.789473684211,4,2,1,70,1,0
1255,-100,4,2,1,70,0,0
4018,-100,4,2,1,5,0,0
4097,-100,4,2,1,70,0,0
4333,-100,4,2,1,5,0,0
4412,-100,4,2,1,70,0,0
6228,-100,4,2,1,5,0,0
6307,-100,4,2,1,70,0,0
8281,-100,4,2,1,5,0,0
8360,-100,4,2,1,70,0,0
8597,-100,4,2,1,5,0,0
8676,-100,4,2,1,70,0,0
8912,-100,4,2,1,5,0,0
8991,-100,4,2,1,70,0,0
10965,-100,4,2,1,5,0,0
11044,-100,4,2,1,70,0,0
11281,-100,4,2,1,5,0,0
11360,-100,4,2,1,60,0,0
14755,-100,4,2,1,5,0,0
14833,-100,4,2,1,60,0,0
15702,-100,4,2,1,5,0,0
15781,-100,4,2,1,60,0,0
16333,-100,4,2,1,5,0,0
16412,-100,4,2,1,60,0,0
18228,-100,4,2,1,5,0,0
18307,-100,4,2,1,60,0,0
19807,-100,4,2,1,5,0,0
19886,-100,4,2,1,60,0,0
23281,-100,4,2,1,5,0,0
23360,-100,4,2,1,60,0,0
26755,-100,4,2,1,5,0,0
26833,-100,4,2,1,60,0,0
31491,-100,4,2,1,5,0,0
31570,-100,4,2,2,60,0,0
31649,-100,4,2,2,5,0,0
31728,-100,4,2,2,60,0,0
34018,-100,4,2,2,5,0,0
34097,-100,4,2,2,60,0,0
34176,-100,4,2,2,5,0,0
34255,-100,4,2,2,60,0,0
36228,-100,4,2,2,5,0,0
36307,-100,4,2,2,60,0,0
36544,-100,4,2,2,5,0,0
36623,-100,4,2,2,60,0,0
37176,-100,4,2,2,5,0,0
37255,-100,4,2,2,60,0,0
37807,-100,4,2,2,5,0,0
37886,-100,4,2,2,60,0,0
39149,-100,4,2,2,70,0,0
40412,-100,4,2,1,70,0,0
41597,-100,4,2,1,5,0,0
41676,-100,4,2,1,75,0,1
61886,-100,4,2,2,70,0,0
64018,-100,4,2,2,5,0,0
64097,-100,4,2,1,70,0,0
64333,-100,4,2,1,5,0,0
64412,-100,4,2,1,70,0,0
74123,-100,4,2,1,5,0,0
74202,-100,4,2,1,70,0,0
74439,-100,4,2,1,5,0,0
74518,-100,4,2,1,60,0,0
94649,-100,4,2,1,5,0,0
94728,-100,4,2,1,70,0,0
102307,-100,4,2,2,70,0,0
103570,-100,4,2,1,60,0,0
105722,-100,4,2,4,60,0,0
105781,-100,4,2,1,60,0,0
106097,-100,4,2,1,75,0,1
126307,-100,4,2,2,70,0,0
128439,-100,4,2,2,5,0,0
128518,-100,4,2,1,70,0,0
128755,-100,4,2,1,5,0,0
128833,-100,4,2,1,70,0,0
149044,-100,4,2,1,60,0,0
150228,-100,4,2,1,5,0,0
150307,-100,4,2,1,80,0,1
170518,-100,4,2,6,70,0,0
170597,-100,4,2,2,70,0,0
175255,-100,4,2,3,70,0,0
175570,-100,4,2,5,75,0,0
175649,-100,4,2,1,75,0,0

[Colours]
Combo1 : 136,0,136
Combo2 : 255,133,74
Combo3 : 104,216,253
Combo4 : 157,157,255

[HitObjects]
118,63,623,6,0,L|271:53,1,110,0|8,0:0|0:1,0:0:0:0:
335,32,1255,6,0,P|321:105|318:155,1,110,6|10,1:2|0:2,0:0:0:0:
343,189,1728,1,0,0:0:0:0:
343,189,1886,2,0,L|472:176,1,110,2|8,1:2|0:2,0:0:0:0:
505,275,2518,1,2,1:2:0:0:
426,351,2833,2,0,L|331:342,1,55,10|2,0:2|0:0,0:0:0:0:
316,337,3149,1,2,1:2:0:0:
292,229,3465,2,0,L|230:241,1,55,10|2,0:2|0:2,1:2:0:0:
201,281,3781,5,2,1:2:0:0:
103,331,4097,2,0,B|74:280|74:280|102:214,1,110,10|2,0:2|1:2,0:0:0:0:
129,191,4570,1,2,0:0:0:0:
37,140,4886,1,2,0:0:0:0:
37,140,5044,2,0,L|28:26,1,110,2|10,1:2|0:2,0:0:0:0:
138,22,5676,2,0,P|181:9|211:4,2,55,2|2|10,1:2|0:2|0:2,0:0:0:0:
176,125,6307,5,2,1:2:0:0:
280,85,6623,2,0,L|258:219,1,110,8|0,0:2|1:2,0:0:0:0:
285,301,7255,1,8,0:2:0:0:
373,366,7570,1,0,1:2:0:0:
373,366,7728,2,0,L|470:351,1,55,2|10,0:2|0:2,0:0:0:0:
494,269,8202,1,2,1:2:0:0:
494,269,8360,2,0,L|511:137,1,110,2|2,0:2|0:2,0:0:0:0:
450,66,8991,6,0,L|386:56,1,55,2|10,0:2|0:2,0:0:0:0:
347,84,9307,2,0,L|283:74,1,55,2|2,0:2|1:2,0:0:0:0:
242,98,9623,1,2,0:2:0:0:
242,98,9781,2,0,B|270:142|270:142|260:220,1,110,10|0,0:2|1:2,0:0:0:0:
242,307,10412,1,10,0:2:0:0:
149,366,10728,2,0,L|20:353,1,110,2|2,0:2|0:2,0:0:0:0:
31,244,11360,6,0,L|20:179,1,55,6|0,1:2|0:0,0:0:0:0:
57,147,11676,1,2,1:2:0:0:
78,47,11991,1,2,1:2:0:0:
182,13,12307,1,2,1:2:0:0:
159,120,12623,2,0,L|150:181,2,55,2|2|2,1:2|0:0|1:2,0:0:0:0:
264,87,13255,2,0,L|387:72,1,110,2|2,1:2|1:2,0:0:0:0:
464,11,13886,6,0,L|475:67,1,55,2|2,1:2|0:0,0:0:0:0:
462,118,14202,1,2,1:2:0:0:
506,215,14518,2,0,L|380:201,1,110,2|2,1:2|1:2,0:0:0:0:
324,119,15149,1,2,1:2:0:0:
259,22,15465,1,2,1:2:0:0:
143,9,15781,2,0,L|87:2,2,55,2|2|2,1:2|0:0|1:2,0:0:0:0:
83,98,16412,6,0,L|73:154,1,55,2|2,1:2|0:0,0:0:0:0:
39,195,16728,1,2,1:2:0:0:
1,297,17044,1,2,1:2:0:0:
80,372,17360,1,2,1:2:0:0:
170,309,17676,2,0,B|191:337|191:337|272:326,1,110,2|2,1:2|1:2,0:0:0:0:
373,345,18307,2,0,L|439:362,2,55,2|0|2,1:2|0:0|1:2,0:0:0:0:
320,247,18939,6,0,L|343:120,1,110,2|2,1:2|1:2,0:0:0:0:
403,49,19570,1,2,1:2:0:0:
296,21,19886,2,0,L|240:11,1,55,2|2,1:2|0:0,0:0:0:0:
187,20,20202,1,2,1:2:0:0:
123,110,20518,1,2,1:2:0:0:
197,190,20833,1,2,1:2:0:0:
155,292,21149,1,2,1:2:0:0:
240,361,21465,6,0,L|351:351,1,110,6|2,1:2|1:2,0:0:0:0:
433,279,22097,2,0,P|451:308|454:330,2,55,2|0|2,1:2|0:0|1:2,0:0:0:0:
396,245,22570,1,0,0:0:0:0:
396,245,22728,2,0,L|285:235,1,110,2|2,1:2|1:2,0:0:0:0:
186,281,23360,1,2,1:2:0:0:
89,333,23676,1,2,1:2:0:0:
21,246,23991,6,0,L|15:188,1,55,2|2,1:2|0:0,0:0:0:0:
60,159,24307,1,2,1:2:0:0:
84,56,24623,1,2,1:2:0:0:
181,4,24939,2,0,L|248:-1,1,55,2|2,1:2|0:0,0:0:0:0:
276,37,25255,2,0,B|306:92|306:92|280:155,1,110,2|2,1:2|1:2,0:0:0:0:
179,153,25886,1,2,1:2:0:0:
221,250,26202,2,0,L|230:316,1,55,2|2,1:2|0:0,0:0:0:0:
267,344,26518,6,0,P|326:349|386:371,1,110,2|2,1:2|1:2,0:0:0:0:
456,291,27149,2,0,P|482:283|504:265,2,55,2|0|2,1:2|0:0|1:2,0:0:0:0:
353,250,27781,1,2,1:2:0:0:
439,182,28097,1,2,1:2:0:0:
432,73,28412,2,0,L|373:64,1,55,2|2,1:2|0:0,0:0:0:0:
359,12,28728,2,0,L|300:3,1,55,2|2,1:2|0:0,0:0:0:0:
256,31,29044,5,2,1:2:0:0:
149,17,29360,1,2,1:2:0:0:
41,41,29676,2,0,B|64:77|64:77|51:167,1,110,2|2,1:2|1:2,0:0:0:0:
37,196,30149,1,2,0:0:0:0:
37,196,30307,2,0,L|150:186,1,110,2|2,1:2|1:2,0:0:0:0:
205,279,30939,1,2,1:2:0:0:
311,252,31255,1,2,1:2:0:0:
396,329,31570,5,6,1:2:0:0:
396,329,31728,2,0,L|414:215,2,110,2|2|2,0:0|0:0|0:0,0:0:0:0:
287,349,32676,2,0,L|305:235,2,110,2|2|2,0:0|0:0|0:0,0:0:0:0:
180,355,33623,1,2,0:0:0:0:
180,355,33781,2,0,L|190:288,1,55,4|2,1:2|0:0,0:0:0:0:
214,251,34097,5,4,1:2:0:0:
214,251,34255,2,0,L|84:235,2,110,2|2|2,0:0|0:0|0:0,0:0:0:0:
175,147,35202,2,0,L|45:131,2,110,2|2|2,0:0|0:0|0:0,0:0:0:0:
251,68,36149,1,6,0:0:0:0:
251,68,36307,2,0,B|275:103|275:103|347:95,1,110,4|4,1:2|1:2,0:0:0:0:
438,33,36939,1,0,1:2:0:0:
478,135,37255,2,0,L|468:248,1,110,4|0,1:2|1:2,0:0:0:0:
492,352,37886,5,4,1:2:0:0:
382,346,38202,1,4,1:2:0:0:
296,276,38518,1,4,1:2:0:0:
186,270,38833,1,4,1:2:0:0:
93,329,39149,6,0,L|103:386,2,55,4|6|4,1:2|1:2|1:2,0:0:0:0:
57,286,39623,1,6,1:2:0:0:
57,286,39781,2,0,B|29:228|67:183|67:183|109:134|72:75,1,220,4|2,1:2|1:2,0:0:0:0:
161,12,40728,5,0,1:2:0:0:
212,109,41044,1,0,1:2:0:0:
273,17,41360,1,8,0:1:0:0:
366,74,41676,6,0,L|424:67,2,55,6|2|10,1:2|0:0|0:2,0:0:0:0:
284,147,42307,2,0,L|272:258,1,110,2|10,1:2|0:2,0:0:0:0:
270,311,42781,1,2,0:0:0:0:
357,376,43097,2,0,B|389:347|389:347|382:263,1,110,2|2,0:0|0:0,0:0:0:0:
402,228,43570,2,0,L|336:218,1,55,2|2,1:2|0:0,0:0:0:0:
307,181,43886,2,0,L|241:171,1,55,10|2,0:2|0:0,0:0:0:0:
208,139,44202,5,2,1:2:0:0:
137,223,44518,1,10,0:2:0:0:
178,324,44833,2,0,B|213:305|213:305|299:315,1,110,2|10,1:2|0:2,0:0:0:0:
333,334,45307,2,0,L|354:215,2,110,2|2|2,0:0|0:0|0:0,0:0:0:0:
376,367,46097,1,2,1:2:0:0:
483,344,46412,1,10,0:2:0:0:
472,234,46728,6,0,L|495:171,2,55,2|2|10,1:2|0:0|0:2,0:0:0:0:
428,268,47202,2,0,B|305:255,1,110,2|2,0:0|0:0,0:0:0:0:
276,216,47676,1,10,0:2:0:0:
166,215,47991,1,2,1:2:0:0:
72,273,48307,2,0,P|58:246|30:222,2,55,10|2|2,0:2|0:0|1:2,0:0:0:0:
94,323,48781,1,2,0:0:0:0:
204,325,49097,1,2,0:0:0:0:
311,372,49412,5,2,0:0:0:0:
311,372,49570,2,0,B|344:322|344:322|327:267,1,110,10|2,0:2|1:2,0:0:0:0:
339,164,50202,2,0,L|401:156,1,55,10|2,0:2|0:0,0:0:0:0:
465,73,50676,1,2,0:0:0:0:
372,24,50991,1,2,0:0:0:0:
372,24,51149,2,0,L|317:31,1,55,2|2,1:2|1:2,0:0:0:0:
267,7,51465,2,0,L|212:14,1,55,10|0,0:2|1:2,0:0:0:0:
157,24,51781,6,0,B|187:61|187:61|170:131,1,110,6|10,1:2|0:2,0:0:0:0:
99,203,52412,2,0,L|116:324,1,110,2|10,1:2|0:2,0:0:0:0:
159,344,52886,2,0,P|217:326|274:324,2,110,2|2|2,0:0|0:0|0:0,0:0:0:0:
114,311,53676,1,2,1:2:0:0:
171,217,53991,1,10,0:2:0:0:
61,212,54307,5,2,1:2:0:0:
13,112,54623,2,0,B|30:133|30:133|113:121,1,110,10|2,0:2|1:2,0:0:0:0:
205,60,55255,1,10,0:2:0:0:
205,60,55412,2,0,L|192:176,1,110,2|2,0:0|0:0,0:0:0:0:
217,218,55886,1,10,0:2:0:0:
326,208,56202,1,2,1:2:0:0:
414,139,56518,2,0,L|481:131,1,55,10|0,0:2|0:0,0:0:0:0:
498,85,56833,6,0,B|476:58|476:58|384:49,1,110,2|10,1:2|0:2,0:0:0:0:
349,30,57307,1,2,0:0:0:0:
250,74,57623,1,2,0:0:0:0:
284,176,57939,1,0,0:0:0:0:
284,176,58097,2,0,P|328:160|376:150,2,82.5,2|2|2,1:2|0:0|0:0,0:0:0:0:
256,223,58728,1,2,1:2:0:0:
256,223,58886,2,0,L|274:336,1,110,2|2,0:0|0:0,0:0:0:0:
377,383,59518,5,2,0:0:0:0:
377,383,59676,2,0,L|394:265,1,110,10|2,0:2|1:2,0:0:0:0:
459,186,60307,2,0,L|468:126,1,55,10|2,0:2|0:0,0:0:0:0:
470,21,60781,1,2,0:0:0:0:
470,21,60939,2,0,B|451:41|451:41|368:27,1,110,10|2,0:2|1:2,0:0:0:0:
262,1,61570,1,10,0:2:0:0:
290,107,61886,6,0,L|279:222,1,110,6|6,1:2|1:2,0:0:0:0:
342,307,62518,2,0,P|375:296|402:292,2,55,6|4|6,1:2|1:2|1:2,0:0:0:0:
250,363,63149,2,0,L|191:357,1,55,6|6,1:2|1:2,0:0:0:0:
149,326,63465,2,0,L|29:316,1,110,6|6,1:2|1:2,0:0:0:0:
6,211,64097,1,10,0:1:0:0:
93,144,64412,6,0,P|141:125|206:113,1,110,6|10,1:2|0:2,0:0:0:0:
308,104,65044,2,0,L|297:221,1,110,2|8,1:2|0:2,0:0:0:0:
265,319,65676,1,2,1:2:0:0:
365,363,65991,2,0,L|426:356,1,55,10|2,0:2|0:0,0:0:0:0:
474,348,66307,1,2,1:2:0:0:
438,254,66623,2,0,L|452:193,1,55,10|2,0:0|0:0,0:0:0:0:
474,150,66939,5,2,1:2:0:0:
368,182,67255,2,0,L|240:170,1,110,10|2,0:2|1:2,0:0:0:0:
210,198,67728,2,0,L|141:190,1,55,2|8,0:0|0:2,0:0:0:0:
46,172,68202,2,0,L|28:57,1,110,2|8,1:2|0:2,0:0:0:0:
129,18,68833,2,0,P|160:4|186:2,2,55,2|2|10,1:2|0:0|0:2,0:0:0:0:
196,105,69465,5,2,1:2:0:0:
281,35,69781,2,0,L|393:28,1,110,10|0,0:2|1:2,0:0:0:0:
484,84,70412,2,0,L|465:200,1,110,8|0,0:2|1:2,0:0:0:0:
456,247,70886,1,2,0:0:0:0:
456,247,71044,2,0,B|420:227|420:227|341:236,1,110,10|2,0:2|1:2,0:0:0:0:
305,265,71518,1,2,0:0:0:0:
228,344,71833,1,2,0:0:0:0:
123,310,72149,5,2,0:0:0:0:
123,310,72307,2,0,L|106:196,1,110,10|2,0:2|1:2,0:0:0:0:
127,149,72781,2,0,L|115:83,1,55,2|10,0:0|0:2,0:0:0:0:
118,39,73097,1,2,0:0:0:0:
224,11,73412,1,2,1:2:0:0:
224,11,73570,2,0,B|244:36|244:36|339:21,1,110,10|2,0:2|0:0,0:0:0:0:
430,7,74202,1,2,0:0:0:0:
385,107,74518,6,0,L|378:170,1,55,6|0,1:2|0:0,0:0:0:0:
390,215,74833,1,2,1:2:0:0:
443,310,75149,2,0,P|483:301|511:297,2,55,2|0|2,1:2|0:0|1:2,0:0:0:0:
343,355,75781,2,0,L|232:343,1,110,2|2,1:2|1:2,0:0:0:0:
138,288,76412,2,0,L|22:277,1,110,2|2,1:2|1:2,0:0:0:0:
49,169,77044,5,2,1:2:0:0:
151,131,77360,2,0,L|272:143,1,110,2|2,1:2|1:2,0:0:0:0:
346,191,77991,1,2,1:2:0:0:
453,163,78307,1,2,1:2:0:0:
453,163,78465,2,0,B|427:146|427:146|440:51,1,110,2|2,0:0|0:0,0:0:0:0:
466,20,78939,1,2,1:2:0:0:
356,33,79255,1,2,1:2:0:0:
251,47,79570,6,0,B|275:66|275:66|256:157,1,110,2|2,1:2|1:2,0:0:0:0:
267,246,80202,1,2,1:2:0:0:
288,346,80518,1,2,1:2:0:0:
393,376,80833,1,2,1:2:0:0:
443,287,81149,2,0,L|454:167,1,110,2|2,1:2|1:2,0:0:0:0:
428,76,81781,2,0,L|374:62,1,55,2|2,1:2|0:0,0:0:0:0:
319,67,82097,5,2,1:2:0:0:
217,25,82412,2,0,B|196:47|196:47|102:35,1,110,2|2,1:2|1:2,0:0:0:0:
152,141,83044,1,2,1:2:0:0:
62,212,83360,2,0,P|31:202|6:199,2,55,2|0|2,1:2|0:0|1:2,0:0:0:0:
122,301,83991,2,0,P|162:307|227:341,1,110,2|2,1:2|1:2,0:0:0:0:
325,380,84623,5,6,1:2:0:0:
375,292,84939,2,0,L|391:163,1,110,2|2,1:2|1:2,0:0:0:0:
366,83,85570,1,2,1:2:0:0:
257,63,85886,2,0,B|279:93|279:93|257:188,1,110,2|2,1:2|1:2,0:0:0:0:
222,256,86518,2,0,P|187:246|158:244,2,55,2|2|2,1:2|0:0|1:2,0:0:0:0:
189,361,87149,6,0,L|124:354,1,55,2|0,1:2|0:0,0:0:0:0:
100,311,87465,1,2,1:2:0:0:
19,255,87781,2,0,B|44:234|44:234|32:137,1,110,2|2,1:2|1:2,0:0:0:0:
2,51,88412,1,2,1:2:0:0:
106,67,88728,2,0,L|238:52,1,110,2|2,1:2|1:2,0:0:0:0:
261,85,89202,2,0,L|331:77,1,55,2|2,0:0|1:2,0:0:0:0:
425,70,89676,5,2,1:2:0:0:
510,153,89991,1,2,1:2:0:0:
474,257,90307,2,0,P|444:267|417:289,1,55,2|2,1:2|0:0,0:0:0:0:
392,325,90623,1,2,1:2:0:0:
292,352,90939,2,0,L|166:339,1,110,2|2,1:2|1:2,0:0:0:0:
82,319,91570,2,0,P|36:323|18:331,2,55,2|2|2,1:2|0:0|1:2,0:0:0:0:
151,232,92202,6,0,P|183:211|258:195,1,110,2|2,1:2|1:2,0:0:0:0:
341,259,92833,2,0,L|357:141,1,110,2|2,1:2|1:2,0:0:0:0:
371,40,93465,2,0,L|483:27,1,110,2|2,1:2|1:2,0:0:0:0:
502,135,94097,2,0,L|512:194,2,55,2|2|2,0:0|0:0|0:0,0:0:0:0:
431,211,94728,6,0,B|403:234|403:234|316:222,1,110,2|2,1:2|0:0,0:0:0:0:
230,224,95360,2,0,L|247:347,1,110,2|2,0:0|1:2,0:0:0:0:
137,355,95991,2,0,L|17:344,1,110,2|2,1:2|1:2,0:0:0:0:
5,235,96623,1,2,0:0:0:0:
81,155,96939,1,2,1:2:0:0:
93,46,97255,6,0,L|211:34,1,110,2|2,1:2|0:0,0:0:0:0:
297,89,97886,2,0,L|284:167,1,55,2|2,0:0|0:0,0:0:0:0:
312,193,98202,2,0,L|299:271,1,55,2|2,1:2|0:0,0:0:0:0:
325,298,98518,1,2,1:2:0:0:
431,326,98833,1,2,1:2:0:0:
478,229,99149,2,0,P|493:191|505:176,2,55,2|0|2,1:2|1:2|1:2,0:0:0:0:
387,169,99781,6,0,P|365:103|339:57,1,110,2|2,1:2|0:0,0:0:0:0:
248,19,100412,2,0,L|178:15,1,55,2|2,0:0|0:0,0:0:0:0:
138,22,100728,1,2,1:2:0:0:
60,100,101044,2,0,P|44:52|8:0,2,110,2|0|2,1:2|1:2|0:0,0:0:0:0:
110,192,101991,2,0,L|226:177,1,110,2|2,1:2|1:2,0:0:0:0:
257,137,102465,5,0,1:2:0:0:
257,137,102623,2,0,L|317:130,1,55,2|0,1:2|1:2,0:0:0:0:
366,133,102939,2,0,B|349:161|349:161|377:298,1,165,2|0,1:2|1:2,0:0:0:0:
421,321,103570,5,2,1:2:0:0:
325,376,103886,1,2,1:2:0:0:
221,337,104202,1,2,1:2:0:0:
111,330,104518,2,0,L|100:384,2,55,2|0|2,1:2|1:2|1:2,0:0:0:0:
137,281,104991,1,2,1:2:0:0:
137,281,105149,2,0,L|147:208,2,55,2|0|2,1:2|1:2|1:2,0:0:0:0:
46,79,106097,6,0,L|110:92,1,55,6|2,1:2|0:0,0:0:0:0:
150,68,106412,1,10,0:2:0:0:
255,99,106728,2,0,B|230:121|230:121|245:208,1,110,2|10,1:2|0:2,0:0:0:0:
233,251,107202,1,2,0:0:0:0:
342,238,107518,1,2,0:0:0:0:
454,228,107833,1,2,0:0:0:0:
454,228,107991,2,0,L|467:161,1,55,2|2,1:2|0:0,0:0:0:0:
443,122,108307,1,10,0:2:0:0:
469,15,108623,5,2,1:2:0:0:
365,51,108939,1,10,0:2:0:0:
259,18,109255,2,0,P|273:52|294:130,1,110,2|10,1:2|0:2,0:0:0:0:
309,174,109728,1,2,0:0:0:0:
203,141,110044,1,2,0:0:0:0:
108,193,110360,1,2,0:0:0:0:
108,193,110518,2,0,L|118:254,1,55,2|2,1:2|0:0,0:0:0:0:
150,290,110833,1,10,0:2:0:0:
245,329,111149,6,0,L|253:383,2,55,2|2|10,1:2|0:0|0:2,0:0:0:0:
256,274,111623,1,2,0:0:0:0:
369,288,111939,1,2,0:0:0:0:
369,288,112097,2,0,L|430:280,1,55,10|2,0:2|0:0,0:0:0:0:
456,237,112412,2,0,L|467:173,1,55,2|0,1:2|0:0,0:0:0:0:
452,130,112728,1,10,0:2:0:0:
421,24,113044,1,2,1:2:0:0:
421,24,113202,2,0,L|295:13,1,110,2|2,0:0|0:0,0:0:0:0:
205,43,113833,5,2,0:0:0:0:
289,121,114149,1,2,0:0:0:0:
289,121,114307,2,0,L|272:241,1,110,2|10,1:2|0:2,0:0:0:0:
296,280,114781,2,0,L|358:275,2,55,2|2|2,0:0|1:2|0:0,0:0:0:0:
207,344,115412,1,2,0:0:0:0:
207,344,115570,2,0,L|134:336,1,55,2|2,1:2|1:2,0:0:0:0:
99,321,115886,1,10,0:2:0:0:
49,225,116202,6,0,P|20:235|-2:253,2,55,6|2|10,1:2|0:0|0:2,0:0:0:0:
132,155,116833,2,0,L|205:144,1,55,2|2,1:2|0:0,0:0:0:0:
231,45,117307,1,2,0:0:0:0:
344,34,117623,1,2,0:0:0:0:
344,34,117781,2,0,L|334:96,1,55,10|2,0:2|0:0,0:0:0:0:
366,134,118097,1,2,1:2:0:0:
375,243,118412,1,10,0:2:0:0:
343,348,118728,5,2,1:2:0:0:
238,323,119044,2,0,P|223:268|202:217,1,110,10|2,0:2|1:2,0:0:0:0:
128,145,119676,1,10,0:2:0:0:
128,145,119833,2,0,L|260:126,1,110,2|2,0:0|0:0,0:0:0:0:
279,93,120307,1,10,0:2:0:0:
388,106,120623,2,0,P|380:141|378:172,2,55,2|2|10,1:2|0:0|0:2,0:0:0:0:
457,24,121255,6,0,L|514:31,2,55,2|2|10,1:2|0:0|0:2,0:0:0:0:
406,2,121728,2,0,L|294:14,1,110,2|2,0:0|0:0,0:0:0:0:
248,41,122202,1,10,0:2:0:0:
140,17,122518,1,2,1:2:0:0:
130,122,122833,2,0,L|141:177,1,55,10|2,0:2|0:0,0:0:0:0:
124,228,123149,1,2,1:2:0:0:
124,228,123307,2,0,P|194:210|248:204,1,110,2|2,0:0|0:0,0:0:0:0:
315,285,123939,5,2,0:0:0:0:
315,285,124097,2,0,L|252:294,1,55,10|2,0:2|0:0,0:0:0:0:
223,333,124412,1,2,1:2:0:0:
121,376,124728,1,10,0:2:0:0:
70,277,125044,1,0,1:2:0:0:
167,226,125360,2,0,P|155:167|138:115,1,110,10|2,0:2|1:2,0:0:0:0:
104,77,125833,1,2,1:2:0:0:
104,77,125991,2,0,L|163:66,1,55,10|2,0:2|1:2,0:0:0:0:
207,42,126307,6,0,L|330:52,1,110,6|6,1:2|1:2,0:0:0:0:
417,96,126939,2,0,P|454:80|476:77,2,55,6|4|6,1:2|1:2|1:2,0:0:0:0:
338,167,127570,2,0,L|352:227,1,55,6|4,1:2|1:2,0:0:0:0:
367,273,127886,2,0,L|485:259,1,110,6|6,1:2|1:2,0:0:0:0:
510,154,128518,1,10,0:1:0:0:
464,54,128833,5,6,1:2:0:0:
89,62,138939,6,0,L|211:51,1,110,6|8,1:2|0:2,0:0:0:0:
251,67,139412,1,0,0:0:0:0:
251,67,139570,2,0,L|234:195,1,110,2|8,1:2|0:2,0:0:0:0:
293,270,140202,2,0,L|403:281,1,110,2|8,1:2|0:2,0:0:0:0:
506,244,140833,2,0,B|481:225|481:225|492:132,1,110,2|8,1:2|0:2,0:0:0:0:
497,100,141307,1,0,0:0:0:0:
497,100,141465,6,0,L|382:84,1,110,2|8,1:2|0:2,0:0:0:0:
278,95,142097,1,2,1:2:0:0:
168,82,142412,1,8,0:2:0:0:
70,133,142728,2,0,P|90:192|100:272,1,110,2|8,1:2|0:2,0:0:0:0:
137,341,143360,2,0,L|221:353,1,55,2|0,1:2|0:0,0:0:0:0:
234,313,143676,2,0,L|318:325,1,55,8|0,0:2|0:0,0:0:0:0:
324,278,143991,5,2,1:2:0:0:
320,168,144307,1,8,0:2:0:0:
246,82,144623,2,0,L|116:60,1,110,2|8,1:2|0:2,0:0:0:0:
38,14,145255,2,0,L|58:167,1,110,2|8,1:2|0:2,0:0:0:0:
67,176,145728,1,0,0:0:0:0:
67,176,145886,2,0,L|205:158,1,110,2|8,1:2|0:2,0:0:0:0:
285,177,146518,6,0,B|316:200|316:200|395:190,1,110,2|8,1:2|0:2,0:0:0:0:
442,95,147149,2,0,L|319:81,1,110,2|8,1:2|0:2,0:0:0:0:
256,192,147781,12,2,149044,0:0:0:0:
68,334,150307,6,0,P|34:340|7:354,2,55,6|2|10,1:2|0:0|0:2,0:0:0:0:
166,380,150939,2,0,L|278:369,1,110,2|10,1:2|0:2,0:0:0:0:
326,348,151412,1,2,0:0:0:0:
401,267,151728,2,0,L|273:253,1,110,2|2,0:0|0:0,0:0:0:0:
249,218,152202,1,2,1:2:0:0:
155,172,152518,2,0,L|88:164,1,55,10|2,0:2|0:0,0:0:0:0:
57,200,152833,5,2,1:2:0:0:
20,96,153149,2,0,P|66:72|128:62,1,110,10|2,0:2|1:2,0:0:0:0:
227,25,153781,1,10,0:2:0:0:
227,25,153939,2,0,L|211:142,1,110,2|2,0:0|0:0,0:0:0:0:
240,245,154570,1,2,0:0:0:0:
240,245,154728,2,0,P|279:234|299:231,2,55,2|2|10,1:2|0:0|0:2,0:0:0:0:
308,331,155360,6,0,L|370:323,1,55,2|2,1:2|0:0,0:0:0:0:
466,358,155833,2,0,L|478:236,1,110,2|2,0:0|0:0,0:0:0:0:
448,201,156307,1,10,0:2:0:0:
502,103,156623,2,0,L|384:88,1,110,2|10,1:2|0:2,0:0:0:0:
283,73,157255,2,0,L|290:137,1,55,2|2,1:2|0:0,0:0:0:0:
283,242,157728,5,2,0:0:0:0:
283,242,157886,2,0,L|161:231,1,110,0|10,1:2|0:2,0:0:0:0:
82,289,158518,2,0,L|97:346,2,55,2|2|10,1:2|0:0|0:2,0:0:0:0:
27,286,158991,2,0,B|-1:235|-1:235|25:172,1,110,2|2,0:0|0:0,0:0:0:0:
66,87,159623,1,2,0:0:0:0:
66,87,159781,2,0,L|133:78,1,55,2|2,1:2|1:2,0:0:0:0:
164,45,160097,1,10,0:2:0:0:
263,69,160412,6,0,P|256:110|255:136,2,55,6|2|10,1:2|0:0|0:2,0:0:0:0:
372,53,161044,2,0,L|488:44,1,110,2|10,1:2|0:2,0:0:0:0:
512,94,161518,1,2,0:0:0:0:
423,158,161833,2,0,P|434:212|443:278,1,110,2|2,0:0|0:0,0:0:0:0:
456,320,162307,2,0,L|397:328,1,55,2|0,1:2|0:0,0:0:0:0:
348,311,162623,1,10,0:2:0:0:
250,353,162939,5,2,1:2:0:0:
155,296,163255,2,0,L|163:181,1,110,10|2,0:2|1:2,0:0:0:0:
90,102,163886,1,10,0:2:0:0:
90,102,164044,2,0,P|141:84|207:74,1,110,2|2,0:0|0:0,0:0:0:0:
248,92,164518,1,10,0:2:0:0:
351,77,164833,2,0,P|402:66|426:65,2,55,2|2|10,1:2|0:0|0:2,0:0:0:0:
435,148,165465,6,0,L|444:208,1,55,2|2,1:2|0:0,0:0:0:0:
469,251,165781,1,10,0:2:0:0:
469,251,165939,2,0,L|361:268,1,110,2|2,0:0|0:0,0:0:0:0:
340,319,166412,1,10,0:2:0:0:
239,294,166728,1,2,1:2:0:0:
239,294,166886,2,0,B|211:243|211:243|230:178,1,110,2|2,0:0|0:0,0:0:0:0:
244,141,167360,2,0,L|234:87,1,55,2|2,1:2|0:0,0:0:0:0:
150,14,167833,6,0,L|131:133,1,110,2|2,0:0|0:0,0:0:0:0:
104,170,168307,1,10,0:2:0:0:
71,274,168623,2,0,P|44:252|19:247,2,55,2|2|10,1:2|0:0|0:2,0:0:0:0:
99,321,169097,1,2,0:0:0:0:
99,321,169255,2,0,L|232:309,1,110,8|10,0:2|0:2,0:0:0:0:
309,352,169886,2,0,L|376:345,1,55,10|2,1:2|1:2,0:0:0:0:
411,373,170202,2,0,L|478:366,1,55,10|2,0:2|1:2,0:0:0:0:
503,327,170518,5,6,1:2:0:0:
284,301,171149,1,6,1:2:0:0:
65,275,171781,1,6,1:2:0:0:
277,219,172412,1,6,1:2:0:0:
384,194,172728,1,6,1:2:0:0:
458,113,173044,1,6,1:2:0:0:
349,93,173360,1,6,1:2:0:0:
258,30,173676,2,0,L|196:23,1,55,6|4,1:2|1:2,0:0:0:0:
152,45,173991,2,0,L|90:38,1,55,6|4,1:2|1:2,0:0:0:0:
56,74,174307,5,6,1:2:0:0:
56,74,174465,2,0,L|64:139,1,55,6|6,1:2|1:2,0:0:0:0:
46,181,174781,2,0,L|54:246,1,55,6|6,1:2|1:2,0:0:0:0:
238,353,175570,6,0,L|119:344,1,110,6|10,1:2|0:2,0:0:0:0:
87,241,176202,2,0,P|73:173|54:119,1,110,2|8,1:2|0:2,0:0:0:0:
3,40,176833,1,2,1:2:0:0:
113,38,177149,2,0,L|177:32,1,55,10|2,0:2|0:0,0:0:0:0:
202,75,177465,1,2,1:2:0:0:
299,125,177781,2,0,P|319:107|329:76,1,55,10|2,0:2|0:2,0:0:0:0:
323,25,178097,5,2,1:2:0:0:
421,73,178412,2,0,P|443:124|447:197,1,110,10|2,0:0|1:2,0:0:0:0:
438,232,178886,2,0,P|398:248|373:262,1,55,2|8,0:0|0:0,0:0:0:0:
304,326,179360,2,0,L|188:314,1,110,2|10,1:2|0:2,0:0:0:0:
143,320,179833,1,2,0:0:0:0:
143,320,179991,2,0,P|153:363|160:376,2,55,2|2|10,1:2|0:2|0:2,0:0:0:0:
77,230,180623,6,0,B|103:204|103:204|193:213,1,110,2|8,1:2|0:2,0:0:0:0:
253,132,181255,2,0,L|370:146,1,110,0|8,1:2|0:2,0:0:0:0:
390,192,181728,1,2,0:2:0:0:
443,294,182044,1,2,0:2:0:0:
443,294,182202,2,0,B|373:299,1,55,10|2,0:2|0:2,0:0:0:0:
348,336,182518,2,0,B|278:341,1,55,2|2,1:2|0:2,0:0:0:0:
188,375,182991,1,2,0:2:0:0:
80,344,183307,5,2,0:2:0:0:
80,344,183465,2,0,B|109:292|109:292|91:238,1,110,10|2,0:2|1:2,0:0:0:0:
52,206,183939,2,0,L|42:146,1,55,2|10,0:0|0:0,0:0:0:0:
11,106,184255,1,2,0:0:0:0:
90,30,184570,1,2,1:2:0:0:
90,30,184728,2,0,B|113:57|113:57|196:45,1,110,10|2,0:2|1:2,0:0:0:0:
296,31,185360,1,10,0:2:0:0:
377,129,185676,6,0,B|357:159|357:159|372:244,1,110,6|10,1:2|0:2,0:0:0:0:
435,319,186307,2,0,L|446:373,2,55,2|2|8,1:2|0:0|0:2,0:0:0:0:
333,363,186939,2,0,L|212:351,1,110,2|10,1:2|0:2,0:0:0:0:
140,279,187570,1,2,1:2:0:0:
122,174,187886,2,0,L|131:109,1,55,10|2,0:2|0:2,0:0:0:0:
116,65,188202,5,2,1:2:0:0:
19,117,188518,2,0,L|32:236,1,110,10|2,0:2|1:2,0:0:0:0:
19,280,188991,1,2,0:0:0:0:
68,368,189307,1,2,0:0:0:0:
68,368,189465,2,0,L|182:358,1,110,2|10,1:2|0:2,0:0:0:0:
217,319,189939,1,2,0:0:0:0:
217,319,190097,2,0,P|256:334|274:353,2,55,2|2|10,1:2|0:2|0:2,0:0:0:0:
176,219,190728,6,0,P|227:186|291:172,1,110,2|8,1:2|0:2,0:0:0:0:
378,191,191360,2,0,L|386:248,2,55,0|0|8,1:2|0:0|0:2,0:0:0:0:
427,167,191833,1,2,0:2:0:0:
480,70,192149,1,2,0:2:0:0:
480,70,192307,2,0,L|411:63,1,55,10|2,0:2|0:2,0:0:0:0:
384,27,192623,2,0,L|315:20,1,55,2|2,1:2|0:2,0:0:0:0:
229,69,193097,1,2,0:2:0:0:
132,16,193412,5,2,0:2:0:0:
132,16,193570,2,0,B|121:90,1,55,10|2,0:2|0:2,0:0:0:0:
91,114,193886,1,2,1:2:0:0:
91,114,194044,2,0,L|97:187,1,55,2|10,0:0|0:0,0:0:0:0:
179,240,194518,1,0,1:2:0:0:
265,307,194833,2,0,L|342:298,1,55,10|2,0:0|0:0,0:0:0:0:
374,302,195149,2,0,L|361:394,2,82.5,2|2|2,1:2|1:2|1:2,0:0:0:0:
