osu file format v14

[General]
AudioFilename: audio.mp3
AudioLeadIn: 0
PreviewTime: 41636
Countdown: 0
SampleSet: Soft
StackLeniency: 0.4
Mode: 0
LetterboxInBreaks: 0
WidescreenStoryboard: 1

[Editor]
DistanceSpacing: 0.9
BeatDivisor: 4
GridSize: 4
TimelineZoom: 3.399999

[Metadata]
Title:Gigantic O.T.N
TitleUnicode:ギガンティックO.T.N
Artist:yuikonnu
ArtistUnicode:ゆいこんぬ
Creator:Camo
Version:Insane
Source:
Tags:ストロベリズム宣言 giga giga-p cover ギガ 鏡音レン kagamine len electronic oriental japanese pop j-pop jpop camocratic calliecube strawberrhythm sengen gigap utaite nico douga
BeatmapID:2828826
BeatmapSetID:1362797

[Difficulty]
HPDrainRate:5.5
CircleSize:4
OverallDifficulty:8
ApproachRate:9
SliderMultiplier:1.6
SliderTickRate:1

[Events]
//Background and Video events
0,0,"bg-min.jpg",0,0
//Break Periods
2,129033,138339
//Storyboard Layer 0 (Background)
//Storyboard Layer 1 (Fail)
//Storyboard Layer 2 (Pass)
//Storyboard Layer 3 (Foreground)
//Storyboard Layer 4 (Overlay)
//Storyboard Sound Samples

[TimingPoints]
623,315.789473684211,4,2,1,70,1,0
623,-83.3333333333333,4,2,1,70,0,0
859,-83.3333333333333,4,2,1,5,0,0
938,-83.3333333333333,4,2,1,70,0,0
1175,-83.3333333333333,4,2,1,5,0,0
1255,315.789473684211,4,2,1,70,1,0
1255,-100,4,2,1,70,0,0
3781,-166.666666666667,4,2,1,70,0,0
4018,-166.666666666667,4,2,1,5,0,0
4097,-66.6666666666667,4,2,1,70,0,0
4333,-66.6666666666667,4,2,1,5,0,0
4412,-100,4,2,1,70,0,0
6228,-100,4,2,1,5,0,0
6307,-100,4,2,1,70,0,0
8281,-100,4,2,1,5,0,0
8360,-100,4,2,1,70,0,0
8597,-100,4,2,1,5,0,0
8676,-100,4,2,1,70,0,0
8912,-100,4,2,1,5,0,0
8991,-100,4,2,1,70,0,0
10965,-100,4,2,1,5,0,0
11044,-100,4,2,1,70,0,0
11281,-100,4,2,1,5,0,0
11360,-111.111111111111,4,2,1,60,0,0
14833,-111.111111111111,4,2,1,60,0,0
15702,-111.111111111111,4,2,1,5,0,0
15781,-111.111111111111,4,2,1,60,0,0
16333,-111.111111111111,4,2,1,5,0,0
16412,-111.111111111111,4,2,1,60,0,0
18228,-111.111111111111,4,2,1,5,0,0
18307,-111.111111111111,4,2,1,60,0,0
19807,-111.111111111111,4,2,1,5,0,0
19886,-111.111111111111,4,2,1,60,0,0
23360,-111.111111111111,4,2,1,60,0,0
26755,-111.111111111111,4,2,1,5,0,0
26833,-111.111111111111,4,2,1,60,0,0
31491,-111.111111111111,4,2,1,5,0,0
31570,-125,4,2,2,60,0,0
31649,-125,4,2,2,5,0,0
31728,-125,4,2,2,60,0,0
33781,-83.3333333333333,4,2,2,60,0,0
34018,-83.3333333333333,4,2,2,5,0,0
34097,-83.3333333333333,4,2,2,60,0,0
34176,-83.3333333333333,4,2,2,5,0,0
34255,-125,4,2,2,60,0,0
36149,-83.3333333333333,4,2,2,60,0,0
36228,-83.3333333333333,4,2,2,5,0,0
36307,-83.3333333333333,4,2,2,60,0,0
36544,-83.3333333333333,4,2,2,5,0,0
36623,-83.3333333333333,4,2,2,60,0,0
36702,-83.3333333333333,4,2,2,5,0,0
36781,-100,4,2,2,60,0,0
37176,-100,4,2,2,5,0,0
37255,-83.3333333333333,4,2,2,60,0,0
37570,-125,4,2,2,60,0,0
37807,-125,4,2,2,5,0,0
37886,-83.3333333333333,4,2,2,60,0,0
39149,-83.3333333333333,4,2,2,70,0,0
40412,-100,4,2,1,70,0,0
41597,-100,4,2,1,5,0,0
41676,-76.9230769230769,4,2,1,75,0,1
44518,-66.6666666666667,4,2,1,75,0,1
44833,-76.9230769230769,4,2,1,75,0,1
54623,-66.6666666666667,4,2,1,75,0,1
54939,-76.9230769230769,4,2,1,75,0,1
61886,-100,4,2,2,70,0,0
64018,-100,4,2,2,5,0,0
64097,-100,4,2,1,70,0,0
64333,-100,4,2,1,5,0,0
64412,-100,4,2,1,70,0,0
66939,-166.666666666667,4,2,1,70,0,0
67255,-66.6666666666667,4,2,1,70,0,0
67570,-100,4,2,1,70,0,0
74123,-83.3333333333333,4,2,1,5,0,0
74202,-83.3333333333333,4,2,1,70,0,0
74439,-83.3333333333333,4,2,1,5,0,0
74518,-111.111111111111,4,2,1,60,0,0
89360,-83.3333333333333,4,2,1,60,0,0
89676,-111.111111111111,4,2,1,60,0,0
90307,-83.3333333333333,4,2,1,60,0,0
90939,-111.111111111111,4,2,1,60,0,0
91570,-83.3333333333333,4,2,1,60,0,0
92202,-111.111111111111,4,2,1,60,0,0
94097,-200,4,2,1,60,0,0
94649,-83.3333333333333,4,2,1,5,0,0
94728,-71.4285714285714,4,2,1,70,0,0
102307,-100,4,2,2,70,0,0
103570,-100,4,2,1,60,0,0
105722,-100,4,2,4,60,0,0
105781,-62.5,4,2,1,60,0,0
106018,-62.5,4,2,1,5,0,0
106097,-76.9230769230769,4,2,1,75,0,1
108939,-66.6666666666667,4,2,1,75,0,1
109255,-76.9230769230769,4,2,1,75,0,1
119044,-66.6666666666667,4,2,1,75,0,1
119360,-76.9230769230769,4,2,1,75,0,1
126307,-100,4,2,2,70,0,0
128439,-100,4,2,2,5,0,0
128518,-100,4,2,1,70,0,0
128755,-100,4,2,1,5,0,0
128833,-100,4,2,1,70,0,0
138939,-83.3333333333333,4,2,1,70,0,0
149044,-100,4,2,1,60,0,0
150228,-100,4,2,1,5,0,0
150307,-71.4285714285714,4,2,1,80,0,1
153149,-62.5,4,2,1,80,0,1
153465,-71.4285714285714,4,2,1,80,0,1
163255,-62.5,4,2,1,80,0,1
163570,-71.4285714285714,4,2,1,80,0,1
170518,-100,4,2,6,70,0,0
170597,-100,4,2,2,70,0,0
175255,-100,4,2,3,70,0,0
175570,-83.3333333333333,4,2,5,75,0,0
175649,-83.3333333333333,4,2,1,75,0,0
175728,-83.3333333333333,4,2,5,75,0,0
175886,-83.3333333333333,4,2,1,75,0,0
178097,-166.666666666667,4,2,1,75,0,0
178412,-62.5,4,2,1,75,0,0
178728,-83.3333333333333,4,2,1,75,0,0
188202,-166.666666666667,4,2,1,75,0,0
188518,-62.5,4,2,1,75,0,0
188833,-83.3333333333333,4,2,1,75,0,0

[Colours]
Combo1 : 136,0,136
Combo2 : 255,133,74
Combo3 : 104,216,253
Combo4 : 157,157,255

[HitObjects]
397,51,623,6,0,P|380:124|369:232,1,144
395,262,938,1,8,0:1:0:0:
303,373,1255,5,6,1:2:0:0:
198,319,1412,2,0,L|138:333,2,40,0|0|10,0:0|0:0|0:2,0:0:0:0:
275,250,1728,1,0,0:0:0:0:
261,232,1807,1,0,0:0:0:0:
242,221,1886,2,0,L|182:214,1,40,2|0,1:2|0:0,0:0:0:0:
282,147,2044,2,0,L|222:140,1,40
156,146,2202,1,8,0:2:0:0:
78,64,2360,6,0,L|33:51,2,40,2|2|2,0:0|0:0|1:2,0:0:0:0:
179,39,2676,1,2,0:0:0:0:
200,34,2755,1,2,0:0:0:0:
221,29,2833,1,10,0:2:0:0:
156,146,2991,1,2,0:0:0:0:
40,293,3149,5,2,1:2:0:0:
22,168,3307,1,2,0:2:0:0:
133,306,3465,5,10,0:2:0:0:
151,181,3623,1,2,0:2:0:0:
224,351,3781,6,0,P|267:354|311:366,1,71.9999999999999,2|0,1:2|0:0,0:0:0:0:
302,366,4097,6,0,P|317:269|349:183,1,180,10|0,0:2|0:0,0:0:0:0:
354,190,4412,6,0,P|369:224|369:243,1,40,2|0,1:2|0:0,0:0:0:0:
279,143,4570,2,0,P|301:121|327:116,1,40,2|0,0:0|0:0,0:0:0:0:
402,113,4728,2,0,P|385:65|352:25,1,80,8|2,0:2|0:0,0:0:0:0:
353,38,4965,1,2,0:0:0:0:
339,36,5044,5,2,1:2:0:0:
202,59,5202,1,2,0:0:0:0:
197,38,5281,1,0,0:0:0:0:
192,17,5360,2,0,L|147:24,1,40,10|2,0:2|0:0,0:0:0:0:
22,85,5518,2,0,L|67:92,1,40,2|2,0:0|0:0,0:0:0:0:
150,169,5676,1,2,1:2:0:0:
179,252,5833,1,2,0:2:0:0:
211,334,5991,2,0,L|345:352,1,120,10|0,0:2|0:0,0:0:0:0:
355,358,6307,5,2,1:2:0:0:
439,288,6465,1,2,0:0:0:0:
443,266,6544,1,2,0:0:0:0:
447,246,6623,1,8,0:2:0:0:
450,225,6702,1,0,0:0:0:0:
454,205,6781,1,2,0:2:0:0:
445,83,6939,2,0,B|424:98|424:98|341:82,1,80,0|0,1:2|0:0,0:0:0:0:
355,99,7176,1,2,0:2:0:0:
338,111,7255,2,0,L|251:96,1,80,8|2,0:2|0:2,0:0:0:0:
166,0,7570,6,0,L|175:69,1,40,0|2,1:2|0:2,0:0:0:0:
84,117,7728,2,0,L|78:77,1,40,2|2,0:2|0:2,0:0:0:0:
37,0,7886,1,10,0:2:0:0:
37,0,8044,1,2,0:2:0:0:
179,144,8202,2,0,L|185:184,1,40,2|0,1:2|0:0,0:0:0:0:
188,199,8360,2,0,P|137:211|50:258,1,120,2|0,0:2|0:0,0:0:0:0:
59,260,8676,2,0,P|95:261|124:228,1,80,2|0,0:2|1:2,0:0:0:0:
170,345,8991,6,0,L|125:363,2,40,2|2|10,0:2|0:2|0:2,0:0:0:0:
280,338,9307,1,2,0:2:0:0:
302,343,9386,1,2,0:2:0:0:
324,348,9465,2,0,L|338:251,1,80,2|2,1:2|0:2,0:0:0:0:
406,200,9781,1,10,0:2:0:0:
496,136,9939,5,2,0:2:0:0:
483,118,10018,1,0,0:0:0:0:
470,100,10097,2,0,L|419:94,3,40,0|0|2|0,1:2|1:2|1:2|1:2,0:0:0:0:
381,37,10412,5,10,0:2:0:0:
360,44,10491,1,0,1:2:0:0:
339,51,10570,1,2,1:2:0:0:
318,58,10649,1,0,1:2:0:0:
297,65,10728,5,2,0:2:0:0:
215,39,11044,5,2,0:2:0:0:
127,12,11360,6,0,L|138:89,1,72.0000000000001,6|0,1:2|0:0,0:0:0:0:
70,144,11676,2,0,L|80:215,1,72.0000000000001,2|0,1:2|0:0,0:0:0:0:
155,269,11991,1,2,1:2:0:0:
155,269,12149,1,0,0:0:0:0:
166,186,12307,1,2,1:2:0:0:
166,186,12465,1,0,0:0:0:0:
255,112,12623,5,2,1:2:0:0:
255,112,12781,2,0,L|337:122,2,72.0000000000001,2|2|2,0:0|1:2|0:0,0:0:0:0:
131,46,13255,2,0,P|149:100|166:191,1,144,2|2,1:2|1:2,0:0:0:0:
135,258,13728,1,0,0:0:0:0:
61,359,13886,6,0,P|45:322|14:307,1,72.0000000000001,2|2,1:2|0:0,0:0:0:0:
147,382,14202,1,2,1:2:0:0:
147,382,14360,1,2,0:0:0:0:
278,324,14518,2,0,L|191:317,1,72.0000000000001,2|0,1:2|0:0,0:0:0:0:
199,316,14755,1,0,0:0:0:0:
191,313,14833,1,2,1:2:0:0:
262,243,14991,1,2,0:0:0:0:
366,369,15149,5,2,1:2:0:0:
366,369,15307,1,2,0:0:0:0:
452,328,15465,2,0,L|465:214,1,108,2|0,1:2|0:0,0:0:0:0:
466,204,15781,1,2,1:2:0:0:
390,166,15939,1,2,0:0:0:0:
289,53,16097,2,0,L|310:167,1,108,2|0,1:2|0:0,0:0:0:0:
305,176,16412,6,0,P|260:163|233:158,1,72.0000000000001,2|2,1:2|0:0,0:0:0:0:
134,54,16728,2,0,P|177:74|217:80,1,72.0000000000001,2|2,1:2|0:0,0:0:0:0:
289,53,17044,1,2,1:2:0:0:
289,53,17202,1,2,0:0:0:0:
372,26,17360,1,2,1:2:0:0:
372,26,17518,1,2,0:0:0:0:
476,84,17676,5,2,1:2:0:0:
399,125,17833,1,0,0:0:0:0:
399,125,17912,1,0,0:0:0:0:
399,125,17991,2,0,L|386:222,1,72.0000000000001,2|0,1:2|0:0,0:0:0:0:
476,318,18307,2,0,P|442:287|411:280,1,72.0000000000001,2|0,1:2|0:0,0:0:0:0:
314,326,18623,2,0,L|334:246,1,72.0000000000001,2|0,1:2|0:0,0:0:0:0:
209,372,18939,6,0,L|248:365,3,36,2|0|2|2,1:2|0:0|0:0|0:0,0:0:0:0:
141,347,19255,2,0,L|65:336,1,72.0000000000001,2|2,1:2|0:0,0:0:0:0:
61,330,19491,1,0,0:0:0:0:
51,322,19570,2,0,L|73:185,1,108,2|0,1:2|0:0,0:0:0:0:
69,197,19886,1,2,1:2:0:0:
19,136,20044,1,2,0:0:0:0:
115,47,20202,6,0,L|98:128,1,72.0000000000001,2|2,1:2|0:0,0:0:0:0:
217,24,20518,2,0,L|200:105,1,72.0000000000001,2|2,1:2|0:0,0:0:0:0:
180,259,20833,1,2,1:2:0:0:
169,181,20991,1,2,0:0:0:0:
295,233,21149,1,2,1:2:0:0:
284,155,21307,1,2,0:0:0:0:
312,38,21465,6,0,L|392:53,1,72.0000000000001,6|0,1:2|0:0,0:0:0:0:
499,151,21781,2,0,P|462:121|421:116,1,72.0000000000001,2|0,1:2|0:0,0:0:0:0:
360,135,22097,1,2,1:2:0:0:
360,135,22255,1,0,0:0:0:0:
273,150,22412,1,2,1:2:0:0:
273,150,22570,1,0,0:0:0:0:
181,91,22728,6,0,P|164:54|140:31,2,72.0000000000001,2|2|2,1:2|0:0|1:2,0:0:0:0:
146,244,23281,1,0,0:0:0:0:
146,244,23360,2,0,L|65:231,1,72.0000000000001,2|2,1:2|0:0,0:0:0:0:
79,320,23676,2,0,L|-2:307,1,72.0000000000001,2|0,1:2|0:0,0:0:0:0:
214,194,23991,6,0,L|295:181,1,72.0000000000001,2|2,1:2|0:0,0:0:0:0:
298,188,24228,1,0,0:0:0:0:
311,195,24307,2,0,L|392:182,1,72.0000000000001,2|2,1:2|0:0,0:0:0:0:
489,124,24623,1,2,1:2:0:0:
489,124,24702,1,2,0:0:0:0:
489,124,24781,2,0,L|443:113,1,36,2|0,0:0|0:0,0:0:0:0:
344,34,24939,2,0,P|366:81|382:124,1,72.0000000000001,2|2,1:2|0:0,0:0:0:0:
474,221,25255,6,0,P|461:266|451:313,1,72.0000000000001,2|2,1:2|0:0,0:0:0:0:
367,292,25570,2,0,P|354:337|344:384,1,72.0000000000001,2|2,1:2|0:0,0:0:0:0:
279,149,25886,1,2,1:2:0:0:
304,229,26044,1,2,0:0:0:0:
190,132,26202,1,2,1:2:0:0:
215,212,26360,1,2,0:0:0:0:
249,66,26518,6,0,B|321:60|321:60|330:65|330:65|413:58,1,144,2|2,1:2|1:2,0:0:0:0:
475,25,26991,1,0,0:0:0:0:
462,110,27149,2,0,L|474:189,1,72.0000000000001,2|0,1:2|0:0,0:0:0:0:
385,152,27465,2,0,L|397:231,1,72.0000000000001,2|0,1:2|0:0,0:0:0:0:
260,157,27781,6,0,P|216:145|173:136,2,72.0000000000001,2|2|2,1:2|0:0|1:2,0:0:0:0:
275,234,28255,1,2,0:0:0:0:
217,369,28412,2,0,L|227:280,1,72.0000000000001,2|2,1:2|0:0,0:0:0:0:
130,384,28728,2,0,L|140:295,1,72.0000000000001,2|2,1:2|0:0,0:0:0:0:
24,177,29044,6,0,P|60:218|62:253,1,72.0000000000001,2|2,1:2|0:0,0:0:0:0:
177,141,29360,2,0,L|92:130,1,72.0000000000001,2|2,1:2|0:0,0:0:0:0:
35,62,29676,1,2,1:2:0:0:
117,40,29833,1,2,0:0:0:0:
276,55,29991,2,0,L|191:44,1,72.0000000000001,2|2,1:2|0:0,0:0:0:0:
271,147,30307,6,0,L|260:245,1,72.0000000000001,2|2,1:2|0:0,0:0:0:0:
190,294,30623,1,2,1:2:0:0:
190,294,30781,1,2,0:0:0:0:
276,323,30939,1,2,1:2:0:0:
362,352,31097,1,2,0:0:0:0:
459,382,31255,2,0,P|474:322|492:256,1,108,2|0,1:2|0:0,0:0:0:0:
494,265,31570,5,6,1:2:0:0:
473,191,31728,2,0,L|401:180,1,64,2|0,0:0|1:2,0:0:0:0:
478,177,32044,2,0,L|406:166,1,64,2|0,0:0|1:2,0:0:0:0:
483,163,32360,2,0,L|411:152,1,64,2|0,0:0|1:2,0:0:0:0:
488,149,32676,2,0,L|416:138,1,64,2|0,0:0|1:2,0:0:0:0:
493,135,32991,2,0,L|421:124,1,64,2|0,0:0|1:2,0:0:0:0:
498,121,33307,2,0,L|426:110,1,64,2|0,0:0|1:2,0:0:0:0:
464,38,33623,1,2,0:0:0:0:
464,38,33781,6,0,L|318:22,1,144,4|0,1:2|0:0,0:0:0:0:
300,0,34097,6,0,L|367:7,1,48,4|0,1:2|0:0,0:0:0:0:
279,84,34255,6,0,L|216:75,1,64,2|0,0:0|1:2,0:0:0:0:
274,98,34570,2,0,L|211:89,1,64,2|0,0:0|1:2,0:0:0:0:
269,112,34886,2,0,L|206:103,1,64,2|0,0:0|1:2,0:0:0:0:
264,126,35202,2,0,L|201:117,1,64,2|0,0:0|1:2,0:0:0:0:
259,140,35518,2,0,L|196:131,1,64,2|0,0:0|1:2,0:0:0:0:
254,153,35833,2,0,L|190:143,1,64,2|0,0:0|1:2,0:0:0:0:
84,187,36149,6,0,P|113:207|121:218,1,48,6|0,0:0|0:0,0:0:0:0:
202,247,36307,6,0,P|142:242|105:323,1,144,4|0,1:2|0:0,0:0:0:0:
99,326,36623,6,0,P|81:305|84:286,1,48,4|0,1:2|0:0,0:0:0:0:
184,370,36781,6,0,L|284:383,2,80,2|0|2,0:0|1:2|0:0,0:0:0:0:
342,348,37255,6,0,P|362:254|395:190,1,144,4|0,1:2|0:0,0:0:0:0:
396,197,37570,6,0,P|413:241|405:281,1,64,0|2,1:2|0:0,0:0:0:0:
266,209,37886,6,0,L|113:191,1,144,4|0,1:2|0:0,0:0:0:0:
116,197,38202,2,0,B|155:131|155:131|131:64,1,144,4|0,1:2|0:0,0:0:0:0:
228,12,38518,6,0,P|291:62|346:32,1,144,4|0,1:2|0:0,0:0:0:0:
345,29,38833,2,0,L|370:179,1,144,4|0,1:2|0:0,0:0:0:0:
423,223,39149,6,0,P|443:185|440:160,1,48,4|0,1:2|0:0,0:0:0:0:
380,291,39307,2,0,P|422:298|445:287,1,48,6|0,1:2|0:0,0:0:0:0:
302,271,39465,2,0,P|308:313|325:331,1,48,4|0,1:2|0:0,0:0:0:0:
296,190,39623,2,0,P|257:208|245:230,1,48,6|0,1:2|0:0,0:0:0:0:
237,120,39781,5,4,1:2:0:0:
213,116,39860,1,0,1:2:0:0:
189,112,39939,1,6,1:2:0:0:
165,108,40018,1,0,1:2:0:0:
142,104,40097,2,0,L|153:164,3,48,4|0|6|0,1:2|1:2|1:2|1:2,0:0:0:0:
79,48,40412,5,2,1:2:0:0:
75,56,40728,1,0,1:2:0:0:
71,66,41044,1,0,1:2:0:0:
255,4,41360,5,8,0:1:0:0:
431,71,41676,5,6,1:2:0:0:
431,71,41755,1,0,0:0:0:0:
431,71,41833,2,0,L|446:147,1,52,2|0,0:0|0:0,0:0:0:0:
461,233,41991,1,10,0:2:0:0:
378,198,42149,1,2,0:0:0:0:
276,270,42307,2,0,L|294:149,1,104,2|0,1:2|0:0,0:0:0:0:
356,111,42623,1,10,0:2:0:0:
240,47,42781,6,0,L|75:24,1,156,2|0,0:0|0:0,0:0:0:0:
79,32,43097,2,0,P|65:84|106:127,1,104,2|8,0:0|0:2,0:0:0:0:
251,43,43412,1,2,0:0:0:0:
171,213,43570,5,2,1:2:0:0:
171,213,43649,1,0,0:0:0:0:
171,213,43728,2,0,L|184:141,1,52,2|0,0:0|0:0,0:0:0:0:
239,271,43886,1,10,0:2:0:0:
239,271,43965,1,0,0:0:0:0:
239,271,44044,2,0,L|252:199,1,52,2|0,0:0|0:0,0:0:0:0:
313,147,44202,5,2,1:2:0:0:
395,164,44360,1,0,0:0:0:0:
452,0,44518,2,0,L|489:199,1,180,10|0,0:2|0:0,0:0:0:0:
502,189,44833,2,0,L|484:112,1,52,2|0,1:2|0:0,0:0:0:0:
446,255,44991,1,0,0:0:0:0:
446,255,45070,1,0,0:0:0:0:
446,255,45149,2,0,L|457:305,1,52,10|0,0:2|0:0,0:0:0:0:
392,373,45307,6,0,L|244:353,1,104,2|0,0:0|1:2,0:0:0:0:
200,271,45623,2,0,P|240:226|294:223,1,104,2|8,0:0|0:2,0:0:0:0:
179,384,45939,1,2,0:0:0:0:
63,300,46097,5,2,1:2:0:0:
63,300,46176,1,0,0:0:0:0:
63,300,46255,2,0,L|1:312,1,52,2|0,0:0|0:0,0:0:0:0:
82,219,46412,1,10,0:2:0:0:
82,219,46491,1,0,0:0:0:0:
82,219,46570,2,0,L|146:208,1,52
291,327,46728,5,2,1:2:0:0:
217,300,46886,1,2,0:0:0:0:
210,222,47044,1,10,0:2:0:0:
386,211,47202,2,0,L|269:251,1,104,2|0,0:0|1:2,0:0:0:0:
403,293,47518,1,2,0:0:0:0:
465,242,47676,1,10,0:2:0:0:
465,242,47833,1,2,0:0:0:0:
512,148,47991,6,0,P|433:119|362:78,1,156,2|0,1:2|0:0,0:0:0:0:
369,70,48307,2,0,P|402:63|439:72,1,52,10|0,0:2|0:0,0:0:0:0:
305,132,48465,2,0,P|272:139|235:130,1,52,2|0,0:0|0:0,0:0:0:0:
259,33,48623,5,2,1:2:0:0:
233,36,48702,1,0,0:0:0:0:
207,40,48781,1,2,0:0:0:0:
181,44,48860,1,0,0:0:0:0:
153,47,48939,2,0,L|126:-6,3,52,8|0|2|0,0:2|0:0|0:0|0:0,0:0:0:0:
103,108,49255,6,0,P|137:171|153:251,1,104,0|2,1:2|0:0,0:0:0:0:
86,297,49570,1,10,0:2:0:0:
86,297,49728,1,2,0:0:0:0:
163,359,49886,2,0,P|198:352|272:346,2,104,2|2|10,1:2|0:0|0:2,0:0:0:0:
247,250,50360,6,0,P|324:273|387:343,1,156,2|0,0:0|0:0,0:0:0:0:
381,348,50676,2,0,P|355:337|346:315,1,52,2|0,0:0|0:0,0:0:0:0:
448,258,50833,1,8,0:2:0:0:
448,258,50991,1,2,0:0:0:0:
382,139,51149,6,0,L|372:190,1,52,2|0,1:2|1:2,0:0:0:0:
310,94,51307,2,0,L|299:144,1,52,2|0,1:2|1:2,0:0:0:0:
385,59,51465,1,10,0:2:0:0:
409,51,51544,1,0,1:2:0:0:
434,43,51623,1,0,1:2:0:0:
459,35,51702,1,0,1:2:0:0:
484,27,51781,5,6,1:2:0:0:
502,105,51939,1,2,0:0:0:0:
440,204,52097,1,10,0:2:0:0:
422,126,52255,1,2,0:0:0:0:
501,276,52412,2,0,P|417:293|330:331,1,156,2|0,1:2|0:0,0:0:0:0:
352,330,52728,2,0,P|368:301|365:262,1,52,10|0,0:2|0:0,0:0:0:0:
331,163,52886,6,0,P|266:176|152:219,1,156,2|0,0:0|0:0,0:0:0:0:
176,220,53202,2,0,P|209:168|171:125,1,104,2|8,0:0|0:2,0:0:0:0:
84,82,53518,1,2,0:0:0:0:
179,14,53676,5,2,1:2:0:0:
179,14,53755,1,0,0:0:0:0:
179,14,53833,2,0,L|246:-1,1,52
293,62,53991,1,10,0:2:0:0:
293,62,54070,1,0,0:0:0:0:
293,62,54149,2,0,L|360:47,1,52
445,40,54307,5,2,1:2:0:0:
409,125,54465,1,0,0:0:0:0:
209,144,54623,2,0,P|297:158|383:219,1,180,10|0,0:2|0:0,0:0:0:0:
366,218,54939,2,0,P|336:203|328:182,1,52,2|0,1:2|0:0,0:0:0:0:
254,248,55097,1,0,0:0:0:0:
254,248,55176,1,0,0:0:0:0:
254,248,55255,2,0,P|224:263|216:284,1,52,10|0,0:2|0:0,0:0:0:0:
113,335,55412,6,0,P|178:356|242:389,1,104,2|0,0:0|1:2,0:0:0:0:
17,371,55728,1,2,0:0:0:0:
17,371,55886,2,0,P|28:306|31:238,1,104,10|2,0:2|0:0,0:0:0:0:
90,184,56202,5,2,1:2:0:0:
90,184,56281,1,0,0:0:0:0:
90,184,56360,2,0,L|150:196,1,52,2|0,0:0|0:0,0:0:0:0:
60,103,56518,1,10,0:2:0:0:
60,103,56597,1,0,0:0:0:0:
60,103,56676,2,0,L|0:115,1,52
183,31,56833,5,2,1:2:0:0:
172,109,56991,1,2,0:0:0:0:
250,120,57149,1,10,0:2:0:0:
364,67,57307,2,0,P|305:40|257:39,1,104,2|0,0:0|1:2,0:0:0:0:
297,190,57623,1,2,0:0:0:0:
381,182,57781,1,10,0:2:0:0:
381,182,57939,1,0,0:0:0:0:
255,265,58097,6,0,L|135:251,1,104,2|2,1:2|0:0,0:0:0:0:
80,319,58333,1,2,0:0:0:0:
80,319,58412,2,0,L|183:331,1,104,8|2,0:2|0:0,0:0:0:0:
295,381,58728,5,2,1:2:0:0:
320,374,58807,1,0,0:0:0:0:
345,367,58886,1,2,0:0:0:0:
370,360,58965,1,0,0:0:0:0:
395,354,59044,2,0,L|415:279,3,52,8|0|2|0,0:2|0:0|0:0|0:0,0:0:0:0:
468,241,59360,6,0,P|417:220|374:185,1,104,0|2,1:2|0:0,0:0:0:0:
382,178,59597,1,0,0:0:0:0:
392,169,59676,2,0,L|404:238,1,52,10|0,0:2|0:0,0:0:0:0:
296,145,59833,2,0,L|308:214,1,52,2|0,0:0|0:0,0:0:0:0:
224,218,59991,1,2,1:2:0:0:
141,237,60149,1,2,0:0:0:0:
58,256,60307,2,0,L|35:368,1,104,10|2,0:2|0:0,0:0:0:0:
82,172,60623,6,0,P|55:163|20:167,3,52,0|0|2|0,1:2|0:0|0:0|0:0,0:0:0:0:
125,101,60939,2,0,P|125:72|110:40,3,52,10|0|0|0,0:2|0:0|0:0|0:0,0:0:0:0:
204,53,61255,5,2,1:2:0:0:
229,58,61333,1,0,1:2:0:0:
254,64,61412,1,0,1:2:0:0:
279,70,61491,1,0,1:2:0:0:
305,76,61570,2,0,L|320:25,3,52,10|0|0|0,0:2|1:2|1:2|1:2,0:0:0:0:
395,46,61886,5,6,1:2:0:0:
398,57,62202,1,6,1:2:0:0:
371,136,62518,5,6,1:2:0:0:
374,147,62676,1,4,1:2:0:0:
377,158,62833,1,6,1:2:0:0:
380,169,62991,1,4,1:2:0:0:
383,180,63149,1,6,1:2:0:0:
386,191,63307,1,6,1:2:0:0:
340,256,63465,5,6,1:2:0:0:
343,267,63544,1,0,1:2:0:0:
346,278,63623,1,6,1:2:0:0:
349,289,63702,1,0,1:2:0:0:
352,300,63781,5,6,1:2:0:0:
512,384,64097,5,10,0:1:0:0:
291,384,64412,5,6,1:2:0:0:
179,352,64570,2,0,L|133:368,2,40,0|0|10,0:0|0:0|0:2,0:0:0:0:
259,244,64886,1,0,0:0:0:0:
256,265,64965,1,0,0:0:0:0:
253,286,65044,2,0,P|279:292|297:288,1,40,2|0,1:2|0:0,0:0:0:0:
363,331,65202,2,0,P|376:308|378:289,1,40
343,220,65360,1,8,0:2:0:0:
451,185,65518,6,0,L|423:225,2,40,2|2|2,0:0|0:0|1:2,0:0:0:0:
456,99,65833,1,2,0:0:0:0:
476,93,65912,1,2,0:0:0:0:
496,87,65991,1,10,0:2:0:0:
392,36,66149,1,2,0:0:0:0:
246,106,66307,5,2,1:2:0:0:
377,136,66465,1,2,0:0:0:0:
233,119,66623,5,10,0:2:0:0:
364,149,66781,1,2,0:0:0:0:
346,255,66939,6,0,P|331:308|326:333,1,71.9999999999999,2|0,1:2|0:0,0:0:0:0:
330,332,67255,6,0,B|266:289|250:394|146:355,1,180,10|0,0:2|0:0,0:0:0:0:
148,349,67570,6,0,P|168:336|189:336,1,40,2|0,1:2|0:0,0:0:0:0:
61,333,67728,2,0,P|62:356|51:375,1,40,2|0,0:0|0:0,0:0:0:0:
113,265,67886,2,0,P|96:213|69:162,1,80,8|2,0:2|0:0,0:0:0:0:
79,188,68123,1,2,0:0:0:0:
69,186,68202,5,2,1:2:0:0:
180,194,68360,1,2,0:0:0:0:
199,203,68439,1,2,0:0:0:0:
214,219,68518,2,0,L|270:231,1,40,8|0,0:2|0:0,0:0:0:0:
279,296,68676,2,0,L|335:308,1,40,2|0,0:0|0:0,0:0:0:0:
388,381,68833,1,2,1:2:0:0:
468,329,68991,1,2,0:0:0:0:
394,255,69149,2,0,P|382:198|357:111,1,120,10|0,0:2|0:0,0:0:0:0:
360,131,69465,5,2,1:2:0:0:
474,68,69623,1,2,0:0:0:0:
466,86,69702,1,2,0:0:0:0:
459,105,69781,1,10,0:2:0:0:
455,124,69860,1,0,0:0:0:0:
452,144,69939,1,2,0:0:0:0:
377,38,70097,2,0,L|277:45,1,80,0|0,1:2|0:0,0:0:0:0:
290,50,70333,1,2,0:0:0:0:
280,60,70412,2,0,L|180:67,1,80,8|2,0:2|0:0,0:0:0:0:
113,8,70728,6,0,P|99:35|103:63,1,40,0|2,1:2|0:0,0:0:0:0:
118,162,70886,2,0,P|132:135|128:107,1,40,2|2,0:0|0:0,0:0:0:0:
31,112,71044,1,10,0:2:0:0:
31,112,71202,1,2,0:0:0:0:
27,219,71360,2,0,P|43:238|53:270,1,40,2|0,1:2|0:0,0:0:0:0:
55,260,71518,2,0,L|200:245,1,120,2|0,0:0|0:0,0:0:0:0:
187,249,71833,2,0,B|211:212|211:212|193:167,1,80,2|0,0:0|1:2,0:0:0:0:
242,92,72149,6,0,L|211:58,2,40,2|2|10,0:0|0:0|0:2,0:0:0:0:
345,102,72465,1,2,0:0:0:0:
331,119,72544,1,2,0:0:0:0:
317,136,72623,2,0,L|331:188,1,40,2|0,1:2|0:0,0:0:0:0:
402,165,72781,2,0,L|416:217,1,40,2|0,0:0|0:0,0:0:0:0:
489,217,72939,1,10,0:2:0:0:
476,108,73097,5,2,0:0:0:0:
470,88,73176,1,0,0:0:0:0:
464,68,73255,2,0,L|506:47,3,40,0|0|2|0,1:2|1:2|1:2|1:2,0:0:0:0:
382,27,73570,5,10,0:2:0:0:
362,22,73649,1,0,1:2:0:0:
342,18,73728,1,2,1:2:0:0:
323,14,73807,1,0,1:2:0:0:
303,10,73886,5,2,0:0:0:0:
220,34,74202,5,2,0:0:0:0:
134,62,74518,6,0,L|147:140,1,72.0000000000001,6|0,1:2|0:0,0:0:0:0:
230,122,74833,2,0,L|243:200,1,72.0000000000001,2|2,1:2|0:0,0:0:0:0:
248,205,75070,1,2,0:0:0:0:
256,216,75149,2,0,L|356:207,1,72.0000000000001,2|0,1:2|0:0,0:0:0:0:
398,160,75465,1,2,1:2:0:0:
398,160,75623,1,2,0:0:0:0:
447,84,75781,6,0,P|475:120|485:161,1,72.0000000000001,2|2,1:2|0:0,0:0:0:0:
284,94,76097,2,0,L|370:86,1,72.0000000000001,2|2,1:2|0:0,0:0:0:0:
199,83,76412,2,0,P|211:49|235:22,2,72.0000000000001,2|2|2,1:2|0:0|1:2,0:0:0:0:
229,161,76886,1,2,0:0:0:0:
91,188,77044,6,0,P|125:200|157:217,1,72.0000000000001,2|0,1:2|0:0,0:0:0:0:
113,333,77360,2,0,P|91:298|94:265,1,72.0000000000001,2|0,1:2|0:0,0:0:0:0:
196,318,77676,1,2,1:2:0:0:
280,341,77833,1,2,0:0:0:0:
365,323,77991,2,0,L|381:239,1,72.0000000000001,2|0,1:2|0:0,0:0:0:0:
385,246,78228,1,0,0:0:0:0:
394,241,78307,6,0,L|480:229,1,72.0000000000001,2|2,1:2|0:0,0:0:0:0:
315,209,78623,2,0,L|229:197,1,72.0000000000001,2|2,1:2|0:0,0:0:0:0:
72,180,78939,1,2,1:2:0:0:
72,180,79097,1,2,0:0:0:0:
162,189,79255,1,2,1:2:0:0:
162,189,79412,1,2,0:0:0:0:
237,23,79570,6,0,P|202:55|208:104,1,72.0000000000001,2|2,1:2|0:0,0:0:0:0:
261,113,79886,2,0,P|296:81|290:32,1,72.0000000000001,2|0,1:2|0:0,0:0:0:0:
382,20,80202,1,2,1:2:0:0:
382,20,80360,1,0,0:0:0:0:
373,106,80518,2,0,L|391:194,1,72.0000000000001,2|0,1:2|0:0,0:0:0:0:
446,285,80833,6,0,P|482:265|520:262,2,72.0000000000001,2|2|2,1:2|0:0|1:2,0:0:0:0:
393,348,81307,1,0,0:0:0:0:
295,261,81465,2,0,L|382:270,1,72.0000000000001,2|2,1:2|0:0,0:0:0:0:
242,328,81781,1,2,1:2:0:0:
209,249,81939,1,2,0:0:0:0:
210,103,82097,6,0,P|186:146|180:187,1,72.0000000000001,2|2,1:2|0:0,0:0:0:0:
121,80,82412,2,0,L|32:68,1,72.0000000000001,2|0,1:2|0:0,0:0:0:0:
188,17,82728,2,0,L|259:26,2,72.0000000000001,2|2|2,1:2|0:0|1:2,0:0:0:0:
289,117,83202,1,2,0:0:0:0:
390,0,83360,6,0,L|377:79,1,72.0000000000001,2|0,1:2|0:0,0:0:0:0:
410,154,83676,1,2,1:2:0:0:
457,87,83833,1,2,0:0:0:0:
457,225,83991,1,2,1:2:0:0:
504,158,84149,1,2,0:0:0:0:
376,263,84307,2,0,L|381:214,1,36,2|0,1:2|0:0,0:0:0:0:
297,279,84465,2,0,L|302:230,1,36
214,361,84623,6,0,P|267:365|301:374,2,72.0000000000001,6|0|2,1:2|0:0|1:2,0:0:0:0:
129,384,85097,1,0,0:0:0:0:
122,378,85176,1,0,0:0:0:0:
115,372,85255,2,0,L|104:279,1,72.0000000000001,2|2,1:2|0:0,0:0:0:0:
175,251,85570,2,0,L|164:158,1,72.0000000000001,2|2,1:2|0:0,0:0:0:0:
254,289,85886,5,2,1:2:0:0:
254,289,86044,1,2,0:0:0:0:
334,323,86202,1,2,1:2:0:0:
334,323,86360,1,2,0:0:0:0:
405,239,86518,2,0,L|331:229,1,72.0000000000001,2|2,1:2|0:0,0:0:0:0:
448,159,86833,2,0,L|374:149,1,72.0000000000001,2|0,1:2|0:0,0:0:0:0:
309,81,87149,5,2,1:2:0:0:
309,81,87307,1,0,0:0:0:0:
434,0,87465,2,0,P|413:42|404:79,1,72.0000000000001,2|2,1:2|0:0,0:0:0:0:
466,170,87781,1,2,1:2:0:0:
384,181,87939,1,2,0:0:0:0:
319,256,88097,1,2,1:2:0:0:
237,267,88255,1,2,0:0:0:0:
149,139,88412,6,0,L|157:221,1,72.0000000000001,2|2,1:2|0:0,0:0:0:0:
227,97,88728,2,0,L|235:179,1,72.0000000000001,2|2,1:2|0:0,0:0:0:0:
321,74,89044,6,0,P|343:79|357:85,1,36,2|0,1:2|0:0,0:0:0:0:
346,0,89202,2,0,P|367:10|400:11,1,36,2|0,0:0|0:0,0:0:0:0:
470,95,89360,6,0,P|444:155|427:277,1,144,2|0,1:2|0:0,0:0:0:0:
436,245,89676,5,2,1:2:0:0:
351,235,89833,1,0,0:0:0:0:
388,319,89991,5,2,1:2:0:0:
473,329,90149,1,2,0:0:0:0:
270,351,90307,6,0,P|286:329|297:293,1,48,2|0,1:2|0:0,0:0:0:0:
195,320,90465,2,0,P|204:297|218:278,1,48,2|0,0:0|0:0,0:0:0:0:
273,227,90623,2,0,P|242:140|223:105,1,96,2|0,1:2|0:0,0:0:0:0:
146,60,90939,5,2,1:2:0:0:
221,16,91097,1,0,0:0:0:0:
154,65,91255,5,2,1:2:0:0:
229,21,91412,1,0,0:0:0:0:
342,18,91570,6,0,L|333:77,1,48,2|0,1:2|0:0,0:0:0:0:
417,28,91728,2,0,L|408:87,1,48,2|0,0:0|0:0,0:0:0:0:
486,124,91886,2,0,P|419:128|403:156,1,96,2|2,1:2|0:0,0:0:0:0:
407,160,92123,1,0,0:0:0:0:
412,170,92202,6,0,L|426:263,1,72.0000000000001,2|0,1:2|0:0,0:0:0:0:
372,320,92518,1,2,1:2:0:0:
293,345,92676,1,0,0:0:0:0:
225,239,92833,5,2,1:2:0:0:
308,254,92991,1,2,0:0:0:0:
218,232,93149,5,2,1:2:0:0:
301,247,93307,1,2,0:0:0:0:
211,225,93465,5,2,1:2:0:0:
140,195,93623,1,2,0:0:0:0:
58,221,93781,1,2,1:2:0:0:
0,289,93939,1,2,0:0:0:0:
8,384,94097,2,0,L|53:377,2,40,2|2|2,0:0|0:0|0:0,0:0:0:0:
8,382,94728,5,2,1:2:0:0:
8,382,94886,2,0,P|20:301|48:194,1,168,0|0,1:2|0:0,0:0:0:0:
42,211,95202,2,0,L|24:150,1,56,0|0,1:2|0:0,0:0:0:0:
81,44,95360,6,0,P|141:48|147:128,1,112,2|0,0:0|0:0,0:0:0:0:
157,100,95597,1,0,0:0:0:0:
147,106,95676,2,0,P|152:71|176:43,1,56,2|0,1:2|0:0,0:0:0:0:
248,28,95833,2,0,P|282:21|316:36,1,56,2|0,0:0|0:0,0:0:0:0:
387,139,95991,6,0,L|375:268,1,112,2|0,1:2|1:2,0:0:0:0:
376,262,96228,1,0,1:2:0:0:
373,275,96307,2,0,L|387:347,1,56,2|0,1:2|0:0,0:0:0:0:
457,260,96465,2,0,L|471:332,1,56,2|0,1:2|0:0,0:0:0:0:
296,222,96623,6,0,P|218:240|190:269,2,112,2|0|2,0:0|1:2|1:2,0:0:0:0:
376,262,97097,1,2,0:0:0:0:
387,162,97255,6,0,P|370:101|346:53,1,112,2|0,1:2|1:2,0:0:0:0:
342,53,97491,1,0,0:0:0:0:
332,50,97570,1,2,0:0:0:0:
265,79,97728,1,0,1:2:0:0:
230,117,97886,1,2,0:0:0:0:
220,151,98044,1,2,0:0:0:0:
219,176,98202,1,2,1:2:0:0:
224,189,98360,1,2,0:0:0:0:
318,237,98518,5,2,1:2:0:0:
333,243,98597,1,0,0:0:0:0:
344,232,98676,1,0,0:0:0:0:
338,217,98755,1,0,1:2:0:0:
321,220,98833,1,2,1:2:0:0:
240,260,98991,1,0,1:2:0:0:
182,312,99149,1,2,1:2:0:0:
128,373,99307,1,0,1:2:0:0:
128,373,99465,5,2,1:2:0:0:
0,352,99781,5,2,1:2:0:0:
0,352,99939,2,0,L|173:335,1,168,2|0,1:2|0:0,0:0:0:0:
172,339,100255,2,0,P|187:309|182:282,1,56,2|0,1:2|0:0,0:0:0:0:
70,160,100412,6,0,P|101:214|111:269,2,112,2|2|2,0:0|0:0|1:2,0:0:0:0:
5,113,100886,1,0,0:0:0:0:
106,73,101044,6,0,L|260:57,1,112,2|2,1:2|1:2,0:0:0:0:
227,69,101281,1,0,1:2:0:0:
235,80,101360,2,0,L|221:155,1,56,0|0,1:2|0:0,0:0:0:0:
307,124,101518,2,0,L|293:199,1,56,2|0,1:2|0:0,0:0:0:0:
208,300,101676,6,0,P|166:249|123:267,2,112,2|0|2,0:0|1:2|1:2,0:0:0:0:
260,359,102149,1,2,0:0:0:0:
368,374,102307,5,2,1:2:0:0:
364,363,102465,1,0,1:2:0:0:
360,352,102623,1,2,1:2:0:0:
356,341,102781,1,0,1:2:0:0:
422,277,102939,5,2,1:2:0:0:
418,266,103018,1,0,1:2:0:0:
414,255,103097,1,0,1:2:0:0:
410,244,103176,1,0,1:2:0:0:
406,233,103255,1,2,1:2:0:0:
402,222,103333,1,0,1:2:0:0:
398,211,103412,1,0,1:2:0:0:
394,200,103491,1,0,1:2:0:0:
390,189,103570,5,2,1:2:0:0:
312,166,103886,1,2,1:2:0:0:
234,143,104202,1,2,1:2:0:0:
202,212,104518,5,2,1:2:0:0:
127,228,104676,1,0,1:2:0:0:
68,181,104833,1,2,1:2:0:0:
68,105,104991,1,2,1:2:0:0:
127,58,105149,1,2,1:2:0:0:
202,75,105307,1,0,1:2:0:0:
234,143,105465,1,2,1:2:0:0:
229,281,105781,6,0,P|282:249|296:353,1,192,2|0,0:0|0:0,0:0:0:0:
231,372,106097,6,0,P|206:357|152:359,1,52,6|0,1:2|0:0,0:0:0:0:
137,284,106255,2,0,P|115:303|100:355,1,52,2|0,0:0|0:0,0:0:0:0:
29,360,106412,1,10,0:2:0:0:
2,286,106570,1,2,0:0:0:0:
92,212,106728,2,0,P|65:138|32:79,1,104,2|0,1:2|0:0,0:0:0:0:
0,62,107044,1,10,0:2:0:0:
144,12,107202,6,0,P|200:11|207:110,1,156,2|0,0:0|0:0,0:0:0:0:
214,103,107518,2,0,P|200:66|274:56,1,104,2|8,0:0|0:2,0:0:0:0:
343,93,107833,1,2,0:0:0:0:
256,185,107991,5,2,1:2:0:0:
256,185,108070,1,0,0:0:0:0:
256,185,108149,2,0,P|221:206|212:239,1,52,2|0,0:0|0:0,0:0:0:0:
137,216,108307,1,10,0:2:0:0:
137,216,108386,1,0,0:0:0:0:
137,216,108465,2,0,P|146:255|175:274,1,52,2|0,0:0|0:0,0:0:0:0:
248,361,108623,5,2,1:2:0:0:
325,342,108781,1,0,0:0:0:0:
435,229,108939,2,0,P|349:249|260:277,1,180,10|0,0:2|0:0,0:0:0:0:
254,278,109255,2,0,P|221:255|216:224,1,52,2|0,1:2|0:0,0:0:0:0:
137,216,109412,1,0,0:0:0:0:
137,216,109491,1,0,0:0:0:0:
137,216,109570,2,0,P|148:177|176:163,1,52,10|0,0:2|0:0,0:0:0:0:
240,27,109728,6,0,P|259:85|270:137,1,104,2|0,0:0|1:2,0:0:0:0:
321,5,110044,2,0,P|334:65|351:115,1,104,2|8,0:0|0:2,0:0:0:0:
253,213,110360,1,2,0:0:0:0:
166,117,110518,5,2,1:2:0:0:
140,112,110597,1,0,0:0:0:0:
114,107,110676,1,2,0:0:0:0:
89,102,110755,1,0,0:0:0:0:
63,97,110833,2,0,P|48:74|52:39,1,52,10|0,0:2|0:0,0:0:0:0:
133,29,110991,2,0,P|150:7|184:0,1,52
282,32,111149,6,0,L|291:95,1,52,2|0,1:2|0:0,0:0:0:0:
361,49,111307,2,0,L|370:112,1,52,2|0,0:0|0:0,0:0:0:0:
440,66,111465,2,0,L|449:129,1,52,10|0,0:2|0:0,0:0:0:0:
330,175,111623,2,0,P|274:162|267:266,1,156,2|0,0:0|0:0,0:0:0:0:
230,248,111939,2,0,P|214:230|218:198,1,52,2|0,0:0|0:0,0:0:0:0:
237,99,112097,1,10,0:2:0:0:
237,99,112255,1,2,0:0:0:0:
137,39,112412,6,0,P|110:25|81:31,1,52,2|0,1:2|0:0,0:0:0:0:
78,99,112570,2,0,P|105:113|134:107,1,52
232,35,112728,6,0,L|241:112,1,52,10|0,0:2|0:0,0:0:0:0:
306,19,112886,2,0,L|315:96,1,52
409,18,113044,5,2,1:2:0:0:
431,31,113123,1,0,0:0:0:0:
451,47,113202,1,2,0:0:0:0:
469,66,113281,1,0,0:0:0:0:
483,88,113360,2,0,L|469:147,3,52,8|0|2|0,0:2|0:0|0:0|0:0,0:0:0:0:
395,165,113676,6,0,P|337:160|301:202,2,104,0|2|8,1:2|0:0|0:2,0:0:0:0:
456,217,114149,1,2,0:0:0:0:
329,294,114307,2,0,L|320:366,1,52,2|0,1:2|0:0,0:0:0:0:
245,364,114465,2,0,L|251:312,1,52,2|0,0:0|0:0,0:0:0:0:
222,167,114623,6,0,P|249:200|244:238,1,52,10|0,0:2|0:0,0:0:0:0:
177,270,114781,2,0,P|162:251|169:222,1,52,2|0,0:0|0:0,0:0:0:0:
115,136,114939,5,2,1:2:0:0:
115,136,115097,2,0,L|12:161,2,104,2|8|2,0:0|0:2|0:0,0:0:0:0:
44,301,115570,6,0,L|23:230,1,52,2|0,1:2|1:2,0:0:0:0:
124,303,115728,2,0,L|103:232,1,52,2|0,1:2|1:2,0:0:0:0:
198,316,115886,1,10,0:2:0:0:
223,321,115965,1,0,1:2:0:0:
246,333,116044,1,0,1:2:0:0:
266,350,116123,1,0,1:2:0:0:
280,371,116202,6,0,L|350:356,1,52,6|0,1:2|0:0,0:0:0:0:
394,316,116360,2,0,L|464:301,1,52,2|0,0:0|0:0,0:0:0:0:
285,185,116518,2,0,P|316:239|326:289,1,104,10|2,0:2|0:0,0:0:0:0:
201,184,116833,2,0,P|217:124|285:116,2,104,2|2|8,1:2|0:0|0:2,0:0:0:0:
55,264,117307,6,0,P|136:282|215:335,1,156,2|0,0:0|0:0,0:0:0:0:
200,332,117623,2,0,P|168:314|167:284,1,52,2|0,0:0|0:0,0:0:0:0:
275,207,117781,6,0,L|266:278,1,52,10|0,0:2|0:0,0:0:0:0:
348,222,117939,2,0,L|339:293,1,52,2|0,0:0|0:0,0:0:0:0:
413,368,118097,5,2,1:2:0:0:
413,368,118176,1,0,0:0:0:0:
413,368,118255,2,0,P|445:355|454:336,1,52,2|0,0:0|0:0,0:0:0:0:
512,288,118412,1,10,0:2:0:0:
512,288,118491,1,0,0:0:0:0:
512,288,118570,2,0,P|509:253|494:239,1,52,2|0,0:0|0:0,0:0:0:0:
412,189,118728,5,2,1:2:0:0:
488,144,118886,1,0,0:0:0:0:
373,96,119044,2,0,P|290:68|215:8,1,180,10|0,0:2|0:0,0:0:0:0:
223,5,119360,2,0,P|241:37|238:66,1,52,2|0,1:2|0:0,0:0:0:0:
165,148,119518,1,0,0:0:0:0:
165,148,119597,1,0,0:0:0:0:
165,148,119676,2,0,P|198:132|212:107,1,52,10|0,0:2|0:0,0:0:0:0:
289,171,119833,6,0,P|313:238|337:361,1,156,2|0,0:0|0:0,0:0:0:0:
270,361,120149,2,0,P|254:323|264:307,1,52,2|0,0:0|0:0,0:0:0:0:
396,264,120307,6,0,L|455:251,1,52,10|0,0:2|0:0,0:0:0:0:
459,171,120465,2,0,L|408:182,1,52
291,160,120623,5,2,1:2:0:0:
300,135,120702,1,0,0:0:0:0:
315,114,120781,1,2,0:0:0:0:
335,98,120860,1,0,0:0:0:0:
358,87,120939,2,0,L|422:116,3,52,10|0|0|0,0:2|0:0|0:0|0:0,0:0:0:0:
290,37,121255,5,2,1:2:0:0:
204,27,121412,1,2,0:0:0:0:
152,95,121570,1,10,0:2:0:0:
38,18,121728,2,0,P|68:96|83:196,1,156,2|0,0:0|0:0,0:0:0:0:
79,176,122044,2,0,L|67:244,1,52,2|0,0:0|0:0,0:0:0:0:
0,331,122202,1,10,0:2:0:0:
75,353,122360,1,0,0:0:0:0:
185,225,122518,6,0,P|205:245|209:283,1,52,2|0,1:2|0:0,0:0:0:0:
272,200,122676,2,0,P|252:180|248:142,1,52,2|0,0:0|0:0,0:0:0:0:
377,153,122833,6,0,L|320:143,1,52,10|0,0:2|0:0,0:0:0:0:
307,66,122991,2,0,L|358:74,1,52,2|0,0:0|0:0,0:0:0:0:
459,31,123149,5,2,1:2:0:0:
471,53,123228,1,0,0:0:0:0:
480,78,123307,1,2,0:0:0:0:
488,102,123386,1,0,0:0:0:0:
493,128,123465,2,0,L|444:102,3,52,8|0|2|0,0:2|0:0|0:0|0:0,0:0:0:0:
477,203,123781,6,0,P|449:262|436:340,1,104,0|2,1:2|0:0,0:0:0:0:
447,306,124018,1,0,0:0:0:0:
456,309,124097,2,0,P|448:277|416:262,1,52,10|0,0:2|0:0,0:0:0:0:
361,240,124255,2,0,P|328:237|303:263,1,52,2|0,0:0|0:0,0:0:0:0:
255,309,124412,1,2,1:2:0:0:
180,343,124570,1,0,0:0:0:0:
106,373,124728,2,0,P|89:305|75:253,1,104,10|2,0:2|0:0,0:0:0:0:
0,178,125044,6,0,P|18:192|24:224,3,52,0|0|2|0,1:2|0:0|0:0|0:0,0:0:0:0:
43,111,125360,2,0,P|61:98|94:102,3,52,10|0|0|0,0:2|1:2|1:2|1:2,0:0:0:0:
148,31,125676,5,2,1:2:0:0:
166,49,125755,1,0,1:2:0:0:
187,63,125833,1,2,1:2:0:0:
211,73,125912,1,0,1:2:0:0:
237,79,125991,2,0,L|253:148,3,52,10|0|2|0,0:2|1:2|1:2|1:2,0:0:0:0:
218,212,126307,5,6,1:2:0:0:
229,209,126623,1,6,1:2:0:0:
308,236,126939,5,6,1:2:0:0:
319,233,127097,1,4,1:2:0:0:
330,230,127255,1,6,1:2:0:0:
341,227,127412,1,4,1:2:0:0:
352,224,127570,1,6,1:2:0:0:
363,221,127728,1,4,1:2:0:0:
428,267,127886,5,6,1:2:0:0:
439,264,127965,1,0,1:2:0:0:
450,261,128044,1,6,1:2:0:0:
461,258,128123,1,0,1:2:0:0:
472,255,128202,5,6,1:2:0:0:
507,0,128518,5,10,0:1:0:0:
255,191,128833,5,6,1:2:0:0:
416,91,138939,6,0,P|394:118|379:155,3,48,6|0|0|0,1:2|0:0|0:0|0:0,0:0:0:0:
312,154,139255,2,0,P|330:183|361:208,3,48,8|0|0|0,0:2|0:0|0:0|0:0,0:0:0:0:
380,265,139570,1,2,1:2:0:0:
390,286,139649,1,0,0:0:0:0:
404,306,139728,1,0,0:0:0:0:
421,322,139807,1,0,0:0:0:0:
442,335,139886,2,0,L|473:281,3,48,8|0|0|0,0:2|0:0|0:0|0:0,0:0:0:0:
464,201,140202,6,0,P|441:189|409:182,3,48,2|0|0|0,1:2|0:0|0:0|0:0,0:0:0:0:
411,105,140518,2,0,P|387:98|366:87,3,48,8|0|0|0,0:2|0:0|0:0|0:0,0:0:0:0:
307,143,140833,1,2,1:2:0:0:
290,125,140912,1,0,0:0:0:0:
280,103,140991,1,0,0:0:0:0:
277,79,141070,1,0,0:0:0:0:
282,56,141149,2,0,P|300:33|336:20,3,48,8|0|0|0,0:2|0:0|0:0|0:0,0:0:0:0:
191,32,141465,6,0,L|133:40,3,48,2|0|0|0,1:2|0:0|0:0|0:0,0:0:0:0:
93,99,141781,2,0,L|35:107,3,48,8|0|0|0,0:2|0:0|0:0|0:0,0:0:0:0:
178,130,142097,1,2,1:2:0:0:
182,153,142176,1,0,0:0:0:0:
186,177,142255,1,0,0:0:0:0:
190,200,142333,1,0,0:0:0:0:
194,224,142412,2,0,L|247:233,3,48,8|0|0|0,0:2|0:0|0:0|0:0,0:0:0:0:
294,314,142728,6,0,P|299:296|321:272,3,48,2|0|0|0,1:2|0:0|0:0|0:0,0:0:0:0:
356,358,143044,2,0,P|361:340|383:316,3,48,8|0|0|0,0:2|0:0|0:0|0:0,0:0:0:0:
438,375,143360,1,2,1:2:0:0:
447,352,143439,1,0,0:0:0:0:
459,332,143518,1,0,0:0:0:0:
473,312,143597,1,0,0:0:0:0:
489,295,143676,2,0,P|469:276|440:265,3,48,8|0|0|0,0:2|0:0|0:0|0:0,0:0:0:0:
437,186,143991,6,0,P|465:173|495:174,3,48,2|0|0|0,1:2|0:0|0:0|0:0,0:0:0:0:
369,128,144307,2,0,P|341:115|311:116,3,48,8|0|0|0,0:2|0:0|0:0|0:0,0:0:0:0:
449,102,144623,1,2,1:2:0:0:
469,89,144702,1,0,0:0:0:0:
486,73,144781,1,0,0:0:0:0:
499,53,144860,1,0,0:0:0:0:
508,30,144939,2,0,L|449:-4,3,48,8|0|0|0,0:2|0:0|0:0|0:0,0:0:0:0:
395,52,145255,6,0,P|372:70|367:105,3,48,2|0|0|0,1:2|0:0|0:0|0:0,0:0:0:0:
295,138,145570,2,0,P|290:109|263:87,3,48,8|0|0|0,0:2|0:0|0:0|0:0,0:0:0:0:
374,175,145886,1,2,1:2:0:0:
379,198,145965,1,0,0:0:0:0:
388,220,146044,1,0,0:0:0:0:
399,241,146123,1,0,0:0:0:0:
413,261,146202,2,0,L|479:226,3,48,8|0|0|0,0:2|0:0|0:0|0:0,0:0:0:0:
329,323,146518,6,0,B|354:326|354:326|356:329|356:329|383:332,3,48,2|0|0|0,1:2|0:0|0:0|0:0,0:0:0:0:
266,263,146833,2,0,B|241:266|241:266|239:269|239:269|212:272,3,48,8|0|0|0,0:2|0:0|0:0|0:0,0:0:0:0:
322,337,147149,2,0,B|347:340|347:340|349:343|349:343|376:346,3,48,2|0|0|0,1:2|0:0|0:0|0:0,0:0:0:0:
259,277,147465,2,0,B|234:280|234:280|232:283|232:283|205:286,3,48,8|0|0|0,0:2|0:0|0:0|0:0,0:0:0:0:
182,212,147781,5,2,1:2:0:0:
169,178,147860,1,0,0:0:0:0:
153,146,147939,1,0,0:0:0:0:
133,115,148018,1,0,0:0:0:0:
111,87,148097,2,0,P|86:112|87:146,3,48,8|0|0|0,0:2|0:0|0:0|0:0,0:0:0:0:
8,146,148412,6,0,P|14:176|40:188,1,48,2|0,1:2|1:2,0:0:0:0:
5,268,148570,2,0,P|36:271|55:249,1,48,2|0,1:2|1:2,0:0:0:0:
122,308,148728,2,0,P|134:279|120:254,1,48,10|0,0:2|1:2,0:0:0:0:
197,208,148886,2,0,P|173:187|145:193,1,48,0|0,1:2|1:2,0:0:0:0:
104,124,149044,5,2,0:0:0:0:
126,102,150307,6,0,P|114:78|126:45,1,56,6|0,1:2|0:0,0:0:0:0:
207,37,150465,2,0,P|226:18|261:19,1,56,2|0,0:0|0:0,0:0:0:0:
352,102,150623,1,10,0:2:0:0:
269,117,150781,1,2,0:0:0:0:
135,198,150939,2,0,P|73:187|41:133,1,112,2|0,1:2|0:0,0:0:0:0:
18,80,151255,1,10,0:2:0:0:
173,30,151412,6,0,P|270:36|373:55,1,168,2|0,0:0|0:0,0:0:0:0:
348,49,151728,2,0,P|378:106|333:150,1,112,2|8,0:0|0:2,0:0:0:0:
424,8,152044,1,2,0:0:0:0:
466,89,152202,5,2,1:2:0:0:
466,89,152281,1,0,0:0:0:0:
466,89,152360,2,0,L|477:175,1,56,2|0,0:0|0:0,0:0:0:0:
504,226,152518,1,10,0:2:0:0:
504,226,152597,1,0,0:0:0:0:
504,226,152676,2,0,L|515:312,1,56,2|0,0:0|0:0,0:0:0:0:
396,337,152833,5,2,1:2:0:0:
327,277,152991,1,0,0:0:0:0:
402,345,153149,2,0,P|412:263|441:150,1,192,10|0,0:2|0:0,0:0:0:0:
444,152,153465,2,0,P|454:172|445:206,1,56,2|0,1:2|0:0,0:0:0:0:
342,149,153623,1,0,0:0:0:0:
342,149,153702,1,0,0:0:0:0:
342,149,153781,2,0,P|326:164|290:166,1,56,10|0,0:2|0:0,0:0:0:0:
161,77,153939,6,0,P|224:76|282:66,1,112,2|0,0:0|1:2,0:0:0:0:
434,15,154255,2,0,P|385:9|369:75,1,112,2|8,0:0|0:2,0:0:0:0:
449,155,154570,1,2,0:0:0:0:
449,155,154649,1,0,0:0:0:0:
449,155,154728,5,2,1:2:0:0:
421,150,154807,1,0,0:0:0:0:
393,146,154886,1,2,0:0:0:0:
365,142,154965,1,0,0:0:0:0:
338,137,155044,2,0,L|358:224,1,56,10|0,0:2|0:0,0:0:0:0:
281,241,155202,2,0,L|268:186,1,56
226,88,155360,5,2,1:2:0:0:
158,52,155518,1,2,0:0:0:0:
82,61,155676,1,10,0:2:0:0:
10,154,155833,2,0,P|84:168|172:217,1,168,2|0,0:0|0:0,0:0:0:0:
170,226,156149,2,0,P|140:201|145:160,1,56,2|0,0:0|0:0,0:0:0:0:
226,100,156307,1,10,0:2:0:0:
226,100,156465,1,2,0:0:0:0:
328,195,156623,6,0,P|297:264|271:373,1,168,2|0,1:2|0:0,0:0:0:0:
371,384,156939,2,0,P|370:353|354:334,1,56,10|0,0:2|0:0,0:0:0:0:
264,293,157097,2,0,P|234:284|211:293,1,56,2|0,0:0|0:0,0:0:0:0:
116,340,157255,5,2,1:2:0:0:
98,361,157333,1,0,0:0:0:0:
75,377,157412,1,2,0:0:0:0:
48,385,157491,1,0,0:0:0:0:
20,384,157570,2,0,L|0:319,3,56,8|0|2|0,0:2|0:0|0:0|0:0,0:0:0:0:
71,267,157886,6,0,P|100:205|141:181,1,112,0|2,1:2|0:0,0:0:0:0:
239,157,158202,2,0,L|250:211,1,56,10|0,0:2|0:0,0:0:0:0:
328,219,158360,2,0,L|316:164,1,56,2|0,0:0|0:0,0:0:0:0:
327,65,158518,6,0,P|345:33|374:27,1,56,2|0,1:2|0:0,0:0:0:0:
426,74,158676,2,0,P|461:81|476:106,1,56,2|0,0:0|0:0,0:0:0:0:
448,170,158833,2,0,P|452:206|432:228,1,56,10|0,0:2|0:0,0:0:0:0:
326,316,158991,6,0,P|388:293|439:377,1,168,2|0,0:0|0:0,0:0:0:0:
431,375,159307,2,0,P|412:334|443:307,1,56,2|0,0:0|0:0,0:0:0:0:
320,228,159465,6,0,L|327:160,1,56,8|0,0:2|0:0,0:0:0:0:
250,149,159623,2,0,L|244:204,1,56,2|0,0:0|0:0,0:0:0:0:
205,319,159781,6,0,P|189:291|150:278,1,56,2|0,1:2|1:2,0:0:0:0:
116,334,159939,2,0,P|132:362|171:375,1,56,2|0,1:2|1:2,0:0:0:0:
285,381,160097,1,10,0:2:0:0:
312,376,160176,1,0,1:2:0:0:
340,372,160255,1,0,1:2:0:0:
367,367,160333,1,0,1:2:0:0:
395,363,160412,5,6,1:2:0:0:
465,307,160570,1,2,0:0:0:0:
496,220,160728,1,10,0:2:0:0:
460,135,160886,1,2,0:0:0:0:
309,191,161044,2,0,P|330:262|408:204,1,168,2|0,1:2|0:0,0:0:0:0:
409,230,161360,2,0,P|411:201|380:176,1,56,10|0,0:2|0:0,0:0:0:0:
295,85,161518,6,0,L|102:48,1,168,2|0,0:0|0:0,0:0:0:0:
120,55,161833,2,0,P|147:3|204:49,1,112,2|8,0:0|0:2,0:0:0:0:
138,133,162149,1,2,0:0:0:0:
21,132,162307,5,2,1:2:0:0:
21,132,162386,1,0,0:0:0:0:
21,132,162465,2,0,L|32:202,1,56
86,253,162623,1,10,0:2:0:0:
86,253,162702,1,0,0:0:0:0:
86,253,162781,2,0,L|97:323,1,56
151,377,162939,5,2,1:2:0:0:
242,362,163097,1,0,0:0:0:0:
176,212,163255,2,0,P|261:192|290:274,1,192,10|0,0:2|0:0,0:0:0:0:
284,289,163570,2,0,P|265:264|277:230,1,56,2|0,1:2|0:0,0:0:0:0:
372,244,163728,1,0,0:0:0:0:
372,244,163807,1,0,0:0:0:0:
372,244,163886,2,0,P|389:218|425:219,1,56,10|0,0:2|0:0,0:0:0:0:
386,324,164044,6,0,P|369:210|336:134,1,168,2|0,0:0|0:0,0:0:0:0:
346,157,164360,2,0,L|358:88,1,56,2|0,0:0|0:0,0:0:0:0:
393,17,164518,1,10,0:2:0:0:
455,76,164676,1,2,0:0:0:0:
280,37,164833,5,2,1:2:0:0:
252,41,164912,1,0,0:0:0:0:
227,53,164991,1,2,0:0:0:0:
206,72,165070,1,0,0:0:0:0:
192,96,165149,2,0,P|177:128|185:171,3,56,10|0|0|0,0:2|0:0|0:0|0:0,0:0:0:0:
95,174,165465,6,0,P|33:149|-7:105,2,112,2|2|10,1:2|0:0|0:2,0:0:0:0:
253,320,165939,2,0,P|239:243|162:243,1,168,2|0,0:0|0:0,0:0:0:0:
156,250,166255,2,0,P|180:256|211:232,1,56,2|0,0:0|0:0,0:0:0:0:
251,144,166412,1,10,0:2:0:0:
333,127,166570,1,0,0:0:0:0:
425,67,166728,6,0,P|397:17|327:33,2,112,2|2|8,1:2|0:0|0:2,0:0:0:0:
410,149,167202,1,2,0:0:0:0:
273,62,167360,5,2,1:2:0:0:
245,54,167439,1,0,0:0:0:0:
218,47,167518,1,2,0:0:0:0:
191,40,167597,1,0,0:0:0:0:
164,33,167676,2,0,P|155:71|170:103,3,56,8|0|2|0,0:2|0:0|0:0|0:0,0:0:0:0:
205,162,167991,6,0,P|268:140|350:148,1,112,0|2,1:2|0:0,0:0:0:0:
403,220,168307,2,0,P|445:215|459:190,1,56,10|0,0:2|0:0,0:0:0:0:
411,128,168465,2,0,P|419:86|399:65,1,56,2|0,0:0|0:0,0:0:0:0:
262,4,168623,6,0,L|329:12,1,56,2|0,1:2|0:0,0:0:0:0:
327,86,168781,2,0,L|271:79,1,56,2|0,0:0|0:0,0:0:0:0:
148,90,168939,6,0,P|159:127|168:182,1,56,10|0,0:2|0:0,0:0:0:0:
235,303,169097,2,0,P|226:276|220:249,1,56,2|0,0:0|0:0,0:0:0:0:
83,243,169255,6,0,P|120:232|175:223,1,56,8|0,0:2|0:0,0:0:0:0:
296,156,169412,2,0,P|269:164|242:170,1,56,2|0,1:2|0:0,0:0:0:0:
68,147,169570,5,10,0:2:0:0:
48,127,169649,1,0,1:2:0:0:
32,104,169728,1,2,1:2:0:0:
20,79,169807,1,0,1:2:0:0:
13,52,169886,2,0,L|24:15,6,28,10|0|0|0|2|0|0,1:2|1:0|1:2|1:0|1:2|1:0|1:2,0:0:0:0:
97,35,170202,2,0,L|107:-2,6,28,10|0|0|0|2|0|0,0:2|1:0|1:2|1:0|1:2|1:0|1:2,0:0:0:0:
180,39,170518,5,6,1:2:0:0:
193,37,171149,1,6,1:2:0:0:
206,43,171781,1,6,1:2:0:0:
248,117,172412,5,6,1:2:0:0:
252,128,172728,1,6,1:2:0:0:
250,141,173044,1,6,1:2:0:0:
244,152,173360,1,6,1:2:0:0:
157,203,173676,5,6,1:2:0:0:
146,207,173833,1,4,1:2:0:0:
133,205,173991,1,6,1:2:0:0:
122,199,174149,1,4,1:2:0:0:
27,164,174307,5,6,1:2:0:0:
31,144,174386,1,0,1:2:0:0:
40,126,174465,1,6,1:2:0:0:
53,112,174544,1,0,1:2:0:0:
70,101,174623,1,6,1:2:0:0:
89,94,174702,1,0,1:2:0:0:
109,93,174781,1,6,1:2:0:0:
128,97,174860,1,0,1:2:0:0:
146,105,174939,1,6,1:2:0:0:
242,29,175255,6,0,L|247:85,1,40,2|0,0:0|0:0,0:0:0:0:
322,80,175412,2,0,L|318:40,1,40
395,134,175570,6,0,P|343:164|311:223,1,96,6|0,1:2|0:0,0:0:0:0:
321,204,175807,1,0,0:0:0:0:
325,218,175886,2,0,L|338:282,1,48,10|0,0:2|0:0,0:0:0:0:
264,311,176044,2,0,L|254:263,1,48,2|0,0:2|0:0,0:0:0:0:
203,185,176202,6,0,P|173:123|138:77,1,96,2|0,1:2|0:0,0:0:0:0:
145,92,176439,1,0,0:0:0:0:
136,94,176518,2,0,P|138:132|176:137,1,48,8|0,0:2|0:0,0:0:0:0:
248,49,176676,6,0,L|319:66,2,48,2|2|2,0:0|0:0|1:2,0:0:0:0:
301,144,176991,1,2,0:0:0:0:
321,132,177070,1,2,0:0:0:0:
344,124,177149,2,0,P|371:130|393:154,1,48,10|0,0:2|0:0,0:0:0:0:
462,142,177307,2,0,P|464:169|448:197,1,48,2|0,0:0|0:0,0:0:0:0:
379,255,177465,5,2,1:2:0:0:
397,379,177623,1,2,0:2:0:0:
313,219,177781,5,10,0:2:0:0:
279,339,177939,1,2,0:2:0:0:
208,231,178097,6,0,P|195:270|189:311,1,71.9999999999999,2|0,1:2|0:0,0:0:0:0:
188,310,178412,6,0,P|185:206|163:96,1,192,10|0,0:2|0:0,0:0:0:0:
93,77,178728,6,0,P|108:52|153:50,1,48,2|0,1:2|0:0,0:0:0:0:
211,24,178886,2,0,P|239:30|255:72,1,48,2|0,0:0|0:0,0:0:0:0:
268,150,179044,2,0,P|324:130|401:138,1,96,8|2,0:2|0:0,0:0:0:0:
366,134,179281,1,2,0:0:0:0:
370,142,179360,6,0,P|338:128|340:100,1,48,2|0,1:2|0:0,0:0:0:0:
390,27,179518,2,0,P|410:52|397:84,1,48,2|0,0:0|0:0,0:0:0:0:
264,60,179676,1,10,0:2:0:0:
249,40,179755,1,2,0:0:0:0:
230,26,179833,1,2,0:0:0:0:
208,18,179912,1,2,0:0:0:0:
184,17,179991,1,2,1:2:0:0:
102,49,180149,1,2,0:2:0:0:
12,36,180307,2,0,P|36:104|54:189,1,144,10|0,0:2|0:0,0:0:0:0:
21,259,180623,6,0,P|76:243|129:234,1,96,2|2,1:2|0:0,0:0:0:0:
120,243,180860,1,2,0:0:0:0:
131,252,180939,2,0,P|186:266|209:261,1,48,8|0,0:2|0:0,0:0:0:0:
235,211,181097,2,0,P|265:163|267:139,1,48,2|0,0:2|0:0,0:0:0:0:
192,83,181255,6,0,P|149:38|97:27,1,96,0|0,1:2|0:0,0:0:0:0:
108,30,181491,1,2,0:2:0:0:
99,38,181570,2,0,L|172:21,1,48,8|0,0:2|0:0,0:0:0:0:
245,27,181728,2,0,L|318:10,1,48,2|0,0:2|0:0,0:0:0:0:
403,36,181886,5,0,1:2:0:0:
349,144,182044,1,2,0:2:0:0:
343,121,182123,1,2,0:2:0:0:
332,101,182202,2,0,P|313:121|317:147,1,48,10|0,0:2|0:0,0:0:0:0:
249,194,182360,2,0,P|262:218|288:222,1,48,2|0,0:2|0:0,0:0:0:0:
408,285,182518,6,0,P|411:257|393:238,1,48,2|0,1:2|0:0,0:0:0:0:
385,235,182676,2,0,P|327:255|215:312,1,144,2|0,0:2|0:0,0:0:0:0:
242,296,182991,2,0,P|218:303|166:261,1,96,2|0,0:2|1:2,0:0:0:0:
112,177,183307,6,0,P|135:165|175:169,2,48,2|2|10,0:2|0:2|0:2,0:0:0:0:
62,106,183623,1,2,0:2:0:0:
41,94,183702,1,2,0:2:0:0:
17,92,183781,2,0,P|5:44|58:12,1,96,2|2,1:2|0:0,0:0:0:0:
119,16,184097,1,10,0:0:0:0:
231,0,184255,5,2,0:0:0:0:
216,19,184333,1,0,0:0:0:0:
208,41,184412,2,0,P|213:69|243:90,3,48,0|0|2|0,1:2|1:2|1:2|1:2,0:0:0:0:
213,161,184728,2,0,P|241:164|270:142,3,48,10|2|2|0,0:2|1:2|1:2|1:2,0:0:0:0:
314,55,185044,6,0,L|305:-3,1,48,2|0,1:2|0:0,0:0:0:0:
371,162,185202,2,0,L|378:209,1,48,2|0,1:2|0:0,0:0:0:0:
416,55,185360,1,10,0:2:0:0:
431,36,185439,1,0,0:0:0:0:
450,22,185518,1,2,1:2:0:0:
472,12,185597,1,0,0:0:0:0:
495,7,185676,5,6,1:2:0:0:
452,85,185833,2,0,L|414:53,2,48,2|2|10,0:0|0:0|0:2,0:0:0:0:
353,113,186149,1,2,0:0:0:0:
330,121,186228,1,2,0:0:0:0:
306,123,186307,2,0,P|269:103|260:72,1,48,2|0,1:2|0:0,0:0:0:0:
229,22,186465,2,0,P|196:27|178:45,1,48,2|2,0:0|0:0,0:0:0:0:
176,131,186623,1,8,0:2:0:0:
47,78,186781,5,2,0:0:0:0:
69,69,186860,1,2,0:0:0:0:
92,66,186939,1,2,1:2:0:0:
36,174,187097,1,2,0:0:0:0:
58,165,187176,1,2,0:0:0:0:
81,162,187255,2,0,L|69:217,1,48,10|0,0:2|0:0,0:0:0:0:
151,267,187412,2,0,L|162:218,1,48,2|0,0:0|0:0,0:0:0:0:
185,114,187570,5,2,1:2:0:0:
333,138,187728,1,2,0:2:0:0:
272,22,187886,5,10,0:2:0:0:
401,97,188044,1,2,0:2:0:0:
297,220,188202,6,0,P|275:194|237:185,1,71.9999999999999,2|0,1:2|0:0,0:0:0:0:
231,191,188518,6,0,P|168:162|212:64,1,192,10|0,0:2|0:0,0:0:0:0:
279,28,188833,6,0,P|264:8|219:2,1,48,2|0,1:2|0:0,0:0:0:0:
155,0,188991,2,0,P|131:8|111:49,1,48,2|0,0:0|0:0,0:0:0:0:
60,111,189149,6,0,L|83:220,1,96,8|2,0:2|0:0,0:0:0:0:
74,211,189386,1,2,0:0:0:0:
67,224,189465,2,0,L|81:299,1,48,2|0,1:2|0:0,0:0:0:0:
91,369,189623,5,2,0:0:0:0:
99,353,189702,1,0,0:0:0:0:
115,346,189781,5,10,0:2:0:0:
138,349,189860,1,2,0:0:0:0:
162,353,189939,1,2,0:0:0:0:
186,357,190018,1,2,0:0:0:0:
209,361,190097,2,0,P|224:336|225:307,1,48,2|0,1:2|0:0,0:0:0:0:
289,268,190255,2,0,P|269:246|242:236,1,48,2|0,0:2|0:0,0:0:0:0:
159,214,190412,2,0,P|229:202|257:111,1,144,10|0,0:2|0:0,0:0:0:0:
235,71,190728,6,0,L|347:47,1,96,2|2,1:2|0:0,0:0:0:0:
334,54,190965,1,2,0:0:0:0:
344,58,191044,2,0,L|410:45,1,48,8|0,0:2|0:0,0:0:0:0:
463,111,191202,2,0,L|415:120,1,48,2|0,0:2|0:0,0:0:0:0:
311,171,191360,6,0,P|360:206|358:263,1,96,0|0,1:2|0:0,0:0:0:0:
358,251,191597,1,2,0:2:0:0:
347,260,191676,2,0,L|360:330,1,48,8|0,0:2|0:0,0:0:0:0:
434,294,191833,2,0,L|447:364,1,48,2|0,0:2|0:0,0:0:0:0:
510,381,191991,5,0,1:2:0:0:
499,255,192149,1,2,0:2:0:0:
483,236,192228,1,2,0:2:0:0:
462,225,192307,2,0,P|433:201|429:187,1,48,10|0,0:2|0:0,0:0:0:0:
510,107,192465,2,0,P|503:144|493:154,1,48,2|0,0:2|0:0,0:0:0:0:
350,86,192623,6,0,P|367:59|398:60,1,48,2|0,1:2|0:0,0:0:0:0:
392,58,192781,2,0,L|227:40,1,144,2|0,0:2|0:0,0:0:0:0:
243,47,193097,2,0,P|215:61|213:126,1,96,2|0,0:2|1:2,0:0:0:0:
279,215,193412,6,0,L|205:198,2,48,2|2|10,0:2|0:2|0:2,0:0:0:0:
390,221,193728,1,2,0:2:0:0:
369,233,193807,1,2,0:2:0:0:
353,251,193886,2,0,P|335:283|343:304,1,48,2|0,1:2|0:0,0:0:0:0:
390,362,194044,2,0,P|408:330|400:309,1,48,2|0,0:0|0:0,0:0:0:0:
270,358,194202,6,0,L|212:370,1,48,10|0,0:0|0:0,0:0:0:0:
174,301,194360,2,0,L|221:291,1,48,2|0,0:0|0:0,0:0:0:0:
268,198,194518,6,0,P|292:130|322:80,1,96,0|2,1:2|0:0,0:0:0:0:
312,107,194755,1,0,0:0:0:0:
319,113,194833,2,0,P|330:143|313:168,1,48,10|0,0:0|0:0,0:0:0:0:
208,122,194991,2,0,P|182:141|153:133,1,48,2|0,0:0|0:0,0:0:0:0:
73,49,195149,6,0,P|38:84|80:58,2,144,2|2|2,1:2|1:2|1:2,0:0:0:0:
