osu file format v14

[General]
AudioFilename: audio.mp3
AudioLeadIn: 0
PreviewTime: 41636
Countdown: 0
SampleSet: Soft
StackLeniency: 0.4
Mode: 0
LetterboxInBreaks: 0
WidescreenStoryboard: 1

[Editor]
DistanceSpacing: 1.4
BeatDivisor: 4
GridSize: 4
TimelineZoom: 2.5

[Metadata]
Title:Gigantic O.T.N
TitleUnicode:ギガンティックO.T.N
Artist:yuikonnu
ArtistUnicode:ゆいこんぬ
Creator:Camo
Version:Hyper
Source:
Tags:ストロベリズム宣言 giga giga-p cover ギガ 鏡音レン kagamine len electronic oriental japanese pop j-pop jpop camocratic calliecube strawberrhythm sengen gigap utaite nico douga
BeatmapID:3336914
BeatmapSetID:1362797

[Difficulty]
HPDrainRate:5
CircleSize:3.7
OverallDifficulty:7
ApproachRate:8.5
SliderMultiplier:1.5
SliderTickRate:1

[Events]
//Background and Video events
0,0,"bg-min.jpg",0,0
//Break Periods
2,129033,138264
//Storyboard Layer 0 (Background)
//Storyboard Layer 1 (Fail)
//Storyboard Layer 2 (Pass)
//Storyboard Layer 3 (Foreground)
//Storyboard Layer 4 (Overlay)
//Storyboard Sound Samples

[TimingPoints]
623,315.789473684211,4,2,1,70,1,0
623,-100,4,2,1,70,0,0
859,-100,4,2,1,5,0,0
938,-100,4,2,1,70,0,0
1175,-100,4,2,1,5,0,0
1255,315.789473684211,4,2,1,70,1,0
1255,-90.9090909090909,4,2,1,70,0,0
4018,-90.9090909090909,4,2,1,5,0,0
4097,-90.9090909090909,4,2,1,70,0,0
4333,-90.9090909090909,4,2,1,5,0,0
4412,-90.9090909090909,4,2,1,70,0,0
6228,-90.9090909090909,4,2,1,5,0,0
6307,-90.9090909090909,4,2,1,70,0,0
8281,-90.9090909090909,4,2,1,5,0,0
8360,-90.9090909090909,4,2,1,70,0,0
10965,-90.9090909090909,4,2,1,5,0,0
11044,-90.9090909090909,4,2,1,70,0,0
11281,-90.9090909090909,4,2,1,5,0,0
11360,-111.111111111111,4,2,1,60,0,0
14833,-111.111111111111,4,2,1,60,0,0
15702,-111.111111111111,4,2,1,5,0,0
15781,-111.111111111111,4,2,1,60,0,0
16333,-111.111111111111,4,2,1,5,0,0
16412,-111.111111111111,4,2,1,60,0,0
18228,-111.111111111111,4,2,1,5,0,0
18307,-111.111111111111,4,2,1,60,0,0
19807,-111.111111111111,4,2,1,5,0,0
19886,-111.111111111111,4,2,1,60,0,0
23360,-111.111111111111,4,2,1,60,0,0
26755,-111.111111111111,4,2,1,5,0,0
26833,-111.111111111111,4,2,1,60,0,0
31491,-111.111111111111,4,2,1,5,0,0
31570,-111.111111111111,4,2,2,60,0,0
31649,-111.111111111111,4,2,2,5,0,0
31728,-111.111111111111,4,2,2,60,0,0
33702,-111.111111111111,4,2,2,5,0,0
33781,-111.111111111111,4,2,2,60,0,0
34018,-111.111111111111,4,2,2,5,0,0
34097,-111.111111111111,4,2,2,60,0,0
34176,-111.111111111111,4,2,2,5,0,0
34255,-111.111111111111,4,2,2,60,0,0
36228,-111.111111111111,4,2,2,5,0,0
36307,-111.111111111111,4,2,2,60,0,0
36544,-111.111111111111,4,2,2,5,0,0
36623,-111.111111111111,4,2,2,60,0,0
37176,-111.111111111111,4,2,2,5,0,0
37255,-111.111111111111,4,2,2,60,0,0
37807,-111.111111111111,4,2,2,5,0,0
37886,-111.111111111111,4,2,2,60,0,0
39149,-111.111111111111,4,2,2,70,0,0
39176,-111.111111111111,4,2,2,5,0,0
39307,-111.111111111111,4,2,2,70,0,0
39333,-111.111111111111,4,2,2,5,0,0
39465,-111.111111111111,4,2,2,70,0,0
39491,-111.111111111111,4,2,2,5,0,0
39623,-111.111111111111,4,2,2,70,0,0
39649,-111.111111111111,4,2,2,5,0,0
39781,-111.111111111111,4,2,2,70,0,0
40412,-111.111111111111,4,2,1,70,0,0
41597,-111.111111111111,4,2,1,5,0,0
41676,-83.3333333333333,4,2,1,75,0,1
61886,-83.3333333333333,4,2,2,70,0,0
64018,-83.3333333333333,4,2,2,5,0,0
64097,-83.3333333333333,4,2,1,70,0,0
64333,-83.3333333333333,4,2,1,5,0,0
64412,-90.9090909090909,4,2,1,70,0,0
74123,-90.9090909090909,4,2,1,5,0,0
74202,-90.9090909090909,4,2,1,70,0,0
74439,-90.9090909090909,4,2,1,5,0,0
74518,-111.111111111111,4,2,1,60,0,0
94649,-90.9090909090909,4,2,1,5,0,0
94728,-90.9090909090909,4,2,1,70,0,0
102307,-90.9090909090909,4,2,2,70,0,0
103570,-90.9090909090909,4,2,1,60,0,0
106018,-90.9090909090909,4,2,1,5,0,0
106097,-83.3333333333333,4,2,1,75,0,1
126307,-90.9090909090909,4,2,2,70,0,0
128439,-90.9090909090909,4,2,2,5,0,0
128518,-90.9090909090909,4,2,1,70,0,0
128755,-90.9090909090909,4,2,1,5,0,0
128833,-90.9090909090909,4,2,1,70,0,0
149044,-90.9090909090909,4,2,1,60,0,0
150228,-90.9090909090909,4,2,1,5,0,0
150307,-76.9230769230769,4,2,1,80,0,1
170518,-90.9090909090909,4,2,6,70,0,0
170597,-90.9090909090909,4,2,2,70,0,0
175255,-90.9090909090909,4,2,3,70,0,0
175570,-83.3333333333333,4,2,5,75,0,0
175886,-83.3333333333333,4,2,1,75,0,0

[Colours]
Combo1 : 136,0,136
Combo2 : 255,133,74
Combo3 : 104,216,253
Combo4 : 157,157,255

[HitObjects]
44,68,623,6,0,P|100:71|96:156,1,150,0|8,0:0|0:1,0:0:0:0:
17,268,1255,6,0,P|65:250|122:231,1,82.5,6|0,1:2|0:0,0:0:0:0:
102,248,1491,1,0,0:0:0:0:
112,255,1570,2,0,P|164:275|210:279,1,82.5,10|0,0:2|0:0,0:0:0:0:
295,228,1886,1,2,1:2:0:0:
217,184,2044,1,0,0:0:0:0:
279,324,2202,2,0,P|335:303|392:298,1,82.5,8|2,0:2|0:0,0:0:0:0:
447,152,2518,6,0,P|421:197|412:241,1,82.5,2|2,1:2|0:0,0:0:0:0:
413,226,2755,1,2,0:0:0:0:
413,226,2833,1,10,0:2:0:0:
345,152,2991,1,2,0:0:0:0:
512,227,3149,1,2,1:2:0:0:
441,322,3307,1,2,0:2:0:0:
307,230,3465,2,0,P|248:210|208:202,1,82.5,10|2,0:2|0:2,0:0:0:0:
71,228,3781,5,2,1:2:0:0:
74,233,4097,2,0,P|139:180|152:66,1,165,10|2,0:2|1:2,0:0:0:0:
96,52,4570,1,2,0:0:0:0:
240,137,4728,2,0,P|283:128|321:79,1,82.5,8|0,0:2|0:0,0:0:0:0:
309,94,4965,1,2,0:0:0:0:
307,84,5044,6,0,P|373:57|411:54,1,82.5,2|0,1:2|0:0,0:0:0:0:
473,120,5360,2,0,P|499:124|518:133,2,41.25,10|2|0,0:2|0:0|0:0,0:0:0:0:
392,166,5676,1,2,1:2:0:0:
471,218,5833,1,2,0:2:0:0:
375,260,5991,2,0,P|308:282|262:301,1,82.5,10|0,0:2|0:0,0:0:0:0:
132,259,6307,6,0,P|199:237|245:218,1,82.5,2|0,1:2|0:0,0:0:0:0:
216,227,6544,1,2,0:0:0:0:
223,220,6623,2,0,P|228:155|224:129,1,82.5,8|0,0:2|0:0,0:0:0:0:
101,31,6939,1,2,1:2:0:0:
101,31,7097,2,0,P|149:47|151:82,1,82.5,0|8,0:0|0:0,0:0:0:0:
97,141,7412,1,2,0:2:0:0:
239,60,7570,5,0,1:2:0:0:
258,52,7649,1,2,0:2:0:0:
277,44,7728,1,2,0:2:0:0:
400,78,7886,2,0,L|316:117,1,82.5,10|0,0:2|0:0,0:0:0:0:
432,4,8202,1,2,1:2:0:0:
404,83,8360,2,0,L|478:236,1,165,2|0,0:2|0:0,0:0:0:0:
235,246,8991,5,2,0:2:0:0:
254,238,9070,1,2,0:2:0:0:
273,230,9149,1,10,0:2:0:0:
330,285,9307,1,2,0:2:0:0:
349,277,9386,1,2,0:2:0:0:
368,269,9465,1,2,1:2:0:0:
452,307,9623,1,2,0:2:0:0:
285,360,9781,2,0,L|196:336,1,82.5,10|0,0:2|0:0,0:0:0:0:
184,249,10097,5,0,1:2:0:0:
165,257,10176,1,0,1:2:0:0:
146,265,10255,1,2,1:2:0:0:
127,274,10333,1,0,1:2:0:0:
108,282,10412,2,0,L|88:331,3,41.25,10|0|0|0,0:2|1:2|0:0|0:0,0:0:0:0:
23,278,10728,5,2,0:2:0:0:
273,253,11044,1,2,0:2:0:0:
322,176,11202,5,0,0:0:0:0:
322,176,11360,2,0,L|331:99,1,67.5000000000001,6|0,1:2|0:0,0:0:0:0:
407,202,11676,2,0,L|416:125,1,67.5000000000001,2|0,1:2|0:0,0:0:0:0:
394,49,11991,1,2,1:2:0:0:
486,72,12149,1,0,0:0:0:0:
308,24,12307,2,0,L|226:39,1,67.5000000000001,2|0,1:2|0:0,0:0:0:0:
73,91,12623,5,2,1:2:0:0:
150,30,12781,2,0,L|170:113,2,67.5000000000001,2|2|2,0:0|1:2|0:2,0:0:0:0:
115,171,13255,2,0,P|159:182|251:228,1,135,2|2,1:2|1:2,0:0:0:0:
308,282,13728,1,0,0:0:0:0:
325,198,13886,6,0,P|359:166|389:158,1,67.5000000000001,2|2,1:2|0:0,0:0:0:0:
384,74,14202,2,0,P|428:87|450:109,1,67.5000000000001,2|2,1:2|0:0,0:0:0:0:
285,98,14518,2,0,P|242:86|214:55,1,67.5000000000001,2|0,1:2|0:0,0:0:0:0:
220,62,14755,1,0,0:0:0:0:
220,51,14833,1,2,1:2:0:0:
311,12,14991,1,2,0:0:0:0:
124,65,15149,5,2,1:2:0:0:
214,145,15307,1,2,0:0:0:0:
118,59,15465,2,0,L|75:195,1,135,2|2,1:2|1:2,0:0:0:0:
19,97,15939,1,2,0:0:0:0:
66,273,16097,2,0,L|162:250,1,67.5000000000001,2|0,1:2|0:0,0:0:0:0:
219,276,16412,5,2,1:2:0:0:
186,191,16570,1,2,0:0:0:0:
341,196,16728,2,0,L|275:211,1,67.5000000000001,2|2,1:2|0:0,0:0:0:0:
428,210,17044,2,0,L|412:144,2,67.5000000000001,2|2|2,1:2|0:0|1:2,0:0:0:0:
505,158,17518,1,2,0:0:0:0:
375,37,17676,6,0,P|450:33|469:99,1,135,2|2,1:2|1:2,0:0:0:0:
412,144,18149,1,0,0:0:0:0:
268,125,18307,2,0,P|311:118|341:98,1,67.5000000000001,2|0,1:2|0:0,0:0:0:0:
278,28,18623,1,2,1:2:0:0:
278,28,18781,1,0,0:0:0:0:
195,65,18939,6,0,P|152:58|122:38,1,67.5000000000001,2|2,1:2|0:0,0:0:0:0:
126,41,19176,1,2,0:0:0:0:
120,35,19255,2,0,P|70:21|39:15,1,67.5000000000001,2|2,1:2|0:0,0:0:0:0:
14,168,19570,2,0,P|29:127|110:133,1,135,2|2,1:2|1:2,0:0:0:0:
140,209,20044,1,2,0:0:0:0:
317,157,20202,5,2,1:2:0:0:
317,157,20360,1,2,0:0:0:0:
235,111,20518,2,0,L|218:196,1,67.5000000000001,2|2,1:2|0:0,0:0:0:0:
275,310,20833,2,0,L|288:243,1,67.5000000000001,2|2,1:2|0:0,0:0:0:0:
313,68,21149,1,2,1:2:0:0:
154,79,21307,1,2,0:0:0:0:
321,73,21465,6,0,L|407:99,1,67.5000000000001,6|0,1:2|0:0,0:0:0:0:
458,58,21781,1,2,1:2:0:0:
507,126,21939,1,0,0:0:0:0:
413,229,22097,2,0,L|432:164,2,67.5000000000001,2|0|2,1:2|0:0|1:2,0:0:0:0:
342,172,22570,1,0,0:0:0:0:
419,313,22728,6,0,P|476:295|502:290,2,67.5000000000001,2|2|2,1:2|0:0|1:2,0:0:0:0:
252,368,23281,1,0,0:0:0:0:
252,368,23360,2,0,P|276:341|283:297,1,67.5000000000001,2|2,1:2|0:0,0:0:0:0:
233,246,23676,1,2,1:2:0:0:
154,262,23833,1,0,0:0:0:0:
244,241,23991,6,0,L|264:157,1,67.5000000000001,2|2,1:2|0:0,0:0:0:0:
264,169,24228,1,0,0:0:0:0:
269,163,24307,2,0,L|353:143,1,67.5000000000001,2|2,1:2|0:0,0:0:0:0:
398,89,24623,1,2,1:2:0:0:
277,76,24781,1,2,0:0:0:0:
277,76,24860,1,0,0:0:0:0:
277,76,24939,2,0,L|211:91,1,67.5000000000001,2|2,1:2|0:0,0:0:0:0:
122,66,25255,5,2,1:2:0:0:
36,41,25412,1,2,0:0:0:0:
35,187,25570,2,0,L|57:114,1,67.5000000000001,2|2,1:2|0:0,0:0:0:0:
156,159,25886,1,2,1:2:0:0:
156,159,26044,1,2,0:0:0:0:
104,238,26202,1,2,1:2:0:0:
229,212,26360,1,2,0:0:0:0:
266,367,26518,6,0,P|220:362|192:276,1,135,2|2,1:2|1:2,0:0:0:0:
229,212,26991,1,0,0:0:0:0:
302,171,27149,2,0,P|352:163|382:161,1,67.5000000000001,2|0,1:2|0:0,0:0:0:0:
443,67,27465,2,0,P|393:75|363:77,1,67.5000000000001,2|0,1:2|0:0,0:0:0:0:
200,67,27781,5,2,1:2:0:0:
280,21,27939,2,0,P|288:71|290:101,2,67.5000000000001,2|2|2,0:0|1:2|0:0,0:0:0:0:
111,38,28412,2,0,P|114:71|120:104,1,67.5000000000001,2|2,1:2|0:0,0:0:0:0:
31,81,28728,1,2,1:2:0:0:
31,81,28886,1,2,0:0:0:0:
180,172,29044,6,0,P|229:162|263:158,1,67.5000000000001,2|2,1:2|0:0,0:0:0:0:
253,163,29281,1,0,0:0:0:0:
259,169,29360,2,0,P|302:181|330:186,1,67.5000000000001,2|2,1:2|0:0,0:0:0:0:
402,142,29676,1,2,1:2:0:0:
385,294,29833,2,0,P|397:251|402:223,1,67.5000000000001,2|2,0:0|1:2,0:0:0:0:
398,137,30149,1,2,0:0:0:0:
284,263,30307,5,2,1:2:0:0:
186,258,30465,1,2,0:0:0:0:
186,258,30623,2,0,P|207:312|216:351,1,67.5000000000001,2|2,1:2|0:0,0:0:0:0:
292,351,30939,1,2,1:2:0:0:
120,316,31097,1,2,0:0:0:0:
168,145,31255,2,0,P|118:152|110:245,1,135,2|6,1:2|1:2,0:0:0:0:
13,129,31728,5,2,0:0:0:0:
244,102,32044,1,2,0:0:0:0:
18,123,32360,1,2,0:0:0:0:
249,96,32676,1,2,0:0:0:0:
23,117,32991,1,2,0:0:0:0:
254,90,33307,1,2,0:0:0:0:
116,16,33623,1,2,0:0:0:0:
116,16,33781,2,0,L|150:159,1,135,4|4,1:2|1:2,0:0:0:0:
223,194,34255,5,2,0:0:0:0:
454,221,34570,1,2,0:0:0:0:
228,200,34886,1,2,0:0:0:0:
459,227,35202,1,2,0:0:0:0:
233,206,35518,1,2,0:0:0:0:
464,233,35833,1,2,0:0:0:0:
250,310,36149,1,6,0:0:0:0:
351,221,36307,2,0,L|327:376,1,135,4|4,1:2|1:2,0:0:0:0:
15,284,36939,5,0,1:2:0:0:
21,288,37255,2,0,L|176:264,1,135,4|0,1:2|1:2,0:0:0:0:
185,105,37886,6,0,L|171:188,1,67.5000000000001,4|2,1:2|0:0,0:0:0:0:
274,79,38202,2,0,L|260:162,1,67.5000000000001,4|2,1:2|0:0,0:0:0:0:
363,53,38518,2,0,L|349:136,1,67.5000000000001,4|2,1:2|0:0,0:0:0:0:
452,27,38833,2,0,L|438:110,1,67.5000000000001,4|2,1:2|0:0,0:0:0:0:
374,213,39149,5,4,1:2:0:0:
459,190,39307,1,6,1:2:0:0:
396,294,39465,1,4,1:2:0:0:
481,271,39623,1,6,1:2:0:0:
305,276,39781,1,4,1:2:0:0:
280,270,39860,1,0,1:2:0:0:
255,264,39939,1,6,1:2:0:0:
231,258,40018,1,0,1:2:0:0:
206,252,40097,2,0,L|216:292,3,33.75,4|0|6|0,1:2|1:2|1:2|1:2,0:0:0:0:
129,289,40412,5,2,1:2:0:0:
124,299,40728,1,0,1:2:0:0:
119,309,41044,1,0,1:2:0:0:
440,369,41360,5,8,0:1:0:0:
251,198,41676,5,6,1:2:0:0:
251,198,41755,1,0,0:0:0:0:
251,198,41833,2,0,L|361:179,1,90,2|10,0:0|0:2,0:0:0:0:
286,109,42149,1,2,0:0:0:0:
379,253,42307,2,0,P|429:217|415:181,1,90,2|0,1:2|0:0,0:0:0:0:
393,120,42623,1,10,0:2:0:0:
199,117,42781,6,0,P|148:109|97:92,1,90,2|0,0:0|1:2,0:0:0:0:
104,93,43018,1,0,0:0:0:0:
98,87,43097,2,0,P|108:47|158:35,1,90,2|8,0:0|0:0,0:0:0:0:
286,109,43412,1,2,0:0:0:0:
191,242,43570,1,2,1:2:0:0:
117,196,43728,1,2,0:0:0:0:
68,263,43886,1,10,0:2:0:0:
142,309,44044,1,2,0:0:0:0:
341,214,44202,6,0,P|284:196|238:171,1,90,2|0,1:2|0:0,0:0:0:0:
402,325,44518,2,0,P|419:248|470:153,1,180,10|2,0:2|1:2,0:0:0:0:
378,136,44991,1,0,0:0:0:0:
310,288,45149,5,10,0:2:0:0:
310,288,45228,1,0,0:0:0:0:
310,288,45307,2,0,P|257:300|214:327,1,90,2|0,0:0|1:0,0:0:0:0:
151,367,45623,2,0,P|101:335|58:327,1,90,2|8,0:0|0:2,0:0:0:0:
294,369,45939,1,2,0:0:0:0:
155,263,46097,5,2,1:2:0:0:
149,241,46176,1,0,0:0:0:0:
142,219,46255,1,2,0:0:0:0:
133,199,46333,1,0,0:0:0:0:
122,177,46412,2,0,P|90:166|73:164,3,45,10|0|0|0,0:2|0:0|0:0|0:0,0:0:0:0:
147,97,46728,6,0,P|197:80|237:32,1,90,2|2,1:2|0:0,0:0:0:0:
312,78,47044,1,10,0:2:0:0:
308,227,47202,2,0,P|287:184|247:150,1,90,2|0,0:0|1:2,0:0:0:0:
142,101,47518,1,2,0:0:0:0:
32,203,47676,1,10,0:2:0:0:
121,187,47833,1,2,0:0:0:0:
219,230,47991,6,0,B|108:260|187:305|69:334,1,180,2|10,1:2|0:2,0:0:0:0:
8,299,48465,1,2,0:0:0:0:
235,314,48623,1,2,1:2:0:0:
235,314,48781,2,0,P|315:327|352:342,1,90,2|8,0:0|0:2,0:0:0:0:
398,373,49097,6,0,P|451:328|403:218,1,180,2|2,0:0|0:0,0:0:0:0:
512,205,49570,2,0,P|483:169|439:154,1,90,10|2,0:2|0:0,0:0:0:0:
299,198,49886,1,2,1:2:0:0:
362,142,50044,1,2,0:0:0:0:
353,263,50202,1,10,0:2:0:0:
282,116,50360,6,0,P|217:94|174:63,1,90,2|0,0:0|1:2,0:0:0:0:
194,76,50597,1,0,0:0:0:0:
193,66,50676,2,0,P|241:41|289:33,1,90,2|8,0:0|0:2,0:0:0:0:
128,12,50991,1,2,0:0:0:0:
64,71,51149,1,2,1:2:0:0:
64,71,51307,1,2,1:2:0:0:
124,144,51465,5,10,0:2:0:0:
105,155,51544,1,0,1:2:0:0:
86,166,51623,1,0,1:2:0:0:
68,177,51702,1,0,1:2:0:0:
49,189,51781,6,0,L|70:299,1,90,6|2,1:2|0:0,0:0:0:0:
0,319,52097,1,10,0:2:0:0:
0,319,52255,1,2,0:0:0:0:
142,238,52412,2,0,L|335:201,1,180,2|10,1:2|0:2,0:0:0:0:
465,111,52886,6,0,L|372:134,1,90,2|0,0:0|1:2,0:0:0:0:
369,130,53123,1,0,0:0:0:0:
361,127,53202,2,0,L|339:39,1,90,2|8,0:0|0:0,0:0:0:0:
425,34,53518,1,2,0:0:0:0:
269,96,53676,1,2,1:2:0:0:
192,74,53833,1,0,0:0:0:0:
94,40,53991,2,0,L|116:128,1,90,10|0,0:2|0:0,0:0:0:0:
7,239,54307,6,0,P|51:208|103:204,1,90,2|0,1:2|0:0,0:0:0:0:
90,210,54544,1,0,0:0:0:0:
97,218,54623,2,0,P|158:228|216:259,1,90,10|0,0:2|0:0,0:0:0:0:
87,297,54939,1,2,1:2:0:0:
87,297,55097,1,0,0:0:0:0:
70,377,55255,1,10,0:2:0:0:
214,340,55412,6,0,B|329:331|235:256|366:238,1,180,2|2,0:0|0:0,0:0:0:0:
441,261,55886,1,10,0:2:0:0:
407,183,56044,1,2,0:0:0:0:
293,169,56202,5,2,1:2:0:0:
274,181,56281,1,0,0:0:0:0:
254,192,56360,1,2,0:0:0:0:
234,201,56439,1,0,0:0:0:0:
212,208,56518,2,0,L|197:162,3,45,10|0|0|0,0:2|0:0|0:0|0:0,0:0:0:0:
126,199,56833,6,0,P|83:179|68:128,1,90,2|2,1:2|0:0,0:0:0:0:
97,65,57149,1,10,0:2:0:0:
0,228,57307,2,0,P|58:264|84:380,1,180,2|2,0:0|0:0,0:0:0:0:
162,278,57781,1,10,0:2:0:0:
162,278,57939,1,0,0:0:0:0:
231,344,58097,6,0,L|250:247,1,90,2|2,1:2|0:0,0:0:0:0:
254,251,58333,1,2,0:0:0:0:
260,246,58412,2,0,L|357:233,1,90,8|2,0:2|0:0,0:0:0:0:
433,235,58728,1,2,1:2:0:0:
285,154,58886,2,0,P|233:148|173:101,1,90,2|8,0:0|0:0,0:0:0:0:
76,37,59202,5,2,0:0:0:0:
76,37,59281,1,0,0:0:0:0:
76,37,59360,2,0,P|106:81|114:153,1,90,0|2,1:2|0:0,0:0:0:0:
20,104,59676,1,10,0:2:0:0:
179,47,59833,1,2,0:0:0:0:
118,193,59991,2,0,P|53:216|11:218,2,90,2|2|10,1:2|0:0|0:2,0:0:0:0:
237,315,60465,6,0,P|224:271|206:230,1,90,2|0,0:0|1:2,0:0:0:0:
198,227,60702,1,0,0:0:0:0:
190,223,60781,2,0,P|240:238|297:243,1,90,2|10,0:0|0:2,0:0:0:0:
335,192,61097,1,0,0:0:0:0:
438,70,61255,5,2,1:2:0:0:
424,88,61333,1,0,1:2:0:0:
414,108,61412,1,0,1:2:0:0:
409,129,61491,1,0,1:2:0:0:
407,152,61570,2,0,P|426:161|459:167,3,45,10|0|0|0,0:2|1:2|1:2|1:2,0:0:0:0:
339,86,61886,5,6,1:2:0:0:
262,109,62202,1,6,1:2:0:0:
209,45,62518,5,6,1:2:0:0:
209,45,62676,1,4,1:2:0:0:
130,64,62833,1,6,1:2:0:0:
130,64,62991,1,4,1:2:0:0:
51,83,63149,1,6,1:2:0:0:
51,83,63307,1,6,1:2:0:0:
114,146,63465,5,6,1:2:0:0:
135,151,63544,1,0,1:2:0:0:
157,156,63623,1,6,1:2:0:0:
179,161,63702,1,0,1:2:0:0:
201,166,63781,1,6,1:2:0:0:
31,166,64097,5,10,0:1:0:0:
296,139,64412,6,0,L|273:243,1,82.5,6|0,1:2|0:0,0:0:0:0:
281,226,64649,1,0,0:0:0:0:
284,234,64728,2,0,L|388:257,1,82.5,10|0,0:2|0:0,0:0:0:0:
380,161,65044,1,2,1:2:0:0:
455,221,65202,1,0,0:0:0:0:
464,128,65360,2,0,L|481:47,1,82.5,8|2,0:2|0:0,0:0:0:0:
345,70,65676,6,0,P|296:96|240:96,1,82.5,2|2,1:2|0:0,0:0:0:0:
262,95,65912,1,2,0:0:0:0:
255,86,65991,2,0,P|220:59|177:52,1,82.5,10|2,0:2|0:2,0:0:0:0:
125,109,66307,1,2,1:2:0:0:
37,78,66465,1,2,0:0:0:0:
99,22,66623,1,10,0:2:0:0:
57,163,66781,1,2,0:0:0:0:
209,140,66939,5,2,1:2:0:0:
215,145,67255,2,0,L|245:314,1,165,10|2,0:2|1:2,0:0:0:0:
148,235,67728,1,2,0:0:0:0:
320,219,67886,2,0,L|434:197,1,82.5,8|2,0:2|0:0,0:0:0:0:
406,199,68123,1,2,0:0:0:0:
411,193,68202,6,0,L|428:104,1,82.5,2|2,1:2|0:0,0:0:0:0:
464,36,68518,2,0,L|519:16,2,41.25,8|0|2,0:2|0:0|0:0,0:0:0:0:
376,40,68833,1,2,1:2:0:0:
510,110,68991,1,2,0:0:0:0:
333,120,69149,2,0,L|230:144,1,82.5,10|0,0:2|0:0,0:0:0:0:
148,174,69465,6,0,P|99:158|84:125,1,82.5,2|2,1:2|0:0,0:0:0:0:
84,122,69702,1,2,0:0:0:0:
90,112,69781,2,0,P|120:86|178:89,1,82.5,10|2,0:2|0:0,0:0:0:0:
224,233,70097,1,0,1:2:0:0:
224,233,70255,2,0,P|209:285|204:317,1,82.5,0|8,0:0|0:2,0:0:0:0:
131,258,70570,1,2,0:0:0:0:
294,293,70728,5,0,1:2:0:0:
313,286,70807,1,2,0:0:0:0:
331,277,70886,1,2,0:0:0:0:
354,183,71044,2,0,P|393:216|432:227,1,82.5,10|2,0:2|0:0,0:0:0:0:
352,80,71360,1,2,1:2:0:0:
280,132,71518,2,0,P|216:160|115:166,1,165,2|2,0:0|0:0,0:0:0:0:
27,287,72149,5,2,0:0:0:0:
39,270,72228,1,2,0:0:0:0:
46,251,72307,1,10,0:2:0:0:
107,325,72465,1,2,0:0:0:0:
119,308,72544,1,2,0:0:0:0:
126,289,72623,1,2,1:2:0:0:
211,270,72781,1,2,0:0:0:0:
332,316,72939,2,0,P|281:333|230:363,1,82.5,10|2,0:2|0:0,0:0:0:0:
410,275,73255,5,0,1:2:0:0:
415,255,73333,1,0,1:2:0:0:
424,236,73412,1,2,1:2:0:0:
435,219,73491,1,0,1:2:0:0:
448,203,73570,2,0,P|464:208|481:226,3,41.25,10|0|2|0,0:2|1:2|1:2|1:2,0:0:0:0:
508,143,73886,5,2,0:0:0:0:
333,230,74202,1,2,0:0:0:0:
331,45,74518,6,0,L|236:63,1,67.5000000000001,6|0,1:2|0:0,0:0:0:0:
255,57,74755,1,0,0:0:0:0:
245,54,74833,2,0,L|150:72,1,67.5000000000001,2|2,1:2|0:0,0:0:0:0:
92,40,75149,1,2,1:2:0:0:
106,122,75307,1,0,0:0:0:0:
190,149,75465,2,0,L|256:136,1,67.5000000000001,2|2,1:2|0:0,0:0:0:0:
342,166,75781,5,2,1:2:0:0:
342,166,75939,1,2,0:0:0:0:
424,198,76097,1,2,1:2:0:0:
358,252,76255,1,2,0:0:0:0:
269,217,76412,2,0,L|290:299,2,67.5000000000001,2|2|2,1:2|0:0|1:2,0:0:0:0:
201,264,76886,1,2,0:0:0:0:
350,343,77044,5,2,1:2:0:0:
429,319,77202,1,0,0:0:0:0:
275,360,77360,2,0,L|195:348,1,67.5000000000001,2|0,1:2|0:0,0:0:0:0:
121,315,77676,2,0,L|131:381,2,67.5000000000001,2|2|2,1:2|0:0|1:2,0:0:0:0:
41,358,78149,1,0,0:0:0:0:
111,234,78307,5,2,1:2:0:0:
111,234,78465,1,2,0:0:0:0:
192,263,78623,2,0,L|268:248,1,67.5000000000001,2|2,1:2|0:0,0:0:0:0:
321,193,78939,1,2,1:2:0:0:
342,278,79097,1,2,0:0:0:0:
469,206,79255,2,0,L|402:219,1,67.5000000000001,2|2,1:2|0:0,0:0:0:0:
226,172,79570,6,0,P|258:107|333:106,1,135,2|2,1:2|1:2,0:0:0:0:
394,125,80044,1,0,0:0:0:0:
482,125,80202,2,0,P|507:84|496:57,1,67.5000000000001,2|0,1:2|0:0,0:0:0:0:
418,42,80518,1,2,1:2:0:0:
418,42,80676,1,0,0:0:0:0:
444,197,80833,6,0,L|463:286,2,67.5000000000001,2|2|2,1:2|0:0|1:2,0:0:0:0:
369,247,81307,1,0,0:0:0:0:
405,329,81465,2,0,L|319:346,1,67.5000000000001,2|2,1:2|0:0,0:0:0:0:
487,344,81781,1,2,1:2:0:0:
282,277,81939,1,2,0:0:0:0:
327,142,82097,6,0,P|304:162|310:214,1,67.5000000000001,2|2,1:2|0:0,0:0:0:0:
407,119,82412,1,2,1:2:0:0:
407,119,82570,1,0,0:0:0:0:
275,84,82728,2,0,P|233:62|202:25,2,67.5000000000001,2|2|2,1:2|0:0|1:2,0:0:0:0:
348,57,83202,1,2,0:0:0:0:
233,158,83360,6,0,P|191:162|155:170,1,67.5000000000001,2|0,1:2|0:0,0:0:0:0:
160,172,83597,1,0,0:0:0:0:
152,180,83676,2,0,P|107:168|87:144,1,67.5000000000001,2|2,1:2|0:0,0:0:0:0:
29,205,83991,1,2,1:2:0:0:
29,205,84149,1,2,0:0:0:0:
24,115,84307,2,0,P|35:77|56:62,1,67.5000000000001,2|0,1:2|0:0,0:0:0:0:
192,71,84623,6,0,P|237:61|277:39,1,67.5000000000001,6|0,1:2|0:0,0:0:0:0:
324,0,84939,1,2,1:2:0:0:
324,0,85097,1,0,0:0:0:0:
381,132,85255,2,0,P|351:99|340:72,1,67.5000000000001,2|2,1:2|0:0,0:0:0:0:
315,190,85570,2,0,P|285:157|274:130,1,67.5000000000001,2|2,1:2|0:0,0:0:0:0:
404,216,85886,5,2,1:2:0:0:
468,157,86044,1,2,0:0:0:0:
485,247,86202,2,0,L|499:330,1,67.5000000000001,2|2,1:2|0:0,0:0:0:0:
334,296,86518,1,2,1:2:0:0:
413,306,86676,1,2,0:0:0:0:
261,356,86833,2,0,L|249:289,1,67.5000000000001,2|0,1:2|0:0,0:0:0:0:
136,199,87149,6,0,P|177:219|183:258,2,67.5000000000001,2|0|2,1:2|0:0|1:2,0:0:0:0:
61,165,87623,1,2,0:0:0:0:
133,121,87781,2,0,P|179:107|197:74,1,67.5000000000001,2|2,1:2|0:0,0:0:0:0:
82,28,88097,2,0,P|58:61|61:94,1,67.5000000000001,2|2,1:2|0:0,0:0:0:0:
230,169,88412,6,0,P|279:156|312:157,1,67.5000000000001,2|2,1:2|0:0,0:0:0:0:
301,159,88649,1,0,0:0:0:0:
305,165,88728,2,0,P|321:205|323:245,1,67.5000000000001,2|2,1:2|0:0,0:0:0:0:
275,295,89044,1,2,1:2:0:0:
191,275,89202,1,2,0:0:0:0:
368,305,89360,2,0,P|413:285|504:264,1,135,2|2,1:2|1:2,0:0:0:0:
404,204,89833,5,0,0:0:0:0:
508,112,89991,2,0,P|479:137|482:174,1,67.5000000000001,2|2,1:2|0:0,0:0:0:0:
359,128,90307,2,0,P|321:134|286:152,2,67.5000000000001,2|2|0,1:2|0:0|0:0,0:0:0:0:
423,66,90781,1,0,0:0:0:0:
297,57,90939,5,2,1:2:0:0:
297,57,91097,1,0,0:0:0:0:
193,41,91255,2,0,P|214:86|221:115,1,67.5000000000001,2|0,1:2|0:0,0:0:0:0:
217,110,91491,1,0,0:0:0:0:
213,117,91570,2,0,P|174:130|142:138,1,67.5000000000001,2|2,1:2|0:0,0:0:0:0:
65,100,91886,1,2,1:2:0:0:
65,100,92044,1,2,0:0:0:0:
32,182,92202,6,0,P|72:193|102:207,1,67.5000000000001,2|0,1:2|0:0,0:0:0:0:
99,210,92439,1,0,0:0:0:0:
105,218,92518,2,0,P|136:236|167:239,1,67.5000000000001,2|0,1:2|0:0,0:0:0:0:
243,195,92833,1,2,1:2:0:0:
243,195,92991,1,2,0:0:0:0:
286,317,93149,2,0,P|250:303|242:264,1,67.5000000000001,2|2,1:2|0:0,0:0:0:0:
326,231,93465,6,0,L|406:214,1,67.5000000000001,2|2,1:2|0:0,0:0:0:0:
431,148,93781,2,0,L|511:131,1,67.5000000000001,2|2,1:2|0:0,0:0:0:0:
353,117,94097,1,2,0:0:0:0:
280,86,94255,1,2,0:0:0:0:
207,55,94412,1,2,0:0:0:0:
6,217,94728,5,2,1:2:0:0:
61,141,94886,2,0,P|102:154|108:218,1,82.5,0|0,1:2|0:0,0:0:0:0:
85,285,95202,1,0,1:2:0:0:
85,285,95281,1,0,0:0:0:0:
85,285,95360,2,0,P|135:293|246:334,1,165,2|2,0:0|1:2,0:0:0:0:
308,273,95833,1,2,0:0:0:0:
270,113,95991,6,0,P|227:125|228:174,1,82.5,2|0,1:2|1:2,0:0:0:0:
220,167,96228,1,0,1:2:0:0:
226,177,96307,2,0,P|276:192|322:194,1,82.5,2|2,1:2|1:2,0:0:0:0:
416,185,96623,2,0,P|395:240|391:276,2,82.5,2|0|2,0:0|1:2|1:2,0:0:0:0:
480,135,97097,1,2,0:0:0:0:
397,27,97255,6,0,P|355:45|352:103,1,82.5,2|0,1:2|1:2,0:0:0:0:
344,77,97491,1,0,0:0:0:0:
344,77,97570,1,2,0:0:0:0:
269,31,97728,1,0,1:2:0:0:
213,99,97886,1,2,0:0:0:0:
213,99,98044,2,0,P|154:82|114:73,2,82.5,2|2|2,0:0|1:2|0:0,0:0:0:0:
58,113,98518,5,2,1:2:0:0:
125,191,98676,1,0,0:0:0:0:
125,191,98755,1,0,1:2:0:0:
125,191,98833,2,0,L|142:284,1,82.5,2|0,1:2|1:2,0:0:0:0:
47,243,99149,1,2,1:2:0:0:
216,214,99307,1,0,1:2:0:0:
156,348,99465,1,2,1:2:0:0:
503,156,99781,5,2,1:2:0:0:
503,156,99939,2,0,L|320:123,1,165,2|2,1:2|1:2,0:0:0:0:
316,49,100412,1,2,0:0:0:0:
316,49,100570,1,2,0:0:0:0:
271,188,100728,2,0,L|249:108,1,82.5,2|0,1:2|0:0,0:0:0:0:
62,37,101044,6,0,L|156:57,1,82.5,2|2,1:2|1:2,0:0:0:0:
150,59,101281,1,0,1:2:0:0:
157,64,101360,2,0,L|140:152,1,82.5,0|2,1:2|1:2,0:0:0:0:
51,248,101676,2,0,B|22:216|22:216|40:169,2,82.5,2|0|2,0:0|1:2|1:2,0:0:0:0:
142,227,102149,1,2,0:0:0:0:
119,320,102307,6,0,L|211:338,1,82.5,2|0,1:2|1:2,0:0:0:0:
275,294,102623,1,2,1:2:0:0:
275,294,102781,1,0,1:2:0:0:
328,357,102939,5,2,1:2:0:0:
348,352,103018,1,0,1:2:0:0:
368,347,103097,1,0,1:2:0:0:
388,342,103176,1,0,1:2:0:0:
408,338,103255,2,0,L|425:291,3,41.25,2|0|0|0,1:2|1:2|1:2|1:2,0:0:0:0:
502,328,103570,5,2,1:2:0:0:
491,249,103886,1,2,1:2:0:0:
480,170,104202,1,2,1:2:0:0:
397,153,104518,5,2,1:2:0:0:
397,153,104676,1,0,1:2:0:0:
315,138,104833,1,2,1:2:0:0:
315,138,104991,1,2,1:2:0:0:
227,123,105149,2,0,L|211:24,2,82.5,2|0|2,1:2|1:2|1:2,0:0:0:0:
7,127,105781,5,2,0:0:0:0:
304,47,106097,5,6,1:2:0:0:
304,47,106176,1,0,0:0:0:0:
304,47,106255,2,0,L|414:68,1,90,2|10,0:0|0:2,0:0:0:0:
466,25,106570,1,2,0:0:0:0:
339,137,106728,2,0,L|373:262,1,90,2|0,1:2|0:0,0:0:0:0:
437,151,107044,1,10,0:2:0:0:
262,194,107202,6,0,P|206:180|143:146,1,90,2|0,0:0|1:2,0:0:0:0:
171,162,107439,1,0,0:0:0:0:
169,154,107518,2,0,P|183:91|205:52,1,90,2|8,0:0|0:0,0:0:0:0:
119,24,107833,1,2,0:0:0:0:
13,142,107991,1,2,1:2:0:0:
93,105,108149,1,2,0:0:0:0:
117,17,108307,1,10,0:2:0:0:
33,37,108465,1,2,0:0:0:0:
266,110,108623,6,0,P|318:102|363:82,1,90,2|0,1:2|0:0,0:0:0:0:
464,11,108939,2,0,P|440:86|417:212,1,180,10|2,0:2|1:2,0:0:0:0:
338,177,109412,1,0,0:0:0:0:
467,272,109570,5,10,0:2:0:0:
467,272,109649,1,0,0:0:0:0:
467,272,109728,2,0,P|400:291|348:314,1,90,2|0,0:0|1:0,0:0:0:0:
299,258,110044,2,0,P|232:239|180:216,1,90,2|8,0:0|0:2,0:0:0:0:
174,158,110360,1,2,0:0:0:0:
124,237,110518,5,2,1:2:0:0:
123,259,110597,1,0,0:0:0:0:
128,280,110676,1,2,0:0:0:0:
141,299,110755,1,0,0:0:0:0:
158,313,110833,2,0,P|186:321|219:339,3,45,10|0|0|0,0:2|0:0|0:0|0:0,0:0:0:0:
269,368,111149,6,0,P|315:345|381:342,1,90,2|2,1:2|0:0,0:0:0:0:
443,363,111465,1,10,0:2:0:0:
412,280,111623,2,0,P|412:210|484:126,1,180,2|2,0:0|0:0,0:0:0:0:
499,232,112097,1,10,0:2:0:0:
499,232,112255,1,2,0:0:0:0:
348,147,112412,6,0,L|331:45,1,90,2|0,1:2|0:0,0:0:0:0:
251,39,112728,1,10,0:2:0:0:
251,39,112886,1,0,0:0:0:0:
424,68,113044,1,2,1:2:0:0:
265,135,113202,2,0,L|146:110,1,90,2|8,0:0|0:2,0:0:0:0:
0,50,113518,6,0,P|74:85|96:189,1,180,2|2,0:0|0:0,0:0:0:0:
7,148,113991,1,8,0:2:0:0:
33,245,114149,1,2,0:0:0:0:
33,245,114307,2,0,P|91:257|124:268,2,90,2|2|10,1:2|0:0|0:2,0:0:0:0:
188,207,114781,1,2,0:0:0:0:
247,336,114939,5,2,1:2:0:0:
247,336,115097,2,0,L|284:153,1,180,2|2,0:0|0:0,0:0:0:0:
357,112,115570,1,2,1:2:0:0:
377,103,115649,1,0,1:2:0:0:
398,95,115728,1,2,1:2:0:0:
419,87,115807,1,0,1:2:0:0:
440,79,115886,2,0,L|454:12,3,45,10|0|0|0,0:2|1:2|1:2|1:2,0:0:0:0:
353,30,116202,6,0,L|234:11,1,90,6|2,1:2|0:0,0:0:0:0:
178,34,116518,1,10,0:2:0:0:
178,34,116676,1,2,0:0:0:0:
161,162,116833,1,2,1:2:0:0:
232,109,116991,2,0,L|435:138,1,180,2|2,0:0|0:0,0:0:0:0:
478,288,117465,5,0,1:2:0:0:
478,288,117623,2,0,L|464:194,2,90,2|10|2,0:0|0:2|0:0,0:0:0:0:
387,245,118097,1,2,1:2:0:0:
302,198,118255,1,2,0:0:0:0:
396,250,118412,1,10,0:2:0:0:
309,297,118570,1,2,0:0:0:0:
398,347,118728,6,0,L|493:368,1,90,2|0,1:2|0:0,0:0:0:0:
297,304,119044,2,0,L|112:348,1,180,10|2,0:2|1:2,0:0:0:0:
51,375,119518,1,0,0:0:0:0:
38,228,119676,1,10,0:2:0:0:
38,228,119755,1,0,0:0:0:0:
38,228,119833,6,0,P|95:242|102:287,1,90,2|0,0:0|1:0,0:0:0:0:
192,255,120149,1,2,0:0:0:0:
160,175,120307,2,0,P|181:116|222:98,1,90,10|0,0:2|0:0,0:0:0:0:
277,215,120623,5,2,1:2:0:0:
298,220,120702,1,0,0:0:0:0:
319,228,120781,1,2,0:0:0:0:
340,238,120860,1,0,0:0:0:0:
359,249,120939,2,0,L|372:306,3,45,10|0|0|0,0:2|0:0|0:0|0:0,0:0:0:0:
443,255,121255,6,0,L|462:160,1,90,2|2,1:2|0:0,0:0:0:0:
512,102,121570,1,10,0:2:0:0:
380,150,121728,2,0,L|179:103,1,180,2|2,0:0|0:0,0:0:0:0:
151,46,122202,1,10,0:2:0:0:
151,46,122360,1,0,0:0:0:0:
79,138,122518,5,2,1:2:0:0:
0,109,122676,1,2,0:0:0:0:
86,147,122833,2,0,L|109:245,1,90,10|2,0:2|0:0,0:0:0:0:
191,201,123149,1,2,1:2:0:0:
191,201,123228,1,0,0:0:0:0:
191,201,123307,2,0,L|305:225,1,90,2|8,0:0|0:0,0:0:0:0:
351,173,123623,6,0,P|436:209|453:303,1,180,2|2,0:0|0:0,0:0:0:0:
408,352,124097,1,10,0:2:0:0:
408,352,124255,1,2,0:0:0:0:
252,312,124412,2,0,L|365:290,1,90,2|0,1:2|0:0,0:0:0:0:
279,219,124728,1,10,0:2:0:0:
181,349,124886,6,0,P|115:334|131:222,1,180,2|2,0:0|0:0,0:0:0:0:
189,189,125360,1,10,0:2:0:0:
189,189,125518,1,0,1:2:0:0:
51,185,125676,5,2,1:2:0:0:
32,172,125755,1,0,1:2:0:0:
20,153,125833,1,2,1:2:0:0:
15,131,125912,1,0,1:2:0:0:
19,109,125991,2,0,L|76:93,3,45,10|0|2|0,0:2|1:2|1:2|1:2,0:0:0:0:
113,30,126307,5,6,1:2:0:0:
194,38,126623,1,6,1:2:0:0:
262,92,126939,5,6,1:2:0:0:
262,92,127097,1,4,1:2:0:0:
348,74,127255,1,6,1:2:0:0:
348,74,127412,1,4,1:2:0:0:
434,56,127570,1,6,1:2:0:0:
434,56,127728,1,4,1:2:0:0:
410,136,127886,5,6,1:2:0:0:
405,156,127965,1,0,1:2:0:0:
400,176,128044,1,6,1:2:0:0:
396,196,128123,1,0,1:2:0:0:
391,216,128202,1,6,1:2:0:0:
132,138,128518,5,10,0:1:0:0:
480,197,128833,5,6,1:2:0:0:
511,127,138939,6,0,P|465:115|414:107,1,82.5,6|0,1:2|0:0,0:0:0:0:
428,115,139176,1,0,0:0:0:0:
423,119,139255,2,0,P|379:101|366:65,1,82.5,8|0,0:2|0:0,0:0:0:0:
290,32,139570,1,2,1:2:0:0:
269,36,139649,1,0,0:0:0:0:
249,40,139728,1,0,0:0:0:0:
229,45,139807,1,0,0:0:0:0:
209,49,139886,2,0,L|116:24,1,82.5,8|0,0:2|0:0,0:0:0:0:
25,100,140202,6,0,P|72:124|77:157,1,82.5,2|0,1:2|0:0,0:0:0:0:
77,158,140439,1,0,0:0:0:0:
79,166,140518,2,0,P|112:194|162:196,1,82.5,8|0,0:2|0:0,0:0:0:0:
224,153,140833,1,2,1:2:0:0:
224,153,140991,1,0,0:0:0:0:
285,215,141149,2,0,L|310:312,1,82.5,8|0,0:2|0:0,0:0:0:0:
233,352,141465,6,0,L|132:337,1,82.5,2|0,1:2|0:0,0:0:0:0:
146,343,141702,1,0,0:0:0:0:
140,347,141781,2,0,L|57:359,1,82.5,8|0,0:2|0:0,0:0:0:0:
122,259,142097,1,2,1:2:0:0:
126,238,142176,1,0,0:0:0:0:
130,218,142255,1,0,0:0:0:0:
134,198,142333,1,0,0:0:0:0:
138,178,142412,2,0,L|186:165,3,41.25,8|0|0|0,0:2|0:0|0:0|0:0,0:0:0:0:
70,127,142728,6,0,P|19:101|13:57,1,82.5,2|0,1:2|0:0,0:0:0:0:
12,72,142965,1,0,0:0:0:0:
18,65,143044,2,0,P|67:46|108:47,1,82.5,8|0,0:2|0:0,0:0:0:0:
185,86,143360,1,2,1:2:0:0:
185,86,143518,1,0,0:0:0:0:
288,111,143676,2,0,P|269:60|270:16,1,82.5,8|0,0:2|0:0,0:0:0:0:
398,156,143991,6,0,P|347:172|314:194,1,82.5,2|0,1:2|0:0,0:0:0:0:
319,193,144228,1,0,0:0:0:0:
319,202,144307,2,0,P|332:254|360:291,1,82.5,8|0,0:2|0:0,0:0:0:0:
488,159,144623,1,2,1:2:0:0:
484,138,144702,1,0,0:0:0:0:
477,119,144781,1,0,0:0:0:0:
467,101,144860,1,0,0:0:0:0:
455,84,144939,2,0,P|478:76|497:65,3,41.25,8|0|0|0,0:2|0:0|0:0|0:0,0:0:0:0:
386,30,145255,6,0,P|344:42|289:46,1,82.5,2|0,1:2|0:0,0:0:0:0:
299,41,145491,1,0,0:0:0:0:
291,35,145570,2,0,P|248:23|204:19,1,82.5,8|0,0:2|0:0,0:0:0:0:
138,71,145886,1,2,1:2:0:0:
138,71,146044,1,0,0:0:0:0:
184,172,146202,2,0,P|222:130|210:90,1,82.5,8|0,0:2|0:0,0:0:0:0:
53,31,146518,6,0,P|15:73|27:113,1,82.5,2|0,1:2|0:0,0:0:0:0:
20,102,146755,1,0,0:0:0:0:
23,109,146833,2,0,P|56:141|100:147,1,82.5,8|0,0:2|0:0,0:0:0:0:
219,107,147149,1,2,1:2:0:0:
239,111,147228,1,0,0:0:0:0:
258,117,147307,1,0,0:0:0:0:
277,126,147386,1,0,0:0:0:0:
294,138,147465,2,0,L|348:117,3,41.25,8|0|0|0,0:2|0:0|0:0|0:0,0:0:0:0:
350,210,147781,5,2,1:2:0:0:
412,136,147939,1,0,0:0:0:0:
512,241,148097,2,0,L|427:218,1,82.5,8|0,0:2|0:0,0:0:0:0:
259,215,148412,1,2,1:2:0:0:
228,222,148491,1,0,1:2:0:0:
198,229,148570,1,2,1:2:0:0:
168,236,148649,1,0,1:2:0:0:
138,243,148728,2,0,L|124:195,3,41.25,10|0|0|0,0:2|1:2|1:2|1:2,0:0:0:0:
56,251,149044,5,2,0:0:0:0:
494,298,150307,5,6,1:2:0:0:
494,298,150386,1,0,0:0:0:0:
494,298,150465,2,0,P|437:280|380:270,1,97.5,2|10,0:0|0:2,0:0:0:0:
366,192,150781,1,2,0:0:0:0:
338,332,150939,2,0,P|290:353|230:355,1,97.5,2|0,1:2|0:0,0:0:0:0:
419,361,151255,1,10,0:2:0:0:
304,252,151412,6,0,P|265:229|196:218,1,97.5,2|0,0:0|1:2,0:0:0:0:
209,223,151649,1,0,0:0:0:0:
201,227,151728,2,0,P|153:205|145:157,1,97.5,2|8,0:0|0:0,0:0:0:0:
186,86,152044,1,2,0:0:0:0:
29,53,152202,1,2,1:2:0:0:
137,15,152360,1,2,0:0:0:0:
18,56,152518,1,10,0:2:0:0:
96,94,152676,1,2,0:0:0:0:
252,35,152833,6,0,L|360:20,1,97.5,2|0,1:2|0:0,0:0:0:0:
473,0,153149,2,0,B|438:18|438:18|414:179,1,195,10|2,0:2|1:2,0:0:0:0:
509,137,153623,1,0,0:0:0:0:
509,137,153781,1,10,0:2:0:0:
333,110,153939,6,0,L|225:125,1,97.5,2|0,0:0|0:0,0:0:0:0:
233,129,154176,1,0,0:0:0:0:
229,134,154255,2,0,L|110:112,1,97.5,2|8,0:0|0:2,0:0:0:0:
109,38,154570,1,2,0:0:0:0:
78,178,154728,1,2,1:2:0:0:
83,201,154807,1,0,0:0:0:0:
88,225,154886,1,2,0:0:0:0:
93,249,154965,1,0,0:0:0:0:
99,273,155044,2,0,L|20:248,3,48.75,10|0|0|0,0:2|0:0|0:0|0:0,0:0:0:0:
180,260,155360,6,0,P|219:228|272:210,1,97.5,2|2,1:2|0:0,0:0:0:0:
330,154,155676,1,10,0:2:0:0:
248,130,155833,2,0,P|202:112|165:81,1,97.5,2|0,0:0|0:0,0:0:0:0:
157,3,156149,1,2,0:0:0:0:
310,73,156307,1,10,0:2:0:0:
310,73,156465,1,2,0:0:0:0:
158,82,156623,6,0,P|88:106|105:233,1,195,2|10,1:2|0:2,0:0:0:0:
294,293,157097,1,2,0:0:0:0:
231,243,157255,2,0,L|126:268,1,97.5,2|2,1:2|0:0,0:0:0:0:
88,331,157570,1,8,0:2:0:0:
299,298,157728,6,0,P|370:259|318:142,1,195,2|2,0:0|0:0,0:0:0:0:
273,139,158202,1,10,0:2:0:0:
273,139,158360,1,2,0:0:0:0:
414,104,158518,2,0,P|467:98|512:56,2,97.5,2|2|10,1:2|0:0|0:2,0:0:0:0:
272,17,158991,6,0,P|319:36|331:89,1,97.5,2|0,0:0|0:0,0:0:0:0:
202,80,159307,2,0,L|91:61,1,97.5,2|8,0:0|0:2,0:0:0:0:
36,20,159623,1,2,0:0:0:0:
48,127,159781,1,2,1:2:0:0:
53,150,159860,1,0,1:2:0:0:
59,174,159939,1,2,1:2:0:0:
64,198,160018,1,0,1:2:0:0:
70,221,160097,2,0,L|10:203,3,48.75,10|0|0|0,0:2|1:2|1:2|1:2,0:0:0:0:
144,164,160412,6,0,P|190:180|203:241,1,97.5,6|2,1:2|0:0,0:0:0:0:
145,284,160728,1,10,0:2:0:0:
145,284,160886,1,2,0:0:0:0:
294,356,161044,2,0,P|239:337|230:284,1,97.5,2|0,1:2|0:0,0:0:0:0:
289,246,161360,1,10,0:2:0:0:
373,302,161518,6,0,P|378:251|407:204,1,97.5,2|0,0:0|1:2,0:0:0:0:
256,98,161833,2,0,P|309:121|317:169,1,97.5,2|0,0:0|0:0,0:0:0:0:
282,241,162149,1,2,0:0:0:0:
187,170,162307,1,2,1:2:0:0:
105,143,162465,1,0,0:0:0:0:
168,83,162623,1,10,0:2:0:0:
100,149,162781,1,0,0:0:0:0:
23,8,162939,6,0,P|84:41|87:68,1,97.5,2|0,1:2|0:0,0:0:0:0:
9,117,163255,2,0,L|54:334,1,195,10|2,0:2|1:2,0:0:0:0:
11,379,163728,1,0,0:0:0:0:
11,379,163886,1,10,0:2:0:0:
121,254,164044,6,0,L|234:226,1,97.5,2|0,0:0|0:0,0:0:0:0:
179,328,164360,1,2,0:0:0:0:
274,169,164518,2,0,L|292:65,1,97.5,10|2,0:2|0:0,0:0:0:0:
298,248,164833,1,2,1:2:0:0:
315,265,164912,1,0,0:0:0:0:
332,282,164991,1,2,0:0:0:0:
350,299,165070,1,0,0:0:0:0:
367,316,165149,2,0,L|435:284,3,48.75,10|0|0|0,0:2|0:0|0:0|0:0,0:0:0:0:
491,239,165465,6,0,P|472:179|433:177,1,97.5,2|2,1:2|0:0,0:0:0:0:
374,214,165781,1,10,0:2:0:0:
374,132,165939,2,0,P|318:110|209:23,1,195,2|2,0:0|0:0,0:0:0:0:
131,14,166412,1,10,0:2:0:0:
131,14,166570,1,0,0:0:0:0:
55,120,166728,5,2,1:2:0:0:
55,120,166807,1,0,0:0:0:0:
55,120,166886,2,0,P|124:98|174:107,1,97.5,2|8,0:0|0:2,0:0:0:0:
226,125,167202,1,2,0:0:0:0:
124,195,167360,1,2,1:2:0:0:
124,195,167518,2,0,P|188:204|223:328,1,195,2|2,0:0|0:0,0:0:0:0:
291,379,167991,5,0,1:2:0:0:
291,379,168149,2,0,L|398:359,2,97.5,2|10|2,0:0|0:2|0:0,0:0:0:0:
436,298,168623,2,0,L|466:173,1,97.5,2|2,1:2|0:0,0:0:0:0:
512,140,168939,1,10,0:2:0:0:
384,175,169097,6,0,L|279:150,1,97.5,2|8,0:0|0:2,0:0:0:0:
216,195,169412,1,2,1:2:0:0:
247,82,169570,1,10,0:2:0:0:
223,76,169649,1,0,1:2:0:0:
199,70,169728,1,2,1:2:0:0:
175,65,169807,1,0,1:2:0:0:
152,59,169886,2,0,L|131:13,3,48.75,10|0|2|0,1:2|1:2|1:2|1:2,0:0:0:0:
59,52,170202,2,0,L|38:6,3,48.75,10|0|2|0,0:2|1:2|1:2|1:2,0:0:0:0:
7,114,170518,5,6,1:2:0:0:
20,196,171149,1,6,1:2:0:0:
33,278,171781,1,6,1:2:0:0:
139,360,172412,5,6,1:2:0:0:
126,278,172728,1,6,1:2:0:0:
113,196,173044,1,6,1:2:0:0:
100,114,173360,1,6,1:2:0:0:
180,11,173676,5,6,1:2:0:0:
193,93,173833,1,4,1:2:0:0:
206,175,173991,1,6,1:2:0:0:
219,257,174149,1,4,1:2:0:0:
300,318,174307,5,6,1:2:0:0:
319,323,174386,1,0,1:2:0:0:
339,329,174465,1,6,1:2:0:0:
359,335,174544,1,0,1:2:0:0:
379,340,174623,2,0,L|416:320,3,41.25,6|0|6|0,1:2|1:2|1:2|1:2,0:0:0:0:
468,379,174939,5,6,1:2:0:0:
507,178,175255,6,0,L|420:157,1,82.5,2|0,0:0|0:0,0:0:0:0:
364,111,175570,6,0,L|256:133,1,90,6|0,1:2|0:0,0:0:0:0:
270,135,175807,1,0,0:0:0:0:
264,141,175886,2,0,L|145:114,1,90,10|0,0:2|0:0,0:0:0:0:
58,0,176202,2,0,P|106:26|111:65,1,90,2|0,1:2|0:0,0:0:0:0:
88,139,176518,1,8,0:2:0:0:
122,276,176676,5,2,0:0:0:0:
100,281,176755,1,2,0:0:0:0:
85,297,176833,1,2,1:2:0:0:
200,219,176991,1,2,0:0:0:0:
184,203,177070,1,2,0:0:0:0:
162,197,177149,1,10,0:2:0:0:
36,216,177307,1,2,0:2:0:0:
172,338,177465,5,2,1:2:0:0:
254,312,177623,1,2,0:2:0:0:
333,349,177781,1,10,0:2:0:0:
416,321,177939,1,2,0:2:0:0:
259,202,178097,5,2,1:2:0:0:
255,195,178412,2,0,P|234:115|111:90,1,180,10|2,0:2|1:2,0:0:0:0:
73,124,178886,1,2,0:0:0:0:
152,168,179044,2,0,P|143:212|139:257,1,90,8|2,0:2|0:0,0:0:0:0:
143,264,179281,1,2,0:0:0:0:
146,272,179360,6,0,P|203:289|248:296,1,90,2|2,1:2|0:0,0:0:0:0:
325,254,179676,2,0,P|345:247|379:238,2,45,10|2|2,0:2|0:0|0:0,0:0:0:0:
311,338,179991,1,2,1:2:0:0:
392,372,180149,1,2,0:2:0:0:
481,362,180307,2,0,P|500:326|503:253,1,90,10|0,0:2|0:0,0:0:0:0:
499,107,180623,6,0,P|453:128|443:178,1,90,2|2,1:2|0:0,0:0:0:0:
444,170,180860,1,2,0:0:0:0:
447,178,180939,2,0,L|347:160,1,90,8|2,0:2|0:2,0:0:0:0:
210,80,181255,1,0,1:2:0:0:
278,17,181412,2,0,L|302:120,1,90,0|8,0:0|0:2,0:0:0:0:
371,45,181728,1,2,0:2:0:0:
239,156,181886,5,0,1:2:0:0:
234,177,181965,1,2,0:2:0:0:
229,199,182044,1,2,0:2:0:0:
145,164,182202,2,0,L|51:144,1,90,10|2,0:2|0:2,0:0:0:0:
227,286,182518,1,2,1:2:0:0:
126,257,182676,2,0,L|147:360,1,90,2|0,0:2|0:0,0:0:0:0:
360,308,182991,6,0,P|338:257|286:246,1,90,2|0,0:2|0:0,0:0:0:0:
392,199,183307,1,2,0:2:0:0:
399,178,183386,1,2,0:2:0:0:
417,164,183465,1,10,0:2:0:0:
386,89,183623,1,2,0:2:0:0:
405,79,183702,1,2,0:2:0:0:
427,81,183781,1,2,1:2:0:0:
497,132,183939,1,2,0:0:0:0:
315,140,184097,2,0,L|217:120,1,90,10|2,0:0|0:0,0:0:0:0:
147,52,184412,5,0,1:2:0:0:
147,52,184570,1,2,1:2:0:0:
59,63,184728,1,10,0:2:0:0:
59,63,184886,1,2,1:2:0:0:
113,135,185044,1,2,1:2:0:0:
117,157,185123,1,0,0:0:0:0:
121,179,185202,1,2,1:2:0:0:
125,201,185281,1,0,0:0:0:0:
129,223,185360,2,0,L|78:207,3,45,10|0|2|0,0:2|0:0|1:2|0:0,0:0:0:0:
38,276,185676,6,0,P|14:317|32:358,1,90,6|2,1:2|0:0,0:0:0:0:
34,359,185912,1,2,0:0:0:0:
41,363,185991,2,0,L|147:348,1,90,10|2,0:2|0:0,0:0:0:0:
255,382,186307,1,2,1:2:0:0:
209,305,186465,1,2,0:0:0:0:
312,198,186623,2,0,L|294:301,1,90,8|2,0:2|0:0,0:0:0:0:
403,347,186939,5,2,1:2:0:0:
424,340,187018,1,0,0:0:0:0:
446,334,187097,1,2,0:0:0:0:
424,258,187255,1,10,0:2:0:0:
445,251,187333,1,0,0:0:0:0:
467,245,187412,1,2,0:0:0:0:
498,164,187570,1,2,1:2:0:0:
437,112,187728,1,2,0:2:0:0:
360,126,187886,1,10,0:2:0:0:
293,78,188044,1,2,0:2:0:0:
128,129,188202,5,2,1:2:0:0:
134,135,188518,2,0,P|204:161|219:271,1,180,10|2,0:2|1:2,0:0:0:0:
159,317,188991,1,2,0:0:0:0:
247,336,189149,2,0,P|319:349|347:363,1,90,8|2,0:2|0:0,0:0:0:0:
340,361,189386,1,2,0:0:0:0:
348,369,189465,6,0,P|398:351|401:309,1,90,2|2,1:2|0:0,0:0:0:0:
428,226,189781,2,0,L|478:212,2,45,10|2|2,0:2|0:0|0:0,0:0:0:0:
340,250,190097,1,2,1:2:0:0:
364,161,190255,1,2,0:2:0:0:
258,233,190412,2,0,P|200:214|145:171,1,90,10|0,0:2|0:0,0:0:0:0:
154,43,190728,6,0,P|105:51|92:89,1,90,2|2,1:2|0:0,0:0:0:0:
97,92,190965,1,2,0:0:0:0:
101,99,191044,2,0,L|196:112,1,90,8|2,0:2|0:2,0:0:0:0:
368,74,191360,1,0,1:2:0:0:
267,45,191518,2,0,L|286:150,1,90,0|8,0:0|0:2,0:0:0:0:
194,117,191833,1,2,0:2:0:0:
233,222,191991,5,0,1:2:0:0:
233,222,192070,1,2,0:2:0:0:
233,222,192149,2,0,L|324:247,1,90,2|10,0:2|0:2,0:0:0:0:
387,196,192465,1,2,0:2:0:0:
457,328,192623,2,0,P|408:313|402:267,1,90,2|2,1:2|0:2,0:0:0:0:
390,191,192939,1,0,0:0:0:0:
322,338,193097,5,2,0:2:0:0:
322,338,193176,1,0,0:0:0:0:
322,338,193255,2,0,P|262:349|215:358,1,90,0|2,0:0|0:2,0:0:0:0:
136,356,193570,1,10,0:2:0:0:
141,334,193649,1,0,0:0:0:0:
147,312,193728,1,2,0:2:0:0:
46,339,193886,1,2,1:2:0:0:
51,317,193965,1,0,0:0:0:0:
57,295,194044,1,2,0:0:0:0:
117,231,194202,1,10,0:0:0:0:
117,231,194360,1,2,0:0:0:0:
231,261,194518,6,0,P|284:240|290:197,1,90,0|2,1:2|0:0,0:0:0:0:
291,202,194755,1,0,0:0:0:0:
286,193,194833,2,0,L|180:172,1,90,10|2,0:0|0:0,0:0:0:0:
59,154,195149,2,0,B|25:98|25:98|75:36,2,135,2|2|2,1:2|1:2|1:2,0:0:0:0:
