osu file format v14

[General]
AudioFilename: audio.mp3
AudioLeadIn: 0
PreviewTime: 41636
Countdown: 0
SampleSet: Soft
StackLeniency: 0.4
Mode: 0
LetterboxInBreaks: 0
WidescreenStoryboard: 1

[Editor]
DistanceSpacing: 1.4
BeatDivisor: 4
GridSize: 4
TimelineZoom: 2.5

[Metadata]
Title:Gigantic O.T.N
TitleUnicode:ギガンティックO.T.N
Artist:yuikonnu
ArtistUnicode:ゆいこんぬ
Creator:Camo
Version:Hard
Source:
Tags:ストロベリズム宣言 giga giga-p cover ギガ 鏡音レン kagamine len electronic oriental japanese pop j-pop jpop camocratic calliecube strawberrhythm sengen gigap utaite nico douga
BeatmapID:2828931
BeatmapSetID:1362797

[Difficulty]
HPDrainRate:4
CircleSize:3.8
OverallDifficulty:6
ApproachRate:8
SliderMultiplier:1.4
SliderTickRate:1

[Events]
//Background and Video events
0,0,"bg-min.jpg",0,0
//Break Periods
2,129033,138189
//Storyboard Layer 0 (Background)
//Storyboard Layer 1 (Fail)
//Storyboard Layer 2 (Pass)
//Storyboard Layer 3 (Foreground)
//Storyboard Layer 4 (Overlay)
//Storyboard Sound Samples

[TimingPoints]
623,315.789473684211,4,2,1,70,1,0
623,-100,4,2,1,70,0,0
859,-100,4,2,1,5,0,0
938,-100,4,2,1,70,0,0
1175,-100,4,2,1,5,0,0
1255,315.789473684211,4,2,1,70,1,0
1255,-100,4,2,1,70,0,0
4018,-100,4,2,1,5,0,0
4097,-83.3333333333333,4,2,1,70,0,0
4412,-100,4,2,1,70,0,0
6228,-100,4,2,1,5,0,0
6307,-100,4,2,1,70,0,0
8281,-100,4,2,1,5,0,0
8360,-100,4,2,1,70,0,0
8597,-100,4,2,1,5,0,0
8676,-100,4,2,1,70,0,0
8912,-100,4,2,1,5,0,0
8991,-100,4,2,1,70,0,0
10965,-100,4,2,1,5,0,0
11044,-100,4,2,1,70,0,0
11281,-100,4,2,1,5,0,0
11360,-111.111111111111,4,2,1,60,0,0
14755,-111.111111111111,4,2,1,5,0,0
14833,-111.111111111111,4,2,1,60,0,0
15702,-111.111111111111,4,2,1,5,0,0
15781,-111.111111111111,4,2,1,60,0,0
16333,-111.111111111111,4,2,1,5,0,0
16412,-111.111111111111,4,2,1,60,0,0
18228,-111.111111111111,4,2,1,5,0,0
18307,-111.111111111111,4,2,1,60,0,0
19807,-111.111111111111,4,2,1,5,0,0
19886,-111.111111111111,4,2,1,60,0,0
23281,-111.111111111111,4,2,1,5,0,0
23360,-111.111111111111,4,2,1,60,0,0
26755,-111.111111111111,4,2,1,5,0,0
26833,-111.111111111111,4,2,1,60,0,0
31491,-111.111111111111,4,2,1,5,0,0
31570,-111.111111111111,4,2,2,60,0,0
31649,-111.111111111111,4,2,2,5,0,0
31728,-111.111111111111,4,2,2,60,0,0
34018,-111.111111111111,4,2,2,5,0,0
34097,-111.111111111111,4,2,2,60,0,0
34176,-111.111111111111,4,2,2,5,0,0
34255,-111.111111111111,4,2,2,60,0,0
36228,-111.111111111111,4,2,2,5,0,0
36307,-111.111111111111,4,2,2,60,0,0
36544,-111.111111111111,4,2,2,5,0,0
36623,-111.111111111111,4,2,2,60,0,0
37176,-111.111111111111,4,2,2,5,0,0
37255,-111.111111111111,4,2,2,60,0,0
37807,-111.111111111111,4,2,2,5,0,0
37886,-111.111111111111,4,2,2,60,0,0
39149,-111.111111111111,4,2,2,70,0,0
40412,-111.111111111111,4,2,1,70,0,0
41597,-111.111111111111,4,2,1,5,0,0
41676,-100,4,2,1,75,0,1
44518,-83.3333333333333,4,2,1,75,0,1
44833,-100,4,2,1,75,0,1
54623,-83.3333333333333,4,2,1,75,0,1
54939,-100,4,2,1,75,0,1
61886,-100,4,2,2,70,0,0
64018,-100,4,2,2,5,0,0
64097,-100,4,2,1,70,0,0
64333,-100,4,2,1,5,0,0
64412,-100,4,2,1,70,0,0
67255,-83.3333333333333,4,2,1,70,0,0
67570,-100,4,2,1,70,0,0
74123,-100,4,2,1,5,0,0
74202,-100,4,2,1,70,0,0
74439,-100,4,2,1,5,0,0
74518,-111.111111111111,4,2,1,60,0,0
94649,-111.111111111111,4,2,1,5,0,0
94728,-90.9090909090909,4,2,1,70,0,0
102307,-90.9090909090909,4,2,2,70,0,0
103570,-100,4,2,1,60,0,0
105722,-100,4,2,4,60,0,0
105781,-100,4,2,1,60,0,0
106097,-100,4,2,1,75,0,1
108939,-83.3333333333333,4,2,1,75,0,1
109255,-100,4,2,1,75,0,1
119044,-83.3333333333333,4,2,1,75,0,1
119360,-100,4,2,1,75,0,1
126307,-100,4,2,2,70,0,0
128439,-100,4,2,2,5,0,0
128518,-100,4,2,1,70,0,0
128755,-100,4,2,1,5,0,0
128833,-100,4,2,1,70,0,0
149044,-100,4,2,1,60,0,0
150228,-100,4,2,1,5,0,0
150307,-90.9090909090909,4,2,1,80,0,1
153149,-83.3333333333333,4,2,1,80,0,1
153465,-90.9090909090909,4,2,1,80,0,1
163255,-83.3333333333333,4,2,1,80,0,1
163570,-90.9090909090909,4,2,1,80,0,1
170518,-100,4,2,6,70,0,0
170597,-100,4,2,2,70,0,0
175255,-100,4,2,3,70,0,0
175570,-100,4,2,5,75,0,0
175649,-100,4,2,1,75,0,0
175728,-100,4,2,5,75,0,0
175886,-100,4,2,1,75,0,0
178412,-83.3333333333333,4,2,1,75,0,0
178728,-100,4,2,1,75,0,0
188518,-83.3333333333333,4,2,1,75,0,0
188833,-100,4,2,1,75,0,0

[Colours]
Combo1 : 136,0,136
Combo2 : 255,133,74
Combo3 : 104,216,253
Combo4 : 157,157,255

[HitObjects]
451,87,623,6,0,P|392:71|373:159,1,140,0|8,0:0|0:1,0:0:0:0:
450,236,1255,6,0,L|358:246,1,70,6|0,1:2|0:0,0:0:0:0:
374,250,1491,1,0,0:0:0:0:
367,257,1570,2,0,L|275:267,1,70,10|0,0:2|0:0,0:0:0:0:
212,214,1886,2,0,P|196:180|150:162,2,70,2|0|8,1:2|0:0|0:2,0:0:0:0:
297,264,2360,6,0,L|309:314,2,35,2|2|2,0:0|0:0|1:2,0:0:0:0:
326,169,2676,2,0,L|317:134,2,35,2|2|10,0:0|0:0|0:2,0:0:0:0:
399,233,2991,1,2,0:0:0:0:
456,153,3149,2,0,P|468:109|482:63,1,70,2|2,1:2|0:2,0:0:0:0:
404,16,3465,2,0,P|395:58|380:104,1,70,10|2,0:2|0:2,0:0:0:0:
292,57,3781,5,2,1:2:0:0:
292,57,4097,2,0,P|220:68|179:82,1,84,10|0,0:2|0:0,0:0:0:0:
135,135,4412,1,2,1:2:0:0:
107,48,4570,1,2,0:0:0:0:
38,117,4728,2,0,P|48:158|55:216,1,70,8|2,0:2|0:0,0:0:0:0:
48,195,4965,1,2,0:0:0:0:
44,205,5044,6,0,P|77:236|128:245,1,70,2|2,1:2|0:0,0:0:0:0:
187,199,5360,2,0,L|236:192,2,35,10|2|2,0:2|0:0|0:0,0:0:0:0:
179,297,5676,1,2,1:2:0:0:
260,350,5833,1,2,0:2:0:0:
356,365,5991,2,0,P|370:310|384:265,1,70,10|0,0:2|0:0,0:0:0:0:
451,236,6307,6,0,P|409:223|380:178,1,70,2|2,1:2|0:0,0:0:0:0:
391,194,6544,1,2,0:0:0:0:
391,182,6623,2,0,L|316:169,1,70,8|2,0:2|0:2,0:0:0:0:
248,104,6939,2,0,P|226:72|211:64,2,35,0|2|0,1:2|0:2|0:0,0:0:0:0:
341,72,7255,2,0,P|385:42|429:27,1,70,8|2,0:2|0:2,0:0:0:0:
483,87,7570,6,0,L|502:118,2,35,0|2|2,1:2|0:2|0:2,0:0:0:0:
400,33,7886,2,0,P|357:20|303:19,1,70,10|2,0:2|0:2,0:0:0:0:
238,47,8202,1,2,1:2:0:0:
238,47,8360,2,0,P|194:64|143:57,1,70,2|8,0:2|0:2,0:0:0:0:
75,40,8676,2,0,P|93:75|102:132,1,70,2|0,0:2|1:2,0:0:0:0:
44,185,8991,6,0,L|-1:177,2,35,2|2|10,0:2|0:2|0:2,0:0:0:0:
124,242,9307,2,0,L|169:234,2,35,2|2|2,0:2|0:2|1:2,0:0:0:0:
35,285,9623,1,2,0:2:0:0:
35,285,9781,2,0,P|65:330|106:347,1,70,10|2,0:2|0:2,0:0:0:0:
176,339,10097,6,0,L|220:331,3,35,0|0|2|0,1:2|1:2|1:2|1:2,0:0:0:0:
252,306,10412,2,0,L|296:314,3,35,10|0|2|0,0:2|1:2|1:2|1:2,0:0:0:0:
331,290,10728,5,2,0:2:0:0:
331,290,11044,1,2,0:2:0:0:
270,219,11202,5,0,0:0:0:0:
270,219,11360,2,0,P|220:199|190:193,1,63.0000000000001,6|0,1:2|0:0,0:0:0:0:
148,133,11676,1,2,1:2:0:0:
76,229,11991,2,0,L|65:309,1,63.0000000000001,2|0,1:2|0:0,0:0:0:0:
134,349,12307,2,0,L|143:279,1,63.0000000000001,2|0,1:2|0:0,0:0:0:0:
200,220,12623,5,2,1:2:0:0:
200,220,12781,2,0,P|247:203|286:202,2,63.0000000000001,2|2|2,0:0|1:2|0:0,0:0:0:0:
135,158,13255,2,0,P|122:106|86:25,1,126,2|2,1:2|1:2,0:0:0:0:
225,72,13886,6,0,P|265:59|300:55,1,63.0000000000001,2|2,1:2|0:0,0:0:0:0:
372,38,14202,1,2,1:2:0:0:
366,170,14518,2,0,P|322:148|300:218,1,126,2|2,1:2|1:2,0:0:0:0:
322,289,14991,1,2,0:0:0:0:
389,345,15149,6,0,P|423:301|454:290,2,63.0000000000001,2|2|2,1:2|0:0|1:2,0:0:0:0:
304,373,15623,1,0,0:0:0:0:
304,373,15781,2,0,L|232:362,1,63.0000000000001,2|2,1:2|0:0,0:0:0:0:
154,382,16097,1,2,1:2:0:0:
19,321,16412,6,0,P|11:281|36:258,1,63.0000000000001,2|2,1:2|0:0,0:0:0:0:
106,231,16728,1,2,1:2:0:0:
106,231,16886,1,2,0:0:0:0:
167,293,17044,2,0,L|240:280,1,63.0000000000001,2|2,1:2|0:0,0:0:0:0:
311,316,17360,2,0,L|384:303,1,63.0000000000001,2|2,1:2|0:0,0:0:0:0:
439,245,17676,2,0,P|432:191|363:192,1,126,2|2,1:2|1:2,0:0:0:0:
213,267,18307,5,2,1:2:0:0:
213,267,18465,2,0,P|163:279|134:297,2,63.0000000000001,0|2|0,0:0|1:2|0:0,0:0:0:0:
289,222,18939,2,0,P|297:172|310:145,1,63.0000000000001,2|2,1:2|0:0,0:0:0:0:
310,153,19176,1,2,0:0:0:0:
318,146,19255,2,0,L|394:137,1,63.0000000000001,2|2,1:2|0:0,0:0:0:0:
461,103,19570,2,0,P|497:123|513:169,1,63.0000000000001,2|0,1:2|0:0,0:0:0:0:
490,227,19886,5,2,1:2:0:0:
490,227,20044,1,2,0:0:0:0:
443,301,20202,2,0,P|404:271|381:270,1,63.0000000000001,2|2,1:2|0:0,0:0:0:0:
319,321,20518,2,0,P|278:314|254:293,1,63.0000000000001,2|2,1:2|0:0,0:0:0:0:
249,214,20833,2,0,L|319:205,1,63.0000000000001,2|2,1:2|0:0,0:0:0:0:
399,194,21149,2,0,L|408:124,1,63.0000000000001,2|2,1:2|0:0,0:0:0:0:
342,70,21465,6,0,L|265:47,2,63.0000000000001,6|0|2,1:2|0:0|1:2,0:0:0:0:
407,131,21939,1,0,0:0:0:0:
407,131,22097,2,0,P|424:167|428:217,1,63.0000000000001,2|0,1:2|0:0,0:0:0:0:
498,220,22412,2,0,P|481:256|477:306,1,63.0000000000001,2|0,1:2|0:0,0:0:0:0:
406,333,22728,2,0,P|443:346|477:369,2,63.0000000000001,2|2|2,1:2|0:0|1:2,0:0:0:0:
231,364,23360,6,0,P|237:319|252:278,1,63.0000000000001,2|2,1:2|0:0,0:0:0:0:
307,242,23676,2,0,P|297:205|280:171,1,63.0000000000001,2|0,1:2|0:0,0:0:0:0:
209,139,23991,2,0,L|132:131,1,63.0000000000001,2|2,1:2|0:0,0:0:0:0:
136,129,24228,1,0,0:0:0:0:
127,124,24307,2,0,L|50:116,1,63.0000000000001,2|2,1:2|0:0,0:0:0:0:
5,50,24623,1,2,1:2:0:0:
87,19,24781,2,0,L|136:35,2,31.5,2|0|2,0:0|0:0|1:2,0:0:0:0:
5,50,25097,1,2,0:0:0:0:
64,117,25255,6,0,P|82:162|84:197,1,63.0000000000001,2|2,1:2|0:0,0:0:0:0:
147,237,25570,2,0,P|178:204|211:192,1,63.0000000000001,2|2,1:2|0:0,0:0:0:0:
276,166,25886,1,2,1:2:0:0:
276,166,26044,1,2,0:0:0:0:
359,195,26202,2,0,P|396:212|428:237,1,63.0000000000001,2|2,1:2|0:0,0:0:0:0:
427,137,26518,6,0,P|453:53|480:1,1,126,2|2,1:2|1:2,0:0:0:0:
382,2,26991,1,0,0:0:0:0:
306,47,27149,2,0,L|318:115,1,63.0000000000001,2|0,1:2|0:0,0:0:0:0:
228,109,27465,1,2,1:2:0:0:
95,226,27781,6,0,P|49:203|17:200,2,63.0000000000001,2|2|2,1:2|0:0|1:2,0:0:0:0:
183,215,28255,1,2,0:0:0:0:
144,293,28412,2,0,P|158:322|156:359,1,63.0000000000001,2|2,1:2|0:0,0:0:0:0:
69,362,28728,2,0,P|55:333|57:296,1,63.0000000000001,2|2,1:2|0:0,0:0:0:0:
95,226,29044,5,2,1:2:0:0:
28,168,29360,2,0,P|16:128|6:99,1,63.0000000000001,2|2,1:2|0:0,0:0:0:0:
68,38,29676,2,0,P|25:18|2:13,2,63.0000000000001,2|2|2,1:2|0:0|1:2,0:0:0:0:
116,111,30149,1,2,0:0:0:0:
165,38,30307,6,0,L|246:25,1,63.0000000000001,2|2,1:2|0:0,0:0:0:0:
307,66,30623,2,0,L|388:53,1,63.0000000000001,2|2,1:2|0:0,0:0:0:0:
448,12,30939,1,2,1:2:0:0:
448,12,31097,1,2,0:0:0:0:
493,87,31255,2,0,P|470:130|451:212,1,126,2|6,1:2|1:2,0:0:0:0:
481,287,31728,6,0,P|442:281|349:263,1,126,2|2,0:0|0:0,0:0:0:0:
214,159,32360,2,0,P|235:103|298:120,1,126,2|2,0:0|0:0,0:0:0:0:
194,258,32991,2,0,P|153:237|59:223,2,126,2|2|2,0:0|0:0|0:0,0:0:0:0:
271,301,33781,6,0,L|284:379,1,63.0000000000001,4|2,1:2|0:0,0:0:0:0:
355,313,34097,2,0,L|368:391,1,63.0000000000001,4|2,1:2|0:0,0:0:0:0:
498,259,34570,6,0,P|489:211|403:222,2,126,2|2|2,0:0|0:0|0:0,0:0:0:0:
324,293,35518,2,0,P|270:278|192:272,1,126,2|2,0:0|0:0,0:0:0:0:
48,362,36149,5,6,0:0:0:0:
48,362,36307,2,0,L|34:278,1,63.0000000000001,4|2,1:2|0:0,0:0:0:0:
123,322,36623,2,0,L|109:238,1,63.0000000000001,4|2,1:2|0:0,0:0:0:0:
74,179,36939,1,0,1:2:0:0:
74,179,37255,6,0,P|115:175|156:156,1,63.0000000000001,4|2,1:2|0:0,0:0:0:0:
211,117,37570,1,0,1:2:0:0:
211,117,37886,2,0,P|207:76|188:35,1,63.0000000000001,4|2,1:2|0:0,0:0:0:0:
129,0,38202,2,0,P|88:4|47:23,1,63.0000000000001,4|2,1:2|0:0,0:0:0:0:
1,70,38518,2,0,P|5:111|24:152,1,63.0000000000001,4|2,1:2|0:0,0:0:0:0:
83,182,38833,2,0,P|124:178|165:159,1,63.0000000000001,4|2,1:2|0:0,0:0:0:0:
204,105,39149,5,4,1:2:0:0:
204,105,39307,1,6,1:2:0:0:
289,76,39465,1,4,1:2:0:0:
289,76,39623,1,6,1:2:0:0:
375,93,39781,2,0,L|385:128,3,31.5,4|0|6|0,1:2|1:2|1:2|1:2,0:0:0:0:
348,151,40097,2,0,L|358:186,3,31.5,4|0|6|0,1:2|1:2|1:2|1:2,0:0:0:0:
335,219,40412,5,2,1:2:0:0:
335,219,40728,1,0,1:2:0:0:
335,219,41044,1,0,1:2:0:0:
509,247,41360,5,8,0:1:0:0:
448,60,41676,5,6,1:2:0:0:
448,60,41833,2,0,L|364:50,1,70,2|10,0:0|0:2,0:0:0:0:
283,23,42149,1,2,0:0:0:0:
236,109,42307,2,0,P|191:89|155:159,1,140,2|10,1:2|0:2,0:0:0:0:
229,217,42781,6,0,P|274:230|310:227,1,70,2|0,0:0|1:2,0:0:0:0:
371,164,43097,2,0,P|416:151|452:154,1,70,2|8,0:0|0:2,0:0:0:0:
489,235,43412,1,2,0:0:0:0:
451,325,43570,2,0,L|415:334,3,35,2|0|2|0,1:2|0:0|0:0|0:0,0:0:0:0:
380,366,43886,2,0,L|338:358,3,35,10|0|2|0,0:2|0:0|0:0|0:0,0:0:0:0:
296,362,44202,6,0,P|281:300|265:280,1,70,2|0,1:2|0:0,0:0:0:0:
166,255,44518,2,0,P|188:200|297:189,1,168,10|2,0:2|1:2,0:0:0:0:
364,245,44991,1,0,0:0:0:0:
364,245,45149,1,10,0:2:0:0:
448,194,45307,6,0,P|459:149|484:116,1,70,2|0,0:0|1:2,0:0:0:0:
400,61,45623,2,0,P|366:44|319:45,1,70,2|8,0:0|0:2,0:0:0:0:
257,104,45939,1,2,0:0:0:0:
175,49,46097,2,0,P|153:38|137:38,3,35,2|0|2|0,1:2|0:0|0:0|0:0,0:0:0:0:
107,71,46412,2,0,P|85:78|60:76,3,35,10|0|0|0,0:2|0:0|0:0|0:0,0:0:0:0:
35,110,46728,6,0,L|10:31,2,70,2|2|10,1:2|0:0|0:2,0:0:0:0:
101,182,47202,2,0,P|153:181|199:255,1,140,2|2,0:0|0:0,0:0:0:0:
159,340,47676,1,10,0:2:0:0:
159,340,47833,1,2,0:0:0:0:
61,334,47991,6,0,P|36:225|20:188,1,140,2|10,1:2|0:2,0:0:0:0:
3,103,48465,1,2,0:0:0:0:
84,47,48623,2,0,L|140:61,3,35,2|0|2|0,1:2|0:0|0:0|0:0,0:0:0:0:
161,31,48939,2,0,L|206:24,3,35,8|0|2|0,0:2|0:0|0:0|0:0,0:0:0:0:
239,48,49255,6,0,L|230:126,1,70,0|2,1:2|0:0,0:0:0:0:
172,196,49570,2,0,P|144:169|102:163,1,70,10|2,0:2|0:0,0:0:0:0:
42,228,49886,2,0,P|30:271|26:328,2,70,2|2|10,1:2|0:0|0:2,0:0:0:0:
114,162,50360,6,0,P|162:138|260:143,1,140,2|2,0:0|0:0,0:0:0:0:
305,217,50833,1,8,0:2:0:0:
386,163,50991,1,2,0:0:0:0:
386,163,51070,1,0,0:0:0:0:
386,163,51149,2,0,P|403:156|430:152,3,35,2|0|2|0,1:2|1:2|1:2|1:2,0:0:0:0:
459,123,51465,2,0,P|476:130|503:134,3,35,10|0|0|0,0:2|1:2|1:2|1:2,0:0:0:0:
505,181,51781,6,0,P|500:233|492:264,1,70,6|2,1:2|0:0,0:0:0:0:
442,332,52097,2,0,L|364:318,1,70,10|2,0:2|0:0,0:0:0:0:
293,262,52412,2,0,B|211:289|266:325|179:352,1,140,2|10,1:2|0:2,0:0:0:0:
94,325,52886,6,0,P|84:285|68:244,1,70,2|0,0:0|1:2,0:0:0:0:
20,175,53202,1,2,0:0:0:0:
20,175,53360,2,0,P|59:153|110:147,1,70,8|2,0:2|0:0,0:0:0:0:
174,184,53676,2,0,L|218:200,3,35,2|0|0|0,1:2|0:0|0:0|0:0,0:0:0:0:
251,176,53991,2,0,L|295:160,3,35,10|0|0|0,0:2|0:0|0:0|0:0,0:0:0:0:
312,123,54307,6,0,P|354:102|362:77,1,70,2|0,1:2|0:0,0:0:0:0:
457,14,54623,2,0,P|446:68|439:185,1,168,10|2,0:2|1:2,0:0:0:0:
467,274,55097,1,0,0:0:0:0:
467,274,55255,1,10,0:2:0:0:
373,246,55412,6,0,P|319:248|311:335,1,140,2|2,0:0|0:0,0:0:0:0:
379,379,55886,2,0,L|450:373,1,70,10|2,0:2|0:0,0:0:0:0:
467,274,56202,2,0,P|471:247|482:233,3,35,2|0|2|0,1:2|0:0|0:0|0:0,0:0:0:0:
443,202,56518,2,0,P|439:175|428:161,3,35,10|0|0|0,0:2|0:0|0:0|0:0,0:0:0:0:
436,119,56833,6,0,P|474:108|519:102,2,70,2|2|10,1:2|0:0|0:2,0:0:0:0:
351,67,57307,2,0,P|291:58|198:24,1,140,2|2,0:0|0:0,0:0:0:0:
125,7,57781,1,10,0:2:0:0:
125,7,57939,1,0,0:0:0:0:
37,50,58097,6,0,L|45:125,1,70,2|2,1:2|0:0,0:0:0:0:
50,128,58333,1,2,0:0:0:0:
59,138,58412,2,0,L|67:213,1,70,8|2,0:2|0:0,0:0:0:0:
130,283,58728,2,0,L|69:298,3,35,2|0|2|0,1:2|0:0|0:0|0:0,0:0:0:0:
66,331,59044,2,0,L|5:346,3,35,8|0|2|0,0:2|0:0|0:0|0:0,0:0:0:0:
9,295,59360,6,0,P|2:246|-3:209,1,70,0|2,1:2|0:0,0:0:0:0:
28,131,59676,1,10,0:2:0:0:
28,131,59833,1,2,0:0:0:0:
103,68,59991,2,0,P|65:34|25:31,2,70,2|2|10,1:2|0:0|0:2,0:0:0:0:
138,160,60465,6,0,P|173:143|183:222,1,140,2|2,0:0|0:0,0:0:0:0:
101,249,60939,1,10,0:2:0:0:
34,320,61097,1,0,0:0:0:0:
34,320,61176,1,0,0:0:0:0:
34,320,61255,2,0,P|60:330|77:342,3,35,2|0|0|0,1:2|1:2|1:2|1:2,0:0:0:0:
101,367,61570,2,0,P|121:355|152:351,3,35,10|0|0|0,0:2|1:2|1:2|1:2,0:0:0:0:
174,325,61886,5,6,1:2:0:0:
174,325,62202,1,6,1:2:0:0:
32,196,62518,5,6,1:2:0:0:
32,196,62676,1,4,1:2:0:0:
15,104,62833,1,6,1:2:0:0:
15,104,62991,1,4,1:2:0:0:
70,22,63149,2,0,L|147:12,1,70,6|6,1:2|1:2,0:0:0:0:
217,73,63465,6,0,L|281:64,4,35,6|0|6|0|6,1:2|1:2|1:2|1:2|1:2,0:0:0:0:
217,73,64097,1,10,0:1:0:0:
39,155,64412,6,0,P|66:200|66:229,1,70,6|0,1:2|0:0,0:0:0:0:
65,225,64649,1,0,0:0:0:0:
59,234,64728,2,0,L|141:245,1,70,10|0,0:2|0:0,0:0:0:0:
211,190,65044,2,0,P|240:157|276:153,2,70,2|0|8,1:2|0:0|0:2,0:0:0:0:
217,288,65518,6,0,L|210:328,2,35,2|2|2,0:0|0:0|1:2,0:0:0:0:
309,320,65833,2,0,L|302:360,2,35,2|2|10,0:0|0:0|0:2,0:0:0:0:
402,353,66149,1,2,0:0:0:0:
482,296,66307,2,0,P|494:237|507:205,1,70,2|2,1:2|0:0,0:0:0:0:
440,147,66623,2,0,P|410:122|374:133,1,70,10|2,0:2|0:0,0:0:0:0:
318,202,66939,5,2,1:2:0:0:
318,202,67255,2,0,P|332:281|343:376,1,168,10|2,0:2|1:2,0:0:0:0:
245,381,67728,1,2,0:0:0:0:
173,313,67886,2,0,L|93:320,1,70,8|2,0:2|0:0,0:0:0:0:
98,326,68123,1,2,0:0:0:0:
92,334,68202,6,0,P|55:325|37:294,1,70,2|2,1:2|0:0,0:0:0:0:
56,202,68518,2,0,P|77:209|89:214,2,35,8|0|2,0:2|0:0|0:0,0:0:0:0:
14,113,68833,1,2,1:2:0:0:
14,113,68991,1,2,0:0:0:0:
82,42,69149,2,0,P|126:27|160:31,1,70,10|0,0:2|0:0,0:0:0:0:
221,95,69465,6,0,L|209:178,1,70,2|2,1:2|0:0,0:0:0:0:
205,173,69702,1,2,0:0:0:0:
199,180,69781,2,0,L|183:267,1,70,10|2,0:2|0:0,0:0:0:0:
110,311,70097,2,0,P|93:297|74:294,2,35,0|2|0,1:2|0:0|0:0,0:0:0:0:
190,367,70412,2,0,P|237:379|267:377,1,70,8|2,0:2|0:0,0:0:0:0:
346,334,70728,5,0,1:2:0:0:
426,278,70886,2,0,P|444:286|468:311,2,35,2|2|10,0:0|0:0|0:2,0:0:0:0:
336,235,71202,1,2,0:0:0:0:
258,295,71360,1,2,1:2:0:0:
258,295,71518,2,0,P|190:303|121:330,1,140,2|2,0:0|0:0,0:0:0:0:
39,278,71991,5,0,1:2:0:0:
91,195,72149,2,0,L|139:206,2,35,2|2|10,0:0|0:0|0:2,0:0:0:0:
33,114,72465,2,0,L|-15:125,2,35,2|2|2,0:0|0:0|1:2,0:0:0:0:
85,30,72781,1,2,0:0:0:0:
85,30,72939,2,0,L|159:39,1,70,10|2,0:2|0:0,0:0:0:0:
253,32,73255,6,0,P|277:25|298:25,3,35,0|0|2|0,1:2|1:2|1:2|1:2,0:0:0:0:
322,58,73570,2,0,P|336:64|361:61,3,35,10|0|2|0,0:2|1:2|1:2|1:2,0:0:0:0:
393,31,73886,5,2,0:0:0:0:
393,31,74202,1,2,0:0:0:0:
477,81,74360,5,0,0:0:0:0:
477,81,74518,2,0,P|465:135|465:165,1,63.0000000000001,6|0,1:2|0:0,0:0:0:0:
401,204,74833,2,0,P|368:195|326:191,1,63.0000000000001,2|2,1:2|0:0,0:0:0:0:
332,197,75070,1,2,0:0:0:0:
326,205,75149,2,0,P|285:216|253:208,1,63.0000000000001,2|0,1:2|0:0,0:0:0:0:
189,177,75465,1,2,1:2:0:0:
113,17,75781,6,0,P|109:60|99:85,1,63.0000000000001,2|2,1:2|0:0,0:0:0:0:
41,143,76097,1,2,1:2:0:0:
41,143,76255,1,2,0:0:0:0:
55,229,76412,2,0,L|40:293,2,63.0000000000001,2|2|2,1:2|0:0|1:2,0:0:0:0:
195,336,77044,6,0,P|234:317|271:321,1,63.0000000000001,2|0,1:2|0:0,0:0:0:0:
340,300,77360,2,0,L|329:386,1,63.0000000000001,2|0,1:2|0:0,0:0:0:0:
420,361,77676,2,0,P|471:359|496:329,1,63.0000000000001,2|2,1:2|0:0,0:0:0:0:
483,268,77991,1,2,1:2:0:0:
483,268,78149,1,0,0:0:0:0:
444,188,78307,6,0,L|366:196,1,63.0000000000001,2|2,1:2|0:0,0:0:0:0:
372,203,78544,1,0,0:0:0:0:
364,212,78623,2,0,L|286:220,1,63.0000000000001,2|2,1:2|0:0,0:0:0:0:
212,226,78939,2,0,P|205:271|201:311,1,63.0000000000001,2|2,1:2|0:0,0:0:0:0:
135,344,79255,1,2,1:2:0:0:
135,344,79412,1,2,0:0:0:0:
53,297,79570,6,0,L|41:223,1,63.0000000000001,2|2,1:2|0:0,0:0:0:0:
75,135,79886,2,0,L|63:61,1,63.0000000000001,2|0,1:2|0:0,0:0:0:0:
132,15,80202,2,0,P|171:6|223:6,2,63.0000000000001,2|0|2,1:2|0:0|1:2,0:0:0:0:
165,188,80833,6,0,P|186:224|194:264,1,63.0000000000001,2|2,1:2|0:0,0:0:0:0:
135,312,81149,2,0,P|179:337|200:337,1,63.0000000000001,2|0,1:2|0:0,0:0:0:0:
266,292,81465,2,0,L|279:215,2,63.0000000000001,2|2|2,1:2|0:0|1:2,0:0:0:0:
306,371,81939,1,2,0:0:0:0:
383,328,82097,6,0,P|399:261|407:242,1,63.0000000000001,2|2,1:2|0:0,0:0:0:0:
474,222,82412,1,2,1:2:0:0:
474,222,82570,1,0,0:0:0:0:
395,170,82728,2,0,P|418:137|451:120,2,63.0000000000001,2|2|2,1:2|0:0|1:2,0:0:0:0:
324,224,83202,1,2,0:0:0:0:
260,285,83360,6,0,L|182:293,1,63.0000000000001,2|0,1:2|0:0,0:0:0:0:
188,300,83597,1,0,0:0:0:0:
180,309,83676,2,0,L|102:317,1,63.0000000000001,2|2,1:2|0:0,0:0:0:0:
44,266,83991,2,0,L|27:226,2,31.5,2|0|2,1:2|0:0|0:0,0:0:0:0:
121,221,84307,1,2,1:2:0:0:
222,76,84623,6,0,L|288:81,1,63.0000000000001,6|0,1:2|0:0,0:0:0:0:
359,33,84939,2,0,P|404:47|416:74,1,63.0000000000001,2|0,1:2|0:0,0:0:0:0:
379,143,85255,1,2,1:2:0:0:
379,143,85412,1,2,0:0:0:0:
469,164,85570,1,2,1:2:0:0:
469,164,85728,1,2,0:0:0:0:
414,233,85886,6,0,P|404:271|397:315,1,63.0000000000001,2|2,1:2|0:0,0:0:0:0:
333,367,86202,2,0,L|262:359,1,63.0000000000001,2|2,1:2|0:0,0:0:0:0:
213,291,86518,2,0,P|174:309|166:352,2,63.0000000000001,2|2|2,1:2|0:0|1:2,0:0:0:0:
384,250,87149,6,0,P|401:205|421:182,1,63.0000000000001,2|0,1:2|0:0,0:0:0:0:
492,156,87465,1,2,1:2:0:0:
492,156,87623,1,2,0:0:0:0:
460,73,87781,2,0,P|422:87|386:92,1,63.0000000000001,2|2,1:2|0:0,0:0:0:0:
325,43,88097,2,0,P|254:31|173:28,1,126,2|2,1:2|1:2,0:0:0:0:
116,45,88570,5,2,0:0:0:0:
116,45,88728,2,0,L|122:114,2,63.0000000000001,2|2|2,1:2|0:0|1:2,0:0:0:0:
200,27,89202,1,2,0:0:0:0:
234,108,89360,2,0,L|378:92,1,126,2|2,1:2|1:2,0:0:0:0:
492,210,89991,6,0,P|478:259|472:294,1,63.0000000000001,2|2,1:2|0:0,0:0:0:0:
392,238,90307,2,0,L|311:230,1,63.0000000000001,2|2,1:2|0:0,0:0:0:0:
257,283,90623,2,0,L|169:294,1,63.0000000000001,2|0,1:2|0:0,0:0:0:0:
134,356,90939,5,2,1:2:0:0:
134,356,91097,1,0,0:0:0:0:
66,299,91255,2,0,P|77:247|99:217,1,63.0000000000001,2|0,1:2|0:0,0:0:0:0:
89,231,91491,1,0,0:0:0:0:
97,227,91570,2,0,L|183:218,1,63.0000000000001,2|2,1:2|0:0,0:0:0:0:
246,201,91886,2,0,P|230:158|198:142,1,63.0000000000001,2|2,1:2|0:0,0:0:0:0:
132,137,92202,5,2,1:2:0:0:
132,137,92360,1,0,0:0:0:0:
163,54,92518,2,0,L|237:43,1,63.0000000000001,2|0,1:2|0:0,0:0:0:0:
313,43,92833,2,0,P|335:9|373:-1,2,63.0000000000001,2|2|2,1:2|0:0|1:2,0:0:0:0:
296,219,93465,6,0,P|310:254|336:282,1,63.0000000000001,2|2,1:2|0:0,0:0:0:0:
393,210,93781,1,2,1:2:0:0:
393,210,93939,1,2,0:0:0:0:
479,193,94097,2,0,P|486:141|496:108,2,63.0000000000001,2|2|2,0:0|0:0|0:0,0:0:0:0:
374,4,94728,6,0,P|326:7|277:28,1,77,2|0,1:2|1:2,0:0:0:0:
223,94,95044,2,0,P|189:79|150:74,2,77,2|0|2,0:0|1:2|0:0,0:0:0:0:
328,135,95518,1,0,0:0:0:0:
328,135,95676,2,0,L|312:217,1,77,2|2,1:2|0:0,0:0:0:0:
234,265,95991,6,0,P|194:285|149:288,1,77,2|0,1:2|1:2,0:0:0:0:
154,284,96228,1,0,1:2:0:0:
147,278,96307,2,0,L|155:196,1,77,2|2,1:2|1:2,0:0:0:0:
97,109,96623,2,0,P|61:85|19:84,2,77,2|0|2,0:0|1:2|1:2,0:0:0:0:
154,201,97097,1,2,0:0:0:0:
242,138,97255,6,0,P|295:124|329:130,1,77,2|0,1:2|1:2,0:0:0:0:
374,217,97570,2,0,P|393:188|399:135,1,77,2|0,0:0|1:2,0:0:0:0:
484,77,97886,1,2,0:0:0:0:
484,77,98044,1,2,0:0:0:0:
384,49,98202,1,2,1:2:0:0:
384,49,98360,1,2,0:0:0:0:
274,37,98518,6,0,L|259:-3,4,38.5,2|0|0|0|2,1:2|0:0|0:0|1:2|1:2,0:0:0:0:
235,137,98991,1,0,1:2:0:0:
305,218,99149,2,0,L|397:202,1,77,2|0,1:2|1:2,0:0:0:0:
485,232,99465,5,2,1:2:0:0:
485,232,99781,2,0,P|478:276|466:324,2,77,2|2|2,1:2|1:2|0:0,0:0:0:0:
458,126,100255,1,2,1:2:0:0:
458,126,100333,1,0,0:0:0:0:
458,126,100412,2,0,P|466:79|480:49,2,77,2|2|2,0:0|0:0|1:2,0:0:0:0:
380,204,100886,1,0,0:0:0:0:
330,108,101044,6,0,P|285:95|261:72,1,77,2|2,1:2|1:2,0:0:0:0:
174,12,101360,2,0,L|89:2,1,77,0|2,1:2|1:2,0:0:0:0:
70,108,101676,2,0,P|29:86|-1:88,2,77,2|0|2,0:0|1:2|1:2,0:0:0:0:
171,143,102149,1,2,0:0:0:0:
134,244,102307,6,0,P|188:254|235:285,1,77,2|0,1:2|1:2,0:0:0:0:
242,371,102623,1,2,1:2:0:0:
242,371,102781,1,0,1:2:0:0:
298,279,102939,2,0,L|345:274,3,38.5,2|0|0|0,1:2|1:2|1:2|1:2,0:0:0:0:
372,316,103255,2,0,L|419:321,3,38.5,2|0|0|0,1:2|1:2|1:2|1:2,0:0:0:0:
451,292,103570,5,2,1:2:0:0:
453,281,103886,1,2,1:2:0:0:
453,281,104202,1,2,1:2:0:0:
474,89,104518,5,2,1:2:0:0:
474,89,104676,1,0,1:2:0:0:
379,110,104833,2,0,L|306:103,1,70,2|2,1:2|1:2,0:0:0:0:
230,44,105149,2,0,L|157:37,1,70,2|0,1:2|1:2,0:0:0:0:
68,74,105465,1,2,1:2:0:0:
76,359,106097,6,0,L|0:373,2,70,6|2|10,1:2|0:0|0:2,0:0:0:0:
159,308,106570,1,2,0:0:0:0:
231,374,106728,2,0,P|250:315|331:298,1,140,2|10,1:2|0:2,0:0:0:0:
394,358,107202,6,0,L|406:288,1,70,2|0,0:0|1:2,0:0:0:0:
372,196,107518,2,0,P|328:170|293:170,1,70,2|8,0:0|0:2,0:0:0:0:
218,203,107833,1,2,0:0:0:0:
128,163,107991,2,0,P|107:154|81:152,3,35,2|0|2|0,1:2|0:0|0:0|0:0,0:0:0:0:
66,111,108307,2,0,P|51:117|23:117,3,35,10|0|2|0,0:2|0:0|0:0|0:0,0:0:0:0:
9,162,108623,6,0,P|18:225|21:252,1,70,2|0,1:2|0:0,0:0:0:0:
54,344,108939,2,0,P|82:290|180:305,1,168,10|2,0:2|1:2,0:0:0:0:
233,384,109412,1,0,0:0:0:0:
233,384,109570,1,10,0:2:0:0:
293,306,109728,6,0,P|304:252|331:230,1,70,2|0,0:0|1:2,0:0:0:0:
386,177,110044,2,0,L|476:184,1,70,2|8,0:0|0:2,0:0:0:0:
512,103,110360,1,2,0:0:0:0:
430,48,110518,2,0,L|388:62,3,35,2|0|2|0,1:2|0:0|0:0|0:0,0:0:0:0:
353,35,110833,2,0,L|311:21,3,35,10|0|0|0,0:2|0:0|0:0|0:0,0:0:0:0:
286,60,111149,6,0,L|294:139,2,70,2|2|10,1:2|0:0|0:2,0:0:0:0:
200,11,111623,2,0,P|157:6|109:91,1,140,2|2,0:0|0:0,0:0:0:0:
138,170,112097,1,10,0:2:0:0:
138,170,112255,1,2,0:0:0:0:
61,230,112412,6,0,P|85:262|88:295,1,70,2|0,1:2|0:0,0:0:0:0:
128,381,112728,2,0,L|218:367,1,70,10|0,0:2|0:0,0:0:0:0:
286,327,113044,2,0,P|305:324|323:335,3,35,2|0|2|0,1:2|0:0|0:0|0:0,0:0:0:0:
360,304,113360,2,0,P|379:307|397:296,3,35,8|0|2|0,0:2|0:0|0:0|0:0,0:0:0:0:
417,257,113676,6,0,P|438:196|451:168,1,70,0|2,1:2|0:0,0:0:0:0:
505,117,113991,1,8,0:2:0:0:
505,117,114149,1,2,0:0:0:0:
422,63,114307,2,0,P|411:23|393:0,2,70,2|2|10,1:2|0:0|0:2,0:0:0:0:
366,144,114781,1,2,0:0:0:0:
296,75,114939,5,2,1:2:0:0:
296,75,115097,2,0,L|217:83,1,70,2|8,0:0|0:2,0:0:0:0:
149,39,115412,1,2,0:0:0:0:
149,39,115491,1,0,0:0:0:0:
149,39,115570,2,0,L|96:29,3,35,2|0|2|0,1:2|1:2|1:2|1:2,0:0:0:0:
65,41,115886,2,0,L|12:31,3,35,10|0|0|0,0:2|1:2|1:2|1:2,0:0:0:0:
4,77,116202,5,6,1:2:0:0:
4,77,116360,2,0,P|23:134|28:176,1,70,2|10,0:0|0:2,0:0:0:0:
6,240,116676,1,2,0:0:0:0:
6,240,116833,2,0,L|96:228,1,70,2|2,1:2|0:0,0:0:0:0:
158,284,117149,1,8,0:2:0:0:
223,211,117307,6,0,P|199:138|135:128,1,140,2|2,0:0|0:0,0:0:0:0:
51,159,117781,1,10,0:2:0:0:
51,159,117939,1,2,0:0:0:0:
68,62,118097,2,0,P|85:52|110:43,3,35,2|0|2|0,1:2|0:0|0:0|0:0,0:0:0:0:
148,44,118412,2,0,P|172:51|201:53,3,35,10|0|2|0,0:2|0:0|0:0|0:0,0:0:0:0:
229,39,118728,6,0,P|277:23|313:28,1,70,2|0,1:2|0:0,0:0:0:0:
409,56,119044,2,0,P|387:114|368:228,1,168,10|2,0:2|1:2,0:0:0:0:
413,305,119518,1,0,0:0:0:0:
413,305,119676,1,10,0:2:0:0:
338,367,119833,6,0,P|291:355|264:328,1,70,2|0,0:0|1:2,0:0:0:0:
225,256,120149,1,2,0:0:0:0:
225,256,120307,2,0,L|236:172,1,70,10|0,0:2|0:0,0:0:0:0:
292,107,120623,2,0,L|327:111,3,35,2|0|2|0,1:2|0:0|0:0|0:0,0:0:0:0:
372,90,120939,2,0,L|407:94,3,35,10|0|0|0,0:2|0:0|0:0|0:0,0:0:0:0:
450,70,121255,6,0,P|472:28|499:12,2,70,2|2|10,1:2|0:0|0:2,0:0:0:0:
466,166,121728,2,0,L|492:325,1,140,2|2,0:0|0:0,0:0:0:0:
424,379,122202,1,10,0:2:0:0:
424,379,122360,1,0,0:0:0:0:
359,304,122518,6,0,P|309:297|284:297,1,70,2|2,1:2|0:0,0:0:0:0:
222,368,122833,2,0,P|172:375|147:375,1,70,10|2,0:2|0:0,0:0:0:0:
59,342,123149,2,0,L|45:293,3,35,2|0|2|0,1:2|0:0|0:0|0:0,0:0:0:0:
83,272,123465,2,0,L|97:223,3,35,8|0|2|0,0:2|0:0|0:0|0:0,0:0:0:0:
128,204,123781,6,0,P|166:182|203:182,1,70,0|2,1:2|0:0,0:0:0:0:
263,247,124097,1,10,0:2:0:0:
263,247,124255,1,2,0:0:0:0:
349,202,124412,2,0,L|361:276,2,70,2|0|10,1:2|0:0|0:2,0:0:0:0:
278,132,124886,6,0,P|248:91|155:83,1,140,2|2,0:0|0:0,0:0:0:0:
86,140,125360,1,10,0:2:0:0:
52,236,125518,1,0,1:2:0:0:
52,236,125597,1,0,1:2:0:0:
52,236,125676,2,0,L|63:282,3,35,2|0|2|0,1:2|1:2|1:2|1:2,0:0:0:0:
34,312,125991,2,0,L|45:358,3,35,10|0|2|0,0:2|1:2|1:2|1:2,0:0:0:0:
82,374,126307,5,6,1:2:0:0:
82,374,126623,1,6,1:2:0:0:
277,365,126939,5,6,1:2:0:0:
277,365,127097,1,4,1:2:0:0:
378,360,127255,1,6,1:2:0:0:
378,360,127412,1,4,1:2:0:0:
475,351,127570,2,0,P|481:296|490:257,1,70,6|4,1:2|1:2,0:0:0:0:
450,188,127886,6,0,L|406:197,4,35,6|0|6|0|6,1:2|1:2|1:2|1:2|1:2,0:0:0:0:
450,188,128518,1,10,0:1:0:0:
254,192,128833,5,6,1:2:0:0:
455,356,138939,6,0,P|460:311|477:284,1,70,6|0,1:2|0:0,0:0:0:0:
511,199,139255,2,0,L|434:190,1,70,8|0,0:2|0:0,0:0:0:0:
350,227,139570,2,0,L|340:283,3,35,2|0|0|0,1:2|0:0|0:0|0:0,0:0:0:0:
309,296,139886,2,0,L|299:352,3,35,8|0|0|0,0:2|0:0|0:0|0:0,0:0:0:0:
268,366,140202,6,0,L|186:357,1,70,2|0,1:2|0:0,0:0:0:0:
101,384,140518,2,0,L|19:375,1,70,8|0,0:2|0:0,0:0:0:0:
8,281,140833,2,0,P|19:262|41:240,3,35,2|0|0|0,1:2|0:0|0:0|0:0,0:0:0:0:
18,203,141149,2,0,P|7:184|-15:162,3,35,8|0|0|0,0:2|0:0|0:0|0:0,0:0:0:0:
12,126,141465,6,0,L|107:114,1,70,2|0,1:2|0:0,0:0:0:0:
180,113,141781,2,0,P|204:148|197:197,1,70,8|0,0:2|0:0,0:0:0:0:
146,254,142097,2,0,L|193:266,3,35,2|0|0|0,1:2|0:0|0:0|0:0,0:0:0:0:
228,253,142412,2,0,L|275:241,3,35,8|0|0|0,0:2|0:0|0:0|0:0,0:0:0:0:
300,213,142728,6,0,L|315:123,1,70,2|0,1:2|0:0,0:0:0:0:
348,52,143044,2,0,P|392:28|425:37,1,70,8|0,0:2|0:0,0:0:0:0:
489,88,143360,2,0,L|498:132,3,35,2|0|0|0,1:2|0:0|0:0|0:0,0:0:0:0:
468,163,143676,2,0,L|477:207,3,35,8|0|0|0,0:2|0:0|0:0|0:0,0:0:0:0:
464,245,143991,6,0,P|405:264|392:297,1,70,2|0,1:2|0:0,0:0:0:0:
370,361,144307,2,0,L|274:353,1,70,8|0,0:2|0:0,0:0:0:0:
215,305,144623,2,0,P|199:311|169:310,3,35,2|0|0|0,1:2|0:0|0:0|0:0,0:0:0:0:
146,276,144939,2,0,P|130:270|100:271,3,35,8|0|0|0,0:2|0:0|0:0|0:0,0:0:0:0:
74,237,145255,6,0,P|60:187|46:153,1,70,2|0,1:2|0:0,0:0:0:0:
4,85,145570,2,0,L|95:71,1,70,8|0,0:2|0:0,0:0:0:0:
159,26,145886,2,0,P|177:19|202:17,3,35,2|0|0|0,1:2|0:0|0:0|0:0,0:0:0:0:
225,53,146202,2,0,P|243:60|268:62,3,35,8|0|0|0,0:2|0:0|0:0|0:0,0:0:0:0:
306,51,146518,6,0,P|370:34|386:41,1,70,2|0,1:2|0:0,0:0:0:0:
454,85,146833,2,0,L|446:163,1,70,8|0,0:2|0:0,0:0:0:0:
400,241,147149,2,0,P|359:258|330:252,1,70,2|0,1:2|0:0,0:0:0:0:
251,201,147465,2,0,L|261:121,1,70,8|0,0:2|0:0,0:0:0:0:
266,124,147702,1,0,0:0:0:0:
273,117,147781,6,0,L|317:113,3,35,2|0|0|0,1:2|0:0|0:0|0:0,0:0:0:0:
340,76,148097,2,0,L|384:72,3,35,8|0|0|0,0:2|0:0|0:0|0:0,0:0:0:0:
419,93,148412,2,0,L|430:136,3,35,2|0|2|0,1:2|1:2|1:2|1:2,0:0:0:0:
467,156,148728,2,0,L|478:199,3,35,10|0|0|0,0:2|1:2|1:2|1:2,0:0:0:0:
502,231,149044,5,2,0:0:0:0:
420,348,150307,6,0,P|464:355|493:370,2,77,6|2|10,1:2|0:0|0:2,0:0:0:0:
314,372,150781,1,2,0:0:0:0:
226,308,150939,2,0,L|244:142,1,154,2|10,1:2|0:2,0:0:0:0:
304,66,151412,6,0,P|344:39|380:40,1,77,2|0,0:0|1:2,0:0:0:0:
473,75,151728,2,0,L|464:162,1,77,2|8,0:0|0:2,0:0:0:0:
483,258,152044,1,2,0:0:0:0:
441,357,152202,2,0,P|416:350|376:343,3,38.5,2|0|2|0,1:2|0:0|0:0|0:0,0:0:0:0:
353,325,152518,2,0,P|328:331|288:339,3,38.5,10|0|2|0,0:2|0:0|0:0|0:0,0:0:0:0:
269,361,152833,6,0,L|192:369,1,77,2|0,1:2|0:0,0:0:0:0:
76,343,153149,2,0,B|103:334|115:296|115:296|225:280,1,168,10|2,0:2|1:2,0:0:0:0:
312,224,153623,1,0,0:0:0:0:
312,224,153781,1,10,0:2:0:0:
420,229,153939,6,0,P|425:156|328:128,1,154,2|2,0:0|0:0,0:0:0:0:
254,131,154412,1,8,0:2:0:0:
254,131,154570,1,2,0:0:0:0:
171,61,154728,2,0,L|124:52,3,38.5,2|0|2|0,1:2|0:0|0:0|0:0,0:0:0:0:
91,18,155044,2,0,L|44:9,3,38.5,10|0|0|0,0:2|0:0|0:0|0:0,0:0:0:0:
16,51,155360,6,0,L|31:137,1,77,2|2,1:2|0:0,0:0:0:0:
10,233,155676,1,10,0:2:0:0:
106,185,155833,2,0,P|154:171|211:272,1,154,2|2,0:0|0:0,0:0:0:0:
181,341,156307,1,10,0:2:0:0:
181,341,156465,1,2,0:0:0:0:
285,369,156623,6,0,B|377:352|305:299|410:280,1,154,2|10,1:2|0:2,0:0:0:0:
509,290,157097,1,2,0:0:0:0:
455,196,157255,2,0,P|447:170|437:153,3,38.5,2|0|2|0,1:2|0:0|0:0|0:0,0:0:0:0:
483,125,157570,2,0,P|491:99|501:82,3,38.5,8|0|2|0,0:2|0:0|0:0|0:0,0:0:0:0:
471,40,157886,6,0,L|364:29,1,77,0|2,1:2|0:0,0:0:0:0:
291,67,158202,1,10,0:2:0:0:
291,67,158360,1,2,0:0:0:0:
186,39,158518,2,0,P|142:5|113:5,2,77,2|2|10,1:2|0:0|0:2,0:0:0:0:
220,141,158991,6,0,L|206:227,1,77,2|0,0:0|1:2,0:0:0:0:
227,323,159307,2,0,P|259:349|303:360,1,77,2|8,0:0|0:2,0:0:0:0:
388,303,159623,1,2,0:0:0:0:
388,303,159702,1,0,0:0:0:0:
388,303,159781,2,0,L|433:294,3,38.5,2|0|2|0,1:2|1:2|1:2|1:2,0:0:0:0:
449,246,160097,2,0,L|494:237,3,38.5,10|0|0|0,0:2|1:2|1:2|1:2,0:0:0:0:
494,185,160412,6,0,P|498:139|508:108,1,77,6|2,1:2|0:0,0:0:0:0:
448,18,160728,2,0,L|349:5,1,77,10|2,0:2|0:0,0:0:0:0:
298,88,161044,2,0,P|348:81|362:178,1,154,2|10,1:2|0:2,0:0:0:0:
285,226,161518,6,0,L|186:213,1,77,2|0,0:0|1:2,0:0:0:0:
101,228,161833,2,0,P|117:176|152:157,1,77,2|8,0:0|0:2,0:0:0:0:
231,117,162149,1,2,0:0:0:0:
144,52,162307,2,0,L|106:41,3,38.5,2|0|0|0,1:2|0:0|0:0|0:0,0:0:0:0:
53,50,162623,2,0,L|15:39,3,38.5,10|0|0|0,0:2|0:0|0:0|0:0,0:0:0:0:
7,93,162939,6,0,P|18:140|23:176,1,77,2|0,1:2|0:0,0:0:0:0:
3,285,163255,2,0,P|50:252|112:331,1,168,10|2,0:2|1:2,0:0:0:0:
201,383,163728,1,0,0:0:0:0:
201,383,163886,1,10,0:2:0:0:
245,284,164044,6,0,L|230:98,1,154,2|2,0:0|0:0,0:0:0:0:
167,43,164518,2,0,P|118:20|76:29,1,77,10|2,0:2|0:0,0:0:0:0:
19,97,164833,2,0,L|29:156,3,38.5,2|0|2|0,1:2|0:0|0:0|0:0,0:0:0:0:
53,181,165149,2,0,L|43:240,3,38.5,10|0|0|0,0:2|0:0|0:0|0:0,0:0:0:0:
66,269,165465,6,0,P|30:296|11:337,2,77,2|2|10,1:2|0:0|0:2,0:0:0:0:
170,239,165939,2,0,L|332:258,1,154,2|2,0:0|0:0,0:0:0:0:
407,323,166412,1,10,0:2:0:0:
407,323,166570,1,0,0:0:0:0:
472,236,166728,6,0,P|482:179|492:144,1,77,2|2,1:2|0:0,0:0:0:0:
491,156,166965,1,2,0:0:0:0:
498,151,167044,2,0,L|404:135,1,77,8|2,0:2|0:0,0:0:0:0:
333,74,167360,2,0,L|283:64,3,38.5,2|0|2|0,1:2|0:0|0:0|0:0,0:0:0:0:
249,37,167676,2,0,L|199:47,3,38.5,8|0|2|0,0:2|0:0|0:0|0:0,0:0:0:0:
167,76,167991,6,0,P|150:117|144:172,1,77,0|2,1:2|0:0,0:0:0:0:
158,256,168307,1,10,0:2:0:0:
158,256,168465,1,2,0:0:0:0:
228,337,168623,2,0,L|314:323,2,77,2|2|10,1:2|0:0|0:2,0:0:0:0:
125,373,169097,5,2,0:0:0:0:
52,299,169255,1,8,0:2:0:0:
52,299,169412,1,2,1:2:0:0:
73,193,169570,1,10,0:2:0:0:
73,193,169649,1,0,1:2:0:0:
73,193,169728,1,2,1:2:0:0:
73,193,169807,1,0,1:2:0:0:
73,193,169886,2,0,L|145:185,3,38.5,10|0|2|0,1:2|1:2|1:2|1:2,0:0:0:0:
154,155,170202,2,0,L|226:147,3,38.5,10|0|2|0,0:2|1:2|1:2|1:2,0:0:0:0:
231,180,170518,5,6,1:2:0:0:
231,180,171149,1,6,1:2:0:0:
231,180,171781,1,6,1:2:0:0:
244,347,172412,5,6,1:2:0:0:
244,347,172728,1,6,1:2:0:0:
244,347,173044,1,6,1:2:0:0:
244,347,173360,1,6,1:2:0:0:
439,330,173676,5,6,1:2:0:0:
439,330,173833,1,4,1:2:0:0:
418,234,173991,1,6,1:2:0:0:
418,234,174149,1,4,1:2:0:0:
447,140,174307,6,0,L|457:98,3,35,6|0|6|0,1:2|1:2|1:2|1:2,0:0:0:0:
416,75,174623,2,0,L|406:33,3,35,6|0|6|0,1:2|1:2|1:2|1:2,0:0:0:0:
369,9,174939,5,6,1:2:0:0:
173,20,175255,2,0,P|192:71|194:100,1,70,2|0,0:0|0:0,0:0:0:0:
162,179,175570,6,0,L|72:169,1,70,6|0,1:2|0:0,0:0:0:0:
86,176,175807,1,0,0:0:0:0:
78,182,175886,2,0,L|66:268,1,70,10|0,0:2|0:0,0:0:0:0:
49,348,176202,2,0,P|7:328|-3:297,2,70,2|0|8,1:2|0:0|0:2,0:0:0:0:
140,310,176676,6,0,L|150:263,2,35,2|2|2,0:0|0:0|1:2,0:0:0:0:
236,326,176991,2,0,L|246:279,2,35,2|2|10,0:0|0:0|0:2,0:0:0:0:
320,377,177307,1,2,0:0:0:0:
404,327,177465,2,0,L|416:232,1,70,2|2,1:2|0:2,0:0:0:0:
482,187,177781,2,0,L|494:92,1,70,10|2,0:2|0:2,0:0:0:0:
447,29,178097,5,2,1:2:0:0:
447,29,178412,2,0,P|387:21|333:14,1,84,10|0,0:2|0:0,0:0:0:0:
284,76,178728,1,2,1:2:0:0:
209,11,178886,1,2,0:0:0:0:
182,105,179044,2,0,P|204:153|209:196,1,70,8|2,0:2|0:0,0:0:0:0:
204,179,179281,1,2,0:0:0:0:
198,186,179360,6,0,L|110:179,1,70,2|2,1:2|0:0,0:0:0:0:
38,221,179676,2,0,L|23:184,2,35,10|2|2,0:2|0:0|0:0,0:0:0:0:
78,310,179991,1,2,1:2:0:0:
162,359,180149,1,2,0:2:0:0:
258,376,180307,2,0,L|345:366,1,70,10|0,0:2|0:0,0:0:0:0:
425,357,180623,6,0,P|435:305|453:282,1,70,2|2,1:2|0:0,0:0:0:0:
451,287,180860,1,2,0:0:0:0:
460,284,180939,2,0,L|474:197,1,70,8|2,0:2|0:2,0:0:0:0:
479,116,181255,2,0,P|493:99|509:91,2,35,0|2|0,1:2|0:2|0:0,0:0:0:0:
390,157,181570,2,0,L|291:140,1,70,8|2,0:2|0:2,0:0:0:0:
222,147,181886,6,0,P|228:172|241:189,2,35,0|2|2,1:2|0:2|0:2,0:0:0:0:
155,74,182202,2,0,L|79:59,1,70,10|2,0:2|0:2,0:0:0:0:
13,127,182518,1,2,1:2:0:0:
13,127,182676,2,0,P|30:184|38:222,1,70,2|8,0:2|0:2,0:0:0:0:
20,291,182991,2,0,P|74:271|102:271,1,70,2|0,0:2|1:2,0:0:0:0:
179,301,183307,6,0,L|218:288,2,35,2|2|10,0:2|0:2|0:2,0:0:0:0:
163,203,183623,2,0,L|202:190,2,35,2|2|2,0:2|0:2|1:2,0:0:0:0:
98,128,183939,1,2,0:0:0:0:
98,128,184097,1,10,0:0:0:0:
162,54,184255,6,0,L|239:46,1,70,2|0,0:0|1:2,0:0:0:0:
319,91,184570,1,2,1:2:0:0:
319,91,184649,1,0,1:2:0:0:
319,91,184728,2,0,L|357:99,3,35,10|2|2|0,0:2|1:2|1:2|1:2,0:0:0:0:
397,76,185044,2,0,L|435:84,3,35,2|0|2|0,1:2|0:0|1:2|0:0,0:0:0:0:
462,121,185360,2,0,L|500:129,3,35,10|0|2|0,0:2|0:0|1:2|0:0,0:0:0:0:
503,177,185676,6,0,P|492:226|488:271,1,70,6|2,1:2|0:0,0:0:0:0:
493,255,185912,1,2,0:0:0:0:
498,266,185991,2,0,L|410:256,1,70,10|2,0:2|0:0,0:0:0:0:
338,298,186307,2,0,P|324:329|321:367,2,70,2|2|8,1:2|0:0|0:2,0:0:0:0:
357,201,186781,6,0,P|379:193|414:196,2,35,2|2|2,0:0|0:0|1:2,0:0:0:0:
284,133,187097,2,0,P|262:125|227:128,2,35,2|2|10,0:0|0:0|0:2,0:0:0:0:
364,76,187412,1,2,0:0:0:0:
364,76,187570,2,0,P|334:51|301:44,1,70,2|2,1:2|0:2,0:0:0:0:
205,43,187886,2,0,L|131:50,1,70,10|2,0:2|0:2,0:0:0:0:
49,98,188202,5,2,1:2:0:0:
49,98,188518,2,0,P|69:158|114:175,1,84,10|0,0:2|0:0,0:0:0:0:
181,175,188833,1,2,1:2:0:0:
260,116,188991,1,2,0:0:0:0:
313,33,189149,2,0,L|399:43,1,70,8|2,0:2|0:0,0:0:0:0:
389,48,189386,1,2,0:0:0:0:
395,57,189465,6,0,P|412:106|408:149,1,70,2|2,1:2|0:0,0:0:0:0:
421,221,189781,2,0,P|441:236|468:239,2,35,10|2|2,0:2|0:0|0:0,0:0:0:0:
331,179,190097,2,0,P|301:140|265:131,2,70,2|2|10,1:2|0:2|0:2,0:0:0:0:
340,276,190570,1,0,0:0:0:0:
272,346,190728,6,0,L|186:336,1,70,2|2,1:2|0:0,0:0:0:0:
196,331,190965,1,2,0:0:0:0:
190,322,191044,2,0,P|173:273|177:230,1,70,8|2,0:2|0:2,0:0:0:0:
212,164,191360,2,0,P|239:153|258:151,2,35,0|2|0,1:2|0:2|0:0,0:0:0:0:
115,183,191676,2,0,L|37:172,1,70,8|2,0:2|0:2,0:0:0:0:
30,76,191991,6,0,L|8:40,2,35,0|2|2,1:2|0:2|0:2,0:0:0:0:
120,36,192307,2,0,P|168:51|192:47,1,70,10|2,0:2|0:2,0:0:0:0:
277,9,192623,1,2,1:2:0:0:
277,9,192781,2,0,P|302:52|295:76,1,70,2|8,0:2|0:2,0:0:0:0:
259,159,193097,6,0,L|186:153,1,70,2|0,0:2|1:2,0:0:0:0:
91,164,193412,2,0,P|74:153|53:149,2,35,2|2|10,0:2|0:2|0:2,0:0:0:0:
37,246,193728,2,0,P|20:257|-1:261,2,35,2|2|2,0:2|0:2|1:2,0:0:0:0:
139,249,194044,1,2,0:0:0:0:
139,249,194202,2,0,L|221:257,1,70,10|2,0:0|0:0,0:0:0:0:
271,331,194518,6,0,P|311:304|351:308,1,70,0|2,1:2|0:0,0:0:0:0:
340,307,194755,1,0,0:0:0:0:
348,314,194833,2,0,L|437:328,1,70,10|2,0:0|0:0,0:0:0:0:
470,241,195149,2,0,P|481:192|416:198,2,105,2|2|2,1:2|1:2|1:2,0:0:0:0:
