osu file format v14

[General]
AudioFilename: audio.mp3
AudioLeadIn: 0
PreviewTime: 41636
Countdown: 0
SampleSet: Soft
StackLeniency: 0.4
Mode: 0
LetterboxInBreaks: 0
WidescreenStoryboard: 1

[Editor]
Bookmarks: 626,11363,21468,41679,51784,64415,74521,84468,94731,99784,106100,116205,150310,160415,175573,185679,195626
DistanceSpacing: 0.5
BeatDivisor: 8
GridSize: 8
TimelineZoom: 2.5

[Metadata]
Title:Gigantic O.T.N
TitleUnicode:ギガンティックO.T.N
Artist:yuikonnu
ArtistUnicode:ゆいこんぬ
Creator:Camo
Version:Collab Extra
Source:
Tags:ストロベリズム宣言 giga giga-p cover ギガ 鏡音レン kagamine len electronic oriental japanese pop j-pop jpop camocratic calliecube strawberrhythm sengen gigap utaite nico douga
BeatmapID:2988964
BeatmapSetID:1362797

[Difficulty]
HPDrainRate:5.7
CircleSize:3.9
OverallDifficulty:9
ApproachRate:9.3
SliderMultiplier:1.9
SliderTickRate:1

[Events]
//Background and Video events
0,0,"bg-min.jpg",0,0
//Break Periods
2,128717,135858
//Storyboard Layer 0 (Background)
//Storyboard Layer 1 (Fail)
//Storyboard Layer 2 (Pass)
//Storyboard Layer 3 (Foreground)
//Storyboard Layer 4 (Overlay)
//Storyboard Sound Samples

[TimingPoints]
623,315.789473684211,4,2,1,70,1,0
623,-50,4,2,1,70,0,0
859,-50,4,2,1,5,0,0
938,-200,4,2,1,70,0,0
1176,-200,4,2,1,5,0,0
1255,315.789473684211,4,2,1,70,1,0
1255,-76.9230769230769,4,2,1,70,0,0
3781,-200,4,2,1,70,0,0
4018,-200,4,2,1,5,0,0
4097,-58.8235294117647,4,2,1,70,0,0
4333,-58.8235294117647,4,2,1,5,0,0
4412,-76.9230769230769,4,2,1,70,0,0
6228,-76.9230769230769,4,2,1,5,0,0
6307,-76.9230769230769,4,2,1,70,0,0
8281,-76.9230769230769,4,2,1,5,0,0
8360,-76.9230769230769,4,2,1,70,0,0
8597,-76.9230769230769,4,2,1,5,0,0
8676,-76.9230769230769,4,2,1,70,0,0
8912,-76.9230769230769,4,2,1,5,0,0
8991,-76.9230769230769,4,2,1,70,0,0
10728,-200,4,2,1,70,0,0
10965,-200,4,2,1,5,0,0
11044,-66.6666666666667,4,2,1,70,0,0
11281,-66.6666666666667,4,2,1,5,0,0
11360,-66.6666666666667,4,2,1,60,0,0
11991,-100,4,2,1,60,0,0
15702,-100,4,2,1,5,0,0
15781,-100,4,2,1,60,0,0
16333,-100,4,2,1,5,0,0
16412,-100,4,2,1,60,0,0
18228,-100,4,2,1,5,0,0
18307,-100,4,2,1,60,0,0
19807,-100,4,2,1,5,0,0
19886,-100,4,2,1,60,0,0
23281,-100,4,2,1,5,0,0
23360,-100,4,2,1,60,0,0
26755,-100,4,2,1,5,0,0
26833,-100,4,2,1,60,0,0
31255,-66.6666666666667,4,2,1,60,0,0
31491,-66.6666666666667,4,2,1,5,0,0
31570,-50,4,2,2,60,0,0
31649,-50,4,2,2,5,0,0
31728,-133.333333333333,4,2,2,60,0,0
33781,-50,4,2,2,60,0,0
34018,-50,4,2,2,5,0,0
34097,-50,4,2,2,60,0,0
34176,-50,4,2,2,5,0,0
34255,-133.333333333333,4,2,2,60,0,0
36149,-50,4,2,2,60,0,0
36228,-50,4,2,2,5,0,0
36307,-50,4,2,2,60,0,0
36544,-50,4,2,2,5,0,0
36623,-50,4,2,2,60,0,0
37176,-50,4,2,2,5,0,0
37255,-50,4,2,2,60,0,0
37807,-50,4,2,2,5,0,0
37886,-50,4,2,2,60,0,0
39149,-50,4,2,2,70,0,0
40412,-333.333333333333,4,2,1,70,0,0
41597,-333.333333333333,4,2,1,5,0,0
41676,-76.9230769230769,4,2,1,75,0,0
42307,-66.6666666666667,4,2,1,75,0,0
46728,-76.9230769230769,4,2,1,75,0,0
47991,-66.6666666666667,4,2,1,75,0,0
49097,-76.9230769230769,4,2,1,75,0,0
50360,-66.6666666666667,4,2,1,75,0,0
51149,-66.6666666666667,4,2,1,75,0,0
51781,-76.9230769230769,4,2,1,75,0,0
52412,-66.6666666666667,4,2,1,75,0,0
56833,-76.9230769230769,4,2,1,75,0,0
58097,-66.6666666666667,4,2,1,75,0,0
61886,-66.6666666666667,4,2,2,70,0,0
64018,-66.6666666666667,4,2,2,5,0,0
64097,-66.6666666666667,4,2,1,70,0,0
64333,-66.6666666666667,4,2,1,5,0,0
64412,-76.9230769230769,4,2,1,70,0,0
67255,-66.6666666666667,4,2,1,70,0,0
67570,-76.9230769230769,4,2,1,70,0,0
70886,-66.6666666666667,4,2,1,70,0,0
71518,-76.9230769230769,4,2,1,70,0,0
73886,-125,4,2,1,70,0,0
74123,-125,4,2,1,5,0,0
74202,-125,4,2,1,70,0,0
74439,-125,4,2,1,5,0,0
74518,-100,4,2,1,60,0,0
82097,-66.6666666666667,4,2,1,60,0,0
82412,-100,4,2,1,60,0,0
89360,-66.6666666666667,4,2,1,60,0,0
89676,-100,4,2,1,60,0,0
92518,-83.3333333333333,4,2,1,60,0,0
93149,-71.4285714285714,4,2,1,60,0,0
93781,-76.9230769230769,4,2,1,60,0,0
94649,-76.9230769230769,4,2,1,5,0,0
94728,-50,4,2,1,70,0,0
95202,-76.9230769230769,4,2,1,70,0,0
95360,-66.6666666666667,4,2,1,70,0,0
95676,-76.9230769230769,4,2,1,70,0,0
95991,-66.6666666666667,4,2,1,70,0,0
96228,-76.9230769230769,4,2,1,70,0,0
96623,-66.6666666666667,4,2,1,70,0,0
99149,-76.9230769230769,4,2,1,70,0,0
99939,-58.8235294117647,4,2,1,70,0,0
100412,-100,4,2,1,70,0,0
101044,-66.6666666666667,4,2,1,70,0,0
102307,-66.6666666666667,4,2,2,70,0,0
103570,-66.6666666666667,4,2,1,60,0,0
105623,-58.8235294117647,4,2,1,60,0,0
106018,-58.8235294117647,4,2,1,5,0,0
106097,-76.9230769230769,4,2,1,75,0,0
106728,-66.6666666666667,4,2,1,75,0,0
116202,-76.9230769230769,4,2,1,75,0,0
116833,-66.6666666666667,4,2,1,75,0,0
124097,-100,4,2,1,75,0,0
124412,-66.6666666666667,4,2,1,75,0,0
126307,-66.6666666666667,4,2,2,70,0,0
128202,-222.222222222221,4,2,2,70,0,0
128439,-222.222222222221,4,2,2,5,0,0
128518,-66.6666666666667,4,2,1,70,0,0
128755,-66.6666666666667,4,2,1,5,0,0
128833,-66.6666666666667,4,2,1,70,0,0
147623,-66.6666666666667,4,2,1,70,0,0
147781,-100,4,2,1,70,0,0
149044,-66.6666666666667,4,2,1,60,0,0
150228,-66.6666666666667,4,2,1,5,0,0
150307,-71.4285714285714,4,2,1,80,0,0
150939,-62.5,4,2,1,80,0,0
160412,-71.4285714285714,4,2,1,80,0,0
161044,-55.5555555555556,4,2,1,80,0,0
165465,-71.4285714285714,4,2,1,80,0,0
165939,-62.5,4,2,1,80,0,0
166570,-55.5555555555556,4,2,1,80,0,0
170518,-66.6666666666667,4,2,6,70,0,0
170597,-66.6666666666667,4,2,2,70,0,0
175255,-45.6730769230745,4,2,3,70,0,0
175570,-66.6666666666667,4,2,5,75,0,0
175649,-66.6666666666667,4,2,1,75,0,0
175886,-66.6666666666667,4,2,1,75,0,0
178097,-200,4,2,1,75,0,0
178412,-58.8235294117647,4,2,1,75,0,0
178728,-66.6666666666667,4,2,1,75,0,0

[Colours]
Combo1 : 0,84,168
Combo2 : 255,102,102
Combo3 : 255,135,55
Combo4 : 117,0,62
Combo5 : 145,255,255
Combo6 : 6,131,255

[HitObjects]
372,165,623,6,0,P|450:102|433:226,1,285
372,266,938,6,0,P|378:292|382:264,1,71.25,8|0,0:1|0:0,0:0:0:0:
329,361,1255,6,0,P|311:334|258:318,1,61.7499971733095,6|0,1:2|0:0,0:0:0:0:
220,243,1412,1,0,0:0:0:0:
208,244,1491,1,0,0:0:0:0:
198,251,1570,2,0,P|177:287|187:324,1,61.7499971733095,10|0,0:2|0:0,0:0:0:0:
325,375,1728,2,0,P|307:348|254:332,1,61.7499971733095
94,367,1886,54,0,P|85:276|58:197,1,123.499994346619,2|0,1:2|0:0,0:0:0:0:
71,238,2123,1,0,0:0:0:0:
63,230,2202,2,0,P|49:277|59:310,1,61.7499971733095,8|0,0:2|0:0,0:0:0:0:
162,175,2360,5,2,0:0:0:0:
189,161,2439,1,2,0:0:0:0:
219,157,2518,1,2,1:2:0:0:
69,127,2676,5,2,0:0:0:0:
41,113,2755,1,2,0:0:0:0:
11,109,2833,1,10,0:2:0:0:
151,63,2991,53,2,0:0:0:0:
258,261,3149,6,0,P|287:237|304:197,1,61.7499971733095,2|0,1:2|0:0,0:0:0:0:
298,34,3307,2,0,P|269:58|252:98,1,61.7499971733095,2|0,0:2|0:0,0:0:0:0:
391,150,3465,6,0,P|351:139|329:139,1,61.7499971733095,10|0,0:2|0:0,0:0:0:0:
159,145,3623,2,0,P|199:156|221:156,1,61.7499971733095,2|0,0:2|0:0,0:0:0:0:
394,271,3781,54,0,P|391:247|399:271,1,71.25,2|0,1:2|0:0,0:0:0:0:
433,346,4097,6,0,P|329:352|176:382,1,242.250004620552,10|0,0:2|0:0,0:0:0:0:
120,343,4412,6,0,P|132:313|161:309,1,61.7499971733095,2|0,1:2|0:0,0:0:0:0:
186,235,4570,2,0,P|218:237|231:263,1,61.7499971733095,2|0,0:0|0:0,0:0:0:0:
339,275,4728,54,0,P|401:235|384:180,1,123.499994346619,8|2,0:2|0:0,0:0:0:0:
390,186,4965,1,2,0:0:0:0:
382,190,5044,6,0,P|378:228|414:244,1,61.7499971733095,2|0,1:2|0:0,0:0:0:0:
459,138,5202,2,0,P|493:153|520:124,1,61.7499971733095,2|0,0:0|0:0,0:0:0:0:
398,58,5360,5,10,0:2:0:0:
398,45,5439,1,2,0:0:0:0:
409,41,5518,1,2,0:0:0:0:
417,51,5597,1,2,0:0:0:0:
410,61,5676,54,0,P|403:79|362:107,1,61.7499971733095,2|0,1:2|0:0,0:0:0:0:
274,71,5833,2,0,P|290:40|328:35,1,61.7499971733095,2|0,0:2|0:0,0:0:0:0:
298,155,5991,6,0,P|274:223|247:353,1,185.249991519928,10|0,0:2|0:0,0:0:0:0:
357,373,6307,6,0,P|344:335|322:321,1,61.7499971733095,2|0,1:2|0:0,0:0:0:0:
432,244,6465,1,2,0:0:0:0:
420,243,6544,1,2,0:0:0:0:
413,253,6623,2,0,P|407:286|431:326,1,61.7499971733095,8|0,0:2|0:0,0:0:0:0:
334,229,6781,54,0,L|148:191,1,185.249991519928,2|2,0:2|0:2,0:0:0:0:
102,135,7097,2,0,P|137:113|166:128,1,61.7499971733095,0|2,0:0|0:2,0:0:0:0:
71,214,7255,2,0,P|36:236|7:221,1,61.7499971733095,8|0,0:2|0:0,0:0:0:0:
94,122,7412,2,0,P|130:103|158:120,1,61.7499971733095,2|0,0:2|0:0,0:0:0:0:
136,271,7570,5,0,1:2:0:0:
121,301,7649,1,2,0:2:0:0:
125,331,7728,2,0,P|141:351|181:359,1,61.7499971733095,2|2,0:2|0:2,0:0:0:0:
286,270,7886,2,0,L|275:342,1,61.7499971733095,10|0,0:2|0:0,0:0:0:0:
283,344,8044,2,0,L|292:282,1,61.7499971733095,2|0,0:2|0:0,0:0:0:0:
369,220,8202,2,0,P|380:191|413:171,1,61.7499971733095,2|0,1:2|0:0,0:0:0:0:
460,260,8360,2,0,P|402:211|277:150,1,185.249991519928,2|0,0:2|0:0,0:0:0:0:
233,113,8676,6,0,P|250:37|332:69,1,185.249991519928,2|0,0:2|0:0,0:0:0:0:
404,122,8991,1,2,0:2:0:0:
431,110,9070,1,2,0:2:0:0:
446,83,9149,1,10,0:2:0:0:
330,65,9307,1,2,0:2:0:0:
326,35,9386,1,2,0:2:0:0:
305,13,9465,2,0,P|276:19|235:25,1,61.7499971733095,2|0,1:2|0:0,0:0:0:0:
233,113,9623,2,0,P|204:107|163:101,1,61.7499971733095,2|0,0:2|0:0,0:0:0:0:
62,34,9781,53,10,0:2:0:0:
72,41,9860,1,0,0:0:0:0:
78,50,9939,2,0,P|86:80|81:116,1,61.7499971733095,2|0,0:2|0:0,0:0:0:0:
15,220,10097,5,0,1:2:0:0:
25,210,10176,1,0,1:2:0:0:
45,203,10255,1,2,1:2:0:0:
70,206,10333,1,0,1:2:0:0:
100,231,10412,1,10,0:2:0:0:
121,275,10491,1,0,1:2:0:0:
161,311,10570,1,2,1:2:0:0:
222,314,10649,1,0,1:2:0:0:
285,277,10728,6,0,P|286:250|281:275,1,71.25,2|0,0:2|0:0,0:0:0:0:
287,364,11044,54,0,P|280:251|250:128,1,213.750008153916,2|0,0:2|0:0,0:0:0:0:
231,76,11360,37,6,1:2:0:0:
244,0,11518,1,0,0:0:0:0:
310,89,11676,1,2,1:2:0:0:
323,13,11833,1,0,0:0:0:0:
482,43,11991,6,0,B|441:49|441:49|437:55|437:55|391:62,1,95,2|0,1:2|0:0,0:0:0:0:
498,123,12307,2,0,B|457:129|457:129|453:135|453:135|407:142,1,95,2|0,1:2|0:0,0:0:0:0:
258,153,12623,5,2,1:2:0:0:
334,185,12781,1,2,0:0:0:0:
327,267,12939,1,2,1:2:0:0:
246,285,13097,1,2,0:0:0:0:
204,215,13255,1,2,1:2:0:0:
34,189,13412,54,0,B|49:208|83:210|83:210|122:211,2,95,0|2|0,0:0|1:2|0:0,0:0:0:0:
62,32,13886,5,2,1:2:0:0:
144,48,14044,1,2,0:0:0:0:
89,115,14202,1,2,1:2:0:0:
171,131,14360,1,2,0:0:0:0:
246,0,14518,6,0,B|240:7|240:7|252:107,1,95,2|0,1:2|0:0,0:0:0:0:
258,97,14755,1,0,0:0:0:0:
265,102,14833,2,0,B|275:186|275:186|269:194,1,95,2|2,1:2|0:0,0:0:0:0:
127,260,15149,53,2,1:2:0:0:
187,214,15307,1,2,0:0:0:0:
265,198,15465,1,2,1:2:0:0:
374,325,15623,5,0,0:0:0:0:
452,309,15781,1,2,1:2:0:0:
512,263,15939,1,2,0:0:0:0:
349,196,16097,6,0,B|337:287|301:240|291:323,1,142.5,2|0,1:2|0:0,0:0:0:0:
233,367,16412,53,2,1:2:0:0:
157,343,16570,1,2,0:0:0:0:
79,278,16728,1,2,1:2:0:0:
3,302,16886,1,2,0:0:0:0:
90,384,17044,6,0,B|112:342|112:342|122:293,1,95,2|2,1:2|0:0,0:0:0:0:
18,222,17360,2,0,B|40:180|40:180|50:131,1,95,2|2,1:2|0:0,0:0:0:0:
89,21,17676,6,0,P|163:74|197:12,1,142.5,2|0,1:2|0:0,0:0:0:0:
183,49,17991,2,0,P|138:117|217:135,1,190,2|2,1:2|1:2,0:0:0:0:
299,13,18465,53,0,0:0:0:0:
294,95,18623,1,2,1:2:0:0:
292,177,18781,1,0,0:0:0:0:
374,149,18939,5,2,1:2:0:0:
374,149,19018,1,0,0:0:0:0:
374,149,19097,2,0,L|421:141,1,47.5,2|2,0:0|0:0,0:0:0:0:
435,238,19255,1,2,1:2:0:0:
435,238,19333,1,0,0:0:0:0:
435,238,19412,2,0,L|482:230,1,47.5,2|0,0:0|0:0,0:0:0:0:
460,335,19570,6,0,B|382:320|382:320|363:331|363:331|322:323,1,142.5,2|0,1:2|0:0,0:0:0:0:
234,308,19886,2,0,B|240:291|240:291|317:281,1,95,2|2,1:2|0:0,0:0:0:0:
210,384,20202,53,2,1:2:0:0:
109,376,20360,1,2,0:0:0:0:
120,264,20518,1,2,1:2:0:0:
19,256,20676,1,2,0:0:0:0:
130,153,20833,5,2,1:2:0:0:
231,163,20991,1,2,0:0:0:0:
239,51,21149,1,2,1:2:0:0:
340,61,21307,1,2,0:0:0:0:
469,154,21465,21,6,1:2:0:0:
480,230,21623,1,0,0:0:0:0:
404,111,21781,1,2,1:2:0:0:
393,187,21939,1,0,0:0:0:0:
328,312,22097,6,0,P|314:262|304:205,1,95,2|0,1:2|0:0,0:0:0:0:
226,239,22413,2,0,P|239:288|249:345,1,95,2|0,1:2|0:0,0:0:0:0:
108,198,22728,6,0,P|81:143|42:107,1,95,2|2,1:2|0:0,0:0:0:0:
47,115,22965,1,0,0:0:0:0:
37,117,23044,2,0,P|91:132|175:77,1,142.5,2|0,1:2|0:0,0:0:0:0:
216,40,23360,54,0,P|238:48|258:87,1,47.5,2|0,1:2|0:0,0:0:0:0:
341,124,23518,2,0,P|296:138|260:169,2,95,2|2|0,0:0|1:2|0:0,0:0:0:0:
173,194,23991,6,0,P|198:251|209:318,1,95,2|2,1:2|0:0,0:0:0:0:
204,291,24228,1,0,0:0:0:0:
198,299,24307,2,0,L|125:290,1,47.5,2|2,1:2|0:0,0:0:0:0:
32,359,24465,2,0,L|105:350,1,47.5,2|0,0:0|0:0,0:0:0:0:
49,212,24623,5,2,1:2:0:0:
43,176,24701,1,2,0:0:0:0:
36,141,24780,1,2,0:0:0:0:
28,107,24859,1,0,0:0:0:0:
18,72,24939,2,0,P|11:122|55:136,1,95,2|2,1:2|0:0,0:0:0:0:
226,46,25255,53,2,1:2:0:0:
140,35,25412,1,2,0:0:0:0:
248,127,25570,5,2,1:2:0:0:
334,138,25727,1,2,0:0:0:0:
170,249,25886,6,0,P|153:183|134:144,1,95,2|2,1:2|0:0,0:0:0:0:
240,350,26202,2,0,P|257:284|276:245,1,95,2|2,1:2|0:0,0:0:0:0:
276,254,26439,1,0,0:0:0:0:
286,252,26518,54,0,L|453:271,1,142.5,2|0,1:2|0:0,0:0:0:0:
501,227,26833,6,0,P|488:202|460:193,1,47.5,2|0,1:2|0:0,0:0:0:0:
390,185,26991,1,0,0:0:0:0:
324,72,27149,6,0,P|337:97|365:106,1,47.5,2|0,1:2|0:0,0:0:0:0:
435,114,27307,1,0,0:0:0:0:
299,174,27465,2,0,L|177:158,1,95,2|0,1:2|0:0,0:0:0:0:
62,93,27781,53,2,1:2:0:0:
33,20,27939,1,2,0:0:0:0:
66,101,28097,5,2,1:2:0:0:
138,124,28255,1,2,0:0:0:0:
85,272,28412,5,2,1:2:0:0:
66,180,28570,1,2,0:0:0:0:
171,305,28728,53,2,1:2:0:0:
152,213,28886,1,2,0:0:0:0:
261,120,29044,6,0,P|316:131|318:199,1,95,2|2,1:2|0:0,0:0:0:0:
327,173,29281,1,0,0:0:0:0:
320,180,29360,2,0,L|336:281,1,95,2|2,1:2|0:0,0:0:0:0:
434,369,29676,5,2,1:2:0:0:
512,383,29833,1,2,0:0:0:0:
356,355,29991,1,2,1:2:0:0:
430,278,30149,53,2,0:0:0:0:
430,278,30307,1,2,1:2:0:0:
499,207,30465,5,2,0:0:0:0:
499,207,30623,1,2,1:2:0:0:
442,122,30781,5,2,0:0:0:0:
340,104,30939,1,2,1:2:0:0:
238,86,31097,1,2,0:0:0:0:
55,72,31255,54,0,P|104:57|117:182,1,213.750008153916,2|0,1:2|0:0,0:0:0:0:
121,174,31570,6,0,P|156:145|201:170,1,95,6|0,1:2|0:0,0:0:0:0:
271,323,31728,5,2,0:0:0:0:
279,312,32044,1,2,0:0:0:0:
271,301,32360,1,2,0:0:0:0:
279,290,32675,1,2,0:0:0:0:
271,279,32991,1,2,0:0:0:0:
279,268,33307,1,2,0:0:0:0:
271,257,33623,1,2,0:0:0:0:
110,189,33781,54,0,L|411:159,1,285,4|0,1:2|0:0,0:0:0:0:
393,160,34097,2,0,P|420:137|399:68,1,95,4|0,1:2|0:0,0:0:0:0:
262,40,34255,5,2,0:0:0:0:
270,51,34571,1,2,0:0:0:0:
262,62,34887,1,2,0:0:0:0:
270,73,35202,1,2,0:0:0:0:
262,84,35518,1,2,0:0:0:0:
270,95,35834,1,2,0:0:0:0:
102,212,36149,6,0,B|76:220|56:242|56:242|79:230|119:231,1,95,6|0,0:0|0:0,0:0:0:0:
169,246,36307,2,0,P|266:272|463:340,1,285,4|0,1:2|0:0,0:0:0:0:
440,331,36623,2,0,P|484:302|460:255,1,95,4|0,1:2|0:0,0:0:0:0:
274,121,36939,53,0,1:2:0:0:
440,331,37255,6,0,P|484:302|460:255,1,95,4|0,1:2|0:0,0:0:0:0:
274,121,37570,5,0,1:2:0:0:
57,246,37886,54,0,P|39:200|63:146,1,95,4|0,1:2|0:0,0:0:0:0:
52,158,38202,2,0,L|167:145,1,95,4|0,1:2|0:0,0:0:0:0:
146,148,38518,2,0,P|164:102|140:48,1,95,4|0,1:2|0:0,0:0:0:0:
151,60,38834,2,0,L|35:47,1,95,4|0,1:2|0:0,0:0:0:0:
252,34,39149,6,0,L|258:91,1,47.5,4|0,1:2|0:0,0:0:0:0:
331,43,39307,2,0,L|337:100,1,47.5,6|0,1:2|0:0,0:0:0:0:
410,52,39465,2,0,L|416:109,1,47.5,4|0,1:2|0:0,0:0:0:0:
489,61,39623,2,0,L|495:118,1,47.5,6|0,1:2|0:0,0:0:0:0:
386,239,39781,5,4,1:2:0:0:
399,206,39860,1,0,1:2:0:0:
378,233,39939,53,6,1:2:0:0:
406,211,40018,1,0,1:2:0:0:
374,225,40097,5,4,1:2:0:0:
410,219,40176,1,0,1:2:0:0:
376,216,40254,5,6,1:2:0:0:
408,228,40333,1,0,1:2:0:0:
392,225,40412,54,0,L|401:292,2,56.9999982604981,2|0|0,1:2|1:2|1:2,0:0:0:0:
255,374,41360,5,8,0:1:0:0:
98,244,41676,22,0,P|149:229|150:213,1,61.7499971733095,6|0,1:2|0:0,0:0:0:0:
164,152,41833,1,2,0:0:0:0:
40,96,41991,6,0,P|69:119|93:127,1,61.7499971733095,10|0,0:2|0:0,0:0:0:0:
238,135,42149,1,2,0:0:0:0:
472,98,42307,6,0,P|368:107|304:189,1,213.750008153916,2|0,1:2|0:0,0:0:0:0:
304,189,42623,1,10,0:2:0:0:
430,383,42781,54,0,P|441:277|412:175,1,213.750008153916,2|0,0:0|0:0,0:0:0:0:
505,187,43097,2,0,P|449:276|357:328,1,213.750008153916,2|0,0:0|0:0,0:0:0:0:
357,328,43412,1,2,0:0:0:0:
180,291,43570,5,2,1:2:0:0:
216,289,43649,1,0,0:0:0:0:
251,298,43728,2,0,P|219:315|184:323,1,71.2500027179719,2|0,0:0|0:0,0:0:0:0:
110,244,43886,1,10,0:2:0:0:
79,224,43965,1,0,0:0:0:0:
56,196,44044,2,0,P|91:201|124:215,1,71.2500027179719,2|0,0:0|0:0,0:0:0:0:
135,384,44202,6,0,P|191:182|214:151,1,213.750008153916,2|0,1:2|0:0,0:0:0:0:
146,45,44518,2,0,B|39:-1|20:137|133:121,1,213.750008153916,10|0,0:2|0:0,0:0:0:0:
273,165,44833,2,0,B|355:161|339:203|408:199,1,142.500005435944,2|0,1:2|0:0,0:0:0:0:
432,183,45070,1,0,0:0:0:0:
430,154,45149,1,10,0:2:0:0:
287,40,45307,54,0,B|278:124|302:146|294:253,1,213.750008153916,2|0,0:0|0:0,0:0:0:0:
188,169,45623,2,0,B|197:253|172:275|180:382,1,213.750008153916,2|0,0:0|0:0,0:0:0:0:
264,334,45939,2,0,P|228:328|195:315,1,71.2500027179719,2|0,0:0|0:0,0:0:0:0:
88,167,46097,5,2,1:2:0:0:
141,155,46176,1,0,0:0:0:0:
184,165,46255,1,2,0:0:0:0:
218,185,46333,1,0,0:0:0:0:
252,204,46412,1,10,0:2:0:0:
288,207,46491,1,0,0:0:0:0:
318,199,46570,1,0,0:0:0:0:
335,189,46649,1,0,0:0:0:0:
345,180,46728,6,0,P|344:113|351:40,1,123.499994346619,2|2,1:2|0:0,0:0:0:0:
382,248,47044,1,10,0:2:0:0:
472,91,47202,2,0,P|427:205|396:325,1,246.999988693238,2|2,0:0|0:0,0:0:0:0:
462,376,47676,1,10,0:2:0:0:
512,316,47833,1,2,0:0:0:0:
323,365,47991,54,0,P|227:323|223:276,1,142.500005435944,2|0,1:2|0:0,0:0:0:0:
281,170,48228,1,0,0:0:0:0:
296,182,48307,2,0,P|262:241|194:250,1,142.500005435944,10|2,0:2|0:0,0:0:0:0:
0,122,48623,6,0,P|33:110|65:124,1,71.2500027179719,2|0,1:2|0:0,0:0:0:0:
78,203,48781,2,0,P|97:99|62:0,1,213.750008153916,2|0,0:0|0:0,0:0:0:0:
174,65,49097,2,0,P|227:93|287:81,1,123.499994346619,2|0,0:0|1:2,0:0:0:0:
486,27,49412,5,2,0:0:0:0:
442,4,49490,1,0,0:0:0:0:
394,11,49569,1,10,0:2:0:0:
386,144,49728,53,2,0:0:0:0:
419,160,49806,1,0,0:0:0:0:
455,155,49886,2,0,B|396:97|407:203|291:185,1,123.499994346619,2|2,1:2|0:0,0:0:0:0:
187,188,50202,1,10,0:2:0:0:
364,345,50360,2,0,P|304:262|204:280,1,213.750008153916,2|0,0:0|0:0,0:0:0:0:
208,284,50676,6,0,P|241:302|274:296,1,71.2500027179719,2|0,0:0|0:0,0:0:0:0:
275,176,50833,2,0,P|262:153|248:99,1,71.2500027179719,8|0,0:2|0:0,0:0:0:0:
353,68,50991,2,0,P|377:42|380:7,1,71.2500027179719,2|0,0:0|0:0,0:0:0:0:
422,115,51149,5,2,1:2:0:0:
387,142,51228,1,0,1:2:0:0:
342,150,51307,1,2,1:2:0:0:
301,134,51386,1,0,1:2:0:0:
253,106,51465,53,10,0:2:0:0:
212,72,51544,1,0,1:2:0:0:
157,62,51623,1,0,1:2:0:0:
108,83,51702,1,0,1:2:0:0:
67,128,51781,38,0,L|79:219,1,61.7499971733095,6|0,1:2|0:0,0:0:0:0:
78,195,51939,2,0,P|103:221|136:221,1,61.7499971733095,2|0,0:0|0:0,0:0:0:0:
303,74,52097,6,0,P|268:70|233:56,1,61.7499971733095,10|0,0:2|0:0,0:0:0:0:
229,141,52255,2,0,P|263:144|298:158,1,61.7499971733095,2|0,0:0|0:0,0:0:0:0:
424,60,52412,6,0,P|386:134|361:297,1,213.750008153916,2|0,1:2|0:0,0:0:0:0:
465,290,52728,54,0,P|468:254|438:240,1,71.2500027179719,10|0,0:2|0:0,0:0:0:0:
258,353,52886,6,0,B|126:336|219:264|82:242,1,213.750008153916,2|0,0:0|0:0,0:0:0:0:
79,334,53202,6,0,L|310:263,1,213.750008153916,2|0,0:0|0:0,0:0:0:0:
304,197,53518,54,0,P|292:167|254:156,1,71.2500027179719,2|0,0:0|0:0,0:0:0:0:
139,165,53676,5,2,1:2:0:0:
123,173,53755,1,0,0:0:0:0:
102,173,53833,2,0,P|73:147|65:106,1,71.2500027179719
108,11,53991,5,10,0:2:0:0:
121,6,54070,1,0,0:0:0:0:
138,9,54149,2,0,P|157:34|153:74,1,71.2500027179719
0,242,54307,54,0,L|225:219,1,213.750008153916,2|0,1:2|0:0,0:0:0:0:
212,220,54623,2,0,P|147:182|175:291,1,213.750008153916,10|0,0:2|0:0,0:0:0:0:
227,309,54939,2,0,B|299:303|261:382|368:372,1,142.500005435944,2|0,1:2|0:0,0:0:0:0:
360,371,55176,1,0,0:0:0:0:
373,365,55255,1,10,0:2:0:0:
461,183,55412,6,0,P|381:161|385:263,1,213.750008153916,2|0,0:0|0:0,0:0:0:0:
391,262,55728,2,0,P|379:222|343:215,1,71.2500027179719,2|0,0:0|0:0,0:0:0:0:
248,86,55886,2,0,P|267:170|274:246,1,142.500005435944,10|2,0:2|0:0,0:0:0:0:
239,328,56202,5,2,1:2:0:0:
198,359,56281,1,0,0:0:0:0:
151,372,56360,1,2,0:0:0:0:
114,369,56439,1,0,0:0:0:0:
95,357,56518,1,10,0:2:0:0:
84,343,56597,1,0,0:0:0:0:
85,332,56676,1,0,0:0:0:0:
90,326,56755,1,0,0:0:0:0:
96,323,56833,54,0,P|123:351|120:388,1,61.7499971733095,2|0,1:2|0:0,0:0:0:0:
53,238,56991,2,0,P|34:272|-1:280,1,61.7499971733095,2|0,0:0|0:0,0:0:0:0:
120,170,57149,2,0,P|81:163|62:131,1,61.7499971733095,10|0,0:2|0:0,0:0:0:0:
235,57,57307,6,0,P|201:169|194:268,1,185.249991519928,2|0,0:0|0:0,0:0:0:0:
235,306,57623,2,0,P|259:330|295:330,1,61.7499971733095,2|0,0:0|0:0,0:0:0:0:
419,225,57781,2,0,P|353:230|284:264,1,123.499994346619,10|0,0:2|0:0,0:0:0:0:
190,382,58097,6,0,L|44:362,1,142.500005435944,2|2,1:2|0:0,0:0:0:0:
1,279,58333,1,2,0:0:0:0:
1,279,58412,2,0,L|142:298,1,142.500005435944,8|2,0:2|0:0,0:0:0:0:
294,346,58728,54,0,P|314:362|365:368,1,71.2500027179719,2|0,1:2|0:0,0:0:0:0:
472,325,58886,1,2,0:0:0:0:
458,300,58965,1,0,0:0:0:0:
445,287,59044,1,8,0:2:0:0:
432,279,59123,1,0,0:0:0:0:
422,278,59202,6,0,P|406:192|359:63,1,213.750008153916,2|0,0:0|0:0,0:0:0:0:
300,24,59518,6,0,P|266:24|240:48,1,71.2500027179719,2|0,0:0|0:0,0:0:0:0:
275,183,59676,2,0,P|292:152|284:118,1,71.2500027179719,10|0,0:2|0:0,0:0:0:0:
150,81,59833,2,0,P|167:111|200:121,1,71.2500027179719,2|0,0:0|0:0,0:0:0:0:
376,68,59991,54,0,P|457:43|513:4,2,142.500005435944,2|2|10,1:2|0:0|0:2,0:0:0:0:
283,238,60465,2,0,P|316:156|381:165,1,142.500005435944,2|0,0:0|1:2,0:0:0:0:
459,303,60781,5,2,0:0:0:0:
429,298,60860,1,0,0:0:0:0:
407,287,60939,2,0,P|386:273|365:232,3,71.2500027179719,10|0|0|0,0:2|0:0|0:0|0:0,0:0:0:0:
316,338,61255,5,2,1:2:0:0:
281,334,61333,1,0,1:2:0:0:
245,330,61412,1,0,1:2:0:0:
210,325,61491,1,0,1:2:0:0:
169,286,61570,53,10,0:2:0:0:
126,280,61648,1,0,1:2:0:0:
85,275,61727,1,0,1:2:0:0:
42,270,61806,1,0,1:2:0:0:
0,207,61886,5,6,1:2:0:0:
16,129,62202,1,6,1:2:0:0:
37,51,62518,5,6,1:2:0:0:
115,61,62676,1,4,1:2:0:0:
193,72,62833,1,6,1:2:0:0:
272,83,62991,1,4,1:2:0:0:
351,94,63149,1,6,1:2:0:0:
430,105,63307,1,6,1:2:0:0:
479,38,63465,53,6,1:2:0:0:
484,32,63544,1,0,1:2:0:0:
489,27,63623,1,6,1:2:0:0:
493,21,63702,1,0,1:2:0:0:
498,15,63781,1,6,1:2:0:0:
377,178,64097,5,10,0:1:0:0:
502,154,64412,22,0,P|470:141|440:141,1,61.7499971733095,6|0,1:2|0:0,0:0:0:0:
245,277,64570,5,0,0:0:0:0:
257,288,64649,1,0,0:0:0:0:
284,289,64728,1,10,0:2:0:0:
308,262,64807,1,0,0:0:0:0:
306,221,64886,2,0,P|296:187|296:150,1,61.7499971733095
370,35,65044,6,0,L|355:116,1,61.7499971733095,2|0,1:2|0:0,0:0:0:0:
405,258,65202,2,0,L|380:389,1,123.499994346619,0|8,0:0|0:2,0:0:0:0:
271,144,65518,53,2,0:0:0:0:
263,114,65596,1,2,0:0:0:0:
256,84,65675,1,2,1:2:0:0:
485,199,65833,5,2,0:0:0:0:
492,229,65912,1,2,0:0:0:0:
500,259,65990,1,10,0:2:0:0:
294,235,66149,1,2,0:0:0:0:
491,114,66307,6,0,B|466:108|466:108|463:111|463:111|422:104,1,61.7499971733095,2|0,1:2|0:0,0:0:0:0:
214,204,66465,2,0,B|189:198|189:198|186:201|186:201|154:195,1,61.7499971733095,2|0,0:0|0:0,0:0:0:0:
406,184,66623,54,0,B|381:178|381:178|378:181|378:181|337:174,1,61.7499971733095,10|0,0:2|0:0,0:0:0:0:
129,274,66781,2,0,B|104:268|104:268|101:271|101:271|69:265,1,61.7499971733095,2|0,0:0|0:0,0:0:0:0:
21,332,66939,5,2,1:2:0:0:
105,5,67255,2,0,P|132:57|12:68,1,213.750008153916,10|0,0:2|0:0,0:0:0:0:
25,85,67570,6,0,B|50:79|50:79|53:82|53:82|94:75,1,61.7499971733095,2|0,1:2|0:0,0:0:0:0:
302,175,67728,2,0,B|327:169|327:169|330:172|330:172|361:166,1,61.7499971733095,2|0,0:0|0:0,0:0:0:0:
392,98,67886,1,8,0:2:0:0:
254,236,68044,53,2,0:0:0:0:
223,230,68122,1,2,0:0:0:0:
193,225,68201,1,2,1:2:0:0:
0,187,68360,1,2,0:0:0:0:
93,372,68518,5,8,0:2:0:0:
76,356,68597,1,0,0:0:0:0:
95,333,68676,1,2,0:0:0:0:
83,321,68755,1,0,0:0:0:0:
83,320,68833,2,0,P|106:265|85:209,1,123.499994346619,2|2,1:2|0:0,0:0:0:0:
250,68,69149,2,0,P|165:63|145:146,1,185.249991519928,10|0,0:2|0:0,0:0:0:0:
180,162,69465,5,2,1:2:0:0:
330,220,69623,1,2,0:0:0:0:
374,230,69702,1,2,0:0:0:0:
414,209,69781,1,10,0:2:0:0:
364,99,69939,2,0,B|328:178|363:189|333:280,1,185.249991519928,2|2,0:0|0:0,0:0:0:0:
291,357,70255,53,0,0:0:0:0:
251,336,70334,1,2,0:0:0:0:
207,346,70413,1,8,0:2:0:0:
98,202,70570,2,0,B|133:281|98:292|128:383,1,185.249991519928,2|2,0:0|0:0,0:0:0:0:
18,274,70886,6,0,P|52:283|85:296,1,71.2500027179719,2|2,0:0|0:0,0:0:0:0:
101,101,71044,2,0,P|161:144|210:192,1,142.500005435944,10|2,0:2|0:0,0:0:0:0:
9,164,71360,1,2,1:2:0:0:
306,152,71518,2,0,P|372:86|448:33,1,185.249991519928,2|0,0:0|0:0,0:0:0:0:
481,116,71833,2,0,P|431:152|388:196,1,123.499994346619,2|0,0:0|1:2,0:0:0:0:
435,352,72149,5,2,0:0:0:0:
463,312,72228,1,2,0:0:0:0:
446,268,72307,1,10,0:2:0:0:
253,246,72465,1,2,0:0:0:0:
227,289,72544,1,2,0:0:0:0:
245,334,72623,2,0,P|288:331|304:321,1,61.7499971733095,2|0,1:2|0:0,0:0:0:0:
386,181,72781,2,0,P|383:138|373:122,1,61.7499971733095,2|0,0:0|0:0,0:0:0:0:
374,299,72939,54,0,P|359:258|346:245,1,61.7499971733095,10|0,0:2|0:0,0:0:0:0:
299,126,73097,2,0,P|258:110|240:112,1,61.7499971733095,2|0,0:0|0:0,0:0:0:0:
49,209,73255,5,0,1:2:0:0:
96,220,73333,1,0,1:2:0:0:
140,203,73412,1,2,1:2:0:0:
160,165,73491,1,0,1:2:0:0:
147,126,73570,1,10,0:2:0:0:
118,110,73649,1,0,1:2:0:0:
92,117,73728,1,2,1:2:0:0:
85,132,73807,1,0,1:2:0:0:
87,142,73886,6,0,B|197:109|163:180|255:187,1,152,2|2,0:0|0:0,0:0:0:0:
241,206,74360,1,0,0:0:0:0:
395,101,74518,6,0,P|343:92|314:40,1,95,6|0,1:2|0:0,0:0:0:0:
317,49,74755,1,0,0:0:0:0:
316,39,74833,2,0,L|212:29,1,95,2|2,1:2|0:0,0:0:0:0:
44,34,75149,6,0,P|38:86|77:123,1,95,2|0,1:2|0:0,0:0:0:0:
137,100,75465,2,0,P|143:48|104:11,1,95,2|2,1:2|0:0,0:0:0:0:
37,209,75781,5,2,1:2:0:0:
120,193,75939,1,2,0:0:0:0:
232,38,76097,54,0,L|220:140,1,95,2|2,1:2|0:0,0:0:0:0:
327,269,76412,2,0,P|303:223|252:221,2,95,2|2|2,1:2|0:0|1:2,0:0:0:0:
287,345,76886,1,2,0:0:0:0:
170,278,77044,6,0,L|58:265,1,95,2|0,1:2|0:0,0:0:0:0:
66,264,77281,1,0,0:0:0:0:
59,258,77360,2,0,P|48:204|70:152,1,95,2|0,1:2|0:0,0:0:0:0:
176,84,77676,2,0,L|61:58,2,95,2|2|2,1:2|0:0|1:2,0:0:0:0:
307,65,78149,5,0,0:0:0:0:
296,61,78228,1,0,0:0:0:0:
289,68,78307,1,2,1:2:0:0:
324,60,78385,1,0,0:0:0:0:
358,53,78464,1,2,0:0:0:0:
393,46,78543,1,0,0:0:0:0:
428,38,78623,54,0,L|416:146,1,95,2|2,1:2|0:0,0:0:0:0:
387,248,78939,5,2,1:2:0:0:
471,264,79097,1,2,0:0:0:0:
317,171,79255,5,2,1:2:0:0:
233,155,79413,1,2,0:0:0:0:
145,28,79570,53,2,1:2:0:0:
152,103,79728,1,2,0:0:0:0:
72,109,79886,5,2,1:2:0:0:
65,34,80044,1,0,0:0:0:0:
242,55,80202,6,0,L|349:76,1,95,2|0,1:2|0:0,0:0:0:0:
285,146,80518,2,0,L|392:167,1,95,2|0,1:2|0:0,0:0:0:0:
487,242,80833,53,2,1:2:0:0:
418,274,80991,1,2,0:0:0:0:
349,338,81149,5,2,1:2:0:0:
468,364,81307,1,0,0:0:0:0:
234,282,81465,6,0,P|260:345|268:396,2,95,2|2|2,1:2|0:0|1:2,0:0:0:0:
133,237,81939,2,0,P|165:228|184:203,1,47.5,2|0,0:0|0:0,0:0:0:0:
151,19,82097,54,0,P|122:85|116:163,1,142.500005435944,2|2,1:2|0:0,0:0:0:0:
260,202,82412,5,2,1:2:0:0:
340,215,82570,1,0,0:0:0:0:
297,56,82728,5,2,1:2:0:0:
311,133,82886,1,2,0:0:0:0:
466,113,83044,54,0,P|406:99|373:67,1,95,2|2,1:2|0:0,0:0:0:0:
358,0,83360,1,2,1:2:0:0:
219,26,83518,6,0,L|161:34,2,47.5,0|0|2,0:0|0:0|1:2,0:0:0:0:
197,123,83833,5,2,0:0:0:0:
184,122,83912,1,0,0:0:0:0:
175,116,83991,1,2,1:2:0:0:
91,89,84149,54,0,L|33:97,2,47.5,2|0|2,0:0|0:0|1:2,0:0:0:0:
78,181,84465,37,0,0:0:0:0:
65,180,84544,1,0,0:0:0:0:
56,174,84623,1,6,1:2:0:0:
78,304,84781,1,0,0:0:0:0:
212,279,84939,1,2,1:2:0:0:
196,201,85097,1,0,0:0:0:0:
366,132,85255,6,0,B|369:147|369:147|366:149|366:149|359:224,1,95,2|2,1:2|0:0,0:0:0:0:
288,125,85570,2,0,B|281:139|281:139|284:141|284:141|278:217,1,95,2|2,1:2|0:0,0:0:0:0:
444,181,85886,5,2,1:2:0:0:
440,103,86044,1,2,0:0:0:0:
362,41,86202,1,2,1:2:0:0:
284,45,86360,1,2,0:0:0:0:
197,0,86518,1,2,1:2:0:0:
224,166,86676,54,0,B|213:96|213:96|192:86,2,95,2|2|0,0:0|1:2|0:0,0:0:0:0:
51,165,87149,6,0,P|88:139|145:164,1,95,2|0,1:2|0:0,0:0:0:0:
52,302,87465,2,0,P|9:286|6:227,1,95,2|2,1:2|0:0,0:0:0:0:
173,245,87781,2,0,P|179:291|143:323,1,95,2|2,1:2|0:0,0:0:0:0:
94,235,88018,1,0,0:0:0:0:
94,235,88097,5,2,1:2:0:0:
235,364,88255,1,2,0:0:0:0:
432,338,88412,53,2,1:2:0:0:
364,380,88570,1,2,0:0:0:0:
305,325,88728,1,2,1:2:0:0:
451,174,88886,5,2,0:0:0:0:
392,119,89044,1,2,1:2:0:0:
324,161,89202,1,2,0:0:0:0:
508,259,89360,6,0,B|416:250|416:250|413:246|413:246|362:251|362:251|358:246|358:246|296:241,1,213.750008153916,2|0,1:2|0:0,0:0:0:0:
230,208,89676,54,0,B|187:267|178:250|123:258,1,95,2|0,1:2|0:0,0:0:0:0:
147,80,89991,2,0,B|176:146|157:146|136:197,1,95,2|2,1:2|0:0,0:0:0:0:
3,348,90307,2,0,B|-26:281|-7:281|13:230,1,95,2|2,1:2|0:0,0:0:0:0:
155,340,90623,2,0,B|82:332|92:315|58:272,1,95,2|0,1:2|0:0,0:0:0:0:
43,128,90939,5,2,1:2:0:0:
70,209,91097,1,0,0:0:0:0:
127,146,91255,1,2,1:2:0:0:
154,227,91412,1,0,0:0:0:0:
182,195,91491,1,0,0:0:0:0:
211,164,91570,1,2,1:2:0:0:
238,245,91728,1,2,0:0:0:0:
295,182,91886,1,2,1:2:0:0:
322,263,92043,1,2,0:0:0:0:
355,120,92202,6,0,P|371:99|364:27,1,95,2|0,1:2|0:0,0:0:0:0:
275,331,92518,2,0,P|329:344|380:320,1,113.999996520996,2|0,1:2|0:0,0:0:0:0:
373,135,92833,54,0,P|382:80|345:38,1,113.999996520996,2|2,1:2|0:0,0:0:0:0:
289,357,93149,2,0,P|353:349|392:297,1,132.999995941162,2|2,1:2|0:0,0:0:0:0:
396,139,93465,6,0,P|376:77|318:50,1,132.999995941162,2|2,1:2|0:0,0:0:0:0:
316,384,93781,2,0,P|385:346|354:261,1,185.249991519928,2|0,1:2|0:0,0:0:0:0:
322,263,94097,5,2,0:0:0:0:
290,185,94255,53,2,0:0:0:0:
197,144,94412,5,2,0:0:0:0:
382,114,94728,21,2,1:2:0:0:
382,114,94886,2,0,B|363:33|278:24|223:58|223:58|275:74|295:142,1,285,0|0,1:2|0:0,0:0:0:0:
294,189,95202,6,0,P|269:212|229:210,1,61.7499971733095,0|0,1:2|0:0,0:0:0:0:
20,197,95360,6,0,P|85:134|235:168,1,213.750008153916,2|0,0:0|0:0,0:0:0:0:
242,214,95676,54,0,P|256:257|297:267,1,61.7499971733095,2|0,1:2|0:0,0:0:0:0:
286,343,95833,2,0,P|331:342|353:307,1,61.7499971733095,2|0,0:0|0:0,0:0:0:0:
455,166,95991,6,0,P|408:157|399:248,1,142.500005435944,2|0,1:2|1:2,0:0:0:0:
452,293,96228,5,0,1:2:0:0:
452,293,96307,2,0,P|472:265|460:238,1,61.7499971733095,2|0,1:2|0:0,0:0:0:0:
393,84,96465,2,0,P|372:56|343:59,1,61.7499971733095,2|0,1:2|0:0,0:0:0:0:
161,201,96623,54,0,L|313:181,2,142.500005435944,2|0|2,0:0|1:2|1:2,0:0:0:0:
95,248,97097,1,2,0:0:0:0:
31,40,97255,6,0,P|120:51|153:124,1,142.500005435944,2|0,1:2|1:2,0:0:0:0:
147,99,97491,1,0,0:0:0:0:
141,107,97570,5,2,0:0:0:0:
215,52,97728,1,0,1:2:0:0:
292,53,97886,1,2,0:0:0:0:
341,69,98044,1,2,0:0:0:0:
365,93,98202,1,2,1:2:0:0:
374,111,98360,1,2,0:0:0:0:
316,175,98518,53,2,1:2:0:0:
298,173,98596,1,0,0:0:0:0:
280,171,98675,1,0,0:0:0:0:
262,169,98754,1,0,1:2:0:0:
245,167,98833,2,0,L|173:190,1,71.2500027179719,2|0,1:2|0:0,0:0:0:0:
82,255,98991,5,0,1:2:0:0:
114,262,99070,1,0,1:2:0:0:
141,279,99149,2,0,P|186:332|195:393,2,123.499994346619,2|0|2,1:2|1:2|1:2,0:0:0:0:
86,344,99623,1,0,0:0:0:0:
263,295,99781,22,0,P|299:275|318:254,1,61.7499971733095,2|0,1:2|0:0,0:0:0:0:
464,162,99939,2,0,B|507:158|513:224|469:227|294:243|250:247|244:181|288:177,1,323.000006160736,2|2,1:2|1:2,0:0:0:0:
364,71,100412,6,0,B|362:138|362:138|380:173|364:210,1,142.5,2|0,0:0|0:0,0:0:0:0:
440,243,100728,2,0,B|424:280|442:315|442:315|440:382,1,142.5,2|0,1:2|0:0,0:0:0:0:
512,277,101044,6,0,B|406:287|406:287|390:296|371:298,1,142.500005435944,2|2,1:2|1:2,0:0:0:0:
288,176,101281,1,0,1:2:0:0:
288,176,101360,2,0,B|182:186|182:186|166:195|147:197,1,142.500005435944,0|2,1:2|1:2,0:0:0:0:
68,0,101676,54,0,P|87:67|139:116,2,142.500005435944,2|0|2,0:0|1:2|1:2,0:0:0:0:
151,9,102149,1,2,0:0:0:0:
0,300,102307,5,2,1:2:0:0:
92,185,102465,1,0,1:2:0:0:
167,295,102623,1,2,1:2:0:0:
215,213,102781,1,0,1:2:0:0:
286,288,102939,5,2,1:2:0:0:
310,241,103018,1,0,1:2:0:0:
333,282,103097,1,0,1:2:0:0:
349,252,103176,1,0,1:2:0:0:
373,281,103255,1,2,1:2:0:0:
382,259,103333,1,0,1:2:0:0:
406,280,103412,1,0,1:2:0:0:
411,267,103491,1,0,1:2:0:0:
430,278,103570,53,2,1:2:0:0:
353,104,103886,5,2,1:2:0:0:
512,0,104202,5,2,1:2:0:0:
422,152,104518,53,2,1:2:0:0:
350,185,104676,5,0,1:2:0:0:
280,148,104833,5,2,1:2:0:0:
239,52,104991,53,2,1:2:0:0:
169,15,105148,5,2,1:2:0:0:
97,48,105306,5,0,1:2:0:0:
142,352,105465,53,2,1:2:0:0:
110,279,105623,6,0,B|139:269|149:246|149:246|232:143|99:187|176:-63|209:196|86:131|149:246|149:246|156:270|181:283,1,403.75000770092
243,234,106097,22,0,P|272:242|303:243,1,61.7499971733095,6|0,1:2|0:0,0:0:0:0:
428,306,106255,2,0,P|392:297|365:297,1,61.7499971733095,2|0,0:0|0:0,0:0:0:0:
416,163,106412,6,0,P|413:195|392:220,1,61.7499971733095,10|0,0:2|0:0,0:0:0:0:
263,378,106570,2,0,P|266:346|287:321,1,61.7499971733095,2|0,0:0|0:0,0:0:0:0:
427,148,106728,6,0,P|462:135|480:259,1,213.750008153916,2|0,1:2|0:0,0:0:0:0:
428,306,107044,2,0,P|397:273|400:239,1,71.2500027179719,10|0,0:2|0:0,0:0:0:0:
502,31,107202,54,0,P|381:26|279:-4,1,213.750008153916,2|0,0:0|0:0,0:0:0:0:
292,2,107518,2,0,P|373:56|276:127,1,213.750008153916,2|0,0:0|0:0,0:0:0:0:
204,99,107833,6,0,P|226:73|265:83,1,71.2500027179719,2|0,0:0|0:0,0:0:0:0:
292,256,107991,5,2,1:2:0:0:
273,251,108070,1,0,0:0:0:0:
259,243,108149,2,0,P|237:199|248:175,1,71.2500027179719,2|0,0:0|0:0,0:0:0:0:
109,229,108307,53,10,0:2:0:0:
107,209,108386,1,0,0:0:0:0:
111,193,108465,2,0,P|146:158|172:161,1,71.2500027179719,2|0,0:0|0:0,0:0:0:0:
366,224,108623,6,0,P|289:272|201:388,1,213.750008153916,2|0,1:2|0:0,0:0:0:0:
211,366,108939,2,0,P|199:264|158:145,1,213.750008153916,10|0,0:2|0:0,0:0:0:0:
106,106,109255,2,0,P|125:36|202:38,1,142.500005435944,2|0,1:2|0:0,0:0:0:0:
190,33,109491,1,0,0:0:0:0:
193,41,109570,2,0,P|225:62|267:59,1,71.2500027179719,10|0,0:2|0:0,0:0:0:0:
413,59,109728,6,0,B|393:193|335:96|316:279,1,213.750008153916,2|0,0:0|0:0,0:0:0:0:
407,268,110044,2,0,P|374:186|250:171,1,213.750008153916,2|0,0:0|0:0,0:0:0:0:
206,221,110360,2,0,B|193:235|197:255|197:255|215:239|219:226,1,71.2500027179719,2|0,0:0|0:0,0:0:0:0:
213,84,110518,53,2,1:2:0:0:
173,112,110597,1,0,0:0:0:0:
130,123,110676,1,2,0:0:0:0:
91,121,110755,1,0,0:0:0:0:
67,113,110833,1,10,0:2:0:0:
55,102,110912,1,0,0:0:0:0:
55,91,110991,1,0,0:0:0:0:
63,85,111070,1,0,0:0:0:0:
67,81,111149,6,0,P|93:111|79:151,1,71.2500027179719,2|0,1:2|0:0,0:0:0:0:
199,184,111307,2,0,P|178:217|136:217,1,71.2500027179719,2|0,0:0|0:0,0:0:0:0:
141,341,111465,2,0,P|102:332|90:291,1,71.2500027179719,10|0,0:2|0:0,0:0:0:0:
30,214,111623,6,0,L|340:272,1,285.000010871888,2|2,0:0|0:0,0:0:0:0:
473,239,112097,1,10,0:2:0:0:
394,252,112255,1,2,0:0:0:0:
236,363,112412,54,0,L|217:275,1,71.2500027179719,2|0,1:2|0:0,0:0:0:0:
310,266,112570,2,0,L|329:178,1,71.2500027179719
207,101,112728,6,0,L|222:170,1,71.2500027179719,10|0,0:2|0:0,0:0:0:0:
143,214,112886,2,0,L|127:283,1,71.2500027179719
328,372,113044,6,0,P|352:369|397:323,1,71.2500027179719,2|0,1:2|0:0,0:0:0:0:
409,215,113202,1,2,0:0:0:0:
398,181,113281,1,0,0:0:0:0:
385,153,113360,1,8,0:2:0:0:
375,138,113439,1,0,0:0:0:0:
366,133,113518,54,0,P|406:72|465:103,2,142.500005435944,2|0|2,0:0|1:2|0:0,0:0:0:0:
489,262,113991,1,8,0:2:0:0:
489,262,114149,2,0,P|492:311|468:341,1,71.2500027179719,2|0,0:0|0:0,0:0:0:0:
400,295,114307,2,0,P|354:312|318:299,1,71.2500027179719,2|0,1:2|0:0,0:0:0:0:
198,160,114465,6,0,L|210:234,1,71.2500027179719,2|0,0:0|0:0,0:0:0:0:
289,223,114623,2,0,L|277:152,1,71.2500027179719,10|0,0:2|0:0,0:0:0:0:
128,75,114781,6,0,P|66:35|-7:37,2,142.500005435944,2|2|2,0:0|1:2|0:0,0:0:0:0:
197,167,115255,2,0,P|248:163|274:140,1,71.2500027179719,8|0,0:2|0:0,0:0:0:0:
363,37,115412,1,2,0:0:0:0:
369,28,115491,1,0,0:0:0:0:
367,19,115570,53,2,1:2:0:0:
350,30,115649,1,0,1:2:0:0:
338,59,115728,1,2,1:2:0:0:
351,95,115807,1,0,1:2:0:0:
381,126,115886,5,10,0:2:0:0:
404,169,115965,1,0,1:2:0:0:
406,223,116044,1,0,1:2:0:0:
377,273,116123,1,0,1:2:0:0:
339,306,116202,22,0,P|307:294|268:298,1,61.7499971733095,6|0,1:2|0:0,0:0:0:0:
207,310,116360,1,2,0:0:0:0:
398,358,116518,6,0,P|373:376|344:384,1,61.7499971733095,10|0,0:2|0:0,0:0:0:0:
176,239,116676,1,2,0:0:0:0:
18,384,116833,6,0,L|-4:304,1,71.2500027179719,2|0,1:2|0:0,0:0:0:0:
106,106,116991,2,0,L|83:329,1,213.750008153916,2|0,0:0|0:0,0:0:0:0:
10,205,117307,54,0,L|1:135,1,71.2500027179719,2|0,0:0|0:0,0:0:0:0:
35,58,117465,1,0,1:2:0:0:
206,164,117623,6,0,L|197:94,1,71.2500027179719,2|0,0:0|0:0,0:0:0:0:
231,17,117781,2,0,L|222:87,1,71.2500027179719,10|0,0:2|0:0,0:0:0:0:
277,259,117939,2,0,L|286:189,1,71.2500027179719,2|0,0:0|0:0,0:0:0:0:
426,58,118097,6,0,P|422:106|430:133,1,71.2500027179719,2|0,1:2|0:0,0:0:0:0:
397,290,118255,2,0,P|436:317|463:324,1,71.2500027179719,2|0,0:0|0:0,0:0:0:0:
512,170,118412,1,10,0:2:0:0:
472,204,118491,1,0,0:0:0:0:
427,211,118570,1,2,0:0:0:0:
387,207,118649,1,0,0:0:0:0:
364,192,118728,1,2,1:2:0:0:
275,56,118886,53,0,0:0:0:0:
235,22,118965,1,0,0:0:0:0:
189,15,119044,2,0,B|158:116|57:111|57:111|75:97|82:81,1,213.750008153916,10|0,0:2|0:0,0:0:0:0:
24,0,119360,6,0,B|29:63|29:63|20:64|20:64|29:63|29:63|41:202,1,213.750008153916,2|0,1:2|0:0,0:0:0:0:
117,205,119676,2,0,B|107:262|107:262|93:260,1,71.2500027179719,10|0,0:2|0:0,0:0:0:0:
0,303,119833,6,0,L|221:268,1,213.750008153916,2|0,0:0|0:0,0:0:0:0:
287,301,120149,53,2,0:0:0:0:
314,296,120228,1,0,0:0:0:0:
364,305,120307,5,10,0:2:0:0:
391,300,120386,1,0,0:0:0:0:
440,312,120465,5,0,0:0:0:0:
467,307,120544,1,0,0:0:0:0:
509,320,120623,54,0,P|481:284|482:249,1,71.2500027179719,2|0,1:2|0:0,0:0:0:0:
378,221,120781,2,0,P|395:178|425:162,1,71.2500027179719,2|0,0:0|0:0,0:0:0:0:
512,0,120939,2,0,P|446:68|328:14,1,213.750008153916,10|0,0:2|0:0,0:0:0:0:
363,19,121255,6,0,B|362:49|362:49|366:51|366:51|362:53|362:53|361:85,1,71.2500027179719,2|0,1:2|0:0,0:0:0:0:
198,157,121412,2,0,B|198:124|198:124|202:122|202:122|198:120|198:120|199:90,1,71.2500027179719,2|0,0:0|0:0,0:0:0:0:
280,90,121570,1,10,0:2:0:0:
117,11,121728,2,0,B|114:119|114:119|105:121|105:121|114:123|114:123|112:210,1,213.750008153916,2|0,0:0|0:0,0:0:0:0:
22,243,122044,6,0,P|54:229|89:232,1,71.2500027179719,2|0,0:0|0:0,0:0:0:0:
119,358,122202,2,0,P|123:323|144:294,1,71.2500027179719,10|0,0:2|0:0,0:0:0:0:
267,337,122360,2,0,P|239:315|224:283,1,71.2500027179719
368,113,122518,54,0,B|332:112|337:108|334:163,1,71.2500027179719,2|0,1:2|0:0,0:0:0:0:
441,282,122676,2,0,B|477:283|472:287|475:232,1,71.2500027179719,2|0,0:0|0:0,0:0:0:0:
507,132,122833,6,0,B|450:137|455:134|461:131|445:153,1,71.2500027179719,10|0,0:2|0:0,0:0:0:0:
366,241,122991,2,0,B|350:263|356:260|361:257|304:262,1,71.2500027179719,2|0,0:0|0:0,0:0:0:0:
251,127,123149,6,0,L|144:114,1,71.2500027179719,2|0,1:2|0:0,0:0:0:0:
12,109,123307,2,0,B|132:123|84:23|201:37,1,213.750008153916,2|0,0:0|0:0,0:0:0:0:
33,24,123623,2,0,B|19:144|119:95|105:213,1,213.750008153916,2|0,0:0|0:0,0:0:0:0:
157,279,123939,53,2,0:0:0:0:
148,313,124017,1,0,0:0:0:0:
125,339,124097,2,0,P|103:348|76:348,1,47.5,10|0,0:2|0:0,0:0:0:0:
239,242,124255,5,2,0:0:0:0:
286,251,124333,1,0,0:0:0:0:
320,286,124413,2,0,P|332:319|332:359,1,71.2500027179719,2|0,1:2|0:0,0:0:0:0:
456,316,124570,2,0,P|468:349|468:389,1,71.2500027179719
358,149,124728,2,0,P|359:184|372:218,1,71.2500027179719,10|0,0:2|0:0,0:0:0:0:
494,179,124886,2,0,P|495:214|508:248,1,71.2500027179719,2|0,0:0|0:0,0:0:0:0:
374,58,125044,5,0,1:2:0:0:
334,73,125122,1,0,0:0:0:0:
293,85,125201,1,2,0:0:0:0:
251,92,125280,1,0,0:0:0:0:
208,94,125359,1,10,0:2:0:0:
165,91,125438,1,0,1:2:0:0:
123,83,125517,1,0,1:2:0:0:
82,71,125596,1,0,1:2:0:0:
112,46,125676,54,0,L|118:118,1,71.2500027179719,2|0,1:2|1:2,0:0:0:0:
287,159,125833,2,0,L|293:231,1,71.2500027179719,2|0,1:2|1:2,0:0:0:0:
58,171,125991,2,0,L|64:243,1,71.2500027179719,10|0,0:2|1:2,0:0:0:0:
218,258,126149,2,0,L|224:330,1,71.2500027179719,2|0,1:2|1:2,0:0:0:0:
145,338,126307,5,6,1:2:0:0:
139,261,126623,1,6,1:2:0:0:
310,384,126939,5,6,1:2:0:0:
304,307,127097,1,4,1:2:0:0:
298,230,127255,1,6,1:2:0:0:
292,153,127412,1,4,1:2:0:0:
454,304,127570,53,6,1:2:0:0:
448,227,127728,1,4,1:2:0:0:
304,307,127886,5,6,1:2:0:0:
296,288,127965,1,0,1:2:0:0:
302,269,128044,1,6,1:2:0:0:
307,248,128123,1,0,1:2:0:0:
298,230,128202,2,0,B|287:207|287:207|301:177|301:177|292:152,1,85.4999973907472,6|10,1:2|0:1,0:0:0:0:
256,192,136412,12,6,138939,1:2:0:0:
60,74,139097,70,0,L|68:149,1,71.2500027179719
52,175,139255,1,8,0:2:0:0:
150,65,139412,2,0,L|158:140,1,71.2500027179719
142,166,139570,1,2,1:2:0:0:
240,56,139728,2,0,L|248:131,1,71.2500027179719
232,157,139886,1,8,0:2:0:0:
330,47,140044,2,0,L|338:122,1,71.2500027179719
322,148,140202,1,2,1:2:0:0:
463,209,140360,6,0,L|471:284,1,71.2500027179719
455,310,140518,1,8,0:2:0:0:
373,218,140676,2,0,L|381:293,1,71.2500027179719
365,319,140834,1,2,1:2:0:0:
283,227,140991,2,0,L|291:302,1,71.2500027179719
275,328,141149,1,8,0:2:0:0:
193,236,141307,2,0,L|201:311,1,71.2500027179719
185,337,141465,1,2,1:2:0:0:
104,246,141623,6,0,L|29:254,1,71.2500027179719
3,238,141781,1,8,0:2:0:0:
131,149,141939,2,0,L|56:157,1,71.2500027179719
30,141,142097,1,2,1:2:0:0:
221,140,142255,2,0,L|296:132,1,71.2500027179719
322,148,142413,1,8,0:2:0:0:
248,43,142570,2,0,L|323:35,1,71.2500027179719
349,51,142728,1,2,1:2:0:0:
408,138,142886,54,0,L|483:130,1,71.2500027179719
509,146,143044,1,8,0:2:0:0:
381,235,143202,2,0,L|456:227,1,71.2500027179719
482,243,143360,1,2,1:2:0:0:
291,244,143518,2,0,L|216:252,1,71.2500027179719
190,236,143676,1,8,0:2:0:0:
264,341,143833,2,0,L|189:349,1,71.2500027179719
163,333,143991,1,2,1:2:0:0:
42,271,144149,5,0,0:0:0:0:
42,271,144228,1,0,0:0:0:0:
42,271,144307,2,0,L|50:346,1,71.2500027179719,8|0,0:2|0:0,0:0:0:0:
89,172,144465,1,0,0:0:0:0:
89,172,144544,1,0,0:0:0:0:
89,172,144623,2,0,L|81:97,1,71.2500027179719,2|0,1:2|0:0,0:0:0:0:
155,262,144781,1,0,0:0:0:0:
155,262,144860,1,0,0:0:0:0:
155,262,144939,2,0,L|163:337,1,71.2500027179719,8|0,0:2|0:0,0:0:0:0:
202,163,145097,1,0,0:0:0:0:
202,163,145176,1,0,0:0:0:0:
202,163,145255,2,0,L|194:88,1,71.2500027179719,2|0,1:2|0:0,0:0:0:0:
268,253,145413,1,0,0:0:0:0:
268,253,145492,1,0,0:0:0:0:
268,253,145571,2,0,L|276:328,1,71.2500027179719,8|0,0:2|0:0,0:0:0:0:
315,154,145728,1,0,0:0:0:0:
315,154,145807,1,0,0:0:0:0:
315,154,145886,2,0,L|307:79,1,71.2500027179719,2|0,1:2|0:0,0:0:0:0:
381,244,146044,1,0,0:0:0:0:
381,244,146123,1,0,0:0:0:0:
381,244,146202,2,0,L|389:319,1,71.2500027179719,8|0,0:2|0:0,0:0:0:0:
428,145,146360,1,0,0:0:0:0:
428,145,146439,1,0,0:0:0:0:
428,145,146518,5,2,1:2:0:0:
425,118,146597,1,0,0:0:0:0:
422,91,146676,1,0,0:0:0:0:
419,65,146755,1,0,0:0:0:0:
416,38,146833,2,0,L|491:30,1,71.2500027179719,8|0,0:2|0:0,0:0:0:0:
315,154,146991,2,0,L|240:162,1,71.2500027179719
144,279,147149,53,2,1:2:0:0:
141,251,147228,1,0,0:0:0:0:
138,224,147307,1,0,0:0:0:0:
136,198,147386,1,0,0:0:0:0:
133,171,147465,2,0,L|57:178,1,71.2500027179719,8|0,0:2|0:0,0:0:0:0:
256,264,147623,2,0,L|331:256,1,71.2500027179719
512,135,147781,5,2,1:2:0:0:
480,138,147859,1,0,0:0:0:0:
448,141,147938,1,0,0:0:0:0:
416,143,148017,1,0,0:0:0:0:
384,146,148096,1,8,0:2:0:0:
352,150,148175,1,0,0:0:0:0:
320,153,148254,1,0,0:0:0:0:
288,155,148333,1,0,0:0:0:0:
256,158,148412,2,0,L|227:223,1,47.5,2|0,1:2|1:2,0:0:0:0:
150,75,148570,2,0,L|191:132,1,47.5,2|0,1:2|1:2,0:0:0:0:
25,125,148728,2,0,L|95:117,1,47.5,10|0,0:2|1:2,0:0:0:0:
5,258,148886,2,0,L|33:192,1,47.5,0|0,1:2|1:2,0:0:0:0:
116,202,149044,5,2,0:0:0:0:
114,49,150307,6,0,P|88:83|98:121,1,66.4999979705811,6|0,1:2|0:0,0:0:0:0:
89,104,150465,2,0,L|169:121,1,66.4999979705811,2|0,0:0|0:0,0:0:0:0:
309,305,150623,6,0,P|335:271|325:233,1,66.4999979705811,10|0,0:2|0:0,0:0:0:0:
333,249,150781,2,0,L|253:232,1,66.4999979705811,2|0,0:0|0:0,0:0:0:0:
105,218,150939,6,0,P|262:162|368:142,1,228,2|0,1:2|0:0,0:0:0:0:
384,101,151255,2,0,P|388:62|342:54,1,76,10|0,0:2|0:0,0:0:0:0:
111,120,151412,54,0,P|132:217|145:352,1,228,2|0,0:0|0:0,0:0:0:0:
236,323,151728,2,0,P|214:225|201:90,1,228,2|0,0:0|0:0,0:0:0:0:
276,64,152044,2,0,P|295:35|358:39,1,76,2|0,0:0|0:0,0:0:0:0:
450,201,152202,5,2,1:2:0:0:
462,200,152281,1,0,0:0:0:0:
473,197,152360,2,0,P|501:166|494:124,1,76,2|0,0:0|0:0,0:0:0:0:
364,231,152518,5,10,0:2:0:0:
366,219,152597,1,0,0:0:0:0:
367,207,152676,2,0,P|347:170|305:164,1,76,2|0,0:0|0:0,0:0:0:0:
251,271,152833,54,0,B|388:286|295:377|462:387,1,228,2|0,1:2|0:0,0:0:0:0:
458,300,153149,2,0,L|190:372,1,228,10|0,0:2|0:0,0:0:0:0:
161,336,153465,2,0,P|91:297|100:229,1,152,2|0,1:2|0:0,0:0:0:0:
101,226,153702,1,0,0:0:0:0:
111,222,153781,2,0,P|113:260|71:272,1,76,10|0,0:2|0:0,0:0:0:0:
26,80,153939,6,0,P|127:104|270:169,1,228,2|0,0:0|0:0,0:0:0:0:
241,152,154255,2,0,P|278:137|274:89,1,76,2|0,0:0|0:0,0:0:0:0:
175,39,154412,5,8,0:2:0:0:
152,30,154491,1,0,0:0:0:0:
129,18,154570,53,2,0:0:0:0:
180,6,154649,1,0,0:0:0:0:
222,32,154728,1,2,1:2:0:0:
255,61,154807,1,0,0:0:0:0:
288,78,154886,1,2,0:0:0:0:
319,80,154965,1,0,0:0:0:0:
347,72,155044,1,10,0:2:0:0:
360,61,155123,1,0,0:0:0:0:
365,46,155202,1,0,0:0:0:0:
359,35,155281,1,0,0:0:0:0:
352,32,155360,6,0,P|335:69|366:105,1,76,2|0,1:2|0:0,0:0:0:0:
258,193,155518,2,0,P|287:220|331:202,1,76,2|0,0:0|0:0,0:0:0:0:
379,333,155676,2,0,P|414:313|410:265,1,76,10|0,0:2|0:0,0:0:0:0:
440,181,155833,6,0,P|276:206|131:241,1,304,2|2,0:0|0:0,0:0:0:0:
6,157,156307,1,10,0:2:0:0:
53,230,156465,1,2,0:0:0:0:
217,353,156623,54,0,P|201:228|171:94,1,228,2|0,1:2|0:0,0:0:0:0:
179,128,156939,2,0,B|185:79|206:108|211:47,1,76,10|0,0:2|0:0,0:0:0:0:
64,28,157097,2,0,P|104:25|136:43,1,76,2|0,0:0|0:0,0:0:0:0:
266,161,157255,5,2,1:2:0:0:
311,186,157333,1,0,0:0:0:0:
354,197,157412,1,2,0:0:0:0:
385,197,157491,1,0,0:0:0:0:
406,190,157570,1,8,0:2:0:0:
417,183,157649,1,0,0:0:0:0:
422,176,157728,6,0,P|334:195|215:272,1,228,2|0,0:0|0:0,0:0:0:0:
175,337,158044,2,0,P|193:376|247:354,1,76,2|0,0:0|0:0,0:0:0:0:
291,341,158202,2,0,P|325:315|293:267,1,76,10|0,0:2|0:0,0:0:0:0:
154,113,158360,54,0,P|127:150|153:191,1,76,2|0,0:0|0:0,0:0:0:0:
134,176,158518,2,0,L|232:160,1,76,2|0,1:2|0:0,0:0:0:0:
419,123,158676,6,0,P|428:86|445:52,1,76,2|0,0:0|0:0,0:0:0:0:
368,21,158833,2,0,P|358:57|341:91,1,76,10|0,0:2|0:0,0:0:0:0:
244,295,158991,6,0,P|300:203|404:288,1,228,2|0,0:0|0:0,0:0:0:0:
402,345,159307,2,0,P|371:342|348:302,1,76,2|0,0:0|0:0,0:0:0:0:
401,134,159465,53,8,0:2:0:0:
404,115,159543,1,0,0:0:0:0:
411,97,159622,1,2,0:0:0:0:
422,82,159701,1,0,0:0:0:0:
437,70,159780,5,2,1:2:0:0:
414,108,159860,1,0,1:2:0:0:
374,126,159939,1,2,1:2:0:0:
331,127,160018,1,0,1:2:0:0:
290,113,160097,5,10,0:2:0:0:
240,79,160176,1,0,1:2:0:0:
180,68,160255,1,0,1:2:0:0:
122,83,160333,1,0,1:2:0:0:
87,131,160412,6,0,P|91:163|121:172,1,66.4999979705811,6|0,1:2|0:0,0:0:0:0:
108,279,160570,2,0,P|140:275|149:245,1,66.4999979705811,2|0,0:0|0:0,0:0:0:0:
257,231,160728,2,0,P|253:199|223:190,1,66.4999979705811,10|0,0:2|0:0,0:0:0:0:
236,83,160886,2,0,P|204:87|195:117,1,66.4999979705811,2|0,0:0|0:0,0:0:0:0:
216,310,161044,6,0,P|154:207|37:234,1,256.499992172241,2|0,1:2|0:0,0:0:0:0:
86,376,161360,2,0,P|136:355|162:365,1,85.4999973907472,10|0,0:2|0:0,0:0:0:0:
263,384,161518,6,0,B|339:278|353:368|459:200,1,256.499992172241,2|0,0:0|0:0,0:0:0:0:
396,384,161833,2,0,B|417:255|343:309|387:115,1,256.499992172241,2|0,0:0|0:0,0:0:0:0:
454,70,162149,2,0,B|429:97|444:108|416:145,1,85.4999973907472,2|0,0:0|0:0,0:0:0:0:
281,243,162307,53,2,1:2:0:0:
251,238,162386,1,0,0:0:0:0:
217,220,162465,1,0,0:0:0:0:
193,193,162544,1,0,0:0:0:0:
156,173,162623,1,10,0:2:0:0:
118,188,162702,1,0,0:0:0:0:
94,218,162781,1,0,0:0:0:0:
64,233,162860,1,0,0:0:0:0:
34,239,162939,1,2,1:2:0:0:
220,307,163097,5,0,0:0:0:0:
171,318,163176,1,0,0:0:0:0:
147,357,163255,2,0,B|138:228|170:212|157:100,1,256.499992172241,10|0,0:2|0:0,0:0:0:0:
73,16,163570,2,0,B|24:6|-10:86|58:111|58:111|126:104|126:104|145:82|166:82,1,256.499992172241,2|0,1:2|0:0,0:0:0:0:
236,111,163886,2,0,B|247:109|247:109|281:118|308:102|308:102|318:101,1,85.4999973907472,10|0,0:2|0:0,0:0:0:0:
423,90,164044,6,0,B|414:3|414:3|406:-3|406:-3|267:9|267:9|269:28,1,256.499992172241,2|0,0:0|0:0,0:0:0:0:
179,175,164360,2,0,B|179:185|179:185|195:212|187:245|187:245|188:257,1,85.4999973907472,2|0,0:0|0:0,0:0:0:0:
252,315,164518,2,0,B|262:314|262:314|289:298|322:306|322:306|334:305,1,85.4999973907472,10|0,0:2|0:0,0:0:0:0:
392,242,164676,2,0,B|391:231|391:231|375:204|383:171|383:171|382:159,1,85.4999973907472,2|0,0:0|0:0,0:0:0:0:
319,100,164833,2,0,B|308:102|308:102|281:118|247:109|247:109|236:111,1,85.4999973907472,2|0,1:2|0:0,0:0:0:0:
106,142,164991,53,2,0:0:0:0:
70,178,165070,1,0,0:0:0:0:
60,226,165149,1,10,0:2:0:0:
72,268,165228,1,0,0:0:0:0:
90,291,165307,1,0,0:0:0:0:
112,305,165386,1,0,0:0:0:0:
124,312,165465,6,0,P|145:344|144:377,1,66.4999979705811,2|0,1:2|0:0,0:0:0:0:
269,251,165623,2,0,P|248:283|249:316,1,66.4999979705811,2|0,0:0|0:0,0:0:0:0:
370,189,165781,2,0,P|372:222|392:249,1,66.4999979705811,10|0,0:2|0:0,0:0:0:0:
372,384,165939,6,0,L|387:156,1,228,2|0,0:0|0:0,0:0:0:0:
360,17,166255,2,0,L|315:77,1,76,2|0,0:0|0:0,0:0:0:0:
506,54,166412,2,0,L|437:83,1,76,10|0,0:2|0:0,0:0:0:0:
184,46,166570,54,0,L|216:144,1,85.4999973907472
117,238,166728,2,0,L|193:306,1,85.4999973907472,2|0,1:2|0:0,0:0:0:0:
297,156,166886,5,2,0:0:0:0:
371,191,166965,2,0,B|261:208|261:208|236:223|202:219|202:219|120:233,1,256.499992172241,2|2,0:0|0:0,0:0:0:0:
296,322,167360,2,0,L|307:229,1,85.4999973907472,2|0,1:2|0:0,0:0:0:0:
419,2,167518,2,0,L|466:290,1,256.499992172241,2|0,0:0|0:0,0:0:0:0:
220,253,167833,2,0,L|179:0,1,256.499992172241,2|0,0:0|0:0,0:0:0:0:
214,31,168149,6,0,P|185:62|165:100,1,85.4999973907472,2|0,0:0|0:0,0:0:0:0:
207,172,168307,1,10,0:2:0:0:
337,108,168465,2,0,P|308:139|288:177,1,85.4999973907472,2|0,0:0|0:0,0:0:0:0:
41,183,168623,54,0,P|82:171|124:169,1,85.4999973907472,2|0,1:2|0:0,0:0:0:0:
300,256,168781,2,0,P|342:254|383:242,1,85.4999973907472,2|0,0:0|0:0,0:0:0:0:
141,245,168939,5,10,0:2:0:0:
411,315,169097,1,2,0:0:0:0:
416,170,169255,5,8,0:2:0:0:
148,325,169413,1,2,1:2:0:0:
36,178,169570,53,10,0:2:0:0:
29,117,169648,1,0,1:2:0:0:
41,65,169727,1,2,1:2:0:0:
69,27,169806,1,0,1:2:0:0:
95,0,169886,6,0,L|120:34,16,42.7499986953736,10|0|0|0|2|0|0|0|10|0|0|0|2|0|0|0|6,1:2|0:0|1:2|0:0|1:2|0:0|1:2|0:0|0:2|0:0|1:2|0:0|1:2|0:0|1:2|0:0|1:2,0:0:0:0:
55,242,171149,5,6,1:2:0:0:
192,376,171781,53,6,1:2:0:0:
368,332,172412,5,6,1:2:0:0:
421,192,172728,5,6,1:2:0:0:
364,82,173044,53,6,1:2:0:0:
264,60,173360,5,6,1:2:0:0:
180,100,173676,5,6,1:2:0:0:
160,189,173833,53,4,1:2:0:0:
209,260,173991,5,6,1:2:0:0:
287,251,174149,5,4,1:2:0:0:
316,181,174307,53,6,1:2:0:0:
290,139,174386,5,0,1:2:0:0:
248,128,174465,5,6,1:2:0:0:
214,146,174544,53,0,1:2:0:0:
202,175,174623,5,6,1:2:0:0:
217,206,174702,5,0,1:2:0:0:
240,213,174781,53,6,1:2:0:0:
254,201,174860,5,0,1:2:0:0:
256,192,174939,5,6,1:2:0:0:
492,212,175255,54,1,B|487:164|509:124|509:124|527:125|527:125|518:133|518:133|425:125|425:125|414:118|414:118|374:114|374:114|361:120|361:120|422:124,1,312.000000000017,2|0,0:0|0:0,0:0:0:0:
421,251,175570,38,0,P|408:213|365:201,1,71.2500027179719,6|0,1:2|0:0,0:0:0:0:
251,265,175728,1,0,0:0:0:0:
255,278,175807,1,0,0:0:0:0:
266,287,175886,2,0,P|305:294|337:263,1,71.2500027179719,10|0,0:2|0:0,0:0:0:0:
284,127,176044,2,0,P|258:157|269:200,1,71.2500027179719
512,24,176202,6,0,P|462:79|392:94,1,142.500005435944,2|0,1:2|0:0,0:0:0:0:
393,90,176439,1,0,0:0:0:0:
390,84,176518,2,0,P|435:90|444:111,1,71.2500027179719,8|0,0:2|0:0,0:0:0:0:
469,228,176676,5,2,0:0:0:0:
474,258,176754,1,2,0:0:0:0:
480,288,176833,1,2,1:2:0:0:
377,286,176991,53,2,0:0:0:0:
382,316,177069,1,2,0:0:0:0:
388,346,177148,1,10,0:2:0:0:
269,337,177307,5,2,0:0:0:0:
125,384,177465,6,0,L|109:280,1,71.2500027179719,2|0,1:2|0:0,0:0:0:0:
183,247,177623,2,0,L|199:143,1,71.2500027179719,2|0,0:2|0:0,0:0:0:0:
80,33,177781,54,0,P|60:67|65:97,1,71.2500027179719,10|0,0:2|0:0,0:0:0:0:
66,98,177939,2,0,L|144:106,1,71.2500027179719,2|0,0:2|0:0,0:0:0:0:
285,44,178097,6,0,P|308:35|282:39,1,71.25,2|0,1:2|0:0,0:0:0:0:
196,9,178412,6,0,B|207:172|271:69|291:247,1,242.250004620552,10|0,0:2|0:0,0:0:0:0:
360,277,178728,54,0,P|382:283|416:251,1,71.2500027179719,2|0,1:2|0:0,0:0:0:0:
364,180,178886,2,0,P|377:160|356:118,1,71.2500027179719,2|0,0:0|0:0,0:0:0:0:
134,284,179044,6,0,P|214:298|284:314,1,142.500005435944,8|2,0:2|0:0,0:0:0:0:
280,318,179281,1,2,0:0:0:0:
284,325,179360,2,0,P|244:352|219:344,1,71.2500027179719,2|0,1:2|0:0,0:0:0:0:
157,223,179518,2,0,P|127:246|132:285,1,71.2500027179719,2|0,0:0|0:0,0:0:0:0:
328,240,179676,5,10,0:2:0:0:
363,245,179754,1,2,0:0:0:0:
397,255,179833,1,2,0:0:0:0:
429,270,179912,1,2,0:0:0:0:
459,289,179991,54,0,P|418:314|397:298,1,71.2500027179719,2|0,1:2|0:0,0:0:0:0:
386,168,180149,2,0,P|349:135|358:110,1,71.2500027179719,2|0,0:2|0:0,0:0:0:0:
492,76,180307,6,0,L|258:103,1,213.750008153916,10|0,0:2|0:0,0:0:0:0:
279,100,180623,6,0,P|260:135|275:167,1,71.2500027179719,2|0,1:2|0:0,0:0:0:0:
356,291,180781,1,2,0:0:0:0:
366,287,180860,1,2,0:0:0:0:
371,278,180939,2,0,P|350:244|314:241,1,71.2500027179719,8|0,0:2|0:0,0:0:0:0:
211,370,181097,54,0,L|166:149,1,213.750008153916,2|2,0:2|0:2,0:0:0:0:
168,160,181412,2,0,B|173:105|187:137|192:85,1,71.2500027179719,0|2,0:0|0:2,0:0:0:0:
41,59,181570,2,0,P|89:65|133:90,1,71.2500027179719,8|0,0:2|0:0,0:0:0:0:
321,174,181728,2,0,P|273:168|229:143,1,71.2500027179719,2|0,0:2|0:0,0:0:0:0:
30,160,181886,5,0,1:2:0:0:
19,176,181965,1,2,0:2:0:0:
14,195,182044,2,0,L|31:278,1,71.2500027179719,2|2,0:2|0:2,0:0:0:0:
183,295,182202,2,0,P|151:276|110:284,1,71.2500027179719,10|0,0:2|0:0,0:0:0:0:
106,356,182360,2,0,P|137:374|178:366,1,71.2500027179719,2|0,0:2|0:0,0:0:0:0:
339,310,182518,2,0,P|310:282|273:275,1,71.2500027179719,2|0,1:2|0:0,0:0:0:0:
279,372,182676,2,0,P|305:281|348:168,1,213.750008153916,2|0,0:2|0:0,0:0:0:0:
420,106,182991,6,0,B|294:92|373:18|224:8,1,213.750008153916,2|0,0:2|0:0,0:0:0:0:
212,126,183307,1,2,0:2:0:0:
239,114,183386,1,2,0:2:0:0:
254,87,183465,1,10,0:2:0:0:
154,52,183623,1,2,0:2:0:0:
150,22,183702,1,2,0:2:0:0:
129,0,183781,2,0,P|90:5|63:35,1,71.2500027179719,2|0,1:2|0:0,0:0:0:0:
30,110,183939,2,0,P|23:148|42:183,1,71.2500027179719,2|0,0:0|0:0,0:0:0:0:
149,269,184097,53,10,0:0:0:0:
174,262,184176,1,0,0:0:0:0:
199,255,184255,2,0,L|281:270,1,71.2500027179719,2|0,0:0|0:0,0:0:0:0:
383,315,184412,6,0,L|365:395,1,71.2500027179719,0|0,1:2|1:2,0:0:0:0:
447,239,184570,2,0,L|517:280,1,71.2500027179719,2|0,1:2|1:2,0:0:0:0:
428,124,184728,2,0,L|489:69,1,71.2500027179719,10|2,0:2|1:2,0:0:0:0:
286,138,184886,2,0,L|253:62,1,71.2500027179719,2|0,1:2|1:2,0:0:0:0:
192,306,185044,5,2,1:2:0:0:
202,316,185123,1,0,0:0:0:0:
222,323,185202,1,2,1:2:0:0:
247,320,185280,1,0,0:0:0:0:
277,295,185359,1,10,0:2:0:0:
298,251,185438,1,0,0:0:0:0:
338,215,185517,1,2,1:2:0:0:
399,212,185596,1,0,0:0:0:0:
465,240,185676,6,0,L|463:334,1,71.2500027179719,6|0,1:2|0:0,0:0:0:0:
498,257,185833,2,0,L|496:328,1,71.2500027179719,2|2,0:0|0:0,0:0:0:0:
512,180,185991,1,10,0:2:0:0:
440,70,186149,1,2,0:0:0:0:
440,70,186228,1,2,0:0:0:0:
440,70,186307,2,0,L|438:164,1,71.2500027179719,2|0,1:2|0:0,0:0:0:0:
359,108,186465,1,2,0:0:0:0:
359,108,186544,1,2,0:0:0:0:
359,108,186623,2,0,L|357:202,1,71.2500027179719,8|0,0:2|0:0,0:0:0:0:
326,129,186781,2,0,L|324:200,1,71.2500027179719,2|2,0:0|0:0,0:0:0:0:
294,43,186939,1,2,1:2:0:0:
100,111,187176,5,2,0:0:0:0:
100,110,187255,2,0,P|69:127|33:126,1,71.2500027179719,10|0,0:2|0:0,0:0:0:0:
11,41,187412,2,0,P|41:23|77:24,1,71.2500027179719,2|0,0:0|0:0,0:0:0:0:
129,192,187570,2,0,P|146:222|145:258,1,71.2500027179719,2|0,1:2|0:0,0:0:0:0:
59,281,187728,1,2,0:2:0:0:
59,281,187807,1,0,0:0:0:0:
59,281,187886,2,0,P|42:250|43:214,1,71.2500027179719,10|0,0:2|0:0,0:0:0:0:
122,344,188044,1,2,0:2:0:0:
122,344,188123,1,0,0:0:0:0:
122,344,188202,5,2,1:2:0:0:
376,381,188360,1,0,0:0:0:0:
202,312,188518,1,10,0:2:0:0:
229,233,188676,1,0,0:0:0:0:
229,233,188755,1,0,0:0:0:0:
229,233,188833,1,2,1:2:0:0:
483,270,188991,1,2,0:0:0:0:
309,201,189149,1,8,0:2:0:0:
309,201,189228,1,0,0:0:0:0:
309,201,189307,1,2,0:0:0:0:
309,201,189386,1,2,0:0:0:0:
309,201,189465,1,2,1:2:0:0:
377,68,189623,53,2,0:0:0:0:
377,68,189702,1,0,0:0:0:0:
377,68,189781,2,0,B|353:41|353:41|317:48,1,71.2500027179719,10|2,0:2|0:0,0:0:0:0:
164,89,189939,1,2,0:0:0:0:
164,89,190018,1,2,0:0:0:0:
164,89,190097,2,0,B|158:99|158:99|180:192|180:192|225:182|225:182|214:134|214:134|199:127,1,213.750008153916,2|0,1:2|0:0,0:0:0:0:
85,145,190412,2,0,B|61:118|61:118|25:125,1,71.2500027179719,10|0,0:2|0:0,0:0:0:0:
0,209,190570,2,0,B|34:202|34:202|58:229,1,71.2500027179719
133,258,190728,6,0,L|155:358,1,71.2500027179719,2|0,1:2|0:0,0:0:0:0:
64,309,190886,1,2,0:0:0:0:
217,276,191044,1,8,0:2:0:0:
305,305,191202,6,0,L|327:405,1,71.2500027179719,2|0,0:2|0:0,0:0:0:0:
236,356,191360,1,0,1:2:0:0:
389,323,191518,1,0,0:0:0:0:
434,191,191676,54,0,L|456:291,1,71.2500027179719,8|0,0:2|0:0,0:0:0:0:
365,242,191834,1,2,0:2:0:0:
289,16,191991,6,0,B|284:89|284:89|294:103|294:103|288:232,1,213.750008153916,0|2,1:2|0:2,0:0:0:0:
208,131,192307,2,0,L|131:127,1,71.2500027179719,10|0,0:2|0:0,0:0:0:0:
371,66,192465,1,2,0:2:0:0:
371,66,192544,1,0,0:0:0:0:
371,66,192623,2,0,L|448:70,1,71.2500027179719,2|0,1:2|0:0,0:0:0:0:
383,153,192781,1,2,0:2:0:0:
383,153,192860,1,0,0:0:0:0:
383,153,192939,2,0,L|460:157,1,71.2500027179719,8|0,0:2|0:0,0:0:0:0:
202,215,193097,2,0,L|125:211,1,71.2500027179719,2|0,0:2|0:0,0:0:0:0:
56,196,193255,6,0,B|20:200|20:200|54:211,1,71.2500027179719,0|0,1:2|0:0,0:0:0:0:
282,231,193412,2,0,B|317:226|317:226|283:215,1,71.2500027179719,2|2,0:2|0:2,0:0:0:0:
173,135,193570,53,10,0:2:0:0:
57,102,193728,6,0,B|52:66|52:66|41:100,1,71.2500027179719,2|2,0:2|0:2,0:0:0:0:
184,54,193886,2,0,B|179:18|179:18|168:52,1,71.2500027179719,2|0,1:2|0:0,0:0:0:0:
305,116,194044,2,0,B|300:80|300:80|289:114,1,71.2500027179719,2|0,0:0|0:0,0:0:0:0:
144,212,194202,6,0,B|158:318|158:318|191:217,1,213.750008153916,10|0,0:0|0:0,0:0:0:0:
173,135,194518,53,0,1:2:0:0:
284,212,194676,1,2,0:0:0:0:
310,209,194754,1,0,0:0:0:0:
336,207,194833,1,10,0:0:0:0:
432,282,194991,1,2,0:0:0:0:
460,279,195070,1,0,0:0:0:0:
488,276,195149,2,0,B|508:252|508:252|486:47,2,213.750008153916,2|2|2,1:2|1:2|1:2,0:0:0:0:
