osu file format v14

[General]
AudioFilename: yuiko ghost.mp3
AudioLeadIn: 0
PreviewTime: 48033
Countdown: 0
SampleSet: Soft
StackLeniency: 0.2
Mode: 0
LetterboxInBreaks: 0
WidescreenStoryboard: 1

[Editor]
Bookmarks: 123247,124676
DistanceSpacing: 0.4
BeatDivisor: 4
GridSize: 32
TimelineZoom: 3.599999

[Metadata]
Title:Ghost Rule
TitleUnicode:ゴーストルール
Artist:yuikonnu
ArtistUnicode:ゆいこんぬ
Creator:Len
Version:Mayday
Source:
Tags:初音ミク hatsune miku vocaloid handsome crier fortune sionkotori slayed Akitoshi Fast Sonnyc -Laura- Satellite
BeatmapID:959426
BeatmapSetID:440650

[Difficulty]
HPDrainRate:6
CircleSize:4
OverallDifficulty:9
ApproachRate:9.7
SliderMultiplier:1.4
SliderTickRate:2

[Events]
//Background and Video events
0,0,"ghost.jpg",0,0
//Break Periods
2,9447,16752
2,45876,47324
2,66590,74467
2,103019,104467
2,123733,132181
2,158018,159253
2,196676,204181
//Storyboard Layer 0 (Background)
//Storyboard Layer 1 (Fail)
//Storyboard Layer 2 (Pass)
//Storyboard Layer 3 (Foreground)
//Storyboard Sound Samples

[TimingPoints]
105,285.714285714286,4,2,11,20,1,0
105,-166.666666666667,4,2,11,20,0,0
2390,-125,4,2,11,30,0,0
4676,-100,4,2,11,40,0,0
6962,-83.3333333333333,4,2,11,50,0,0
8390,-62.5,4,2,11,60,0,0
8962,-100,4,2,11,60,0,0
17247,-71.4285714285714,4,1,11,60,0,0
18676,-100,4,1,11,60,0,0
22676,-62.5,4,2,11,40,0,0
22962,-100,4,2,11,40,0,0
27533,-83.3333333333333,4,2,10,50,0,0
36676,-71.4285714285714,4,2,11,40,0,0
47819,-250,4,2,11,40,0,0
48033,-71.4285714285714,4,2,11,10,0,0
48105,-62.5,4,1,10,70,0,1
52105,-62.5,4,2,10,50,0,0
52676,-62.5,4,1,10,70,0,1
56676,-62.5,4,2,10,50,0,0
57247,-62.5,4,1,10,70,0,1
61247,-62.5,4,2,10,50,0,0
61819,-62.5,4,1,10,70,0,1
65819,-62.5,4,2,10,50,0,0
66390,-71.4285714285714,4,1,11,60,0,0
75533,-125,4,1,11,30,0,0
82390,-100,4,1,11,40,0,0
83533,-200,4,2,11,40,0,0
84676,-83.3333333333333,4,2,10,50,0,0
93819,-71.4285714285714,4,2,11,40,0,0
104962,-125,4,2,11,40,0,0
105176,-71.4285714285714,4,2,11,10,0,0
105247,-62.5,4,1,10,70,0,1
109247,-62.5,4,2,10,50,0,0
109819,-62.5,4,1,10,70,0,1
113819,-62.5,4,2,10,50,0,0
114390,-62.5,4,1,10,70,0,1
118390,-62.5,4,2,10,50,0,0
118962,-62.5,4,1,10,70,0,1
122962,-62.5,4,2,10,50,0,0
132676,-100,4,2,11,30,0,0
141819,-83.3333333333333,4,2,11,40,0,0
150390,-200,4,2,11,40,0,0
150426,-200,4,2,11,10,0,0
150533,-200,4,2,11,15,0,0
150676,-200,4,2,11,20,0,0
150819,-200,4,2,11,30,0,0
150962,-125,4,2,11,40,0,0
157533,-250,4,2,11,30,0,0
159819,-71.4285714285714,4,2,11,50,0,0
160033,-71.4285714285714,4,2,11,10,0,0
160105,-62.5,4,1,10,70,0,1
164105,-62.5,4,1,10,50,0,0
164676,-62.5,4,1,10,70,0,1
168105,-55.5555555555556,4,1,10,70,0,1
168676,-62.5,4,1,10,50,0,0
169247,-55.5555555555556,4,1,10,80,0,1
172962,-50,4,1,10,80,0,1
173247,-62.5,4,1,10,60,0,0
173676,-50,4,1,10,60,0,0
173819,-50,4,1,10,90,0,1
177533,-50,4,1,10,60,0,0
178390,-62.5,4,1,10,80,0,1
181819,-55.5555555555556,4,1,10,80,0,1
182390,-50,4,1,10,60,0,0
182962,-62.5,4,1,10,80,0,1
186962,-200,4,1,10,60,0,0
187533,-62.5,4,1,10,80,0,1
190676,-50,4,1,10,80,0,1
191533,-50,4,1,10,60,0,0
192105,-62.5,4,1,10,80,0,1
196105,-50,4,1,10,60,0,0
196676,-50,4,2,11,30,0,0

[Colours]
Combo1 : 255,60,133
Combo2 : 206,175,226
Combo3 : 149,145,227
Combo4 : 138,238,255
Combo5 : 121,182,255
Combo6 : 237,151,255
Combo7 : 200,99,254
Combo8 : 238,28,255

[HitObjects]
106,188,105,6,0,L|91:100,2,83.9999974365235,0|0|0,3:0|3:0|1:0,0:0:0:0:
31,326,1105,2,0,P|66:287|112:276,1,83.9999974365235,0|0,3:0|1:0,0:0:0:0:
173,300,1533,1,0,3:0:0:0:
173,300,1819,2,0,L|166:359,1,41.9999987182618,0|0,1:0|0:0,0:0:0:0:
468,269,2390,6,0,L|335:246,1,112,0|0,3:0|3:0,0:0:0:0:
357,249,2962,1,0,1:0:0:0:
416,78,3247,1,0,0:0:0:0:
343,41,3390,2,0,P|306:63|271:144,1,112,0|0,3:0|1:0,0:0:0:0:
204,177,3819,2,0,L|184:106,1,56,0|0,3:0|0:0,0:0:0:0:
116,69,4105,1,0,1:0:0:0:
116,69,4247,2,0,L|96:140,1,56,0|0,3:0|0:0,0:0:0:0:
32,167,4533,1,0,3:0:0:0:
69,241,4676,102,0,P|150:245|216:296,1,140,0|0,3:0|3:0,0:0:0:0:
208,378,5105,1,0,0:0:0:0:
299,337,5247,2,0,L|276:194,1,140,0|0,1:0|0:0,0:0:0:0:
356,181,5676,2,0,L|379:38,1,140,0|0,3:0|1:0,0:0:0:0:
306,0,6105,2,0,L|221:20,1,70,0|0,3:0|0:0,0:0:0:0:
78,14,6390,1,0,1:0:0:0:
56,166,6533,2,8,B|115:172|115:172|132:187|132:187|189:191,1,140,0|0,3:0|0:0,0:0:0:0:
244,258,6890,1,0,0:0:0:0:
244,258,6962,6,0,P|296:224|291:117,1,167.999994873047,0|0,3:0|3:0,0:0:0:0:
305,43,7390,1,0,0:0:0:0:
227,7,7533,2,0,L|29:-2,1,167.999994873047,0|0,1:0|0:0,0:0:0:0:
10,65,7962,2,0,P|-5:121|11:166,1,83.9999974365235,0|0,3:0|0:0,0:0:0:0:
122,131,8247,37,2,0:1:0:0:
71,196,8390,2,2,B|93:173|121:165|121:165|153:189|153:189|182:171|238:188,1,168,6|0,0:1|0:0,0:1:0:0:
281,237,8676,5,0,1:0:0:0:
20,336,8819,1,0,1:0:0:0:
64,61,8962,2,0,L|56:41,8,17.5,0|0|0|0|0|0|0|0|6,0:0|0:0|0:0|0:0|0:0|0:0|0:0|0:0|3:1,0:0:0:0:
458,236,17247,102,0,L|341:243,1,97.9999970092774,4|0,3:1|3:0,0:0:0:0:
280,246,17462,1,0,3:0:0:0:
261,228,17533,5,10,0:0:0:0:
211,122,17676,101,10,0:0:0:0:
95,96,17819,5,8,0:0:0:0:
3,170,17961,101,8,0:0:0:0:
3,287,18104,5,8,0:0:0:0:
95,359,18247,101,8,0:0:0:0:
211,335,18390,5,4,1:0:0:0:
449,22,18676,70,0,P|489:85|439:173,2,140,8|0|8,0:0|0:0|0:0,0:0:0:0:
403,112,19390,2,0,L|247:98,1,140,0|0,0:0|3:0,0:0:0:0:
195,141,19819,1,8,0:0:0:0:
84,359,20105,5,0,3:0:0:0:
168,337,20247,1,0,3:0:0:0:
84,359,20390,2,0,L|62:264,1,70,8|0,0:0|0:0,0:0:0:0:
11,233,20676,102,0,P|74:175|164:200,1,140,4|8,3:1|0:0,0:0:0:0:
195,141,21105,2,0,P|258:199|348:174,1,140,0|0,0:0|3:0,0:0:0:0:
361,136,21533,1,8,0:0:0:0:
78,40,21819,5,0,0:0:0:0:
106,134,21962,1,0,3:0:0:0:
78,40,22105,1,8,0:0:0:0:
158,63,22247,101,0,3:0:0:0:
230,20,22390,5,0,3:0:0:0:
205,221,22533,1,0,3:0:0:0:
230,20,22676,1,8,0:0:0:0:
205,221,22962,102,0,P|184:205|161:146,1,70,4|0,1:0|0:0,0:0:0:0:
382,130,23247,2,0,P|314:123|251:152,2,140,8|0|8,0:0|0:0|0:0,0:0:0:0:
454,58,23962,2,0,L|479:202,1,140,0|0,0:0|3:0,0:0:0:0:
418,259,24390,1,8,0:0:0:0:
263,83,24676,5,0,3:0:0:0:
154,105,24819,1,0,3:0:0:0:
263,83,24962,2,0,L|248:164,1,70,8|0,0:0|0:0,0:0:0:0:
312,205,25247,102,0,P|361:269|340:354,1,140,4|8,3:1|0:0,0:0:0:0:
188,384,25676,2,0,P|139:320|160:235,1,140,0|0,0:0|3:0,0:0:0:0:
222,242,26105,1,8,0:0:0:0:
451,71,26390,5,0,3:0:0:0:
309,43,26533,1,0,3:0:0:0:
451,71,26676,1,8,0:0:0:0:
373,102,26819,101,0,3:0:0:0:
423,168,26962,5,2,3:1:0:0:
372,179,27033,1,0,0:0:0:0:
328,208,27104,1,0,3:0:0:0:
297,250,27176,1,0,0:0:0:0:
282,300,27247,2,0,L|290:327,7,17.5,14|0|0|0|0|0|0|0,0:1|0:0|0:0|0:0|0:0|0:0|0:0|0:0,0:0:0:0:
210,338,27533,6,0,L|113:315,1,83.9999974365235,4|2,3:1|0:0,0:0:0:0:
75,171,27819,6,0,P|64:230|78:266,1,83.9999974365235,8|2,0:0|0:0,0:0:0:0:
288,104,28105,2,0,P|299:45|285:9,1,83.9999974365235,0|2,3:0|0:0,0:0:0:0:
211,4,28390,1,8,0:0:0:0:
0,101,28533,102,0,L|166:72,1,167.999994873047,2|2,0:0|0:0,0:0:0:0:
165,72,28962,1,8,0:0:0:0:
203,226,29105,2,0,L|215:125,1,83.9999974365235,2|0,0:0|3:0,0:0:0:0:
368,136,29390,1,2,0:0:0:0:
278,20,29533,2,0,L|287:103,1,83.9999974365235,8|2,0:0|0:0,0:0:0:0:
304,193,29747,1,0,0:0:0:0:
304,193,29819,6,0,P|377:224|449:174,1,167.999994873047,0|8,3:0|0:0,0:0:0:0:
465,64,30247,2,0,L|383:82,1,83.9999974365235,2|0,0:0|3:0,0:0:0:0:
184,260,30533,2,0,L|265:278,1,83.9999974365235,2|8,0:0|0:0,0:0:0:0:
470,349,30819,101,2,0:0:0:0:
470,349,30890,1,0,0:0:0:0:
470,349,30962,2,0,P|513:283|486:218,1,125.999996154785,0|0,3:0|0:0,0:0:0:0:
446,179,31247,2,0,L|349:204,1,83.9999974365235,8|2,0:0|0:0,0:0:0:0:
170,344,31533,5,0,3:0:0:0:
333,315,31676,1,2,0:0:0:0:
304,151,31819,1,8,0:0:0:0:
141,180,31962,1,2,0:0:0:0:
170,344,32105,102,0,L|180:245,1,83.9999974365235,4|2,3:1|0:0,0:0:0:0:
38,79,32390,6,0,P|90:44|130:38,1,83.9999974365235,8|2,0:0|0:0,0:0:0:0:
330,227,32676,2,0,P|278:262|238:268,1,83.9999974365235,0|2,3:0|0:0,0:0:0:0:
224,192,32962,1,8,0:0:0:0:
410,27,33105,102,0,B|421:89|421:89|411:124|411:124|427:200,1,167.999994873047,2|2,0:0|0:0,0:0:0:0:
425,191,33533,1,8,0:0:0:0:
501,314,33676,2,0,P|448:285|397:288,1,83.9999974365235,2|0,0:0|3:0,0:0:0:0:
166,260,33962,1,2,0:0:0:0:
330,227,34105,2,0,P|278:258|255:304,1,83.9999974365235,8|2,0:0|0:0,0:0:0:0:
279,358,34319,1,0,0:0:0:0:
279,358,34390,6,0,L|134:346,1,125.999996154785,4|0,3:1|0:0,0:0:0:0:
77,367,34676,1,8,0:0:0:0:
6,153,34819,1,2,0:0:0:0:
227,198,34962,1,0,3:0:0:0:
104,240,35105,102,0,P|99:152|71:67,1,167.999994873047,2|0,0:2|0:0,0:0:0:0:
75,76,35533,5,4,3:1:0:0:
194,274,35676,101,0,1:0:0:0:
194,274,35747,1,0,1:0:0:0:
194,274,35819,1,8,0:0:0:0:
227,198,35961,5,0,3:0:0:0:
277,136,36104,101,8,0:0:0:0:
347,91,36247,5,0,3:0:0:0:
425,68,36390,101,8,0:0:0:0:
505,70,36533,5,0,3:0:0:0:
483,350,36676,69,4,3:1:0:0:
504,276,36962,5,0,0:0:0:0:
504,276,37105,1,0,3:0:0:0:
504,276,37247,1,8,0:0:0:0:
501,199,37533,101,0,3:0:0:0:
501,199,37676,1,8,0:0:0:0:
473,128,37962,5,0,3:0:0:0:
473,128,38105,1,8,0:0:0:0:
425,68,38390,101,8,0:0:0:0:
361,27,38676,5,0,0:0:0:0:
361,27,38819,1,0,3:0:0:0:
361,27,38962,1,4,3:1:0:0:
286,8,39247,101,0,0:0:0:0:
210,14,39533,5,8,0:0:0:0:
139,43,39819,101,0,3:0:0:0:
139,43,39962,1,8,0:0:0:0:
81,93,40247,5,0,3:0:0:0:
81,93,40390,1,8,0:0:0:0:
42,159,40676,102,0,L|64:309,1,146.999995513916,10|0,0:1|0:0,0:0:0:0:
101,374,40962,2,0,L|79:224,1,146.999995513916,2|0,0:1|0:0,0:0:0:0:
42,159,41247,5,4,3:1:0:0:
81,93,41533,101,0,0:0:0:0:
81,93,41676,1,0,3:0:0:0:
81,93,41818,1,8,0:0:0:0:
139,43,42104,5,0,3:0:0:0:
139,43,42247,1,8,0:0:0:0:
210,14,42533,101,0,3:0:0:0:
210,14,42676,1,8,0:0:0:0:
286,8,42961,5,8,0:0:0:0:
361,27,43247,101,0,0:0:0:0:
361,27,43390,1,0,3:0:0:0:
361,27,43533,1,4,3:1:0:0:
425,68,43818,5,0,0:0:0:0:
473,128,44105,101,8,0:0:0:0:
501,199,44390,5,0,3:0:0:0:
501,199,44533,1,8,0:0:0:0:
504,276,44818,101,0,3:0:0:0:
500,280,44890,1,0,3:0:0:0:
496,284,44961,1,8,0:0:0:0:
379,331,45105,1,8,0:0:0:0:
263,281,45247,5,8,0:0:0:0:
216,164,45390,1,8,0:0:0:0:
333,117,45533,1,8,0:0:0:0:
380,234,45676,1,0,0:0:0:0:
415,342,47819,6,0,L|403:293,1,42,0|0,0:0|0:0,0:0:0:0:
415,342,48105,22,0,L|426:212,1,112,4|2,3:1|0:2,0:0:0:0:
159,32,48390,2,0,L|148:162,1,112,8|2,0:0|0:2,0:0:0:0:
92,346,48676,5,0,0:0:0:0:
230,231,48819,1,2,0:2:0:0:
62,169,48962,1,8,0:0:0:0:
62,169,49033,1,0,0:0:0:0:
62,169,49105,1,2,0:2:0:0:
185,315,49247,102,0,P|240:274|356:254,1,168,0|0,0:0|2:0,0:0:0:0:
335,252,49533,1,8,0:0:0:0:
389,184,49676,5,2,0:2:0:0:
368,161,49747,1,0,0:0:0:0:
360,132,49819,1,0,0:0:0:0:
450,120,49962,1,2,0:2:0:0:
286,84,50105,2,0,L|83:114,1,168,8|0,0:0|2:0,0:0:0:0:
47,72,50390,101,4,3:1:0:0:
70,218,50533,1,2,0:2:0:0:
189,304,50676,1,8,0:0:0:0:
335,281,50819,1,2,0:2:0:0:
421,162,50962,1,0,0:0:0:0:
421,162,51247,6,0,L|287:149,1,112,8|2,0:0|0:2,0:0:0:0:
240,194,51462,1,0,0:0:0:0:
240,194,51533,2,0,P|201:146|201:71,1,112,0|2,3:0|0:2,0:0:0:0:
306,16,51819,101,10,0:0:0:0:
318,240,51962,1,2,3:2:0:0:
131,363,52105,1,2,3:1:0:0:
119,139,52247,5,2,3:1:0:0:
168,134,52319,1,0,3:0:0:0:
194,97,52390,1,14,3:1:0:0:
116,38,52533,1,2,3:1:0:0:
27,243,52676,102,0,L|161:218,1,112,4|2,3:1|0:2,0:0:0:0:
390,318,52962,2,0,L|256:343,1,112,8|2,0:0|0:2,0:0:0:0:
319,78,53247,5,0,0:0:0:0:
478,219,53390,1,2,0:2:0:0:
469,69,53533,101,8,0:0:0:0:
328,228,53676,1,2,0:2:0:0:
328,228,53747,1,0,0:0:0:0:
328,228,53819,6,0,P|260:223|203:143,1,168,0|0,0:0|2:0,0:0:0:0:
203,147,54105,1,8,0:0:0:0:
93,29,54247,2,0,L|113:149,1,112,2|0,0:2|0:0,0:0:0:0:
202,360,54533,101,2,0:2:0:0:
0,244,54676,2,0,B|66:251|66:251|90:271|90:271|198:282,1,168,8|0,0:0|0:0,0:0:0:0:
223,233,54962,2,0,P|285:217|371:324,1,168
334,355,55247,6,0,L|319:226,1,112,8|2,0:0|0:2,0:0:0:0:
423,210,55462,1,0,0:0:0:0:
423,210,55533,2,0,L|438:81,1,112,0|0,0:0|0:0,0:0:0:0:
284,25,55819,102,0,P|186:24|150:107,1,168,8|0,0:0|3:0,0:0:0:0:
90,149,56105,2,0,L|211:161,1,112,0|8,3:0|3:0,0:0:0:0:
285,166,56319,1,0,3:0:0:0:
285,166,56390,2,0,L|303:241,1,56,8|0,3:2|0:0,0:0:0:0:
334,355,56533,53,2,3:2:0:0:
334,355,56676,1,8,3:0:0:0:
334,355,56819,1,8,3:0:0:0:
334,355,56962,1,4,3:0:0:0:
334,355,57105,1,4,3:0:0:0:
8,277,57247,53,4,3:1:0:0:
11,200,57389,5,2,0:2:0:0:
39,127,57532,101,8,0:0:0:0:
88,67,57675,5,2,0:2:0:0:
154,27,57818,101,0,3:0:0:0:
230,9,57961,5,2,0:2:0:0:
307,17,58104,101,8,0:0:0:0:
377,50,58247,5,2,0:2:0:0:
433,103,58389,101,0,0:0:0:0:
211,370,58533,1,2,0:2:0:0:
430,180,58676,5,8,0:0:0:0:
134,362,58820,1,2,0:2:0:0:
402,253,58962,101,0,3:0:0:0:
64,330,59105,1,2,0:2:0:0:
353,312,59247,5,8,0:0:0:0:
7,277,59390,1,2,0:2:0:0:
287,353,59533,102,0,P|249:297|236:232,1,112,4|2,3:1|0:2,0:0:0:0:
384,5,59819,2,0,P|422:61|435:126,1,112,8|2,0:0|0:2,0:0:0:0:
237,68,60105,2,0,B|175:78|175:78|146:98|146:98|51:110,1,168,0|0,3:0|0:0,0:0:0:0:
76,106,60390,6,0,L|99:232,1,112,8|2,0:0|0:2,0:0:0:0:
54,284,60605,1,0,0:0:0:0:
54,284,60676,2,0,P|121:316|193:278,1,112,0|2,3:0|0:2,0:0:0:0:
320,363,60962,2,0,L|334:249,1,112,8|2,0:0|3:2,0:0:0:0:
356,57,61247,101,8,3:0:0:0:
192,16,61390,1,8,3:0:0:0:
192,16,61462,1,8,3:0:0:0:
192,16,61533,1,4,3:0:0:0:
94,158,61676,1,4,3:0:0:0:
401,365,61819,5,4,3:1:0:0:
460,324,61961,101,2,0:2:0:0:
499,261,62105,5,8,0:0:0:0:
511,191,62247,101,2,0:2:0:0:
495,119,62390,5,0,3:0:0:0:
453,59,62533,101,2,0:2:0:0:
391,21,62676,5,8,0:0:0:0:
320,8,62819,101,2,0:2:0:0:
249,25,62962,5,0,3:0:0:0:
196,331,63105,1,2,0:2:0:0:
190,67,63247,101,8,0:0:0:0:
258,369,63390,1,2,0:2:0:0:
150,127,63533,5,0,3:0:0:0:
330,383,63676,1,2,0:2:0:0:
138,200,63819,101,8,0:0:0:0:
401,365,63962,1,2,0:2:0:0:
154,270,64105,6,0,L|276:260,1,112,4|2,3:1|0:2,0:0:0:0:
485,75,64390,2,0,L|373:85,1,112,8|2,0:0|0:2,0:0:0:0:
352,292,64676,1,0,3:0:0:0:
352,292,64962,101,8,0:0:0:0:
304,43,65105,1,2,0:2:0:0:
55,91,65247,1,0,3:0:0:0:
104,339,65390,1,2,0:2:0:0:
104,339,65462,1,0,3:0:0:0:
104,339,65533,5,8,3:2:0:0:
251,273,65676,1,2,0:2:0:0:
121,179,65819,1,8,3:2:0:0:
121,179,66105,38,0,B|116:174|105:174|91:177|80:187|80:187|81:173|85:159|98:142|120:131|139:122|166:124|186:128|201:136|217:149|228:170|236:186|239:195,1,224,2|6,0:1|3:1,0:0:0:0:
433,301,74962,117,8,0:0:0:0:
308,272,75105,5,8,0:0:0:0:
297,146,75247,101,8,0:0:0:0:
415,95,75390,5,8,0:0:0:0:
497,191,75533,70,0,L|366:180,1,112,4|0,1:0|0:0,0:0:0:0:
329,246,75962,2,0,L|197:257,1,112,0|0,0:0|0:0,0:0:0:0:
155,204,76390,2,0,P|118:242|119:304,1,112,0|0,0:0|0:0,0:0:0:0:
78,41,77819,6,0,P|43:103|64:159,1,112,0|0,0:0|0:0,0:0:0:0:
128,170,78247,2,0,L|258:138,1,112,0|0,0:0|0:0,0:0:0:0:
313,173,78676,2,0,P|318:227|286:272,1,112,0|0,0:0|0:0,0:0:0:0:
211,306,79105,102,0,L|204:250,1,56
415,202,79533,2,0,L|421:146,1,56
284,37,79962,5,0,0:0:0:0:
284,37,80105,2,0,L|161:52,1,112
101,4,80533,1,0,0:0:0:0:
101,4,80676,2,0,L|86:82,1,56,0|0,0:0|0:0,0:0:0:0:
27,116,80962,2,0,L|45:247,1,112,0|0,0:0|0:0,0:0:0:0:
59,319,81390,5,0,0:0:0:0:
59,319,81533,1,0,0:0:0:0:
199,214,81819,5,0,0:0:0:0:
199,214,81962,1,0,0:0:0:0:
361,284,82247,101,0,0:0:0:0:
307,351,82390,2,0,P|286:322|276:284,1,70,0|0,0:0|0:0,0:0:0:0:
431,109,82676,2,0,P|451:137|461:175,1,70,0|0,0:0|0:0,0:0:0:0:
390,207,82962,6,0,P|344:187|251:193,1,140,0|0,0:0|0:0,0:0:0:0:
224,118,83390,2,0,B|231:70|231:70|237:98,1,70,0|0,0:0|0:0,0:0:0:0:
256,192,83676,102,0,B|227:270|286:267|255:327|255:327|227:299|237:253,1,210,8|0,0:0|0:0,0:0:0:0:
256,192,84676,22,0,L|144:213,1,83.9999974365235,4|2,3:1|0:0,0:0:0:0:
25,118,84962,6,0,P|34:76|60:40,1,83.9999974365235,8|2,0:0|0:0,0:0:0:0:
173,207,85248,2,0,P|164:248|138:285,1,83.9999974365235,0|2,3:0|0:0,0:0:0:0:
58,281,85533,1,8,0:0:0:0:
117,114,85676,102,0,P|182:117|270:56,1,167.999994873047,2|2,0:0|0:0,0:0:0:0:
265,62,86105,1,8,0:0:0:0:
424,135,86248,2,0,P|367:112|309:121,1,83.9999974365235,2|0,0:0|3:0,0:0:0:0:
303,261,86533,2,0,L|319:313,2,41.9999987182618,2|0|8,0:0|0:0|0:0,0:0:0:0:
196,161,86819,1,2,0:0:0:0:
387,259,86962,6,0,P|428:229|479:221,1,83.9999974365235,0|0,3:0|0:0,0:0:0:0:
459,310,87248,1,8,0:0:0:0:
267,370,87390,2,0,L|137:350,1,125.999996154785,2|0,0:0|0:0,0:0:0:0:
70,383,87676,2,0,P|34:333|36:283,1,83.9999974365235,2|8,0:0|0:0,0:0:0:0:
69,192,87962,2,0,L|21:202,2,41.9999987182618,2|0|0,0:0|0:0|3:0,0:0:0:0:
210,108,88248,101,2,0:0:0:0:
212,272,88390,1,8,0:0:0:0:
69,192,88533,1,2,0:0:0:0:
210,108,88676,6,0,L|319:126,1,83.9999974365235,0|2,3:0|0:0,0:0:0:0:
492,246,88962,2,0,L|383:228,1,83.9999974365235,8|2,0:0|0:0,0:0:0:0:
328,216,89176,1,0,3:0:0:0:
328,216,89248,102,0,L|344:331,1,83.9999974365235,4|2,3:1|0:0,0:0:0:0:
512,97,89533,6,0,P|466:81|408:88,1,83.9999974365235,8|2,0:0|0:0,0:0:0:0:
339,299,89819,2,0,P|385:315|443:308,1,83.9999974365235,0|2,3:0|0:0,0:0:0:0:
492,246,90105,1,8,0:0:0:0:
353,129,90248,102,0,B|284:136|284:136|256:127|256:127|153:138,1,167.999994873047,2|2,0:0|0:0,0:0:0:0:
187,134,90676,1,8,0:0:0:0:
138,0,90819,2,0,L|116:98,1,83.9999974365235,2|0,0:0|3:0,0:0:0:0:
31,273,91105,1,2,0:0:0:0:
31,273,91248,2,0,P|68:234|156:221,1,125.999996154785,8|0,0:0|0:0,0:0:0:0:
203,267,91533,5,4,3:1:0:0:
335,106,91676,1,0,0:0:0:0:
188,120,91819,101,8,0:0:0:0:
349,252,91962,1,2,0:0:0:0:
349,252,92248,2,0,P|253:291|210:355,1,167.999994873047,2|2,0:0|0:0,0:0:0:0:
216,340,92676,5,4,3:1:0:0:
486,73,92819,101,0,1:0:0:0:
486,73,92890,1,0,1:0:0:0:
486,73,92962,1,8,0:0:0:0:
464,148,93104,5,0,3:0:0:0:
416,211,93247,101,8,0:0:0:0:
349,252,93390,5,0,3:0:0:0:
272,267,93533,101,8,0:0:0:0:
195,254,93676,5,0,3:0:0:0:
31,330,93819,69,4,3:1:0:0:
7,256,94105,5,0,0:0:0:0:
7,256,94248,1,0,3:0:0:0:
7,256,94390,1,8,0:0:0:0:
31,183,94676,101,0,3:0:0:0:
31,183,94819,1,8,0:0:0:0:
93,139,95105,5,0,3:0:0:0:
93,139,95248,1,8,0:0:0:0:
170,129,95533,101,8,0:0:0:0:
232,186,95819,5,0,0:0:0:0:
232,186,95962,1,0,3:0:0:0:
232,186,96105,1,4,3:1:0:0:
294,232,96390,101,0,0:0:0:0:
371,233,96676,5,8,0:0:0:0:
433,189,96962,101,0,3:0:0:0:
433,189,97105,1,8,0:0:0:0:
457,116,97390,5,0,3:0:0:0:
457,116,97533,1,8,0:0:0:0:
433,42,97819,102,0,P|387:10|281:16,1,146.999995513916,10|0,0:1|0:0,0:0:0:0:
224,20,98105,2,0,P|270:52|376:46,1,146.999995513916,2|0,0:1|0:0,0:0:0:0:
433,42,98390,5,4,3:1:0:0:
457,116,98676,101,0,0:0:0:0:
457,116,98819,1,0,3:0:0:0:
457,116,98961,1,8,0:0:0:0:
433,189,99247,5,0,3:0:0:0:
433,189,99390,1,8,0:0:0:0:
371,233,99676,101,0,3:0:0:0:
371,233,99819,1,8,0:0:0:0:
294,243,100104,5,8,0:0:0:0:
232,186,100390,101,0,0:0:0:0:
232,186,100533,1,0,3:0:0:0:
232,186,100676,1,4,3:1:0:0:
170,140,100961,5,0,0:0:0:0:
93,139,101247,101,8,0:0:0:0:
31,183,101533,5,0,3:0:0:0:
31,183,101676,1,8,0:0:0:0:
7,256,101961,101,0,3:0:0:0:
11,260,102033,1,0,3:0:0:0:
15,264,102104,1,8,0:0:0:0:
114,317,102248,1,8,0:0:0:0:
221,284,102390,1,8,0:0:0:0:
246,175,102533,5,8,0:0:0:0:
114,317,102676,1,8,0:0:0:0:
303,361,102819,1,0,0:0:0:0:
51,279,104962,6,0,P|96:312|109:348,1,84,8|0,0:0|0:0,0:0:0:0:
51,279,105248,22,0,L|180:266,1,112,4|2,3:1|0:2,0:0:0:0:
413,64,105533,2,0,L|284:77,1,112,8|2,0:0|0:2,0:0:0:0:
325,255,105819,5,0,0:0:0:0:
80,171,105962,1,2,0:2:0:0:
325,255,106105,1,8,0:0:0:0:
276,0,106248,101,2,0:2:0:0:
239,207,106390,2,0,P|286:164|373:162,1,112,0|0,0:0|0:0,0:0:0:0:
445,384,106676,5,8,0:0:0:0:
260,318,106819,2,0,B|146:293|190:397|53:367,1,224,2|2,0:2|0:2,0:0:0:0:
85,176,107248,2,0,L|106:315,1,112,8|0,0:0|0:0,0:0:0:0:
464,117,107533,101,4,3:1:0:0:
400,28,107676,1,2,0:2:0:0:
294,61,107819,1,8,0:0:0:0:
294,172,107962,1,2,0:2:0:0:
400,206,108105,6,0,P|418:263|390:348,1,112,0|2,0:0|0:2,0:0:0:0:
87,167,108390,2,0,P|69:110|97:25,1,112,8|2,0:0|0:2,0:0:0:0:
151,19,108605,1,0,0:0:0:0:
164,48,108676,2,0,B|228:53|228:53|257:74|257:74|361:86,1,168,0|0,3:0|0:0,0:0:0:0:
400,28,108962,101,10,0:1:0:0:
499,234,109105,1,2,3:2:0:0:
293,333,109248,1,2,3:1:0:0:
194,127,109390,1,2,3:1:0:0:
194,127,109462,1,0,3:0:0:0:
194,127,109533,6,0,L|278:145,1,56,14|0,3:1|0:0,0:0:0:0:
295,231,109676,2,0,L|211:249,1,56,2|0,3:1|0:0,0:0:0:0:
150,324,109819,102,0,L|156:207,1,112,4|2,3:1|0:2,0:0:0:0:
370,66,110105,2,0,L|364:183,1,112,8|2,0:0|0:2,0:0:0:0:
61,260,110390,5,0,0:0:0:0:
227,369,110533,1,2,0:2:0:0:
405,280,110676,2,0,P|339:283|301:212,1,112,8|2,0:0|0:2,0:0:0:0:
268,183,110890,1,0,0:0:0:0:
239,171,110962,102,0,L|53:143,1,168,0|0,0:0|2:0,0:0:0:0:
72,145,111248,1,8,0:0:0:0:
284,24,111390,2,0,P|333:93|319:160,1,112,2|0,0:2|0:0,0:0:0:0:
138,202,111676,5,2,0:2:0:0:
308,253,111819,2,0,L|184:278,1,112,8|2,0:0|0:2,0:0:0:0:
8,323,112105,101,0,0:0:0:0:
98,28,112248,1,2,0:2:0:0:
138,202,112390,1,8,0:0:0:0:
308,253,112533,1,2,0:2:0:0:
433,127,112676,6,0,P|361:97|285:178,1,168,0|0,0:0|2:0,0:0:0:0:
209,139,112962,2,0,L|232:287,1,112,8|2,0:0|0:2,0:0:0:0:
179,362,113248,101,0,3:0:0:0:
363,261,113390,1,8,3:0:0:0:
363,261,113462,1,0,3:0:0:0:
363,261,113533,2,0,L|295:251,1,56,8|0,3:2|0:0,0:0:0:0:
80,234,113676,53,2,3:2:0:0:
80,234,113819,1,8,3:0:0:0:
80,234,113962,1,8,3:0:0:0:
80,234,114105,1,4,3:0:0:0:
80,234,114248,1,4,3:0:0:0:
30,101,114390,53,4,3:1:0:0:
76,159,114533,5,2,0:2:0:0:
146,183,114676,101,8,0:0:0:0:
218,167,114819,5,2,0:2:0:0:
271,115,114962,101,0,3:0:0:0:
324,63,115105,5,2,0:2:0:0:
396,47,115247,101,8,0:0:0:0:
466,71,115390,5,2,0:2:0:0:
512,129,115533,101,0,3:0:0:0:
225,57,115675,1,0,0:0:0:0:
459,181,115819,5,8,0:0:0:0:
155,33,115961,1,0,0:0:0:0:
387,197,116104,101,0,3:0:0:0:
83,49,116247,1,2,0:2:0:0:
316,172,116390,5,8,0:0:0:0:
30,101,116533,1,2,0:2:0:0:
271,115,116676,102,0,P|219:159|197:219,1,112,4|2,3:1|0:2,0:0:0:0:
364,378,116962,2,0,P|416:334|438:274,1,112,8|2,0:0|0:2,0:0:0:0:
510,80,117247,6,0,P|450:112|350:83,1,168,0|0,3:0|0:0,0:0:0:0:
375,0,117533,2,0,L|260:26,1,112,8|2,0:0|0:2,0:0:0:0:
191,50,117747,1,0,0:0:0:0:
182,72,117819,101,0,3:0:0:0:
204,149,117961,1,2,0:2:0:0:
177,224,118104,1,8,0:0:0:0:
109,267,118247,1,2,3:2:0:0:
29,263,118390,5,8,3:0:0:0:
272,299,118533,1,8,3:0:0:0:
272,299,118605,1,8,3:0:0:0:
272,299,118676,1,4,3:0:0:0:
182,72,118819,1,4,3:0:0:0:
483,308,118962,101,4,3:1:0:0:
466,227,119105,5,2,0:2:0:0:
404,173,119247,101,8,0:0:0:0:
321,168,119390,5,2,0:2:0:0:
253,214,119533,101,0,3:0:0:0:
185,260,119676,5,2,0:2:0:0:
102,255,119819,101,8,0:0:0:0:
40,201,119962,5,2,0:2:0:0:
23,120,120105,101,0,3:0:0:0:
270,295,120248,1,2,0:2:0:0:
91,74,120391,5,8,0:0:0:0:
332,349,120534,1,2,0:2:0:0:
174,79,120677,101,0,3:0:0:0:
415,354,120820,1,2,0:2:0:0:
236,133,120963,5,8,0:0:0:0:
483,308,121105,1,2,0:2:0:0:
253,214,121247,102,0,L|386:184,1,112,4|2,3:1|0:2,0:0:0:0:
448,5,121533,2,0,L|315:35,1,112,8|2,0:0|0:2,0:0:0:0:
137,53,121819,1,0,3:0:0:0:
137,53,122105,6,0,P|183:82|207:131,1,112,8|2,0:0|0:2,0:0:0:0:
30,335,122390,2,0,L|163:305,1,112,0|2,3:0|0:2,0:0:0:0:
215,340,122605,1,0,3:0:0:0:
291,363,122676,101,8,3:2:0:0:
322,177,122819,1,2,0:2:0:0:
505,144,122962,1,8,3:2:0:0:
505,144,123248,6,0,B|442:156|406:116|406:116|402:111|402:111|399:102|399:102|399:93|399:93|401:85|401:85|406:80|406:80|413:79|413:79|419:82|419:82|422:88|422:88|424:93|424:93|424:100|424:100|423:106|423:106|419:113|419:113|403:125|375:130,1,224,2|4,0:1|0:0,0:0:0:0:
139,144,132676,6,0,P|201:93|273:98,2,140,6|0|2,0:0|0:0|0:0,0:0:0:0:
58,73,133390,2,0,L|46:213,1,140,2|0,0:0|0:0,0:0:0:0:
454,311,133819,2,0,L|466:171,3,140,2|2|2|2,0:0|0:0|0:0|0:0,0:0:0:0:
410,113,134819,1,0,0:0:0:0:
352,171,134962,6,0,P|292:171|211:102,1,140,2|2,0:0|0:0,0:0:0:0:
241,43,135390,1,0,0:0:0:0:
241,43,135533,2,0,B|187:53|187:53|164:72|164:72|94:87,1,140,2|2,0:0|0:0,0:0:0:0:
43,35,135962,1,0,0:0:0:0:
43,35,136105,1,4,0:0:0:0:
512,201,136390,101,2,0:0:0:0:
443,176,136532,1,2,0:0:0:0:
370,180,136675,1,2,0:0:0:0:
303,210,136818,1,2,0:0:0:0:
253,264,136961,1,2,0:0:0:0:
227,332,137104,1,2,0:0:0:0:
69,208,137248,6,0,L|49:58,1,140,6|0,0:0|0:0,0:0:0:0:
443,176,137819,2,0,L|463:326,1,140,2|0,0:0|0:0,0:0:0:0:
224,183,138390,2,0,P|162:142|81:141,3,140,2|0|2|2,0:0|0:0|0:0|0:0,0:0:0:0:
195,260,139390,101,2,0:0:0:0:
195,260,139533,1,2,0:0:0:0:
407,287,139819,5,2,0:0:0:0:
407,287,139962,1,2,0:0:0:0:
325,90,140248,101,2,0:0:0:0:
195,260,140390,1,2,0:0:0:0:
407,287,140533,1,0,0:0:0:0:
309,213,140676,6,0,P|229:228|130:125,1,210,4|0,0:0|0:0,0:0:0:0:
66,64,141248,2,0,L|226:81,1,140,4|0,0:0|0:0,0:0:0:0:
205,78,141819,6,0,L|221:194,1,83.9999974365235,4|0,1:0|0:0,0:0:0:0:
243,315,142105,1,0,0:0:0:0:
468,49,142390,5,8,0:0:0:0:
378,29,142533,1,0,0:0:0:0:
330,109,142676,1,0,0:0:0:0:
393,177,142819,1,0,3:0:0:0:
476,141,142962,1,2,1:2:0:0:
27,257,143248,101,2,0:0:0:0:
55,178,143533,5,10,0:0:0:0:
109,241,143819,101,2,0:0:0:0:
27,257,143962,5,0,3:0:0:0:
27,257,144033,1,0,0:0:0:0:
27,257,144105,1,0,1:0:0:0:
168,292,144248,1,0,0:0:0:0:
204,150,144390,1,0,0:0:0:0:
62,114,144533,1,0,3:0:0:0:
27,257,144676,102,0,L|129:238,1,83.9999974365235,8|0,0:0|0:0,0:0:0:0:
204,150,144962,2,0,L|306:169,1,83.9999974365235,0|0,0:0|3:0,0:0:0:0:
455,331,145248,6,0,P|506:289|503:180,1,167.999994873047,0|2,1:0|0:0,0:0:0:0:
439,149,145676,1,2,0:0:0:0:
366,191,145819,1,10,0:0:0:0:
286,165,145962,1,2,0:0:0:0:
265,83,146105,1,2,0:0:0:0:
315,15,146248,1,2,3:2:0:0:
366,191,146390,102,0,L|359:288,1,83.9999974365235,0|0,1:0|0:0,0:0:0:0:
267,205,146676,2,0,L|260:302,1,83.9999974365235,0|0,0:0|3:0,0:0:0:0:
178,361,146962,6,0,L|171:264,1,83.9999974365235,8|0,0:0|0:0,0:0:0:0:
79,347,147248,2,0,L|72:250,1,83.9999974365235,0|0,0:0|3:0,0:0:0:0:
14,54,147533,101,0,1:0:0:0:
90,19,147676,1,0,0:0:0:0:
169,47,147819,1,0,0:0:0:0:
204,123,147962,1,0,3:0:0:0:
288,131,148105,5,8,0:0:0:0:
156,192,148248,1,0,0:0:0:0:
169,47,148390,1,0,0:0:0:0:
204,123,148533,101,0,0:0:0:0:
208,127,148605,1,0,3:0:0:0:
212,131,148676,2,0,P|196:212|236:296,1,167.999994873047,0|0,1:0|0:0,0:0:0:0:
408,263,149105,2,0,P|424:182|384:98,1,167.999994873047,0|0,3:0|0:0,0:0:0:0:
433,30,149533,2,0,L|333:17,1,83.9999974365235,0|0,0:0|0:0,0:0:0:0:
49,135,149819,5,8,0:0:0:0:
294,83,149962,1,8,0:0:0:0:
408,263,150248,101,0,3:0:0:0:
9,213,150390,2,0,L|6:198,14,8.75,8|0|0|0|0|0|0|0|0|0|0|0|0|0|0,0:0|0:0|0:0|0:0|0:0|0:0|0:0|0:0|0:0|0:0|0:0|0:0|0:0|0:0|0:0,0:0:0:0:
14,295,150962,86,0,P|76:321|139:307,1,112,4|0,0:1|0:0,0:0:0:0:
168,64,151533,2,0,P|230:38|293:52,1,112,0|0,0:0|0:0,0:0:0:0:
339,85,151962,1,0,0:0:0:0:
414,62,152105,6,0,B|449:106|449:106|430:180,1,112,4|0,0:1|0:0,0:0:0:0:
370,204,152533,2,0,L|238:186,1,112,0|0,0:0|0:0,0:0:0:0:
200,242,152962,2,0,L|121:258,1,56,0|0,0:0|0:0,0:0:0:0:
61,304,153248,102,0,L|77:182,1,112,4|0,0:1|0:0,0:0:0:0:
87,115,153676,1,0,0:0:0:0:
87,115,153819,1,0,0:0:0:0:
363,48,154105,6,0,P|317:44|278:82,1,84,0|0,0:0|0:0,0:0:0:0:
287,64,154390,2,0,L|309:186,1,112,0|0,0:0|0:0,0:0:0:0:
373,217,154819,2,0,L|351:338,1,112,0|0,0:0|0:0,0:0:0:0:
274,328,155248,102,0,P|226:363|155:357,2,112,2|4|0,0:0|0:1|0:0,0:0:0:0:
61,304,156105,2,0,B|30:262|30:262|53:184,1,112,0|0,0:0|0:0,0:0:0:0:
124,190,156533,1,0,0:0:0:0:
143,114,156676,2,0,L|265:88,1,112,4|0,0:1|0:0,0:0:0:0:
287,255,157105,2,0,L|418:269,1,112,0|0,0:0|0:0,0:0:0:0:
443,199,157533,6,0,L|502:191,1,56,0|0,0:0|0:0,0:0:0:0:
197,145,159748,37,0,0:0:0:0:
197,145,159819,2,0,P|151:103|31:119,1,146.999995513916,8|0,0:0|2:0,0:0:0:0:
183,34,160105,22,0,L|199:156,1,112,4|2,3:1|0:2,0:0:0:0:
331,364,160390,2,0,L|315:242,1,112,8|2,0:0|0:2,0:0:0:0:
474,107,160676,5,0,0:0:0:0:
317,253,160819,1,2,0:2:0:0:
273,38,160962,1,8,0:0:0:0:
273,38,161033,1,0,0:0:0:0:
273,38,161105,1,2,0:2:0:0:
7,215,161248,102,0,P|70:166|193:153,1,168,0|0,0:0|2:0,0:0:0:0:
154,148,161533,1,8,0:0:0:0:
127,16,161676,5,2,0:2:0:0:
147,32,161747,1,0,0:0:0:0:
153,57,161818,1,0,0:0:0:0:
75,81,161962,1,2,0:2:0:0:
287,200,162105,2,0,P|251:137|261:23,1,168,8|0,0:0|2:0,0:0:0:0:
322,7,162390,101,4,3:1:0:0:
374,161,162533,1,2,0:2:0:0:
266,283,162676,1,8,0:0:0:0:
106,251,162819,1,2,0:2:0:0:
54,97,162962,5,0,0:0:0:0:
287,200,163105,1,2,0:2:0:0:
81,350,163248,1,8,0:0:0:0:
54,97,163390,101,2,0:2:0:0:
96,131,163461,1,0,0:0:0:0:
152,132,163533,2,0,L|286:103,1,112,0|2,3:0|0:2,0:0:0:0:
455,78,163819,5,10,0:1:0:0:
178,34,163962,1,2,3:2:0:0:
279,296,164105,1,2,3:1:0:0:
261,108,164248,101,2,3:1:0:0:
230,153,164319,1,0,3:0:0:0:
238,207,164390,1,14,3:1:0:0:
369,279,164533,1,2,3:1:0:0:
82,338,164676,6,0,L|235:308,1,112,4|2,3:1|0:2,0:0:0:0:
428,151,164962,2,0,L|275:181,1,112,8|2,0:0|0:2,0:0:0:0:
3,56,165248,101,0,0:0:0:0:
190,10,165390,1,2,0:2:0:0:
236,197,165533,1,8,0:0:0:0:
49,243,165676,1,2,0:2:0:0:
49,243,165747,1,0,0:0:0:0:
49,243,165819,6,0,P|149:253|230:311,1,168,0|0,0:0|2:0,0:0:0:0:
205,286,166105,1,8,0:0:0:0:
298,375,166248,102,0,L|320:233,1,112,2|0,0:2|0:0,0:0:0:0:
343,23,166533,1,2,0:2:0:0:
479,159,166676,2,0,P|396:149|319:179,1,168,8|0,0:0|0:0,0:0:0:0:
236,197,166962,5,0,0:0:0:0:
221,58,167105,1,2,0:2:0:0:
83,28,167247,1,8,0:0:0:0:
13,149,167390,1,2,0:2:0:0:
108,255,167533,1,0,0:0:0:0:
221,58,167676,101,0,0:0:0:0:
221,58,167748,1,0,0:0:0:0:
221,58,167819,2,0,L|213:189,1,112,8|2,0:0|0:2,0:0:0:0:
275,256,168033,1,0,3:0:0:0:
285,222,168105,6,0,P|347:188|435:218,1,125.999996154785,0|8,3:0|3:0,0:0:0:0:
477,200,168319,1,0,3:0:0:0:
499,274,168390,102,0,L|489:361,1,62.9999980773926,8|0,3:2|0:0,0:0:0:0:
330,105,168533,2,0,L|320:18,1,62.9999980773926,2|0,3:2|2:0,0:0:0:0:
243,323,168676,1,8,3:0:0:0:
206,363,168747,1,8,3:0:0:0:
152,375,168818,1,8,3:0:0:0:
101,353,168890,1,8,3:0:0:0:
73,306,168962,1,4,3:0:0:0:
59,238,169033,1,4,3:0:0:0:
45,169,169104,1,4,3:0:0:0:
31,100,169176,1,4,3:0:0:0:
17,32,169248,6,0,L|183:48,1,125.999996154785,4|2,3:1|0:2,0:0:0:0:
471,248,169533,2,0,L|305:232,1,125.999996154785,8|2,0:0|0:2,0:0:0:0:
235,11,169819,101,0,0:0:0:0:
330,317,169962,1,2,0:2:0:0:
235,11,170105,1,8,0:0:0:0:
18,247,170248,5,2,0:2:0:0:
111,293,170390,2,0,P|117:231|92:173,1,125.999996154785
458,120,170676,101,8,0:0:0:0:
430,292,170819,2,0,P|309:281|241:194,1,188.999994232178,2|0,0:2|0:0,0:0:0:0:
262,238,171105,1,2,0:2:0:0:
371,50,171248,2,0,L|348:178,1,125.999996154785,8|0,0:0|0:0,0:0:0:0:
269,374,171533,5,4,3:1:0:0:
123,146,171676,1,2,0:2:0:0:
269,374,171819,1,8,0:0:0:0:
30,115,171962,101,2,0:2:0:0:
50,221,172105,5,0,0:0:0:0:
454,116,172248,1,2,0:2:0:0:
50,221,172390,1,8,0:0:0:0:
420,222,172533,101,2,0:2:0:0:
378,256,172604,1,0,0:0:0:0:
322,257,172676,2,0,L|163:219,1,125.999996154785,0|2,3:0|0:2,0:0:0:0:
125,276,172890,1,0,0:0:0:0:
50,221,172962,6,0,P|69:136|201:182,1,210,10|0,0:1|2:0,0:0:0:0:
199,227,173248,102,0,L|216:299,1,56,2|0,3:1|3:0,0:0:0:0:
470,296,173390,1,2,3:1:0:0:
508,230,173461,1,0,3:0:0:0:
483,158,173532,1,10,3:1:0:0:
265,82,173676,2,0,L|258:179,1,70,2|0,3:1|3:0,0:0:0:0:
39,360,173819,6,0,L|50:218,1,140,4|2,3:1|0:2,0:0:0:0:
354,52,174105,2,0,L|343:193,1,140,8|2,0:0|0:2,0:0:0:0:
187,48,174390,101,0,0:0:0:0:
420,222,174533,1,2,0:2:0:0:
153,337,174676,2,0,P|234:302|329:323,1,140,8|2,0:0|0:2,0:0:0:0:
357,344,174890,1,0,0:0:0:0:
424,303,174962,6,0,B|454:240|416:175|364:162|364:162|343:191,1,210,0|0,0:0|0:0,0:0:0:0:
342,191,175248,1,8,0:0:0:0:
83,189,175390,2,0,P|53:126|110:38,1,140,2|0,0:2|0:0,0:0:0:0:
437,103,175676,101,2,0:2:0:0:
278,142,175819,2,0,L|116:118,1,140,8|2,0:0|0:2,0:0:0:0:
362,1,176105,5,0,0:0:0:0:
136,350,176248,1,2,0:2:0:0:
74,62,176390,101,8,0:0:0:0:
423,288,176533,1,2,0:2:0:0:
74,62,176676,1,0,0:0:0:0:
423,288,176819,1,0,0:0:0:0:
136,350,176962,5,8,0:0:0:0:
362,1,177105,1,2,0:2:0:0:
423,288,177248,2,0,P|339:300|266:243,1,140,0|8,3:0|3:0,0:0:0:0:
221,310,177462,1,0,3:0:0:0:
169,247,177533,2,0,L|175:161,1,70,8|0,3:2|0:0,0:0:0:0:
186,30,177676,37,2,3:2:0:0:
186,30,177819,1,8,3:0:0:0:
186,30,177962,1,8,3:0:0:0:
186,30,178105,1,4,3:0:0:0:
186,30,178248,1,4,3:0:0:0:
169,247,178390,53,4,3:1:0:0:
260,322,178533,5,2,0:2:0:0:
378,312,178676,101,8,0:0:0:0:
452,220,178819,5,2,0:2:0:0:
442,101,178962,101,0,3:0:0:0:
349,26,179105,5,2,0:2:0:0:
233,37,179248,101,8,0:0:0:0:
157,129,179390,5,2,0:2:0:0:
169,247,179533,101,0,3:0:0:0:
442,101,179676,1,2,0:2:0:0:
260,322,179819,5,8,0:0:0:0:
349,26,179962,1,2,0:2:0:0:
378,312,180105,101,0,3:0:0:0:
233,37,180248,1,2,0:2:0:0:
452,220,180390,5,8,0:0:0:0:
157,129,180533,1,0,0:0:0:0:
442,101,180676,102,0,L|314:122,1,112,4|2,3:1|0:2,0:0:0:0:
88,316,180962,2,0,L|216:295,1,112,8|2,0:0|0:2,0:0:0:0:
142,27,181248,1,0,3:0:0:0:
142,27,181533,6,0,P|93:58|76:118,1,112,8|2,0:0|0:2,0:0:0:0:
132,167,181748,1,0,0:0:0:0:
204,123,181819,102,0,P|284:128|373:215,1,188.999994232178,0|0,3:0|0:0,0:0:0:0:
413,269,182105,2,0,L|294:290,1,62.9999980773926,8|0,0:0|0:0,0:0:0:0:
288,333,182248,2,0,L|169:312,1,62.9999980773926,2|0,3:2|0:0,0:0:0:0:
172,257,182390,5,8,3:0:0:0:
104,353,182533,1,0,3:0:0:0:
96,298,182604,1,0,3:0:0:0:
55,262,182675,1,4,3:0:0:0:
12,342,182819,1,0,3:0:0:0:
468,215,182962,101,4,3:1:0:0:
367,360,183105,5,2,0:2:0:0:
190,345,183248,101,8,0:0:0:0:
116,184,183391,5,2,0:2:0:0:
217,39,183533,101,0,3:0:0:0:
394,54,183676,5,2,0:2:0:0:
468,215,183819,101,8,0:0:0:0:
367,360,183962,5,2,0:2:0:0:
190,345,184105,101,0,3:0:0:0:
394,54,184248,1,2,0:2:0:0:
116,184,184390,5,8,0:0:0:0:
468,215,184533,1,2,0:2:0:0:
217,39,184676,101,0,3:0:0:0:
367,360,184819,1,2,0:2:0:0:
394,54,184962,5,8,0:0:0:0:
190,345,185105,1,0,0:0:0:0:
467,214,185248,102,0,P|413:223|367:255,1,112,4|2,3:1|0:2,0:0:0:0:
93,349,185533,1,8,0:0:0:0:
284,210,185676,1,2,0:2:0:0:
69,115,185819,1,0,3:0:0:0:
69,115,186105,5,8,0:0:0:0:
149,224,186248,1,2,0:2:0:0:
284,210,186390,2,0,L|393:185,1,112,0|2,3:0|0:2,0:0:0:0:
458,137,186605,1,0,3:0:0:0:
512,197,186676,101,8,3:2:0:0:
343,323,186819,1,2,0:2:0:0:
212,157,186962,2,0,P|229:98|290:60,1,122.5,0|0,0:0|0:0,0:0:0:0:
328,1,187533,5,4,3:1:0:0:
426,222,187676,101,2,0:2:0:0:
249,384,187819,5,8,0:0:0:0:
39,262,187962,101,2,0:2:0:0:
89,26,188105,5,0,3:0:0:0:
328,1,188248,101,2,0:2:0:0:
426,222,188391,5,8,0:0:0:0:
249,384,188534,101,2,0:2:0:0:
39,262,188676,5,0,3:0:0:0:
328,1,188819,1,2,0:2:0:0:
249,384,188962,101,8,0:0:0:0:
89,26,189105,1,0,0:0:0:0:
426,222,189248,5,0,3:0:0:0:
39,262,189390,1,2,0:2:0:0:
328,1,189533,101,8,0:0:0:0:
249,384,189676,1,2,0:2:0:0:
91,175,189819,5,4,3:1:0:0:
345,232,189962,1,2,0:2:0:0:
91,175,190105,101,8,0:0:0:0:
345,232,190248,1,2,0:2:0:0:
194,315,190390,2,0,L|166:187,1,112,0|2,3:0|0:2,0:0:0:0:
220,139,190605,1,0,0:0:0:0:
156,90,190676,6,0,P|191:20|300:20,1,140,8|2,0:0|0:2,0:0:0:0:
321,71,190890,1,0,0:0:0:0:
413,34,190962,1,0,3:0:0:0:
413,34,191248,102,0,B|380:153|467:117|415:257,1,210,8|0,0:0|0:0,0:0:0:0:
483,300,191533,5,10,3:0:0:0:
226,338,191676,1,0,3:0:0:0:
269,276,191747,1,0,3:0:0:0:
343,258,191818,1,4,3:0:0:0:
132,291,191962,1,0,3:0:0:0:
88,24,192105,101,4,3:1:0:0:
422,24,192248,5,2,0:2:0:0:
422,358,192390,101,8,0:0:0:0:
88,358,192533,5,2,0:2:0:0:
88,24,192676,101,0,3:0:0:0:
422,24,192819,5,2,0:2:0:0:
422,358,192961,101,8,0:0:0:0:
88,358,193104,5,2,0:2:0:0:
88,24,193248,101,0,3:0:0:0:
422,358,193391,1,2,0:2:0:0:
422,24,193533,5,8,0:0:0:0:
88,358,193676,1,2,0:2:0:0:
88,24,193819,101,0,3:0:0:0:
422,358,193962,1,2,0:2:0:0:
422,24,194104,5,8,0:0:0:0:
88,358,194247,1,2,0:2:0:0:
104,104,194390,101,4,3:1:0:0:
342,40,194533,1,2,0:2:0:0:
406,278,194675,1,8,0:0:0:0:
168,342,194818,1,2,0:2:0:0:
162,166,194962,5,0,3:0:0:0:
280,98,195105,1,2,0:2:0:0:
348,216,195247,1,8,0:0:0:0:
230,284,195390,1,2,0:2:0:0:
256,0,195533,101,0,3:0:0:0:
256,384,195676,5,2,0:2:0:0:
256,384,195748,1,0,3:0:0:0:
256,384,195819,1,8,3:2:0:0:
0,192,195962,101,2,0:2:0:0:
512,192,196105,5,8,3:2:0:0:
256,192,204676,12,0,205247,0:0:0:0:
