osu file format v14

[General]
AudioFilename: yuiko ghost.mp3
AudioLeadIn: 0
PreviewTime: 48033
Countdown: 0
SampleSet: Soft
StackLeniency: 0.7
Mode: 0
LetterboxInBreaks: 0
WidescreenStoryboard: 0

[Editor]
Bookmarks: 54962,152105
DistanceSpacing: 1.1
BeatDivisor: 4
GridSize: 32
TimelineZoom: 1.3

[Metadata]
Title:Ghost Rule
TitleUnicode:ゴーストルール
Artist:yuikonnu
ArtistUnicode:ゆいこんぬ
Creator:Len
Version:Crier's Extra
Source:
Tags:初音ミク hatsune miku vocaloid handsome crier fortune sionkotori slayed Akitoshi Fast Sonnyc -Laura- Satellite
BeatmapID:959427
BeatmapSetID:440650

[Difficulty]
HPDrainRate:7
CircleSize:4
OverallDifficulty:8.5
ApproachRate:9.6
SliderMultiplier:1.9
SliderTickRate:1

[Events]
//Background and Video events
0,0,"bb.jpg",0,0
//Break Periods
2,123733,132136
//Storyboard Layer 0 (Background)
//Storyboard Layer 1 (Fail)
//Storyboard Layer 2 (Pass)
//Storyboard Layer 3 (Foreground)
//Storyboard Sound Samples

[TimingPoints]
105,285.714285714286,4,1,11,60,1,0
18390,-100,4,2,11,40,0,0
18676,-125,4,2,11,40,0,0
22962,-125,4,2,11,50,0,0
27248,-166.666666666667,4,2,11,40,0,0
27533,-100,4,2,10,60,0,0
36676,-125,4,2,11,50,0,0
46676,-142.857142857143,4,2,11,40,0,0
47105,-153.846153846154,4,2,11,40,0,0
47462,-153.846153846154,4,2,11,5,0,0
47533,-166.666666666667,4,2,11,40,0,0
48033,-166.666666666667,4,2,11,5,0,0
48105,-100,4,1,10,70,0,1
52105,-100,4,2,10,50,0,1
52676,-100,4,1,10,70,0,1
56676,-100,4,2,10,50,0,1
57248,-100,4,1,10,70,0,1
61248,-100,4,2,10,50,0,1
61819,-100,4,1,10,70,0,1
65819,-100,4,2,10,50,0,1
66390,-100,4,1,11,60,0,0
75533,-200,4,1,11,40,0,0
83962,-200,4,2,11,40,0,0
84676,-100,4,2,10,50,0,0
93819,-100,4,2,11,40,0,0
93962,-125,4,2,11,40,0,0
103390,-111.111111111111,4,2,11,40,0,0
103819,-142.857142857143,4,2,11,40,0,0
104248,-153.846153846154,4,2,11,40,0,0
104605,-153.846153846154,4,2,11,5,0,0
104676,-166.666666666667,4,2,11,40,0,0
105176,-166.666666666667,4,2,11,5,0,0
105247,-100,4,1,10,70,0,1
109248,-100,4,2,10,50,0,1
109819,-100,4,1,10,70,0,1
113819,-100,4,2,10,50,0,1
114390,-100,4,1,10,70,0,1
118390,-100,4,2,10,50,0,1
118962,-100,4,1,10,70,0,1
122962,-100,4,2,10,50,0,1
123247,-125,4,2,10,50,0,0
132676,-125,4,2,11,30,0,0
141819,-125,4,2,11,40,0,0
150962,-200,4,2,11,30,0,0
157533,-125,4,2,11,20,0,0
159748,-125,4,2,11,40,0,0
159819,-125,4,2,11,50,0,0
160105,-100,4,1,10,70,0,1
164105,-100,4,1,10,50,0,1
164676,-100,4,1,10,70,0,1
168676,-100,4,1,10,50,0,0
169247,-90.9090909090909,4,1,10,80,0,1
173248,-90.9090909090909,4,1,10,60,0,1
173390,-90.9090909090909,4,1,10,60,0,0
173819,-83.3333333333333,4,1,10,90,0,1
177533,-83.3333333333333,4,1,10,60,0,1
178390,-100,4,1,10,80,0,1
182390,-100,4,1,10,60,0,1
182962,-100,4,1,10,80,0,1
186962,-166.666666666667,4,1,10,60,0,0
187533,-100,4,1,10,80,0,1
191533,-100,4,1,10,60,0,1
192105,-100,4,1,10,80,0,1
196105,-166.666666666667,4,1,10,60,0,0
196676,-166.666666666667,4,2,11,30,0,0

[Colours]
Combo1 : 255,53,159
Combo2 : 117,150,238
Combo3 : 231,118,166
Combo4 : 36,217,255

[HitObjects]
256,192,4676,12,0,8676,0:0:0:0:
126,96,9247,5,6,3:1:0:0:
129,126,9319,1,0,0:0:0:0:
134,157,9390,1,8,0:0:0:0:
137,188,9462,1,0,2:0:0:0:
142,220,9533,2,0,P|153:290|160:341,1,95,2|2,0:0|0:0,0:0:0:0:
447,214,9819,6,0,L|371:199,1,47.5,10|0,0:0|2:0,0:0:0:0:
268,252,9962,2,0,L|337:269,1,47.5,2|0,0:0|2:0,0:0:0:0:
385,383,10105,2,0,P|390:332|402:279,1,95,2|0,0:0|0:0,0:0:0:0:
301,111,10390,5,0,3:0:0:0:
486,142,10533,1,0,0:0:0:0:
409,74,10676,2,0,P|394:119|385:165,1,95,2|2,0:0|0:0,0:0:0:0:
283,361,10962,2,0,L|270:255,1,95,10|0,0:0|0:0,0:0:0:0:
214,185,11176,1,0,1:0:0:0:
198,170,11247,2,0,L|184:75,1,95,2|0,0:0|0:0,0:0:0:0:
20,255,11533,5,6,3:1:0:0:
54,229,11605,1,0,0:0:0:0:
96,226,11676,1,8,0:0:0:0:
135,241,11747,1,0,2:0:0:0:
164,272,11819,1,2,0:0:0:0:
61,132,11962,1,2,0:0:0:0:
297,276,12105,2,0,P|275:282|242:289,1,47.5,10|0,0:0|2:0,0:0:0:0:
84,314,12247,2,0,P|89:335|95:365,1,47.5,2|0,0:0|2:0,0:0:0:0:
214,185,12390,2,0,P|222:144|234:83,1,95,2|0,0:0|0:0,0:0:0:0:
422,339,12676,5,0,3:0:0:0:
329,148,12819,1,0,0:0:0:0:
291,350,12962,1,2,0:0:0:0:
447,211,13105,1,2,0:0:0:0:
236,234,13247,2,0,P|189:224|142:215,1,95,10|0,0:0|0:0,0:0:0:0:
44,196,13462,1,0,0:0:0:0:
22,191,13533,2,0,P|31:235|40:292,1,95,2|8,0:0|0:0,0:0:0:0:
155,39,13819,5,6,3:1:0:0:
155,39,13890,1,0,0:0:0:0:
155,39,13962,2,0,L|145:103,1,47.5,8|0,0:0|2:0,0:0:0:0:
229,148,14105,1,2,0:0:0:0:
57,46,14248,1,2,0:0:0:0:
346,27,14390,2,0,P|338:71|330:133,1,95,10|2,0:0|0:0,0:0:0:0:
89,270,14676,2,0,P|160:253|207:239,1,95,2|0,0:0|0:0,0:0:0:0:
442,311,14962,5,0,3:0:0:0:
297,235,15105,1,0,0:0:0:0:
444,186,15248,1,2,0:0:0:0:
340,347,15390,1,2,0:0:0:0:
189,260,15533,2,0,P|199:196|203:93,1,142.5,10|0,0:0|2:0,0:0:0:0:
180,39,15819,2,0,P|123:57|47:84,1,95,2|0,0:0|0:0,0:0:0:0:
327,136,16105,5,2,3:1:0:0:
327,136,16176,1,0,2:0:0:0:
327,136,16248,2,0,L|306:53,1,47.5,10|0,0:0|2:0,0:0:0:0:
394,25,16390,1,2,0:0:0:0:
304,240,16533,1,2,0:0:0:0:
419,158,16676,2,0,P|479:148|528:137,1,95,10|2,0:0|0:0,0:0:0:0:
232,164,16962,2,0,P|214:97|198:37,1,95,2|0,0:0|0:0,0:0:0:0:
407,275,17248,5,4,3:1:0:0:
113,138,17390,1,0,3:0:0:0:
113,138,17462,1,0,3:0:0:0:
113,138,17533,1,10,0:0:0:0:
419,158,17676,1,10,0:0:0:0:
112,251,17819,1,8,0:0:0:0:
331,212,17962,5,8,0:0:0:0:
199,188,18105,1,8,0:0:0:0:
246,300,18248,1,8,0:0:0:0:
303,19,18390,5,4,1:0:0:0:
511,216,18676,1,8,0:0:0:0:
303,18,18962,2,0,P|306:56|311:94,1,76,0|0,0:0|0:0,0:0:0:0:
400,158,19248,1,8,0:0:0:0:
203,72,19390,6,0,P|191:147|182:222,1,152,0|0,0:0|3:0,0:0:0:0:
272,337,19819,2,0,P|280:300|283:262,1,76,8|0,0:0|0:0,0:0:0:0:
79,212,20105,1,0,3:0:0:0:
79,212,20248,1,0,3:0:0:0:
46,327,20390,2,0,P|82:315|119:310,1,76,8|0,0:0|0:0,0:0:0:0:
404,222,20676,6,0,P|333:238|278:190,1,152,4|8,3:1|0:0,0:0:0:0:
122,51,21105,2,0,L|129:126,1,76,0|0,0:0|0:0,0:0:0:0:
221,348,21390,2,0,P|227:310|235:273,1,76,0|8,3:0|0:0,0:0:0:0:
358,157,21676,1,0,0:0:0:0:
117,242,21819,5,0,0:0:0:0:
117,242,21962,1,0,3:0:0:0:
325,328,22105,2,0,P|332:290|340:253,1,76,8|0,0:0|3:0,0:0:0:0:
445,321,22390,1,0,3:0:0:0:
445,321,22533,1,0,3:0:0:0:
241,236,22676,2,0,P|236:179|228:122,1,114,8|0,0:0|0:0,0:0:0:0:
154,70,22962,6,0,P|225:86|284:41,1,152,4|8,1:0|0:0,0:0:0:0:
126,167,23390,1,0,0:0:0:0:
41,105,23533,2,0,P|32:49|31:3,1,76,0|0,0:0|0:0,0:0:0:0:
35,206,23819,1,8,0:0:0:0:
306,126,23962,1,0,0:0:0:0:
322,121,24248,5,0,3:0:0:0:
295,218,24390,2,0,P|287:255|283:293,1,76,8|0,0:0|0:0,0:0:0:0:
219,144,24676,1,0,3:0:0:0:
377,278,24819,1,0,3:0:0:0:
189,244,24962,1,8,0:0:0:0:
398,182,25105,1,0,0:0:0:0:
257,337,25248,6,0,P|199:289|124:283,1,152,4|8,3:1|0:0,0:0:0:0:
54,340,25676,2,0,P|96:278|91:201,1,152,0|0,0:0|3:0,0:0:0:0:
45,109,26105,1,8,0:0:0:0:
255,180,26248,1,0,0:0:0:0:
186,322,26390,5,0,3:0:0:0:
176,231,26533,1,0,3:0:0:0:
168,140,26676,1,8,0:0:0:0:
158,49,26819,1,0,3:0:0:0:
102,289,26962,6,0,L|69:298,4,25.3333333333333,2|0|0|0|0,3:1|0:0|0:0|0:0|0:0,0:0:0:0:
262,270,27248,2,0,P|304:272|345:283,1,85.4999973907472,14|0,0:1|0:0,0:0:0:0:
415,339,27533,6,0,P|425:292|438:246,1,95,4|2,3:1|0:0,0:0:0:0:
261,39,27819,2,0,P|272:84|280:131,1,95,8|2,0:0|0:0,0:0:0:0:
242,348,28105,2,0,P|196:332|141:324,1,95,0|2,3:0|0:0,0:0:0:0:
19,339,28390,1,8,0:0:0:0:
193,236,28533,1,2,0:0:0:0:
44,122,28676,6,0,P|53:168|64:214,1,95,0|2,3:0|0:0,0:0:0:0:
272,133,28962,2,0,P|280:86|289:39,1,95,8|2,0:0|0:0,0:0:0:0:
309,250,29248,1,0,3:0:0:0:
156,121,29390,1,2,0:0:0:0:
383,144,29533,1,8,0:0:0:0:
193,236,29676,1,2,0:0:0:0:
193,236,29748,1,0,0:0:0:0:
193,236,29819,5,0,3:0:0:0:
361,343,29962,1,0,0:0:0:0:
272,133,30105,1,8,0:0:0:0:
117,314,30248,2,0,P|162:326|208:340,1,95,2|0,0:0|3:0,0:0:0:0:
148,79,30533,1,2,0:0:0:0:
0,202,30676,2,0,P|70:189|140:177,1,142.5,8|0,0:0|0:0,0:0:0:0:
216,143,30962,6,0,P|204:190|195:236,1,95,0|2,3:0|0:0,0:0:0:0:
408,83,31248,2,0,P|420:128|426:175,1,95,8|2,0:0|0:0,0:0:0:0:
216,143,31533,1,0,3:0:0:0:
426,175,31676,1,2,0:0:0:0:
260,28,31819,1,8,0:0:0:0:
119,208,31962,1,2,0:0:0:0:
119,208,32033,1,0,3:0:0:0:
119,208,32105,6,0,P|110:161|96:116,1,95,4|2,3:1|0:0,0:0:0:0:
215,241,32390,1,8,0:0:0:0:
43,345,32533,1,2,0:0:0:0:
194,327,32676,2,0,P|243:341|285:354,1,95,0|2,3:0|0:0,0:0:0:0:
343,115,32962,1,8,0:0:0:0:
481,304,33105,6,0,P|417:237|325:246,1,190,2|2,0:0|0:0,0:0:0:0:
137,112,33533,2,0,P|180:130|227:134,1,95,8|2,0:0|0:0,0:0:0:0:
442,145,33819,2,0,P|449:98|459:49,1,95,0|2,3:0|0:0,0:0:0:0:
171,242,34105,2,0,P|181:288|190:334,1,95,8|2,0:0|0:0,0:0:0:0:
295,234,34390,6,0,L|324:16,1,190,4|8,3:1|0:0,0:0:0:0:
433,196,34819,2,0,P|439:242|453:288,1,95,2|0,0:0|3:0,0:0:0:0:
190,335,35105,2,0,P|183:285|169:240,1,95,2|8,0:2|0:0,0:0:0:0:
323,327,35390,1,0,0:2:0:0:
85,301,35533,5,4,3:1:0:0:
272,162,35676,1,0,1:0:0:0:
262,210,35748,1,0,1:0:0:0:
255,250,35819,1,8,0:0:0:0:
218,70,35962,1,0,3:0:0:0:
366,229,36105,1,8,0:0:0:0:
127,121,36248,1,0,3:0:0:0:
378,105,36390,1,8,0:0:0:0:
123,228,36533,1,0,3:0:0:0:
248,173,36676,5,4,3:1:0:0:
59,167,36819,2,0,P|79:239|86:315,1,152,0|0,0:0|3:0,0:0:0:0:
86,315,37248,2,0,B|140:302|140:302|183:320|183:320|243:311,1,152,8|0,0:0|3:0,0:0:0:0:
412,340,37676,2,0,P|374:347|337:354,1,76,8|0,0:0|0:0,0:0:0:0:
337,353,37962,1,0,3:0:0:0:
197,232,38105,6,0,P|194:195|185:157,1,76,8|0,0:0|0:0,0:0:0:0:
348,168,38390,2,0,P|350:130|359:91,1,76,8|0,0:0|0:0,0:0:0:0:
88,118,38676,2,0,P|80:80|68:44,1,76,0|0,0:0|0:0,0:0:0:0:
445,149,38962,5,4,3:1:0:0:
269,22,39105,2,0,L|248:172,1,152,0|0,0:0|3:0,0:0:0:0:
247,171,39533,2,0,P|176:176|149:243,1,152,8|0,0:0|3:0,0:0:0:0:
194,336,39962,2,0,L|296:318,1,76,8|0,0:0|0:0,0:0:0:0:
46,196,40248,1,0,3:0:0:0:
45,195,40390,2,0,P|53:232|59:269,1,76,8|0,0:0|0:0,0:0:0:0:
247,171,40676,2,0,L|264:68,1,76,8|0,0:0|0:0,0:0:0:0:
320,244,40962,1,0,0:0:0:0:
149,197,41105,1,0,0:0:0:0:
350,141,41248,5,4,3:1:0:0:
457,189,41390,2,0,P|436:251|418:344,1,152,0|0,0:0|3:0,0:0:0:0:
419,336,41819,2,0,P|346:323|268:312,1,152,8|0,0:0|3:0,0:0:0:0:
75,283,42248,2,0,P|112:273|149:268,1,76,8|0,0:0|0:0,0:0:0:0:
351,229,42533,1,0,3:0:0:0:
350,228,42676,6,0,P|313:216|276:208,1,76,8|0,0:0|0:0,0:0:0:0:
30,179,42962,2,0,P|68:170|105:164,1,76,8|0,0:0|0:0,0:0:0:0:
425,136,43248,2,0,P|389:123|343:113,1,76,0|0,0:0|0:0,0:0:0:0:
198,17,43533,5,4,3:1:0:0:
193,110,43676,2,0,B|184:178|220:186|199:259,1,152,0|0,0:0|3:0,0:0:0:0:
290,139,44105,2,0,P|300:102|310:65,1,76,8|0,0:0|0:0,0:0:0:0:
120,222,44390,2,0,P|83:232|43:244,1,76,0|8,3:0|0:0,0:0:0:0:
300,326,44676,1,0,0:0:0:0:
232,230,44819,5,0,3:0:0:0:
232,230,44890,1,0,3:0:0:0:
232,230,44962,1,8,0:0:0:0:
453,269,45105,1,8,0:0:0:0:
194,349,45248,1,8,0:0:0:0:
442,301,45390,1,8,0:0:0:0:
144,269,45533,1,8,0:0:0:0:
323,352,45676,1,0,0:0:0:0:
301,96,45819,6,0,P|249:142|255:222,1,152,0|0,0:0|0:0,0:0:0:0:
374,253,46248,2,0,P|422:204|413:126,1,152,0|0,0:0|0:0,0:0:0:0:
302,96,46676,2,0,B|248:109|230:83|170:102,1,132.999995941162,0|0,0:0|0:0,0:0:0:0:
82,294,47105,2,0,P|158:285|233:300,1,154.374992933274
312,321,47533,2,0,P|319:262|235:306,1,199.499993911743,0|0,0:0|0:0,0:0:0:0:
389,357,48105,6,0,P|405:312|407:265,1,95,4|2,3:1|0:2,0:0:0:0:
166,215,48390,2,0,P|151:260|149:307,1,95,8|2,0:0|0:2,0:0:0:0:
280,286,48676,1,0,0:0:0:0:
64,175,48819,1,2,0:2:0:0:
285,267,48962,1,8,0:0:0:0:
47,303,49105,1,2,0:2:0:0:
248,101,49248,5,0,0:0:0:0:
290,251,49390,1,0,0:0:0:0:
362,51,49533,1,8,0:0:0:0:
295,234,49676,1,2,0:2:0:0:
470,112,49819,1,0,0:0:0:0:
195,218,49962,1,2,0:2:0:0:
402,234,50105,5,8,0:0:0:0:
134,112,50248,1,0,0:0:0:0:
134,112,50319,1,0,2:0:0:0:
134,112,50390,2,0,L|151:0,1,95,4|2,3:1|0:2,0:0:0:0:
295,234,50676,2,0,P|282:279|274:326,1,95,8|2,0:0|0:2,0:0:0:0:
470,112,50962,2,0,P|400:127|315:130,1,142.5,0|0,0:0|0:0,0:0:0:0:
297,131,51248,2,0,P|304:84|313:37,1,95,8|2,0:0|0:2,0:0:0:0:
391,237,51533,5,0,3:0:0:0:
179,154,51676,1,2,0:2:0:0:
230,354,51819,1,10,0:0:0:0:
297,131,51962,1,2,3:2:0:0:
102,293,52105,1,2,3:1:0:0:
95,253,52176,1,0,3:0:0:0:
89,216,52248,1,2,3:1:0:0:
85,183,52319,1,0,3:0:0:0:
81,148,52390,1,14,3:1:0:0:
252,230,52533,1,2,3:1:0:0:
411,307,52676,6,0,P|416:264|428:212,1,95,4|2,3:1|0:2,0:0:0:0:
182,37,52962,2,0,P|194:83|200:130,1,95,8|2,0:0|0:2,0:0:0:0:
269,257,53248,1,0,0:0:0:0:
313,91,53390,1,2,0:2:0:0:
144,229,53533,1,8,0:0:0:0:
327,105,53676,1,2,0:2:0:0:
97,40,53819,5,0,0:0:0:0:
341,117,53962,1,0,0:0:0:0:
47,183,54105,1,8,0:0:0:0:
355,130,54248,1,2,0:2:0:0:
226,32,54390,1,0,0:0:0:0:
287,290,54533,1,2,0:2:0:0:
260,159,54677,6,0,P|270:88|282:16,1,142.5,8|0,0:0|0:0,0:0:0:0:
176,12,54962,2,0,P|185:58|190:105,1,95,0|2,0:0|0:2,0:0:0:0:
18,285,55248,2,0,P|3:239|0:189,1,95,8|2,0:0|0:2,0:0:0:0:
32,82,55533,1,0,0:0:0:0:
255,202,55676,1,0,0:0:0:0:
114,348,55819,2,0,L|138:187,1,142.5,8|0,0:0|3:0,0:0:0:0:
141,172,56105,5,0,3:0:0:0:
360,224,56248,1,8,3:0:0:0:
354,188,56319,1,0,3:0:0:0:
348,154,56390,1,8,3:2:0:0:
126,59,56533,1,2,3:2:0:0:
371,28,56676,1,8,3:0:0:0:
243,111,56819,1,8,3:0:0:0:
485,161,56962,1,4,3:0:0:0:
213,240,57105,1,4,3:0:0:0:
483,288,57248,6,0,P|438:272|385:267,1,95,4|2,3:1|0:2,0:0:0:0:
219,344,57533,2,0,P|254:312|286:269,1,95,8|2,0:0|0:2,0:0:0:0:
296,86,57819,2,0,P|305:132|326:181,1,95,0|2,3:0|0:2,0:0:0:0:
141,291,58105,2,0,P|94:279|47:272,1,95,8|2,0:0|0:2,0:0:0:0:
324,177,58390,6,0,P|383:187|417:193,1,95,0|0,3:0|0:2,0:0:0:0:
157,127,58676,2,0,P|173:56|182:9,1,95,8|2,0:0|0:2,0:0:0:0:
240,347,58962,1,0,3:0:0:0:
512,210,59105,2,0,P|418:195|324:177,1,190,2|2,0:2|0:2,0:0:0:0:
40,278,59533,5,4,3:1:0:0:
226,229,59676,1,2,0:2:0:0:
15,160,59819,1,8,0:0:0:0:
220,213,59962,1,2,0:2:0:0:
243,98,60105,5,0,3:0:0:0:
27,169,60248,1,2,0:2:0:0:
240,81,60390,1,2,0:2:0:0:
6,37,60533,1,8,0:0:0:0:
112,192,60676,6,0,P|119:145|127:98,1,95,0|2,3:0|0:2,0:0:0:0:
356,236,60962,2,0,P|348:281|340:327,1,95,8|2,0:0|3:2,0:0:0:0:
333,361,61176,1,0,3:0:0:0:
333,361,61248,1,8,3:0:0:0:
248,178,61390,1,8,3:0:0:0:
45,247,61533,1,4,3:0:0:0:
242,306,61676,1,4,3:0:0:0:
128,356,61819,6,0,P|136:315|148:263,1,95,4|2,3:1|0:2,0:0:0:0:
350,49,62105,2,0,P|342:95|335:142,1,95,8|2,0:0|0:2,0:0:0:0:
176,125,62390,2,0,P|130:111|86:94,1,95,0|2,3:0|0:2,0:0:0:0:
336,259,62676,2,0,P|381:272|425:289,1,95,8|2,0:0|0:2,0:0:0:0:
172,244,62962,6,0,P|182:290|187:344,1,95,0|2,3:0|0:2,0:0:0:0:
484,136,63248,2,0,P|438:151|392:159,1,95,8|2,0:0|0:2,0:0:0:0:
166,94,63533,1,0,3:0:0:0:
245,337,63676,2,0,P|247:244|276:150,1,190,2|2,0:2|0:2,0:0:0:0:
335,259,64105,5,4,3:1:0:0:
159,194,64248,1,2,0:2:0:0:
350,273,64390,1,8,0:0:0:0:
123,326,64533,1,2,0:2:0:0:
300,96,64676,5,0,3:0:0:0:
364,283,64819,1,2,0:2:0:0:
428,59,64962,1,8,0:0:0:0:
375,294,65105,1,2,0:2:0:0:
500,216,65248,5,0,3:0:0:0:
191,173,65390,1,2,0:2:0:0:
191,173,65462,1,0,3:0:0:0:
191,173,65533,1,8,3:2:0:0:
377,156,65676,1,2,0:2:0:0:
68,322,65819,1,8,3:2:0:0:
34,314,66105,6,0,P|84:364|66:283,1,190,2|6,0:1|3:1,0:0:0:0:
26,230,66462,1,0,0:0:0:0:
16,198,66533,1,8,0:0:0:0:
23,165,66605,1,0,2:0:0:0:
43,139,66676,2,0,P|89:131|139:123,1,95,2|2,0:0|0:0,0:0:0:0:
342,55,66962,2,0,P|320:138|315:177,1,95,10|2,0:0|0:0,0:0:0:0:
228,40,67248,1,2,0:0:0:0:
420,135,67390,6,0,L|471:127,2,47.5,0|0|0,0:0|0:0|3:0,0:0:0:0:
228,194,67676,1,0,0:0:0:0:
331,251,67819,2,0,P|345:328|348:356,1,95,2|2,0:0|0:0,0:0:0:0:
325,138,68105,1,10,0:0:0:0:
229,306,68248,1,0,0:0:0:0:
47,212,68390,2,0,P|138:223|159:229,1,95,2|0,0:0|0:0,0:0:0:0:
238,30,68676,5,6,3:1:0:0:
234,54,68748,1,0,0:0:0:0:
230,79,68819,2,0,L|217:152,1,47.5,8|0,0:0|2:0,0:0:0:0:
334,30,68962,1,2,0:0:0:0:
128,120,69105,1,2,0:0:0:0:
336,211,69248,2,0,P|324:159|316:107,1,95,10|2,0:0|0:0,0:0:0:0:
147,236,69533,2,0,P|167:298|174:356,1,95,2|0,0:0|0:0,0:0:0:0:
180,366,69748,1,0,3:0:0:0:
180,366,69819,5,0,3:0:0:0:
242,171,69962,1,0,0:0:0:0:
45,213,70105,2,0,P|22:139|36:41,1,142.5,2|0,0:0|2:0,0:0:0:0:
34,44,70390,1,10,0:0:0:0:
167,111,70533,1,0,0:0:0:0:
306,63,70676,1,2,0:0:0:0:
152,27,70819,2,0,L|166:102,1,47.5,8|0,0:0|0:0,0:0:0:0:
235,238,70962,5,6,3:1:0:0:
235,238,71033,1,0,0:0:0:0:
234,237,71105,2,0,L|242:190,1,47.5,8|0,0:0|2:0,0:0:0:0:
295,320,71248,1,2,0:0:0:0:
131,234,71390,1,2,0:0:0:0:
336,227,71533,2,0,L|430:204,1,95,10|2,0:0|0:0,0:0:0:0:
192,325,71819,1,2,0:0:0:0:
49,188,71962,6,0,L|43:138,2,47.5,0|0|0,0:0|2:0|3:0,0:0:0:0:
41,287,72248,1,0,0:0:0:0:
196,147,72390,2,0,P|242:138|289:128,1,95,2|2,0:0|0:0,0:0:0:0:
11,27,72676,1,10,0:0:0:0:
21,48,72748,1,0,0:0:0:0:
30,69,72819,1,0,0:0:0:0:
37,91,72890,1,0,2:0:0:0:
42,115,72962,2,0,L|22:223,1,95,2|0,0:0|0:0,0:0:0:0:
210,333,73248,5,2,3:1:0:0:
210,333,73319,1,0,2:0:0:0:
210,333,73390,2,0,L|271:313,1,47.5,10|0,0:0|2:0,0:0:0:0:
142,265,73533,1,2,0:0:0:0:
344,348,73676,1,2,0:0:0:0:
245,129,73819,2,0,L|224:244,1,95,10|2,0:0|0:0,0:0:0:0:
397,101,74105,1,2,0:0:0:0:
436,215,74248,1,0,0:0:0:0:
134,151,74390,6,0,P|128:109|118:57,1,95,4|0,3:1|3:0,0:0:0:0:
334,234,74676,2,0,P|325:281|320:328,1,95,10|10,0:0|0:0,0:0:0:0:
266,76,74962,1,8,0:0:0:0:
262,64,75105,1,8,0:0:0:0:
257,53,75248,1,8,0:0:0:0:
253,42,75390,1,8,0:0:0:0:
251,31,75533,6,0,B|227:99|227:99|253:152|253:152|189:198|192:244|217:274|259:290|299:278|325:236|294:189,1,380,4|0,1:0|0:0,0:0:0:0:
298,196,77819,6,0,P|238:212|144:211,2,142.5
363,146,78819,2,0,P|412:195|415:266,1,142.5
360,324,79390,2,0,L|256:316,1,95
265,316,79819,1,0,0:0:0:0:
101,337,80105,6,0,P|97:285|130:185,2,142.5,0|0|0,0:0|0:0|0:0,0:0:0:0:
185,361,81105,2,0,P|217:326|230:281,1,95,0|0,0:0|0:0,0:0:0:0:
225,249,81533,1,0,0:0:0:0:
93,102,81819,1,0,0:0:0:0:
92,101,81962,2,0,P|133:124|179:132,1,95,0|0,0:0|0:0,0:0:0:0:
256,168,82390,6,0,P|299:150|347:148,1,95,0|0,0:0|0:0,0:0:0:0:
427,179,82819,2,0,L|448:75,2,95,0|0|0,0:0|0:0|0:0,0:0:0:0:
467,258,83533,1,0,0:0:0:0:
161,300,83676,1,8,0:0:0:0:
161,300,83962,5,0,0:0:0:0:
247,330,84105,1,2,0:0:0:0:
324,289,84248,2,0,L|332:250,2,23.75,2|2|2,0:0|0:0|0:0,0:0:0:0:
392,342,84533,1,2,0:0:0:0:
227,218,84676,6,0,P|228:170|245:120,1,95,4|2,3:1|0:0,0:0:0:0:
461,122,84962,2,0,P|459:169|443:220,1,95,8|2,0:0|0:0,0:0:0:0:
242,125,85248,2,0,P|196:112|149:101,1,95,0|2,3:0|0:0,0:0:0:0:
0,244,85533,1,8,0:0:0:0:
175,201,85676,1,2,0:0:0:0:
44,45,85819,6,0,P|51:91|57:139,1,95,0|2,3:0|0:0,0:0:0:0:
237,348,86105,2,0,P|257:303|264:255,1,95,8|2,0:0|0:0,0:0:0:0:
148,277,86390,1,0,3:0:0:0:
360,334,86533,1,2,0:0:0:0:
307,120,86676,1,8,0:0:0:0:
264,258,86819,1,2,0:0:0:0:
264,258,86890,1,0,0:0:0:0:
264,258,86962,5,0,3:0:0:0:
173,49,87105,1,0,0:0:0:0:
349,200,87248,1,8,0:0:0:0:
149,159,87390,1,2,0:0:0:0:
375,82,87533,2,0,L|466:57,1,95,0|2,3:0|0:0,0:0:0:0:
364,306,87819,1,8,0:0:0:0:
247,229,87962,6,0,P|155:253|64:280,1,190,2|2,0:0|0:0,0:0:0:0:
285,351,88390,1,8,0:0:0:0:
346,171,88533,1,2,0:0:0:0:
463,324,88676,1,0,3:0:0:0:
248,227,88819,1,2,0:0:0:0:
122,364,88962,1,8,0:0:0:0:
343,269,89105,1,2,0:0:0:0:
343,269,89176,1,0,3:0:0:0:
343,269,89248,6,0,P|331:315|324:361,1,95,4|2,3:1|0:0,0:0:0:0:
189,137,89533,2,0,P|200:90|207:44,1,95,8|2,0:0|0:0,0:0:0:0:
241,279,89819,1,0,3:0:0:0:
299,106,89962,1,2,0:0:0:0:
131,218,90105,1,8,0:0:0:0:
382,174,90248,6,0,P|428:162|477:152,1,95,2|0,0:0|3:0,0:0:0:0:
392,64,90534,1,2,0:0:0:0:
323,255,90677,1,8,0:0:0:0:
206,153,90819,2,0,P|160:139|115:123,1,95,2|0,0:0|3:0,0:0:0:0:
351,258,91105,1,2,0:0:0:0:
153,300,91248,1,8,0:0:0:0:
349,360,91390,1,2,0:0:0:0:
197,183,91533,5,4,3:1:0:0:
256,352,91676,1,0,0:0:0:0:
320,125,91819,1,8,0:0:0:0:
93,213,91962,2,0,P|46:204|0:195,1,95,2|0,0:0|3:0,0:0:0:0:
305,249,92248,2,0,P|348:231|395:221,1,95,2|8,0:0|0:0,0:0:0:0:
105,118,92533,1,2,0:0:0:0:
174,323,92676,5,4,3:1:0:0:
212,83,92819,1,0,1:0:0:0:
212,83,92890,1,0,1:0:0:0:
212,83,92962,1,8,0:0:0:0:
159,306,93105,1,0,3:0:0:0:
308,130,93248,1,8,0:0:0:0:
146,287,93390,1,0,3:0:0:0:
305,249,93533,1,8,0:0:0:0:
94,171,93676,1,0,3:0:0:0:
341,114,93819,5,4,3:1:0:0:
200,7,93962,2,0,P|212:81|224:156,1,152,0|0,0:0|3:0,0:0:0:0:
155,335,94390,2,0,P|129:263|125:187,1,152,8|0,0:0|3:0,0:0:0:0:
347,196,94819,2,0,P|339:234|331:270,1,76,8|0,0:0|0:0,0:0:0:0:
209,97,95105,5,0,3:0:0:0:
209,97,95248,2,0,L|199:9,1,76,8|0,0:0|0:0,0:0:0:0:
152,231,95533,2,0,P|188:221|226:215,1,76,8|0,0:0|0:0,0:0:0:0:
389,85,95819,2,0,P|329:73|310:67,1,76,0|0,0:0|0:0,0:0:0:0:
49,170,96105,5,4,3:1:0:0:
131,8,96247,2,0,P|157:79|163:154,1,152,0|0,0:0|3:0,0:0:0:0:
24,325,96676,2,0,P|68:266|144:271,1,152,8|0,0:0|3:0,0:0:0:0:
259,332,97105,6,0,P|296:342|334:346,1,76,8|0,0:0|0:0,0:0:0:0:
228,223,97390,1,0,3:0:0:0:
228,223,97533,2,0,P|262:207|293:185,1,76,8|0,0:0|0:0,0:0:0:0:
127,153,97819,2,0,P|143:118|152:81,1,76,8|0,0:0|0:0,0:0:0:0:
403,165,98105,2,0,P|409:202|415:239,1,76,0|0,0:0|0:0,0:0:0:0:
134,239,98390,5,4,3:1:0:0:
246,359,98533,2,0,L|264:182,1,152,0|0,0:0|3:0,0:0:0:0:
389,32,98962,2,0,P|367:104|365:180,1,152,8|0,0:0|3:0,0:0:0:0:
257,110,99390,2,0,P|188:90|172:86,1,76,8|0,0:0|0:0,0:0:0:0:
353,280,99676,5,0,3:0:0:0:
353,280,99819,2,0,L|431:261,1,76,8|0,0:0|0:0,0:0:0:0:
233,220,100105,2,0,P|225:257|217:294,1,76,8|0,0:0|0:0,0:0:0:0:
348,36,100390,2,0,P|366:69|369:106,1,76,0|0,0:0|0:0,0:0:0:0:
230,102,100676,5,4,3:1:0:0:
123,178,100819,2,0,P|82:116|100:44,1,152,0|0,0:0|3:0,0:0:0:0:
251,207,101248,2,0,P|265:281|277:356,1,152,8|0,0:0|3:0,0:0:0:0:
335,137,101676,1,8,0:0:0:0:
175,313,101819,5,0,0:0:0:0:
368,235,101962,1,0,3:0:0:0:
368,235,102033,1,0,3:0:0:0:
368,235,102105,1,8,0:0:0:0:
290,42,102248,1,8,0:0:0:0:
96,119,102391,1,8,0:0:0:0:
225,173,102533,5,8,0:0:0:0:
91,141,102676,1,8,0:0:0:0:
303,65,102819,1,0,0:0:0:0:
177,21,102962,6,0,P|191:95|198:171,1,152,0|0,0:0|0:0,0:0:0:0:
120,267,103390,2,0,P|96:303|186:357,1,170.999994781494
277,332,103819,2,0,P|340:341|390:299,1,132.999995941162,0|0,0:0|0:0,0:0:0:0:
416,174,104248,2,0,B|329:154|357:196|260:158,1,154.374992933274
191,94,104676,2,0,B|174:167|174:167|191:231|191:231|181:306,1,199.499993911743
265,160,105248,6,0,P|272:119|282:66,1,95,4|2,3:1|0:2,0:0:0:0:
104,239,105533,2,0,L|84:347,1,95,8|2,0:0|0:2,0:0:0:0:
82,130,105819,1,0,0:0:0:0:
297,267,105962,1,2,0:2:0:0:
72,147,106105,1,8,0:0:0:0:
305,253,106248,1,2,0:2:0:0:
158,57,106390,5,0,0:0:0:0:
217,334,106533,1,0,0:0:0:0:
168,37,106676,1,8,0:0:0:0:
111,250,106819,1,2,0:2:0:0:
257,108,106962,5,0,0:0:0:0:
17,174,107105,1,2,0:2:0:0:
227,219,107248,1,8,0:0:0:0:
48,69,107390,1,0,0:0:0:0:
24,294,107533,5,4,3:1:0:0:
15,308,107676,1,2,0:2:0:0:
228,311,107819,1,8,0:0:0:0:
233,333,107962,1,2,0:2:0:0:
351,178,108105,1,0,0:0:0:0:
367,189,108248,1,2,0:2:0:0:
125,263,108390,1,8,0:0:0:0:
348,297,108533,1,2,0:2:0:0:
202,108,108676,5,0,3:0:0:0:
237,355,108819,1,2,0:2:0:0:
388,199,108962,1,10,0:1:0:0:
120,244,109105,1,2,3:2:0:0:
367,326,109248,1,2,3:1:0:0:
374,284,109319,1,0,3:0:0:0:
381,242,109390,1,2,3:1:0:0:
388,199,109462,1,0,3:0:0:0:
395,157,109533,1,14,3:1:0:0:
250,231,109676,1,2,3:1:0:0:
104,308,109819,6,0,P|98:263|88:214,1,95,4|2,3:1|0:2,0:0:0:0:
305,18,110105,2,0,P|311:63|320:111,1,95,8|2,0:0|0:2,0:0:0:0:
145,59,110390,1,0,0:0:0:0:
326,134,110533,1,2,0:2:0:0:
90,186,110676,1,8,0:0:0:0:
329,152,110819,1,2,0:2:0:0:
30,62,110962,5,0,0:0:0:0:
96,210,111105,1,0,0:0:0:0:
152,35,111248,1,8,0:0:0:0:
103,230,111390,1,2,0:2:0:0:
247,103,111533,1,0,0:0:0:0:
14,159,111676,1,2,0:2:0:0:
184,310,111819,2,0,P|191:260|200:216,1,95,8|2,0:0|0:2,0:0:0:0:
211,183,112033,1,0,0:0:0:0:
211,183,112105,5,0,0:0:0:0:
304,266,112248,1,2,0:2:0:0:
89,344,112390,1,8,0:0:0:0:
285,371,112533,1,2,0:2:0:0:
103,230,112676,2,0,P|57:211|13:199,1,95,0|0,0:0|0:0,0:0:0:0:
301,164,112962,2,0,P|371:149|437:122,1,142.5,8|0,0:0|3:0,0:0:0:0:
464,103,113248,5,0,3:0:0:0:
404,238,113390,1,8,3:0:0:0:
410,270,113462,1,0,3:0:0:0:
418,297,113533,1,8,3:2:0:0:
203,65,113676,1,2,3:2:0:0:
193,116,113748,1,0,2:0:0:0:
185,161,113819,1,8,3:0:0:0:
231,307,113962,1,8,3:0:0:0:
36,219,114105,2,0,P|104:199|175:196,1,142.5,4|4,3:0|3:0,0:0:0:0:
253,221,114390,5,4,3:1:0:0:
68,116,114533,1,2,0:2:0:0:
117,309,114676,5,8,0:0:0:0:
188,92,114819,1,2,0:2:0:0:
232,331,114962,5,0,3:0:0:0:
304,68,115105,1,2,0:2:0:0:
348,347,115248,5,8,0:0:0:0:
139,197,115390,1,2,0:2:0:0:
350,235,115533,5,0,3:0:0:0:
183,299,115676,1,2,0:2:0:0:
437,327,115819,5,8,0:0:0:0:
229,231,115962,1,2,0:2:0:0:
360,370,116105,5,0,3:0:0:0:
292,153,116248,1,2,0:2:0:0:
103,310,116390,2,0,P|150:311|196:323,1,95,8|2,0:0|0:2,0:0:0:0:
275,357,116605,1,0,0:0:0:0:
274,357,116676,6,0,P|281:315|295:264,1,95,4|2,3:1|0:2,0:0:0:0:
123,158,116962,2,0,P|117:94|104:40,1,95,8|2,0:0|0:2,0:0:0:0:
366,205,117248,2,0,P|282:169|207:221,1,190,0|8,3:0|0:0,0:0:0:0:
336,80,117676,1,2,0:2:0:0:
404,324,117819,6,0,P|461:303|510:296,1,95,0|2,3:0|0:2,0:0:0:0:
285,268,118105,1,8,0:0:0:0:
479,188,118248,1,2,3:2:0:0:
479,188,118319,1,0,3:0:0:0:
479,188,118390,1,8,3:0:0:0:
254,121,118533,1,8,3:0:0:0:
405,21,118676,2,0,P|394:76|386:114,1,95,4|4,3:0|3:0,0:0:0:0:
356,237,118962,5,4,3:1:0:0:
145,171,119105,1,2,0:2:0:0:
258,147,119248,5,8,0:0:0:0:
76,266,119390,1,2,0:2:0:0:
262,168,119533,5,0,3:0:0:0:
2,113,119676,1,2,0:2:0:0:
197,271,119819,5,8,0:0:0:0:
114,40,119962,1,2,0:2:0:0:
112,58,120033,1,0,0:0:0:0:
109,74,120105,5,0,3:0:0:0:
325,155,120248,1,2,0:2:0:0:
105,97,120390,5,8,0:0:0:0:
272,22,120533,1,2,0:2:0:0:
102,118,120676,5,0,3:0:0:0:
394,45,120819,1,2,0:2:0:0:
100,141,120962,5,8,0:0:0:0:
346,301,121105,1,2,0:2:0:0:
346,301,121176,1,0,0:2:0:0:
346,301,121248,6,0,P|274:306|213:270,1,142.5,4|0,3:1|0:0,0:0:0:0:
131,245,121533,2,0,P|143:292|151:338,1,95,8|2,0:0|0:2,0:0:0:0:
310,183,121819,1,0,3:0:0:0:
140,48,121962,1,2,0:2:0:0:
264,4,122105,2,0,P|252:52|237:115,1,95,8|2,0:0|0:2,0:0:0:0:
360,282,122390,5,0,3:0:0:0:
349,73,122533,1,2,0:2:0:0:
349,73,122605,1,0,3:0:0:0:
349,73,122676,1,8,3:2:0:0:
174,226,122819,1,2,0:2:0:0:
440,140,122962,1,8,3:2:0:0:
448,156,123248,6,0,B|392:171|392:171|349:155|349:155|302:165,1,152,2|4,0:1|0:0,0:0:0:0:
32,146,132676,6,0,P|69:138|106:129,1,76,6|0,0:0|0:0,0:0:0:0:
157,208,132962,2,0,P|194:215|231:224,1,76,0|0,0:0|0:0,0:0:0:0:
317,266,133248,2,0,P|325:228|334:189,1,76,2|2,0:0|0:0,0:0:0:0:
256,140,133533,2,0,P|252:103|243:64,1,76,0|0,0:0|0:0,0:0:0:0:
77,224,133819,2,0,P|68:261|63:298,1,76,2|0,0:0|0:0,0:0:0:0:
141,363,134105,1,2,0:0:0:0:
141,363,134248,1,0,0:0:0:0:
229,307,134390,2,0,P|303:307|364:354,1,152,2|2,0:0|0:0,0:0:0:0:
362,352,134819,1,0,0:0:0:0:
458,320,134962,6,0,P|464:282|473:244,1,76,2|2,0:0|0:0,0:0:0:0:
386,212,135248,2,0,P|379:174|370:136,1,76,2|0,0:0|0:0,0:0:0:0:
281,193,135533,2,0,P|244:204|208:214,1,76,2|2,0:0|0:0,0:0:0:0:
91,274,135819,2,0,P|127:283|163:295,1,76,2|0,0:0|0:0,0:0:0:0:
116,178,136105,2,0,P|110:140|103:103,1,76,4|0,0:0|0:0,0:0:0:0:
15,165,136390,1,2,0:0:0:0:
15,165,136533,1,2,0:0:0:0:
35,319,136676,2,0,P|98:300|196:287,1,152,2|2,0:0|0:0,0:0:0:0:
450,72,137247,6,0,P|439:144|438:191,1,76,6|0,0:0|0:0,0:0:0:0:
356,214,137533,2,0,P|351:176|344:138,1,76,0|2,0:0|0:0,0:0:0:0:
305,55,137819,2,0,P|231:72|201:76,1,76,2|0,0:0|0:0,0:0:0:0:
184,151,138105,2,0,P|110:134|80:130,1,76,0|2,0:0|0:0,0:0:0:0:
23,105,138390,2,0,P|37:182|41:278,1,152,2|0,0:0|0:0,0:0:0:0:
31,346,138819,1,0,0:0:0:0:
114,309,138962,2,0,P|188:302|247:347,1,152,2|2,0:0|0:0,0:0:0:0:
375,302,139390,5,2,0:0:0:0:
304,228,139533,2,0,L|319:120,1,76,2|0,0:0|0:0,0:0:0:0:
385,317,139819,1,2,0:0:0:0:
315,240,139962,2,0,L|330:132,1,76,2|0,0:0|0:0,0:0:0:0:
368,65,140248,1,2,0:0:0:0:
280,88,140390,1,2,0:0:0:0:
194,110,140533,1,0,0:0:0:0:
69,31,140676,6,0,P|43:102|49:183,1,152,4|0,0:0|0:0,0:0:0:0:
0,262,141105,1,0,0:0:0:0:
0,261,141248,2,0,P|64:224|138:235,1,152,4|0,0:0|0:0,0:0:0:0:
138,235,141818,5,4,1:0:0:0:
316,324,141962,1,0,0:0:0:0:
244,161,142105,2,0,P|238:199|232:243,1,76,0|0,0:0|3:0,0:0:0:0:
212,333,142390,1,8,0:0:0:0:
335,233,142533,1,0,0:0:0:0:
154,137,142676,2,0,P|142:76|137:46,1,76,0|0,0:0|3:0,0:0:0:0:
346,147,142962,6,0,P|401:134|448:126,1,76,2|0,1:2|0:0,0:0:0:0:
146,228,143248,2,0,P|85:212|27:198,1,76,2|0,0:0|0:0,0:0:0:0:
313,342,143533,1,10,0:0:0:0:
313,342,143819,1,2,0:0:0:0:
257,146,143962,5,0,3:0:0:0:
257,146,144105,2,0,L|243:245,1,76,0|0,1:0|0:0,0:0:0:0:
391,72,144390,2,0,P|402:108|405:146,1,76,0|0,0:0|3:0,0:0:0:0:
155,137,144676,1,8,0:0:0:0:
341,228,144819,1,0,0:0:0:0:
215,46,144962,1,0,0:0:0:0:
215,46,145105,1,0,3:0:0:0:
132,240,145248,6,0,P|197:225|233:215,1,76,0|0,1:0|0:0,0:0:0:0:
442,294,145533,2,0,P|377:309|341:319,1,76,2|2,0:0|0:0,0:0:0:0:
264,358,145819,2,0,P|275:285|288:205,1,152,10|2,0:0|0:0,0:0:0:0:
287,207,146390,5,0,1:0:0:0:
103,172,146533,1,0,0:0:0:0:
213,40,146676,2,0,L|197:140,1,76,0|0,0:0|3:0,0:0:0:0:
181,224,146962,1,8,0:0:0:0:
380,116,147105,1,0,0:0:0:0:
200,115,147248,1,0,0:0:0:0:
289,276,147390,1,0,3:0:0:0:
374,216,147533,6,0,P|411:209|451:205,1,76,0|0,1:0|0:0,0:0:0:0:
289,168,147819,2,0,P|286:132|281:92,1,76,0|0,0:0|3:0,0:0:0:0:
201,338,148105,1,8,0:0:0:0:
201,338,148390,1,0,0:0:0:0:
104,129,148533,5,0,0:0:0:0:
104,129,148676,2,0,P|96:192|88:231,1,76,0|0,1:0|0:0,0:0:0:0:
296,360,148962,1,0,0:0:0:0:
296,360,149105,2,0,P|304:297|312:258,1,76,0|8,3:0|0:0,0:0:0:0:
337,130,149390,1,0,0:0:0:0:
204,244,149533,1,0,0:0:0:0:
197,131,149676,1,0,0:0:0:0:
437,222,149819,5,8,0:0:0:0:
456,242,149962,1,8,0:0:0:0:
460,325,150105,1,0,0:0:0:0:
389,370,150248,1,0,3:0:0:0:
311,339,150390,1,8,0:0:0:0:
34,104,150962,6,0,P|149:177|151:40,1,332.5,4|0,0:1|0:0,0:0:0:0:
116,110,152105,2,0,B|173:93|173:93|232:133|232:133|278:92|375:108|384:175|377:212,1,332.5,4|0,0:1|0:0,0:0:0:0:
293,202,153248,2,0,B|260:247|260:247|212:294|221:340|268:350|303:329|318:291|261:246|261:246|211:209,1,332.5,4|0,0:1|0:1,0:0:0:0:
178,136,154390,2,0,B|139:156|118:205|141:248|141:248|87:214|36:225|3:262|10:296,1,285,4|2,0:1|0:0,0:0:0:0:
83,314,155533,6,0,P|133:324|179:338,1,95,4|0,0:1|0:0,0:0:0:0:
342,245,156104,2,0,P|295:236|249:221,1,95,0|0,0:0|0:0,0:0:0:0:
353,327,156676,2,0,P|429:253|357:163,1,237.5,4|0,0:1|0:0,0:0:0:0:
327,188,157533,6,0,P|336:119|344:62,1,114,0|0,0:0|0:0,0:0:0:0:
345,54,157819,1,0,0:0:0:0:
113,122,159748,5,8,0:0:0:0:
98,110,159819,2,0,L|117:222,1,114,8|0,0:0|2:0,0:0:0:0:
133,311,160105,6,0,P|168:302|229:285,1,95,4|2,3:1|0:2,0:0:0:0:
463,318,160390,2,0,P|416:329|368:349,1,95,8|2,0:0|0:2,0:0:0:0:
223,190,160676,1,0,0:0:0:0:
416,230,160819,1,2,0:2:0:0:
217,167,160962,1,8,0:0:0:0:
434,85,161105,1,2,0:2:0:0:
268,302,161248,5,0,0:0:0:0:
211,148,161390,1,0,0:0:0:0:
149,325,161533,1,8,0:0:0:0:
204,129,161676,1,2,0:2:0:0:
54,271,161819,1,0,0:0:0:0:
297,201,161962,1,2,0:2:0:0:
77,68,162105,2,0,P|89:114|99:161,1,95,8|0,0:0|0:0,0:0:0:0:
316,310,162390,5,4,3:1:0:0:
166,241,162533,1,2,0:2:0:0:
400,211,162676,1,8,0:0:0:0:
221,336,162819,1,2,0:2:0:0:
448,366,162962,5,0,0:0:0:0:
227,313,163105,1,2,0:2:0:0:
505,215,163248,1,8,0:0:0:0:
233,290,163390,1,2,0:2:0:0:
312,137,163533,5,0,3:0:0:0:
351,350,163676,1,2,0:2:0:0:
450,136,163819,1,10,0:1:0:0:
238,269,163962,1,2,3:2:0:0:
143,170,164105,1,2,3:1:0:0:
147,132,164176,1,0,3:0:0:0:
156,96,164248,1,2,3:1:0:0:
161,63,164319,1,0,3:0:0:0:
167,30,164390,1,14,3:1:0:0:
274,132,164533,1,2,3:1:0:0:
22,111,164676,6,0,P|41:190|49:237,1,95,4|2,3:1|0:2,0:0:0:0:
199,348,164962,2,0,P|241:326|287:314,1,95,8|2,0:0|0:2,0:0:0:0:
142,261,165248,1,0,0:0:0:0:
387,333,165390,1,2,0:2:0:0:
170,161,165533,1,8,0:0:0:0:
371,350,165676,1,2,0:2:0:0:
332,119,165819,5,0,0:0:0:0:
240,336,165962,1,0,0:0:0:0:
219,65,166105,1,8,0:0:0:0:
305,242,166248,1,2,0:2:0:0:
448,154,166390,1,0,0:0:0:0:
184,183,166533,1,2,0:2:0:0:
403,248,166676,2,0,P|418:178|423:107,1,142.5,8|0,0:0|0:0,0:0:0:0:
418,71,166962,5,0,0:0:0:0:
183,93,167105,1,2,0:2:0:0:
310,159,167248,1,8,0:0:0:0:
66,199,167390,1,2,0:2:0:0:
282,38,167533,5,0,0:0:0:0:
204,252,167676,1,0,0:0:0:0:
145,70,167819,1,8,0:0:0:0:
207,273,167962,1,2,0:2:0:0:
351,138,168105,5,0,3:0:0:0:
40,192,168248,1,8,3:0:0:0:
46,151,168319,1,0,3:0:0:0:
53,108,168390,1,8,3:2:0:0:
213,292,168533,1,2,3:2:0:0:
439,49,168676,1,8,3:0:0:0:
439,49,168748,1,8,3:0:0:0:
439,49,168819,1,8,3:0:0:0:
439,49,168890,1,8,3:0:0:0:
439,49,168962,1,4,3:0:0:0:
439,49,169033,1,4,3:0:0:0:
439,49,169105,1,4,3:0:0:0:
439,49,169176,1,4,3:0:0:0:
439,49,169248,6,0,P|425:99|418:151,1,104.500003189087,4|2,3:1|0:2,0:0:0:0:
190,287,169533,2,0,P|201:237|208:185,1,104.500003189087,8|2,0:0|0:2,0:0:0:0:
344,265,169819,1,0,0:0:0:0:
287,58,169962,1,2,0:2:0:0:
369,263,170105,1,8,0:0:0:0:
260,68,170248,1,2,0:2:0:0:
73,233,170390,5,0,0:0:0:0:
284,177,170533,1,0,0:0:0:0:
19,116,170676,1,8,0:0:0:0:
280,200,170819,1,2,0:2:0:0:
101,38,170962,5,0,0:0:0:0:
212,280,171105,1,2,0:2:0:0:
224,40,171248,1,8,0:0:0:0:
85,266,171390,1,0,0:0:0:0:
85,266,171462,1,0,0:0:0:0:
85,266,171533,5,4,3:1:0:0:
288,156,171676,1,2,0:2:0:0:
63,168,171819,1,8,0:0:0:0:
302,252,171962,1,2,0:2:0:0:
66,357,172105,5,0,0:0:0:0:
188,163,172248,1,2,0:2:0:0:
403,234,172390,1,8,0:0:0:0:
159,319,172533,1,2,0:2:0:0:
171,81,172676,5,0,3:0:0:0:
234,254,172819,1,2,0:2:0:0:
314,43,172962,1,10,0:1:0:0:
230,280,173105,1,2,3:2:0:0:
124,183,173248,5,2,3:1:0:0:
398,111,173390,1,2,3:1:0:0:
402,149,173462,1,0,3:0:0:0:
408,184,173533,1,10,3:1:0:0:
177,18,173676,1,2,3:1:0:0:
165,60,173748,1,0,3:0:0:0:
153,100,173819,6,0,P|98:82|44:66,1,113.999996520996,4|2,3:1|0:2,0:0:0:0:
366,285,174105,2,0,P|437:267|510:255,1,113.999996520996,8|2,0:0|0:2,0:0:0:0:
102,167,174390,1,0,0:0:0:0:
349,138,174533,1,2,0:2:0:0:
166,276,174676,1,8,0:0:0:0:
282,38,174819,1,2,0:2:0:0:
366,285,174962,6,0,P|322:249|267:239,1,113.999996520996,0|0,0:0|0:0,0:0:0:0:
145,314,175248,1,8,0:0:0:0:
14,122,175390,2,0,P|56:158|112:170,1,113.999996520996,2|0,0:2|0:0,0:0:0:0:
369,107,175676,1,2,0:2:0:0:
215,62,175819,2,0,P|223:147|234:231,1,170.999994781494,8|0,0:0|0:0,0:0:0:0:
238,259,176105,5,0,0:0:0:0:
371,193,176248,1,2,0:2:0:0:
243,283,176390,1,8,0:0:0:0:
108,140,176533,1,2,0:2:0:0:
245,305,176676,5,0,0:0:0:0:
381,76,176819,1,0,0:0:0:0:
115,240,176962,1,8,0:0:0:0:
384,348,177105,1,2,0:2:0:0:
278,20,177248,6,0,P|267:76|259:132,1,113.999996520996,0|8,3:0|3:0,0:0:0:0:
257,163,177462,1,0,3:0:0:0:
256,193,177533,1,8,3:2:0:0:
64,71,177676,1,2,3:2:0:0:
256,222,177819,5,8,3:0:0:0:
43,267,177962,1,8,3:0:0:0:
182,112,178105,1,4,3:0:0:0:
167,315,178248,1,4,3:0:0:0:
48,149,178390,6,0,P|44:101|39:54,1,95,4|2,3:1|0:2,0:0:0:0:
141,285,178676,2,0,P|101:311|63:339,1,95,8|2,0:0|0:2,0:0:0:0:
203,149,178962,2,0,P|245:169|289:189,1,95,0|2,3:0|0:2,0:0:0:0:
465,310,179247,2,0,P|418:321|374:338,1,95,8|2,0:0|0:2,0:0:0:0:
289,189,179533,6,0,L|319:71,1,95,0|2,3:0|0:2,0:0:0:0:
128,335,179819,2,0,P|118:288|108:241,1,95,8|2,0:0|0:2,0:0:0:0:
386,230,180105,1,0,3:0:0:0:
189,158,180248,2,0,P|211:250|226:344,1,190,2|0,0:2|0:0,0:0:0:0:
260,78,180676,5,4,3:1:0:0:
104,217,180819,1,2,0:2:0:0:
304,177,180962,1,8,0:0:0:0:
78,111,181105,1,2,0:2:0:0:
196,270,181248,1,0,3:0:0:0:
176,57,181390,1,2,0:2:0:0:
25,208,181533,2,0,P|71:198|117:187,1,95,8|2,0:0|0:2,0:0:0:0:
414,285,181819,6,0,P|367:292|322:306,1,95,0|2,3:0|0:2,0:0:0:0:
269,164,182105,2,0,P|275:122|284:70,1,95,8|2,0:0|3:2,0:0:0:0:
171,300,182390,1,8,3:0:0:0:
130,141,182533,1,0,3:0:0:0:
130,141,182605,1,0,3:0:0:0:
130,141,182676,1,4,3:0:0:0:
62,338,182819,1,0,3:0:0:0:
271,264,182962,6,0,P|317:273|366:287,1,95,4|2,3:1|0:2,0:0:0:0:
130,141,183248,2,0,P|82:125|40:108,1,95,8|2,0:0|0:2,0:0:0:0:
303,148,183533,2,0,P|377:132|417:117,1,95,0|2,3:0|0:2,0:0:0:0:
115,254,183819,2,0,P|41:270|1:285,1,95,8|2,0:0|0:2,0:0:0:0:
317,342,184105,6,0,P|305:295|298:248,1,95,0|2,3:0|0:2,0:0:0:0:
108,44,184390,2,0,P|123:90|133:136,1,95,8|2,0:0|0:2,0:0:0:0:
153,341,184676,1,0,3:0:0:0:
407,213,184819,2,0,P|327:162|239:189,1,190,2|0,0:2|0:0,0:0:0:0:
251,78,185248,5,4,3:1:0:0:
318,258,185390,1,2,0:2:0:0:
460,64,185533,1,8,0:0:0:0:
323,281,185676,1,2,0:2:0:0:
158,183,185819,5,0,3:0:0:0:
328,302,185962,1,2,0:2:0:0:
345,150,186105,1,8,0:0:0:0:
257,353,186248,1,2,0:2:0:0:
447,186,186390,5,0,3:0:0:0:
233,241,186533,1,2,0:2:0:0:
233,241,186605,1,0,3:0:0:0:
233,241,186676,1,8,3:2:0:0:
391,330,186819,1,2,0:2:0:0:
69,347,186962,6,0,B|98:318|145:309|186:314|186:314|138:299|97:276,1,199.499993911743
43,266,187533,6,0,P|54:211|62:166,1,95,4|2,3:1|0:2,0:0:0:0:
257,23,187819,2,0,P|241:100|236:131,1,95,8|2,0:0|0:2,0:0:0:0:
267,332,188105,2,0,B|299:327|299:327|361:334,1,95,0|2,3:0|0:2,0:0:0:0:
459,144,188390,2,0,B|428:153|428:153|364:146,1,95,8|2,0:0|0:2,0:0:0:0:
123,66,188676,5,0,3:0:0:0:
219,230,188819,1,2,0:2:0:0:
316,49,188962,1,8,0:0:0:0:
117,187,189105,1,0,0:0:0:0:
359,263,189248,1,0,3:0:0:0:
205,126,189390,1,2,0:2:0:0:
145,341,189533,2,0,P|194:323|273:318,1,95,8|2,0:0|0:2,0:0:0:0:
413,201,189819,6,0,P|399:247|391:294,1,95,4|2,3:1|0:2,0:0:0:0:
205,126,190105,2,0,P|218:63|225:12,1,95,8|2,0:0|0:2,0:0:0:0:
497,170,190390,2,0,P|446:122|332:174,1,190,0|8,3:0|0:0,0:0:0:0:
291,353,190819,1,2,0:2:0:0:
88,238,190962,2,0,P|183:239|206:244,1,95,0|2,3:0|0:2,0:0:0:0:
430,294,191248,2,0,P|414:225|414:177,1,95,8|2,0:0|3:2,0:0:0:0:
400,49,191533,5,10,3:0:0:0:
163,129,191676,1,0,3:0:0:0:
169,87,191748,1,0,3:0:0:0:
175,47,191819,1,4,3:0:0:0:
286,210,191962,1,0,3:0:0:0:
44,151,192105,6,0,P|59:222|67:271,1,95,4|2,3:1|0:2,0:0:0:0:
283,107,192390,2,0,P|290:59|299:13,1,95,8|2,0:0|0:2,0:0:0:0:
189,247,192676,2,0,L|214:362,1,95,0|2,3:0|0:2,0:0:0:0:
163,89,192962,2,0,L|142:-10,1,95,8|2,0:0|0:2,0:0:0:0:
300,211,193248,5,0,3:0:0:0:
77,149,193390,1,2,0:2:0:0:
283,107,193533,1,8,0:0:0:0:
104,253,193676,1,2,0:2:0:0:
299,314,193819,2,0,P|345:322|389:346,1,95,0|2,3:0|0:2,0:0:0:0:
490,120,194105,2,0,P|421:140|324:151,1,142.5,8|0,0:0|0:0,0:0:0:0:
311,149,194390,5,4,3:1:0:0:
443,241,194533,1,2,0:2:0:0:
219,335,194676,1,8,0:0:0:0:
450,268,194819,1,2,0:2:0:0:
193,99,194962,5,0,3:0:0:0:
317,280,195105,1,2,0:2:0:0:
336,44,195248,1,8,0:0:0:0:
182,235,195390,1,2,0:2:0:0:
417,167,195533,1,0,3:0:0:0:
172,78,195676,5,2,0:2:0:0:
172,78,195748,1,0,3:0:0:0:
172,78,195819,1,8,3:2:0:0:
326,313,195962,1,2,0:2:0:0:
59,346,196105,1,8,3:2:0:0:
59,346,196676,5,6,0:0:0:0:
59,346,196962,2,0,P|49:280|36:225,2,113.999996520996,2|0|2,0:0|0:0|0:0,0:0:0:0:
148,363,197676,2,0,P|187:336|277:338,1,113.999996520996,2|0,0:0|0:0,0:0:0:0:
339,356,198105,2,0,P|366:349|392:336,1,56.9999982604981
402,56,198819,5,0,0:0:0:0:
332,115,198962,2,0,P|276:123|226:98,1,113.999996520996,2|0,0:0|0:0,0:0:0:0:
169,26,199390,2,0,P|188:113|190:173,1,113.999996520996,2|0,0:0|0:0,0:0:0:0:
60,312,199962,2,0,P|43:259|40:201,1,113.999996520996,2|0,0:0|0:0,0:0:0:0:
37,110,200390,2,0,L|122:129,1,56.9999982604981
406,311,201248,6,0,L|425:246,1,56.9999982604981,4|0,0:0|0:0,0:0:0:0:
330,161,201533,2,0,L|339:234,1,56.9999982604981,2|0,0:0|0:0,0:0:0:0:
312,304,201819,2,0,P|262:279|206:276,1,113.999996520996,2|0,0:0|0:0,0:0:0:0:
124,318,202248,2,0,P|67:315|22:276,1,113.999996520996,2|0,0:0|0:0,0:0:0:0:
16,189,202676,2,0,L|98:178,1,56.9999982604981,0|0,0:0|0:0,0:0:0:0:
192,35,202962,1,2,0:2:0:0:
192,35,203533,6,0,P|148:75|158:146,1,113.999996520996,2|0,0:0|0:0,0:0:0:0:
256,167,203962,2,0,P|288:140|276:52,1,113.999996520996,2|0,0:0|0:0,0:0:0:0:
291,71,204533,5,0,0:0:0:0:
256,167,204676,1,2,0:0:0:0:
281,258,204819,1,2,0:0:0:0:
359,320,204962,1,2,0:0:0:0:
452,317,205105,1,2,0:0:0:0:
