osu file format v14

[General]
AudioFilename: audio.mp3
AudioLeadIn: 0
PreviewTime: 29175
Countdown: 1
SampleSet: Normal
StackLeniency: 0.7
Mode: 1
LetterboxInBreaks: 0
WidescreenStoryboard: 1

[Editor]
DistanceSpacing: 1
BeatDivisor: 4
GridSize: 32
TimelineZoom: 2.3

[Metadata]
Title:Genjitsu Game
TitleUnicode:現実ゲーム
Artist:yuikonnu
ArtistUnicode:ゆいこんぬ
Creator:Lasse
Version:Oni
Source:
Tags:nijiiro chocolatier japanese rock 虹色ショコラティエ
BeatmapID:2229527
BeatmapSetID:733590

[Difficulty]
HPDrainRate:5.5
CircleSize:4
OverallDifficulty:5.5
ApproachRate:9
SliderMultiplier:1.4
SliderTickRate:1

[Events]
//Background and Video events
0,0,"placeholder.jpg",0,0
//Break Periods
2,139794,146044
//Storyboard Layer 0 (Background)
//Storyboard Layer 1 (Fail)
//Storyboard Layer 2 (Pass)
//Storyboard Layer 3 (Foreground)
//Storyboard Layer 4 (Overlay)
//Storyboard Sound Samples

[TimingPoints]
394,300,4,1,0,90,1,0
9994,-100,4,1,0,70,0,0
19594,-100,4,1,0,80,0,0
29194,-100,4,1,0,90,0,0
30244,-100,4,1,0,80,0,0
30994,-200,4,1,0,40,0,0
31594,-100,4,1,0,100,0,1
48394,-100,4,1,0,90,0,0
57994,-100,4,1,0,70,0,0
67594,-100,4,1,0,80,0,0
77194,-100,4,1,0,90,0,0
77644,-100,4,1,0,80,0,0
79594,-100,4,1,0,100,0,1
96394,-100,4,1,0,90,0,0
105694,-100,4,1,0,80,0,0
105994,-100,4,1,0,90,0,1
115444,-100,4,1,0,80,0,0
138394,-100,4,1,0,70,0,0
138544,-100,4,1,0,65,0,0
138694,-100,4,1,0,60,0,0
138844,-100,4,1,0,55,0,0
138994,-100,4,1,0,50,0,0
139144,-100,4,1,0,45,0,0
139294,-100,4,1,0,40,0,0
139444,-100,4,1,0,35,0,0
139594,-100,4,1,0,30,0,0
146644,-100,4,1,0,50,0,0
146794,-100,4,1,0,90,0,0
149194,-100,4,1,0,100,0,1
156244,-100,4,1,0,80,0,0
156694,-100,4,1,0,100,0,1
173194,-100,4,1,0,90,0,0

[HitObjects]
256,192,394,5,12,0:0:0:0:
256,192,694,1,0,0:0:0:0:
256,192,844,1,8,0:0:0:0:
256,192,1144,1,0,0:0:0:0:
258,199,1294,1,0,0:0:0:0:
256,192,1444,1,12,0:0:0:0:
256,192,1744,1,0,0:0:0:0:
256,192,1894,1,8,0:0:0:0:
256,192,2044,1,0,0:0:0:0:
256,192,2194,1,8,0:0:0:0:
256,192,2344,1,8,0:0:0:0:
262,190,2419,1,0,0:0:0:0:
256,192,2494,1,0,0:0:0:0:
256,192,2644,1,0,0:0:0:0:
256,192,2794,1,8,0:0:0:0:
256,192,3094,1,8,0:0:0:0:
256,192,3244,1,0,0:0:0:0:
256,192,3319,1,0,0:0:0:0:
256,192,3394,1,8,0:0:0:0:
256,192,3544,1,0,0:0:0:0:
256,192,3694,1,0,0:0:0:0:
256,192,3844,1,12,0:0:0:0:
256,192,4144,1,0,0:0:0:0:
256,192,4294,1,8,0:0:0:0:
256,192,4444,1,8,0:0:0:0:
256,192,4594,1,0,0:0:0:0:
256,192,4744,1,0,0:0:0:0:
256,192,4894,1,8,0:0:0:0:
256,192,5044,1,0,0:0:0:0:
256,192,5119,1,0,0:0:0:0:
256,192,5194,1,8,0:0:0:0:
256,192,5494,1,0,0:0:0:0:
256,192,5644,1,8,0:0:0:0:
256,192,5944,1,0,0:0:0:0:
256,192,6094,1,0,0:0:0:0:
256,192,6244,1,12,0:0:0:0:
256,192,6544,1,8,0:0:0:0:
256,192,6694,1,0,0:0:0:0:
256,192,6844,1,0,0:0:0:0:
256,192,6919,1,0,0:0:0:0:
256,192,6994,1,8,0:0:0:0:
256,192,7144,1,8,0:0:0:0:
256,192,7294,1,0,0:0:0:0:
256,192,7369,1,0,0:0:0:0:
256,192,7444,1,0,0:0:0:0:
256,192,7519,1,0,0:0:0:0:
256,192,7594,1,8,0:0:0:0:
256,192,8044,1,8,0:0:0:0:
256,192,8344,1,0,0:0:0:0:
256,192,8494,1,0,0:0:0:0:
256,192,8644,1,12,0:0:0:0:
256,192,8944,1,0,0:0:0:0:
256,192,9094,1,0,0:0:0:0:
256,192,9244,1,8,0:0:0:0:
256,192,9319,1,0,0:0:0:0:
256,192,9394,1,0,0:0:0:0:
256,192,9694,1,8,0:0:0:0:
256,192,9994,5,4,0:0:0:0:
256,192,10294,1,0,0:0:0:0:
256,192,10594,1,8,0:0:0:0:
256,192,10894,1,0,0:0:0:0:
256,192,11044,1,8,0:0:0:0:
256,192,11344,1,8,0:0:0:0:
256,192,11644,1,0,0:0:0:0:
256,192,11794,1,8,0:0:0:0:
258,167,12094,1,8,0:0:0:0:
256,192,12394,1,0,0:0:0:0:
256,192,12544,1,8,0:0:0:0:
256,192,12844,1,0,0:0:0:0:
256,192,12994,1,8,0:0:0:0:
238,193,13144,1,8,0:0:0:0:
256,192,13294,1,0,0:0:0:0:
256,192,13444,1,8,0:0:0:0:
256,192,13744,1,8,0:0:0:0:
256,192,14044,1,8,0:0:0:0:
256,192,14344,1,0,0:0:0:0:
256,192,14494,1,8,0:0:0:0:
256,192,14794,1,0,0:0:0:0:
256,192,15094,1,0,0:0:0:0:
256,192,15394,1,8,0:0:0:0:
256,192,15694,1,0,0:0:0:0:
256,192,15844,1,0,0:0:0:0:
256,192,16144,1,8,0:0:0:0:
256,192,16444,1,0,0:0:0:0:
256,192,16594,1,8,0:0:0:0:
256,192,16894,1,0,0:0:0:0:
256,192,17194,1,0,0:0:0:0:
256,192,17344,1,8,0:0:0:0:
256,192,17644,1,0,0:0:0:0:
256,192,17794,1,8,0:0:0:0:
256,192,17944,1,0,0:0:0:0:
256,192,18094,1,0,0:0:0:0:
256,192,18244,1,12,0:0:0:0:
256,192,18544,1,12,0:0:0:0:
256,192,18844,1,12,0:0:0:0:
256,192,19144,1,8,0:0:0:0:
256,192,19294,1,0,0:0:0:0:
256,192,19369,1,0,0:0:0:0:
256,192,19444,1,0,0:0:0:0:
256,192,19519,1,0,0:0:0:0:
256,192,19594,5,8,0:0:0:0:
256,192,19894,1,8,0:0:0:0:
256,192,20044,1,8,0:0:0:0:
256,192,20194,1,0,0:0:0:0:
256,192,20344,1,0,0:0:0:0:
256,192,20494,1,8,0:0:0:0:
256,192,20644,1,0,0:0:0:0:
256,192,20944,1,0,0:0:0:0:
256,192,21244,1,0,0:0:0:0:
256,192,21544,1,0,0:0:0:0:
256,192,21694,1,8,0:0:0:0:
256,192,21844,1,0,0:0:0:0:
256,192,21919,1,0,0:0:0:0:
256,192,21994,1,8,0:0:0:0:
256,192,22294,1,8,0:0:0:0:
256,192,22444,1,0,0:0:0:0:
256,192,22594,1,8,0:0:0:0:
256,192,22744,1,0,0:0:0:0:
256,192,22819,1,0,0:0:0:0:
256,192,22894,1,8,0:0:0:0:
256,192,23044,1,0,0:0:0:0:
256,192,23344,1,0,0:0:0:0:
256,192,23644,1,0,0:0:0:0:
256,192,23944,1,0,0:0:0:0:
256,192,24019,1,0,0:0:0:0:
256,192,24094,1,8,0:0:0:0:
256,192,24394,5,0,0:0:0:0:
256,192,24694,1,8,0:0:0:0:
256,192,24844,1,8,0:0:0:0:
256,192,24994,1,0,0:0:0:0:
256,192,25144,1,8,0:0:0:0:
256,192,25219,1,8,0:0:0:0:
256,192,25294,1,0,0:0:0:0:
256,192,25444,1,8,0:0:0:0:
256,192,25744,1,8,0:0:0:0:
256,192,25894,1,8,0:0:0:0:
256,192,26044,1,0,0:0:0:0:
256,192,26344,1,0,0:0:0:0:
256,192,26644,1,8,0:0:0:0:
256,192,26794,1,0,0:0:0:0:
256,192,26944,1,0,0:0:0:0:
266,192,27019,1,0,0:0:0:0:
256,192,27094,1,8,0:0:0:0:
256,192,27244,1,8,0:0:0:0:
274,198,27394,1,0,0:0:0:0:
256,192,27544,1,0,0:0:0:0:
256,192,27844,1,8,0:0:0:0:
256,192,28144,1,0,0:0:0:0:
256,192,28294,1,0,0:0:0:0:
256,192,28444,1,8,0:0:0:0:
256,192,28744,1,0,0:0:0:0:
256,192,28819,1,0,0:0:0:0:
256,192,28894,1,8,0:0:0:0:
256,192,29044,1,0,0:0:0:0:
256,192,29194,5,12,0:0:0:0:
256,192,30244,5,4,0:0:0:0:
256,192,31594,5,4,0:0:0:0:
256,192,31894,1,8,0:0:0:0:
256,192,32044,1,8,0:0:0:0:
256,192,32194,1,0,0:0:0:0:
256,192,32344,1,0,0:0:0:0:
256,192,32494,1,8,0:0:0:0:
256,192,32644,1,0,0:0:0:0:
256,192,32719,1,0,0:0:0:0:
256,192,32794,1,8,0:0:0:0:
256,192,33094,1,8,0:0:0:0:
256,192,33244,1,0,0:0:0:0:
256,192,33394,1,8,0:0:0:0:
256,192,33544,1,8,0:0:0:0:
256,192,33694,1,0,0:0:0:0:
256,192,33844,1,8,0:0:0:0:
256,192,33919,1,8,0:0:0:0:
256,192,33994,1,0,0:0:0:0:
256,192,34294,1,8,0:0:0:0:
256,192,34444,1,0,0:0:0:0:
256,192,34519,1,0,0:0:0:0:
256,192,34594,1,8,0:0:0:0:
256,192,34744,1,0,0:0:0:0:
256,192,34894,1,8,0:0:0:0:
256,192,35044,1,8,0:0:0:0:
256,192,35344,1,0,0:0:0:0:
256,192,35494,1,8,0:0:0:0:
256,192,35794,1,0,0:0:0:0:
256,192,35944,1,0,0:0:0:0:
256,192,36094,1,8,0:0:0:0:
256,192,36169,1,8,0:0:0:0:
256,192,36244,1,0,0:0:0:0:
256,192,36319,1,0,0:0:0:0:
256,192,36394,1,8,0:0:0:0:
256,192,36694,1,8,0:0:0:0:
256,192,36844,1,8,0:0:0:0:
256,192,36994,1,0,0:0:0:0:
256,192,37144,1,0,0:0:0:0:
256,192,37294,1,8,0:0:0:0:
256,192,37444,1,0,0:0:0:0:
256,192,37519,1,0,0:0:0:0:
256,192,37594,1,8,0:0:0:0:
256,192,37894,1,8,0:0:0:0:
256,192,38044,1,0,0:0:0:0:
256,192,38194,1,8,0:0:0:0:
256,192,38344,1,0,0:0:0:0:
256,192,38419,1,0,0:0:0:0:
256,192,38494,1,8,0:0:0:0:
256,192,38644,1,8,0:0:0:0:
256,192,38794,1,0,0:0:0:0:
256,192,38944,1,0,0:0:0:0:
256,192,39244,1,8,0:0:0:0:
256,192,39394,1,8,0:0:0:0:
256,192,39544,1,0,0:0:0:0:
256,192,39619,1,0,0:0:0:0:
256,192,39694,1,8,0:0:0:0:
256,192,39844,1,0,0:0:0:0:
256,192,39919,1,0,0:0:0:0:
256,192,39994,1,8,0:0:0:0:
256,192,40294,1,12,0:0:0:0:
256,192,40594,1,0,0:0:0:0:
256,192,40744,1,0,0:0:0:0:
256,192,40894,1,8,0:0:0:0:
256,192,40969,1,8,0:0:0:0:
256,192,41044,1,0,0:0:0:0:
256,192,41119,1,0,0:0:0:0:
256,192,41194,5,8,0:0:0:0:
256,192,41494,1,8,0:0:0:0:
256,192,41644,1,0,0:0:0:0:
256,192,41719,1,0,0:0:0:0:
256,192,41794,1,8,0:0:0:0:
256,192,41944,1,0,0:0:0:0:
256,192,42094,1,8,0:0:0:0:
256,192,42244,1,8,0:0:0:0:
256,192,42319,1,8,0:0:0:0:
256,192,42394,1,0,0:0:0:0:
256,192,42694,1,8,0:0:0:0:
256,192,42844,1,8,0:0:0:0:
256,192,42994,1,0,0:0:0:0:
256,192,43144,1,0,0:0:0:0:
256,192,43294,1,8,0:0:0:0:
256,192,43444,1,0,0:0:0:0:
256,192,43519,1,0,0:0:0:0:
256,192,43594,1,8,0:0:0:0:
256,192,43894,1,8,0:0:0:0:
256,192,44044,1,0,0:0:0:0:
256,192,44344,1,0,0:0:0:0:
256,192,44494,1,8,0:0:0:0:
256,192,44644,1,8,0:0:0:0:
256,192,44719,1,0,0:0:0:0:
256,192,44794,1,0,0:0:0:0:
256,192,45094,1,8,0:0:0:0:
256,192,45394,1,0,0:0:0:0:
256,192,45544,1,0,0:0:0:0:
256,192,45694,1,8,0:0:0:0:
256,192,45769,1,8,0:0:0:0:
256,192,45844,1,0,0:0:0:0:
256,192,45919,1,0,0:0:0:0:
256,192,45994,1,8,0:0:0:0:
256,192,46294,1,8,0:0:0:0:
256,192,46444,1,8,0:0:0:0:
256,192,46519,1,8,0:0:0:0:
256,192,46594,1,0,0:0:0:0:
256,192,46744,1,0,0:0:0:0:
256,192,46894,1,8,0:0:0:0:
256,192,47044,1,0,0:0:0:0:
256,192,47119,1,0,0:0:0:0:
256,192,47194,1,8,0:0:0:0:
256,192,47494,1,8,0:0:0:0:
256,192,47644,1,0,0:0:0:0:
256,192,47794,1,8,0:0:0:0:
256,192,47944,1,8,0:0:0:0:
256,192,48094,1,0,0:0:0:0:
256,192,48169,1,0,0:0:0:0:
256,192,48244,1,0,0:0:0:0:
256,192,48319,1,0,0:0:0:0:
256,192,48394,5,8,0:0:0:0:
256,192,48694,1,0,0:0:0:0:
256,192,48844,1,8,0:0:0:0:
256,192,49144,1,0,0:0:0:0:
258,199,49294,1,0,0:0:0:0:
256,192,49444,1,12,0:0:0:0:
256,192,49744,1,0,0:0:0:0:
256,192,49894,1,8,0:0:0:0:
256,192,50044,1,0,0:0:0:0:
256,192,50194,1,8,0:0:0:0:
256,192,50344,1,8,0:0:0:0:
262,190,50419,1,8,0:0:0:0:
256,192,50494,1,0,0:0:0:0:
256,192,50644,1,0,0:0:0:0:
256,192,50794,1,8,0:0:0:0:
256,192,51094,1,8,0:0:0:0:
256,192,51244,1,8,0:0:0:0:
256,192,51319,1,0,0:0:0:0:
256,192,51394,1,0,0:0:0:0:
256,192,51544,1,0,0:0:0:0:
256,192,51694,1,8,0:0:0:0:
256,192,51844,1,4,0:0:0:0:
256,192,52144,1,0,0:0:0:0:
256,192,52294,1,8,0:0:0:0:
256,192,52444,1,0,0:0:0:0:
256,192,52594,1,8,0:0:0:0:
256,192,52744,1,0,0:0:0:0:
256,192,52894,1,0,0:0:0:0:
256,192,53044,1,8,0:0:0:0:
256,192,53119,1,8,0:0:0:0:
256,192,53194,1,0,0:0:0:0:
256,192,53494,1,0,0:0:0:0:
256,192,53644,1,8,0:0:0:0:
256,192,53944,1,0,0:0:0:0:
256,192,54094,1,0,0:0:0:0:
256,192,54244,1,12,0:0:0:0:
256,192,54544,1,8,0:0:0:0:
256,192,54694,1,0,0:0:0:0:
256,192,54844,1,0,0:0:0:0:
256,192,54919,1,0,0:0:0:0:
256,192,54994,1,8,0:0:0:0:
256,192,55144,1,8,0:0:0:0:
256,192,55294,1,0,0:0:0:0:
256,192,55369,1,0,0:0:0:0:
256,192,55444,1,8,0:0:0:0:
256,192,55519,1,8,0:0:0:0:
256,192,55594,1,0,0:0:0:0:
256,192,56044,1,8,0:0:0:0:
256,192,56344,1,0,0:0:0:0:
256,192,56494,1,12,0:0:0:0:
256,192,56644,1,4,0:0:0:0:
256,192,56944,1,0,0:0:0:0:
256,192,57094,1,8,0:0:0:0:
256,192,57244,1,8,0:0:0:0:
256,192,57319,1,0,0:0:0:0:
256,192,57394,1,0,0:0:0:0:
256,192,57694,1,8,0:0:0:0:
256,192,57994,5,4,0:0:0:0:
256,192,58444,1,0,0:0:0:0:
256,192,58594,1,8,0:0:0:0:
256,192,58894,1,0,0:0:0:0:
256,192,59044,1,8,0:0:0:0:
256,192,59344,1,8,0:0:0:0:
256,192,59644,1,0,0:0:0:0:
256,192,59794,1,8,0:0:0:0:
256,192,60094,1,0,0:0:0:0:
256,192,60394,1,0,0:0:0:0:
256,192,60544,1,8,0:0:0:0:
256,192,60844,1,0,0:0:0:0:
256,192,60994,1,8,0:0:0:0:
256,192,61294,1,0,0:0:0:0:
256,192,61444,1,0,0:0:0:0:
256,192,61744,1,8,0:0:0:0:
256,192,62044,1,0,0:0:0:0:
256,192,62344,1,0,0:0:0:0:
256,192,62494,1,8,0:0:0:0:
256,192,63094,1,0,0:0:0:0:
256,192,63394,1,8,0:0:0:0:
256,192,63694,1,0,0:0:0:0:
256,192,63844,1,0,0:0:0:0:
256,192,64144,1,8,0:0:0:0:
256,192,64444,1,0,0:0:0:0:
256,192,64594,1,8,0:0:0:0:
256,192,64894,1,0,0:0:0:0:
256,192,65194,1,0,0:0:0:0:
256,192,65344,1,8,0:0:0:0:
256,192,65644,1,0,0:0:0:0:
256,192,65794,1,0,0:0:0:0:
256,192,65944,1,8,0:0:0:0:
256,192,66244,1,4,0:0:0:0:
256,192,66544,1,4,0:0:0:0:
256,192,66844,1,12,0:0:0:0:
256,192,67144,1,0,0:0:0:0:
256,192,67294,1,12,0:0:0:0:
256,192,67594,5,4,0:0:0:0:
256,192,67894,1,8,0:0:0:0:
256,192,68044,1,8,0:0:0:0:
256,192,68119,1,8,0:0:0:0:
256,192,68194,1,0,0:0:0:0:
256,192,68344,1,0,0:0:0:0:
256,192,68644,1,8,0:0:0:0:
256,192,68944,1,0,0:0:0:0:
256,192,69244,1,0,0:0:0:0:
256,192,69544,1,8,0:0:0:0:
256,192,69694,1,0,0:0:0:0:
256,192,69844,1,0,0:0:0:0:
256,192,69919,1,0,0:0:0:0:
256,192,69994,1,8,0:0:0:0:
256,192,70294,1,8,0:0:0:0:
256,192,70444,1,0,0:0:0:0:
256,192,70519,1,0,0:0:0:0:
256,192,70594,1,8,0:0:0:0:
256,192,70744,1,0,0:0:0:0:
256,192,70894,1,0,0:0:0:0:
256,192,71044,1,8,0:0:0:0:
256,192,71344,1,0,0:0:0:0:
256,192,71644,1,0,0:0:0:0:
256,192,71944,1,0,0:0:0:0:
256,192,72019,1,0,0:0:0:0:
256,192,72094,1,8,0:0:0:0:
256,192,72394,5,0,0:0:0:0:
256,192,72694,1,8,0:0:0:0:
256,192,72844,1,0,0:0:0:0:
256,192,72994,1,8,0:0:0:0:
256,192,73144,1,8,0:0:0:0:
256,192,73219,1,0,0:0:0:0:
256,192,73294,1,0,0:0:0:0:
256,192,73444,1,8,0:0:0:0:
256,192,73744,1,8,0:0:0:0:
256,192,73894,1,8,0:0:0:0:
256,192,74044,1,0,0:0:0:0:
256,192,74344,1,0,0:0:0:0:
256,192,74644,1,0,0:0:0:0:
256,192,74719,1,0,0:0:0:0:
256,192,74794,1,8,0:0:0:0:
256,192,74944,1,0,0:0:0:0:
256,192,75094,1,8,0:0:0:0:
256,192,75244,1,8,0:0:0:0:
274,198,75394,1,0,0:0:0:0:
256,192,75544,1,0,0:0:0:0:
256,192,75844,1,8,0:0:0:0:
256,192,76144,1,0,0:0:0:0:
256,192,76294,1,0,0:0:0:0:
256,192,76444,1,8,0:0:0:0:
256,192,76744,1,0,0:0:0:0:
256,192,76819,1,0,0:0:0:0:
256,192,76894,1,8,0:0:0:0:
256,192,77044,1,8,0:0:0:0:
256,192,77194,5,4,0:0:0:0:
256,192,77644,1,0,0:0:0:0:
256,192,77719,1,0,0:0:0:0:
256,192,77794,1,8,0:0:0:0:
256,192,78094,1,8,0:0:0:0:
256,192,78244,1,0,0:0:0:0:
256,192,79594,5,4,0:0:0:0:
256,192,79894,1,8,0:0:0:0:
256,192,80044,1,8,0:0:0:0:
256,192,80119,1,8,0:0:0:0:
256,192,80194,1,0,0:0:0:0:
256,192,80344,1,0,0:0:0:0:
256,192,80494,1,8,0:0:0:0:
256,192,80644,1,8,0:0:0:0:
256,192,80719,1,0,0:0:0:0:
256,192,80794,1,0,0:0:0:0:
256,192,81094,1,8,0:0:0:0:
256,192,81244,1,8,0:0:0:0:
256,192,81394,1,0,0:0:0:0:
256,192,81544,1,0,0:0:0:0:
256,192,81694,1,8,0:0:0:0:
256,192,81844,1,8,0:0:0:0:
256,192,81919,1,8,0:0:0:0:
256,192,81994,1,0,0:0:0:0:
256,192,82294,1,8,0:0:0:0:
256,192,82444,1,0,0:0:0:0:
256,192,82519,1,0,0:0:0:0:
256,192,82594,1,8,0:0:0:0:
256,192,82744,1,0,0:0:0:0:
256,192,82894,1,8,0:0:0:0:
256,192,83044,1,8,0:0:0:0:
256,192,83344,1,0,0:0:0:0:
256,192,83494,1,8,0:0:0:0:
256,192,83644,1,8,0:0:0:0:
256,192,83794,1,0,0:0:0:0:
256,192,83944,1,0,0:0:0:0:
256,192,84094,1,8,0:0:0:0:
256,192,84169,1,0,0:0:0:0:
256,192,84244,1,0,0:0:0:0:
256,192,84319,1,0,0:0:0:0:
256,192,84394,1,8,0:0:0:0:
256,192,84694,1,8,0:0:0:0:
256,192,84844,1,8,0:0:0:0:
256,192,84919,1,0,0:0:0:0:
256,192,84994,1,0,0:0:0:0:
256,192,85144,1,0,0:0:0:0:
256,192,85294,1,8,0:0:0:0:
256,192,85444,1,8,0:0:0:0:
256,192,85519,1,8,0:0:0:0:
256,192,85594,1,0,0:0:0:0:
256,192,85894,1,8,0:0:0:0:
256,192,86044,1,8,0:0:0:0:
256,192,86194,1,0,0:0:0:0:
256,192,86344,1,0,0:0:0:0:
256,192,86419,1,0,0:0:0:0:
256,192,86494,1,8,0:0:0:0:
256,192,86644,1,8,0:0:0:0:
256,192,86794,1,0,0:0:0:0:
256,192,86944,1,0,0:0:0:0:
256,192,87244,1,8,0:0:0:0:
256,192,87394,1,8,0:0:0:0:
256,192,87544,1,0,0:0:0:0:
256,192,87619,1,0,0:0:0:0:
256,192,87694,1,8,0:0:0:0:
256,192,87844,1,0,0:0:0:0:
256,192,87919,1,0,0:0:0:0:
256,192,87994,1,8,0:0:0:0:
256,192,88294,1,12,0:0:0:0:
256,192,88594,1,0,0:0:0:0:
256,192,88744,1,8,0:0:0:0:
256,192,88894,1,0,0:0:0:0:
256,192,88969,1,0,0:0:0:0:
256,192,89044,1,0,0:0:0:0:
256,192,89119,1,0,0:0:0:0:
256,192,89194,5,8,0:0:0:0:
256,192,89494,1,8,0:0:0:0:
256,192,89644,1,8,0:0:0:0:
256,192,89719,1,0,0:0:0:0:
256,192,89794,1,0,0:0:0:0:
256,192,89944,1,0,0:0:0:0:
256,192,90094,1,8,0:0:0:0:
256,192,90244,1,8,0:0:0:0:
256,192,90319,1,8,0:0:0:0:
256,192,90394,1,0,0:0:0:0:
256,192,90694,1,8,0:0:0:0:
256,192,90844,1,0,0:0:0:0:
256,192,90919,1,0,0:0:0:0:
256,192,90994,1,8,0:0:0:0:
256,192,91144,1,0,0:0:0:0:
256,192,91294,1,8,0:0:0:0:
256,192,91444,1,8,0:0:0:0:
256,192,91519,1,8,0:0:0:0:
256,192,91594,1,0,0:0:0:0:
256,192,91894,1,8,0:0:0:0:
256,192,92044,1,8,0:0:0:0:
256,192,92119,1,0,0:0:0:0:
256,192,92194,1,0,0:0:0:0:
256,192,92344,1,0,0:0:0:0:
256,192,92494,1,8,0:0:0:0:
256,192,92644,1,0,0:0:0:0:
256,192,92719,1,0,0:0:0:0:
256,192,92794,1,8,0:0:0:0:
256,192,93094,1,8,0:0:0:0:
256,192,93394,1,0,0:0:0:0:
256,192,93544,1,0,0:0:0:0:
256,192,93694,1,8,0:0:0:0:
256,192,93769,1,0,0:0:0:0:
256,192,93844,1,0,0:0:0:0:
256,192,93919,1,0,0:0:0:0:
256,192,93994,1,8,0:0:0:0:
256,192,94294,1,8,0:0:0:0:
256,192,94444,1,8,0:0:0:0:
256,192,94519,1,0,0:0:0:0:
256,192,94594,1,0,0:0:0:0:
256,192,94744,1,0,0:0:0:0:
256,192,94894,1,8,0:0:0:0:
256,192,95044,1,8,0:0:0:0:
256,192,95119,1,8,0:0:0:0:
256,192,95194,1,0,0:0:0:0:
256,192,95494,1,8,0:0:0:0:
256,192,95644,1,8,0:0:0:0:
256,192,95719,1,0,0:0:0:0:
256,192,95794,1,0,0:0:0:0:
256,192,95944,1,0,0:0:0:0:
256,192,96094,1,8,0:0:0:0:
256,192,96169,1,8,0:0:0:0:
256,192,96244,1,8,0:0:0:0:
256,192,96319,1,8,0:0:0:0:
256,192,96394,5,0,0:0:0:0:
256,192,96544,1,8,0:0:0:0:
256,192,96844,1,0,0:0:0:0:
256,192,96994,1,8,0:0:0:0:
256,192,97144,1,0,0:0:0:0:
256,192,97219,1,0,0:0:0:0:
256,192,97294,1,8,0:0:0:0:
256,192,97444,1,4,0:0:0:0:
256,192,97744,1,8,0:0:0:0:
256,192,97894,1,0,0:0:0:0:
256,192,98044,1,0,0:0:0:0:
256,192,98194,1,8,0:0:0:0:
256,192,98344,1,0,0:0:0:0:
256,192,98419,1,0,0:0:0:0:
256,192,98494,1,8,0:0:0:0:
256,192,98794,1,4,0:0:0:0:
256,192,98944,1,12,0:0:0:0:
256,192,99244,1,0,0:0:0:0:
256,192,99394,1,8,0:0:0:0:
256,192,99544,1,8,0:0:0:0:
256,192,99694,1,0,0:0:0:0:
256,192,99844,1,12,0:0:0:0:
256,192,100144,1,8,0:0:0:0:
256,192,100294,1,0,0:0:0:0:
256,192,100444,1,0,0:0:0:0:
256,192,100594,1,8,0:0:0:0:
256,192,100744,1,0,0:0:0:0:
256,192,100819,1,0,0:0:0:0:
256,192,100894,1,8,0:0:0:0:
256,192,101194,1,4,0:0:0:0:
256,192,101344,1,12,0:0:0:0:
256,192,101644,1,0,0:0:0:0:
256,192,101794,1,8,0:0:0:0:
256,192,101944,1,0,0:0:0:0:
256,192,102094,1,0,0:0:0:0:
256,192,102244,1,12,0:0:0:0:
256,192,102544,1,0,0:0:0:0:
256,192,102694,1,8,0:0:0:0:
256,192,102844,1,0,0:0:0:0:
256,192,103144,1,8,0:0:0:0:
256,192,103294,1,0,0:0:0:0:
256,192,103369,1,0,0:0:0:0:
256,192,103444,1,0,0:0:0:0:
256,192,103519,1,0,0:0:0:0:
256,192,103594,1,8,0:0:0:0:
256,192,103744,1,0,0:0:0:0:
256,192,104044,1,0,0:0:0:0:
256,192,104194,1,8,0:0:0:0:
256,192,104344,1,0,0:0:0:0:
256,192,104419,1,0,0:0:0:0:
256,192,104494,1,8,0:0:0:0:
256,192,104644,1,4,0:0:0:0:
256,192,105694,1,4,0:0:0:0:
256,192,105994,5,8,0:0:0:0:
256,192,106094,1,8,0:0:0:0:
256,192,106194,1,8,0:0:0:0:
256,192,106294,1,8,0:0:0:0:
256,192,106594,1,0,0:0:0:0:
256,192,106744,1,0,0:0:0:0:
256,192,106894,1,8,0:0:0:0:
256,192,107044,1,0,0:0:0:0:
256,192,107344,1,0,0:0:0:0:
256,192,107494,1,8,0:0:0:0:
256,192,107644,1,8,0:0:0:0:
256,192,107794,1,0,0:0:0:0:
256,192,108094,1,8,0:0:0:0:
256,192,108244,1,0,0:0:0:0:
256,192,108394,1,8,0:0:0:0:
256,192,108494,1,8,0:0:0:0:
256,192,108594,1,8,0:0:0:0:
256,192,108694,1,8,0:0:0:0:
256,192,108994,1,0,0:0:0:0:
256,192,109144,1,0,0:0:0:0:
256,192,109294,1,8,0:0:0:0:
256,192,109444,1,8,0:0:0:0:
256,192,109744,1,0,0:0:0:0:
256,192,109894,1,12,0:0:0:0:
256,192,110044,1,0,0:0:0:0:
256,192,110194,1,12,0:0:0:0:
256,192,110344,1,0,0:0:0:0:
256,192,110494,1,12,0:0:0:0:
256,192,110794,1,0,0:0:0:0:
256,192,110944,1,0,0:0:0:0:
256,192,111019,1,0,0:0:0:0:
256,192,111094,1,8,0:0:0:0:
256,192,111244,1,8,0:0:0:0:
256,192,111319,1,8,0:0:0:0:
256,192,111394,1,0,0:0:0:0:
256,192,111544,1,0,0:0:0:0:
256,192,111694,1,8,0:0:0:0:
256,192,111844,1,0,0:0:0:0:
256,192,112144,1,0,0:0:0:0:
256,192,112294,1,8,0:0:0:0:
256,192,112444,1,0,0:0:0:0:
256,192,112519,1,0,0:0:0:0:
256,192,112594,1,8,0:0:0:0:
256,192,112894,1,8,0:0:0:0:
256,192,113194,5,0,0:0:0:0:
256,192,113344,1,0,0:0:0:0:
256,192,113419,1,0,0:0:0:0:
256,192,113494,1,8,0:0:0:0:
256,192,113644,1,8,0:0:0:0:
256,192,113719,1,0,0:0:0:0:
256,192,113794,1,0,0:0:0:0:
256,192,113944,1,0,0:0:0:0:
256,192,114094,1,8,0:0:0:0:
256,192,114169,1,8,0:0:0:0:
256,192,114244,1,0,0:0:0:0:
256,192,114319,1,0,0:0:0:0:
256,192,114394,1,8,0:0:0:0:
256,192,114544,1,8,0:0:0:0:
256,192,114694,1,0,0:0:0:0:
256,192,114844,1,0,0:0:0:0:
256,192,114919,1,0,0:0:0:0:
256,192,114994,1,8,0:0:0:0:
256,192,115144,1,0,0:0:0:0:
256,192,115294,1,0,0:0:0:0:
256,192,115444,5,12,0:0:0:0:
256,192,115744,1,0,0:0:0:0:
256,192,115894,1,12,0:0:0:0:
256,192,116194,1,12,0:0:0:0:
256,192,116494,1,12,0:0:0:0:
256,192,116644,1,4,0:0:0:0:
256,192,116944,1,0,0:0:0:0:
256,192,117094,1,12,0:0:0:0:
256,192,117244,1,8,0:0:0:0:
256,192,117394,1,0,0:0:0:0:
256,192,117544,1,8,0:0:0:0:
256,192,117694,1,0,0:0:0:0:
256,192,117844,1,12,0:0:0:0:
256,192,118144,1,0,0:0:0:0:
256,192,118294,1,12,0:0:0:0:
256,192,118594,1,12,0:0:0:0:
256,192,118894,1,12,0:0:0:0:
256,192,119044,1,4,0:0:0:0:
256,192,119344,1,0,0:0:0:0:
256,192,119494,1,12,0:0:0:0:
256,192,119644,1,0,0:0:0:0:
256,192,119794,1,8,0:0:0:0:
256,192,119944,1,8,0:0:0:0:
256,192,120094,1,0,0:0:0:0:
256,192,120244,1,12,0:0:0:0:
256,192,120544,1,0,0:0:0:0:
256,192,120694,1,8,0:0:0:0:
256,192,120844,1,0,0:0:0:0:
256,192,120919,1,0,0:0:0:0:
256,192,120994,1,8,0:0:0:0:
256,192,121144,1,0,0:0:0:0:
256,192,121294,1,8,0:0:0:0:
256,192,121444,1,0,0:0:0:0:
256,192,121744,1,0,0:0:0:0:
265,198,121894,1,0,0:0:0:0:
256,192,122044,1,8,0:0:0:0:
256,192,122194,1,0,0:0:0:0:
256,192,122344,1,8,0:0:0:0:
256,192,122494,1,8,0:0:0:0:
256,192,122644,1,4,0:0:0:0:
256,192,122944,1,0,0:0:0:0:
256,192,123094,1,8,0:0:0:0:
256,192,123394,1,0,0:0:0:0:
256,192,123544,1,0,0:0:0:0:
256,192,123694,1,8,0:0:0:0:
256,192,123844,1,0,0:0:0:0:
256,192,123994,1,8,0:0:0:0:
256,192,124144,1,8,0:0:0:0:
256,192,124219,1,8,0:0:0:0:
256,192,124294,1,0,0:0:0:0:
256,192,124444,1,0,0:0:0:0:
256,192,124594,1,8,0:0:0:0:
256,192,124744,1,0,0:0:0:0:
256,192,124894,1,0,0:0:0:0:
256,192,125044,5,12,0:0:0:0:
256,192,125344,1,0,0:0:0:0:
256,192,125494,1,12,0:0:0:0:
256,192,125794,1,12,0:0:0:0:
256,192,126094,1,12,0:0:0:0:
256,192,126244,1,4,0:0:0:0:
256,192,126544,1,0,0:0:0:0:
256,192,126694,1,12,0:0:0:0:
256,192,126844,1,8,0:0:0:0:
256,192,126994,1,0,0:0:0:0:
256,192,127144,1,0,0:0:0:0:
256,192,127219,1,0,0:0:0:0:
256,192,127294,1,8,0:0:0:0:
256,192,127444,1,4,0:0:0:0:
256,192,127744,1,0,0:0:0:0:
256,192,127894,1,12,0:0:0:0:
256,192,128194,1,12,0:0:0:0:
256,192,128494,1,12,0:0:0:0:
256,192,128644,1,4,0:0:0:0:
256,192,128944,1,0,0:0:0:0:
256,192,129094,1,12,0:0:0:0:
256,192,129244,1,8,0:0:0:0:
256,192,129394,1,0,0:0:0:0:
256,192,129544,1,0,0:0:0:0:
256,192,129619,1,0,0:0:0:0:
256,192,129694,1,8,0:0:0:0:
256,192,129844,1,4,0:0:0:0:
256,192,130144,1,0,0:0:0:0:
256,192,130294,1,8,0:0:0:0:
256,192,130444,1,8,0:0:0:0:
256,192,130594,1,0,0:0:0:0:
256,192,130744,1,0,0:0:0:0:
261,188,130819,1,0,0:0:0:0:
256,192,130894,1,8,0:0:0:0:
256,192,131044,1,0,0:0:0:0:
256,192,131344,1,0,0:0:0:0:
247,186,131494,1,8,0:0:0:0:
256,192,131644,1,8,0:0:0:0:
256,192,131794,1,0,0:0:0:0:
256,192,131944,1,0,0:0:0:0:
256,192,132094,1,8,0:0:0:0:
256,192,132244,1,4,0:0:0:0:
256,192,132544,1,0,0:0:0:0:
256,192,132694,1,8,0:0:0:0:
256,192,132994,1,0,0:0:0:0:
256,192,133144,1,0,0:0:0:0:
266,187,133219,1,0,0:0:0:0:
265,187,133294,1,8,0:0:0:0:
256,192,133444,1,0,0:0:0:0:
256,192,133594,1,8,0:0:0:0:
256,192,133744,1,0,0:0:0:0:
256,192,134044,1,8,0:0:0:0:
266,187,134194,1,8,0:0:0:0:
256,192,134344,1,0,0:0:0:0:
256,192,134419,1,0,0:0:0:0:
256,192,134494,1,8,0:0:0:0:
256,192,134644,5,4,0:0:0:0:
256,192,134944,1,0,0:0:0:0:
256,192,135019,1,0,0:0:0:0:
256,192,135094,1,0,0:0:0:0:
256,192,135394,1,8,0:0:0:0:
256,192,135694,1,8,0:0:0:0:
256,192,135844,1,0,0:0:0:0:
256,192,136144,1,0,0:0:0:0:
256,192,136219,1,0,0:0:0:0:
256,192,136294,1,0,0:0:0:0:
256,192,136594,1,8,0:0:0:0:
256,192,136744,1,0,0:0:0:0:
256,192,136894,1,0,0:0:0:0:
256,192,137044,1,12,0:0:0:0:
256,192,137344,1,0,0:0:0:0:
256,192,137419,1,0,0:0:0:0:
256,192,137494,1,0,0:0:0:0:
256,192,137794,1,8,0:0:0:0:
256,192,137944,1,0,0:0:0:0:
256,192,138094,1,0,0:0:0:0:
256,192,138244,1,12,0:0:0:0:
256,192,138394,12,12,139594,0:0:0:0:
256,192,146644,5,0,0:0:0:0:
256,192,146794,1,8,0:0:0:0:
256,192,146944,1,0,0:0:0:0:
256,192,147019,1,0,0:0:0:0:
256,192,147094,1,8,0:0:0:0:
256,192,147244,1,8,0:0:0:0:
256,192,147394,1,0,0:0:0:0:
256,192,147544,1,0,0:0:0:0:
256,192,147619,1,0,0:0:0:0:
256,192,147694,1,8,0:0:0:0:
256,192,147844,1,8,0:0:0:0:
256,192,147919,1,0,0:0:0:0:
256,192,147994,1,0,0:0:0:0:
256,192,148294,1,12,0:0:0:0:
256,192,148594,1,0,0:0:0:0:
256,192,148744,1,0,0:0:0:0:
256,192,148894,1,8,0:0:0:0:
256,192,148969,1,8,0:0:0:0:
256,192,149044,1,8,0:0:0:0:
256,192,149119,1,8,0:0:0:0:
256,192,149194,5,0,0:0:0:0:
256,192,149494,1,8,0:0:0:0:
256,192,149644,1,8,0:0:0:0:
256,192,149719,1,0,0:0:0:0:
256,192,149794,1,0,0:0:0:0:
256,192,149944,1,0,0:0:0:0:
256,192,150094,1,8,0:0:0:0:
256,192,150244,1,0,0:0:0:0:
256,192,150319,1,0,0:0:0:0:
256,192,150394,1,8,0:0:0:0:
256,192,150694,1,8,0:0:0:0:
256,192,150844,1,0,0:0:0:0:
256,192,150919,1,0,0:0:0:0:
256,192,150994,1,8,0:0:0:0:
256,192,151144,1,0,0:0:0:0:
256,192,151294,1,8,0:0:0:0:
256,192,151444,1,8,0:0:0:0:
256,192,151519,1,0,0:0:0:0:
256,192,151594,1,0,0:0:0:0:
256,192,151894,1,8,0:0:0:0:
256,192,152044,1,8,0:0:0:0:
256,192,152119,1,8,0:0:0:0:
260,188,152194,1,0,0:0:0:0:
256,192,152344,1,0,0:0:0:0:
256,192,152494,1,8,0:0:0:0:
256,192,152644,1,0,0:0:0:0:
256,192,152719,1,0,0:0:0:0:
256,192,152794,1,8,0:0:0:0:
256,192,153094,1,8,0:0:0:0:
256,192,153394,1,0,0:0:0:0:
256,192,153544,1,0,0:0:0:0:
256,192,153694,1,8,0:0:0:0:
256,192,153769,1,0,0:0:0:0:
256,192,153844,1,0,0:0:0:0:
256,192,153919,1,0,0:0:0:0:
256,192,153994,1,8,0:0:0:0:
256,192,154294,1,8,0:0:0:0:
256,192,154444,1,8,0:0:0:0:
256,192,154519,1,0,0:0:0:0:
256,192,154594,1,0,0:0:0:0:
256,192,154744,1,0,0:0:0:0:
256,192,154894,1,8,0:0:0:0:
256,192,155044,1,8,0:0:0:0:
256,192,155119,1,8,0:0:0:0:
256,192,155194,1,0,0:0:0:0:
256,192,155344,1,0,0:0:0:0:
256,192,155494,1,8,0:0:0:0:
256,192,155644,1,0,0:0:0:0:
256,192,155719,1,0,0:0:0:0:
256,192,155794,1,8,0:0:0:0:
256,192,156094,1,0,0:0:0:0:
256,192,156244,1,0,0:0:0:0:
256,192,156694,1,12,0:0:0:0:
256,192,156844,1,0,0:0:0:0:
256,192,156919,1,0,0:0:0:0:
256,192,156994,1,8,0:0:0:0:
256,192,157144,1,0,0:0:0:0:
256,192,157294,1,8,0:0:0:0:
256,192,157444,1,8,0:0:0:0:
256,192,157519,1,8,0:0:0:0:
256,192,157594,1,0,0:0:0:0:
256,192,157894,1,8,0:0:0:0:
256,192,158044,1,8,0:0:0:0:
256,192,158119,1,0,0:0:0:0:
256,192,158194,1,0,0:0:0:0:
256,192,158344,1,0,0:0:0:0:
256,192,158494,1,8,0:0:0:0:
256,192,158644,1,0,0:0:0:0:
256,192,158719,1,0,0:0:0:0:
256,192,158794,1,8,0:0:0:0:
256,192,159094,1,8,0:0:0:0:
256,192,159244,1,8,0:0:0:0:
256,192,159394,1,0,0:0:0:0:
256,192,159544,1,0,0:0:0:0:
256,192,159619,1,0,0:0:0:0:
256,192,159694,1,8,0:0:0:0:
256,192,159844,1,8,0:0:0:0:
256,192,160144,1,0,0:0:0:0:
256,192,160294,1,8,0:0:0:0:
256,192,160444,1,8,0:0:0:0:
256,192,160519,1,8,0:0:0:0:
256,192,160594,1,0,0:0:0:0:
256,192,160744,1,0,0:0:0:0:
256,192,160894,1,8,0:0:0:0:
256,192,160969,1,8,0:0:0:0:
256,192,161044,1,0,0:0:0:0:
256,192,161119,1,0,0:0:0:0:
256,192,161194,1,8,0:0:0:0:
256,192,161494,1,8,0:0:0:0:
256,192,161644,1,0,0:0:0:0:
256,192,161719,1,0,0:0:0:0:
256,192,161794,1,8,0:0:0:0:
256,192,161944,1,0,0:0:0:0:
256,192,162094,1,8,0:0:0:0:
256,192,162244,1,0,0:0:0:0:
256,192,162319,1,0,0:0:0:0:
256,192,162394,1,8,0:0:0:0:
256,192,162694,1,8,0:0:0:0:
256,192,162844,1,8,0:0:0:0:
256,192,162919,1,0,0:0:0:0:
256,192,162994,1,0,0:0:0:0:
256,192,163144,1,8,0:0:0:0:
256,192,163294,1,8,0:0:0:0:
256,192,163444,1,0,0:0:0:0:
256,192,163594,1,8,0:0:0:0:
256,192,163744,1,0,0:0:0:0:
256,192,163819,1,0,0:0:0:0:
256,192,163894,1,8,0:0:0:0:
256,192,164044,1,8,0:0:0:0:
256,192,164194,1,0,0:0:0:0:
256,192,164344,1,8,0:0:0:0:
256,192,164419,1,0,0:0:0:0:
256,192,164494,1,0,0:0:0:0:
256,192,164644,1,8,0:0:0:0:
256,192,164719,1,8,0:0:0:0:
256,192,164794,1,0,0:0:0:0:
256,192,165094,1,12,0:0:0:0:
256,192,165394,1,0,0:0:0:0:
256,192,165544,1,0,0:0:0:0:
256,192,165694,1,8,0:0:0:0:
256,192,165769,1,8,0:0:0:0:
256,192,165844,1,8,0:0:0:0:
256,192,165919,1,8,0:0:0:0:
256,192,165994,5,0,0:0:0:0:
256,192,166294,1,8,0:0:0:0:
256,192,166444,1,8,0:0:0:0:
256,192,166519,1,8,0:0:0:0:
256,192,166594,1,0,0:0:0:0:
256,192,166744,1,0,0:0:0:0:
256,192,166894,1,8,0:0:0:0:
256,192,167044,1,8,0:0:0:0:
256,192,167119,1,0,0:0:0:0:
256,192,167194,1,0,0:0:0:0:
256,192,167494,1,8,0:0:0:0:
256,192,167644,1,0,0:0:0:0:
256,192,167719,1,0,0:0:0:0:
256,192,167794,1,8,0:0:0:0:
256,192,167944,1,0,0:0:0:0:
256,192,168094,1,8,0:0:0:0:
256,192,168244,1,8,0:0:0:0:
256,192,168319,1,0,0:0:0:0:
256,192,168394,1,0,0:0:0:0:
256,192,168694,1,8,0:0:0:0:
256,192,168844,1,8,0:0:0:0:
256,192,168919,1,8,0:0:0:0:
256,192,168994,1,0,0:0:0:0:
256,192,169144,1,0,0:0:0:0:
256,192,169294,1,8,0:0:0:0:
256,192,169444,1,0,0:0:0:0:
256,192,169519,1,0,0:0:0:0:
256,192,169594,1,8,0:0:0:0:
256,192,169894,1,8,0:0:0:0:
256,192,170044,1,8,0:0:0:0:
256,192,170194,1,0,0:0:0:0:
256,192,170344,1,0,0:0:0:0:
256,192,170494,1,8,0:0:0:0:
256,192,170569,1,8,0:0:0:0:
256,192,170644,1,0,0:0:0:0:
256,192,170719,1,0,0:0:0:0:
256,192,170794,1,8,0:0:0:0:
256,192,171094,1,8,0:0:0:0:
256,192,171244,1,0,0:0:0:0:
256,192,171319,1,0,0:0:0:0:
256,192,171394,1,8,0:0:0:0:
256,192,171544,1,0,0:0:0:0:
256,192,171694,1,8,0:0:0:0:
256,192,171844,1,8,0:0:0:0:
256,192,171919,1,8,0:0:0:0:
256,192,171994,1,0,0:0:0:0:
256,192,172144,1,0,0:0:0:0:
256,192,172294,1,8,0:0:0:0:
256,192,172444,1,8,0:0:0:0:
256,192,172519,1,0,0:0:0:0:
256,192,172594,1,0,0:0:0:0:
256,192,172744,1,0,0:0:0:0:
256,192,172894,1,8,0:0:0:0:
256,192,172969,1,8,0:0:0:0:
256,192,173044,1,0,0:0:0:0:
256,192,173119,1,0,0:0:0:0:
256,192,173194,5,8,0:0:0:0:
256,192,173494,1,0,0:0:0:0:
256,192,173644,1,8,0:0:0:0:
256,192,173944,1,0,0:0:0:0:
258,199,174094,1,0,0:0:0:0:
256,192,174244,1,12,0:0:0:0:
256,192,174544,1,0,0:0:0:0:
256,192,174694,1,8,0:0:0:0:
256,192,174844,1,0,0:0:0:0:
256,192,174919,1,0,0:0:0:0:
256,192,174994,1,8,0:0:0:0:
256,192,175144,1,0,0:0:0:0:
262,190,175219,1,0,0:0:0:0:
256,192,175294,1,8,0:0:0:0:
256,192,175444,1,8,0:0:0:0:
256,192,175594,1,0,0:0:0:0:
256,192,175894,1,8,0:0:0:0:
256,192,176044,1,0,0:0:0:0:
256,192,176119,1,0,0:0:0:0:
256,192,176194,1,8,0:0:0:0:
256,192,176344,1,8,0:0:0:0:
256,192,176494,1,0,0:0:0:0:
256,192,176644,1,12,0:0:0:0:
256,192,176944,1,0,0:0:0:0:
256,192,177094,1,8,0:0:0:0:
256,192,177244,1,0,0:0:0:0:
256,192,177319,1,0,0:0:0:0:
256,192,177394,1,8,0:0:0:0:
256,192,177544,1,0,0:0:0:0:
256,192,177694,1,8,0:0:0:0:
256,192,177844,1,0,0:0:0:0:
256,192,177919,1,0,0:0:0:0:
256,192,177994,1,8,0:0:0:0:
256,192,178294,1,0,0:0:0:0:
256,192,178444,1,8,0:0:0:0:
256,192,178744,1,0,0:0:0:0:
256,192,178894,1,0,0:0:0:0:
256,192,179044,1,12,0:0:0:0:
256,192,179344,1,8,0:0:0:0:
256,192,179494,1,0,0:0:0:0:
256,192,179644,1,0,0:0:0:0:
256,192,179719,1,0,0:0:0:0:
256,192,179794,1,8,0:0:0:0:
256,192,179944,1,8,0:0:0:0:
256,192,180094,1,0,0:0:0:0:
256,192,180169,1,0,0:0:0:0:
256,192,180244,1,0,0:0:0:0:
256,192,180319,1,0,0:0:0:0:
256,192,180394,1,8,0:0:0:0:
256,192,180844,1,8,0:0:0:0:
256,192,181144,1,0,0:0:0:0:
256,192,181294,1,0,0:0:0:0:
256,192,181444,1,12,0:0:0:0:
256,192,181744,1,0,0:0:0:0:
256,192,181894,1,0,0:0:0:0:
256,192,182044,1,8,0:0:0:0:
256,192,182119,1,0,0:0:0:0:
256,192,182194,1,0,0:0:0:0:
256,192,182344,1,0,0:0:0:0:
256,192,182494,1,8,0:0:0:0:
256,192,182644,1,8,0:0:0:0:
