osu file format v14

[General]
AudioFilename: audio.mp3
AudioLeadIn: 0
PreviewTime: 83729
Countdown: 0
SampleSet: Soft
StackLeniency: 0.7
Mode: 0
LetterboxInBreaks: 0
WidescreenStoryboard: 1

[Editor]
Bookmarks: 24834,47492
DistanceSpacing: 1
BeatDivisor: 4
GridSize: 32
TimelineZoom: 1.9

[Metadata]
Title:Chikyuu Saigo no Kokuhaku o
TitleUnicode:地球最後の告白を
Artist:yuikonnu
ArtistUnicode:ゆいこんぬ
Creator:Toyosaki Aki
Version:Normal
Source:
Tags:toooooon enjoy momochy reillia curi [c_u_r_i] lukas [_l_u_k_a_s_] nanashima asami narcissu hatsuko ke-sanβ suzumu kemu voxx vocaloid megpoid gumi nico douga sound voltex jrock japanese 歌ってみた
BeatmapID:1985057
BeatmapSetID:880938

[Difficulty]
HPDrainRate:4
CircleSize:3.1
OverallDifficulty:4
ApproachRate:5
SliderMultiplier:1
SliderTickRate:1

[Events]
//Background and Video events
0,0,"33703665_p0.png",0,0
//Break Periods
2,107179,115884
2,193074,199253
//Storyboard Layer 0 (Background)
//Storyboard Layer 1 (Fail)
//Storyboard Layer 2 (Pass)
//Storyboard Layer 3 (Foreground)
//Storyboard Layer 4 (Overlay)
//Storyboard Sound Samples

[TimingPoints]
19931,441.176470588235,4,2,4,60,1,0
23296,315.789473684211,4,2,4,60,1,0
23611,315.789473684211,4,2,4,60,1,0
23611,-100,4,2,4,60,0,0
25979,-100,4,2,5,60,0,0
26295,-100,4,2,4,60,0,0
28189,-100,4,2,5,60,0,0
28505,-100,4,2,4,60,0,0
30558,-100,4,2,5,60,0,0
31189,-100,4,2,4,60,0,0
33716,-100,4,2,4,40,0,0
52663,-100,4,2,4,50,0,0
53926,-100,4,2,4,45,0,0
72874,-100,4,2,4,50,0,0
74137,-100,4,2,4,55,0,0
79189,-100,4,2,4,40,0,0
81084,-100,4,2,4,50,0,0
81400,-100,4,2,5,50,0,0
81558,-100,4,2,4,60,0,0
83926,-100,4,2,4,40,0,0
84242,-100,4,2,4,65,0,1
95453,-100,4,2,5,65,0,1
95611,-100,4,2,4,65,0,1
99242,-100,4,2,4,55,0,0
103189,-100,4,2,4,55,0,1
104137,-100,4,2,5,55,0,1
104453,-100,4,2,4,65,0,1
105558,-100,4,2,4,65,0,0
117084,-100,4,2,4,40,0,0
127189,-100,4,2,4,45,0,0
132084,-100,4,2,5,45,0,0
132242,-100,4,2,4,45,0,0
136032,-100,4,2,4,50,0,0
137295,-100,4,2,4,55,0,0
142347,-100,4,2,4,40,0,0
144242,-100,4,2,4,50,0,0
144558,-100,4,2,5,50,0,0
144874,-100,4,2,4,60,0,0
147400,-100,4,2,4,65,0,1
158611,-100,4,2,5,65,0,1
158768,-100,4,2,4,65,0,1
162400,-100,4,2,4,55,0,0
166347,-100,4,2,4,55,0,1
167295,-100,4,2,5,55,0,1
167611,-100,4,2,4,55,0,1
167768,-100,4,2,4,65,0,1
168716,-100,4,2,4,65,0,0
169900,-100,4,2,5,65,0,0
170058,-100,4,2,4,65,0,0
172979,-100,4,2,4,60,0,0
174558,-100,4,2,5,60,0,0
174716,-100,4,2,4,60,0,0
187347,-100,4,2,5,60,0,0
187663,-100,4,2,4,60,0,0
189874,-100,4,2,5,60,0,0
190189,-100,4,2,4,60,0,0
192874,-100,4,2,4,40,0,0
202979,-100,4,2,4,55,0,0
208032,-100,4,2,4,45,0,0
209926,-100,4,2,4,50,0,0
210242,-100,4,2,5,55,0,0
210558,-100,4,2,4,60,0,0
214347,-100,4,2,4,65,0,1
225558,-100,4,2,5,65,0,1
225716,-100,4,2,4,65,0,1
229347,-100,4,2,4,55,0,0
231558,-100,4,2,5,55,0,0
231874,-100,4,2,4,55,0,0
233295,-100,4,2,4,60,0,1
234558,-100,4,2,4,65,0,1
234716,-100,4,2,5,65,0,1
235032,-100,4,2,4,65,0,1
237084,-100,4,2,4,70,0,1
238189,-100,4,2,4,60,0,0
240874,-100,4,2,5,60,0,1
244663,-100,4,2,4,60,0,1
250979,-100,4,2,4,60,0,0
256032,-100,4,2,4,60,0,1
260453,-100,4,2,4,70,0,1
260926,-100,4,2,4,70,0,0
266137,-100,4,2,4,5,0,0

[Colours]
Combo1 : 226,94,5
Combo2 : 66,66,134
SliderBorder : 255,235,255
SliderTrackOverride : 0,15,10

[HitObjects]
118,222,23611,6,0,B|69:216|69:216|22:234,2,100,4|0|0,3:2|3:2|3:0,0:0:0:0:
212,256,24558,1,0,3:0:0:0:
304,294,24874,2,0,L|402:277,2,100,0|0|0,3:0|3:0|3:0,0:0:0:0:
212,256,25821,1,8,0:0:0:0:
289,191,26137,6,0,P|295:142|278:96,1,100,4|0,0:3|3:0,0:0:0:0:
191,45,26768,2,0,L|91:58,1,100,8|8,3:2|0:0,0:0:0:0:
42,70,27242,1,10,0:0:0:0:
101,150,27558,1,10,0:0:0:0:
42,230,27874,1,10,0:0:0:0:
111,301,28189,2,0,P|146:311|181:300,1,75,8|0,0:3|0:0,0:0:0:0:
198,281,28505,6,0,P|261:272|307:298,1,100,6|0,3:2|3:0,0:0:0:0:
321,327,28979,1,10,0:0:0:0:
408,277,29295,2,0,L|456:288,2,50,2|0|10,3:2|3:0|0:0,0:0:0:0:
336,207,29926,2,0,L|350:108,1,100,2|10,3:2|0:0,0:0:0:0:
313,15,30558,2,0,L|262:23,1,50,8|8,0:3|3:3,0:0:0:0:
237,65,30874,2,0,L|187:57,1,50,4|4,0:3|0:3,0:0:0:0:
146,28,31189,6,0,P|97:25|58:55,1,100,4|8,3:2|0:0,0:0:0:0:
127,127,31821,2,0,L|117:177,1,50,0|0,3:0|3:0,0:0:0:0:
76,205,32137,2,0,L|86:255,1,50,8|0,0:0|3:0,0:0:0:0:
124,286,32453,2,0,P|183:275|236:267,2,100,0|8|8,3:0|0:0|0:0,0:0:0:0:
101,330,33242,1,8,0:0:0:0:
186,197,33716,6,0,P|278:209|297:300,1,200,4|2,0:0|0:3,0:0:0:0:
214,357,34663,1,2,0:3:0:0:
129,302,34979,2,0,B|82:263|82:263|112:127,1,200,2|2,0:3|0:3,0:0:0:0:
208,101,35926,2,0,P|231:108|255:116,1,50,2|0,0:3|3:2,0:0:0:0:
291,150,36242,6,0,P|350:142|401:133,1,100,0|2,3:0|0:3,0:0:0:0:
438,148,36716,2,0,B|448:94|448:94|423:56,2,100,0|0|0,0:0|0:0|0:0,0:0:0:0:
461,192,37505,2,0,P|452:240|441:289,1,100,2|2,0:3|0:3,0:0:0:0:
343,312,38137,2,0,P|353:263|363:214,1,100,2|2,0:3|0:3,0:0:0:0:
289,145,38768,6,0,B|238:176|238:176|99:152,1,200,4|2,3:3|0:3,0:0:0:0:
37,231,39716,1,2,0:3:0:0:
117,291,40032,2,0,B|168:260|168:260|260:280,1,150,2|0,0:3|0:0,0:0:0:0:
338,325,40821,2,0,P|386:332|424:303,1,100,0|0,0:0|3:2,0:0:0:0:
439,255,41295,6,0,L|427:147,1,100,0|2,3:3|0:3,0:0:0:0:
374,69,41926,2,0,P|327:59|280:77,1,100,2|2,0:3|0:3,0:0:0:0:
219,156,42558,1,2,0:3:0:0:
219,156,42716,2,0,P|169:147|120:138,1,100,0|0,0:0|3:2,0:0:0:0:
73,157,43189,2,0,L|85:205,1,50,2|0,0:3|3:0,0:0:0:0:
126,233,43505,2,0,L|113:281,1,50,2|0,0:3|3:2,0:0:0:0:
83,321,43821,6,0,P|169:362|237:291,1,200,4|2,3:3|0:3,0:0:0:0:
248,199,44768,2,0,L|296:211,1,50,2|0,0:3|3:0,0:0:0:0:
338,239,45084,2,0,B|379:206|379:206|365:109,1,150,0|0,3:3|0:0,0:0:0:0:
334,20,45874,2,0,P|285:30|236:41,1,100,0|0,0:0|3:0,0:0:0:0:
187,49,46347,6,0,P|238:123|166:178,1,200,0|2,3:3|0:3,0:0:0:0:
82,123,47295,2,0,L|25:136,1,50,2|0,0:3|3:0,0:0:0:0:
9,178,47611,2,0,P|25:225|35:274,1,100,0|2,3:3|0:3,0:0:0:0:
22,322,48084,2,0,P|69:335|114:315,1,100,2|2,0:0|3:2,0:0:0:0:
147,278,48558,1,2,0:3:0:0:
237,234,48874,6,0,L|338:246,1,100,4|2,3:2|3:2,0:0:0:0:
392,327,49505,1,2,3:2:0:0:
452,247,49821,1,2,3:2:0:0:
386,171,50137,2,0,L|398:71,1,100,0|2,3:2|3:2,0:0:0:0:
305,33,50768,2,0,L|292:132,1,100,2|2,3:2|3:2,0:0:0:0:
250,159,51242,1,8,0:0:0:0:
250,159,51400,6,0,P|187:160|166:134,1,100,0|2,3:2|3:2,0:0:0:0:
113,49,52032,2,0,P|50:48|29:74,1,100,2|2,3:2|3:2,0:0:0:0:
42,121,52505,1,8,0:0:0:0:
42,121,52663,2,0,L|55:228,1,100,2|2,3:2|3:2,0:0:0:0:
88,314,53295,2,0,L|138:304,1,50,10|0,0:2|3:0,0:0:0:0:
164,262,53611,2,0,L|214:272,1,50,10|8,0:2|0:0,0:0:0:0:
251,304,53926,6,0,P|299:321|346:292,2,100,4|8|0,3:0|0:0|3:0,0:0:0:0:
258,203,54874,2,0,L|272:145,1,50,8|0,0:0|0:0,0:0:0:0:
280,105,55189,2,0,P|239:77|190:80,1,100,0|8,3:0|0:0,0:0:0:0:
175,128,55663,2,0,P|128:144|81:130,1,100,0|0,3:0|3:0,0:0:0:0:
45,95,56137,5,8,0:0:0:0:
45,95,56295,2,0,P|53:137|70:249,1,150,0|8,3:0|0:0,0:0:0:0:
65,292,56926,2,0,P|112:300|151:271,1,100,0|0,3:0|3:0,0:0:0:0:
168,223,57400,1,8,0:0:0:0:
237,293,57716,2,0,P|287:286|337:279,1,100,0|8,3:0|0:0,0:0:0:0:
396,198,58347,2,0,P|346:191|296:184,1,100,0|8,3:0|0:0,0:0:0:0:
234,105,58979,6,0,P|276:79|333:91,1,100,4|8,3:0|0:0,0:0:0:0:
296,184,59611,1,0,3:0:0:0:
199,207,59926,1,8,0:0:0:0:
199,207,60084,2,0,P|142:161|70:175,1,150,0|8,3:0|0:0,0:0:0:0:
35,211,60716,2,0,L|50:311,1,100,0|0,3:0|3:0,0:0:0:0:
50,359,61189,1,8,0:0:0:0:
136,308,61505,6,0,L|235:316,1,100,0|8,3:0|0:0,0:0:0:0:
325,361,62137,2,0,L|424:352,1,100,0|8,3:0|0:0,0:0:0:0:
462,320,62611,1,8,0:0:0:0:
462,320,62768,2,0,P|476:275|441:225,1,100,0|8,3:0|0:0,0:0:0:0:
358,193,63400,2,0,L|366:132,1,50,0|2,3:0|0:3,0:0:0:0:
406,115,63716,2,0,L|398:54,1,50,8|10,0:0|0:3,0:0:0:0:
371,23,64032,6,0,B|346:22|323:14|323:14|304:28|277:36,1,100,4|8,3:0|0:0,0:0:0:0:
248,77,64505,2,0,P|189:67|130:58,2,100,0|0|8,3:0|3:0|0:0,0:0:0:0:
274,119,65295,2,0,P|300:159|293:208,1,100,0|8,3:0|0:0,0:0:0:0:
216,272,65926,2,0,P|189:231|196:182,1,100,0|8,3:0|0:0,0:0:0:0:
274,119,66558,6,0,B|321:136|321:136|370:119,1,100,0|8,3:0|0:0,0:0:0:0:
415,101,67032,2,0,P|449:136|439:186,1,100,0|0,3:0|3:0,0:0:0:0:
405,217,67505,1,8,0:0:0:0:
362,307,67821,2,0,P|312:298|263:292,1,100,0|8,3:0|0:0,0:0:0:0:
214,304,68295,1,0,3:0:0:0:
127,253,68611,2,0,P|120:277|115:301,2,50,0|8|0,3:0|0:0|0:0,0:0:0:0:
161,216,69084,6,0,L|145:107,1,100,0|8,3:0|0:0,0:0:0:0:
128,69,69558,2,0,P|171:44|219:51,1,100,0|0,3:0|3:0,0:0:0:0:
251,90,70032,1,8,0:0:0:0:
345,56,70347,2,0,P|335:105|326:154,1,100,0|8,3:0|0:0,0:0:0:0:
315,202,70821,2,0,P|361:186|405:207,2,100,0|0|8,3:0|3:0|0:0,0:0:0:0:
278,237,71611,6,0,P|287:286|296:335,1,100,0|8,3:0|0:0,0:0:0:0:
199,360,72242,2,0,P|190:310|180:261,1,100,0|8,3:0|0:0,0:0:0:0:
102,198,72874,2,0,L|112:149,1,50,8|10,0:0|0:3,0:0:0:0:
156,125,73189,2,0,L|145:76,1,50,0|10,3:0|0:3,0:0:0:0:
123,30,73505,2,0,L|222:39,1,100,8|8,0:0|0:0,0:0:0:0:
321,21,74137,6,0,P|402:61|365:144,1,200,6|10,3:2|0:3,0:0:0:0:
271,177,75084,1,2,0:0:0:0:
227,267,75400,2,0,L|179:252,1,50,0|0,3:3|3:0,0:0:0:0:
146,214,75716,2,0,L|98:228,1,50,0|0,3:0|3:0,0:0:0:0:
53,250,76032,2,0,L|65:150,1,100,10|2,0:3|0:0,0:0:0:0:
96,55,76663,6,0,B|136:75|136:75|210:58,1,100,2|2,3:2|3:2,0:0:0:0:
220,22,77137,2,0,P|263:0|314:18,2,100,2|2|10,3:2|0:2|0:0,0:0:0:0:
189,62,77926,2,0,P|203:118|213:171,1,100,0|0,3:0|3:0,0:0:0:0:
236,256,78558,2,0,L|284:245,1,50,10|0,0:0|3:0,0:0:0:0:
313,204,78874,2,0,L|361:214,1,50,2|0,3:2|3:0,0:0:0:0:
403,240,79189,6,0,P|473:131|349:96,1,300,6|2,0:0|0:0,0:0:0:0:
301,111,80295,2,0,L|152:89,1,150,2|0,0:0|0:0,0:0:0:0:
60,53,81084,6,0,P|23:85|26:133,1,100,0|8,3:0|0:3,0:0:0:0:
114,181,81716,1,14,3:2:0:0:
163,267,82032,1,10,0:0:0:0:
115,354,82347,2,0,L|66:343,2,50,10|0|0,0:0|3:0|3:0,0:0:0:0:
162,370,82821,6,0,L|260:351,1,100,10|10,0:0|0:0,0:0:0:0:
296,317,83295,1,10,0:0:0:0:
375,133,83926,6,0,L|367:182,1,50,0|0,0:0|0:0,0:0:0:0:
376,232,84242,2,0,P|327:239|283:218,1,100,4|10,3:2|0:0,0:0:0:0:
245,184,84716,2,0,L|258:82,1,100,0|0,3:2|3:0,0:0:0:0:
165,46,85347,2,0,B|124:77|124:77|145:173,1,150,0|10,3:0|0:0,0:0:0:0:
166,219,85979,2,0,P|116:213|73:237,1,100,0|0,3:0|3:0,0:0:0:0:
58,285,86453,1,10,0:0:0:0:
134,348,86768,6,0,L|193:333,1,50,0|0,3:0|0:0,0:0:0:0:
220,302,87084,1,10,0:0:0:0:
220,302,87242,2,0,P|269:310|318:321,1,100,2|2,3:2|3:2,0:0:0:0:
405,273,87874,2,0,P|418:225|399:180,1,100,0|0,3:0|3:0,0:0:0:0:
352,163,88347,1,10,0:0:0:0:
352,163,88505,2,0,P|302:171|253:181,1,100,0|0,3:0|3:0,0:0:0:0:
213,211,88979,1,10,0:0:0:0:
114,228,89295,6,0,L|125:125,1,100,4|10,3:2|0:0,0:0:0:0:
129,77,89768,2,0,P|178:87|221:64,1,100,0|0,3:0|3:0,0:0:0:0:
238,17,90242,1,10,0:0:0:0:
238,17,90400,2,0,L|386:34,1,150,0|10,3:0|0:0,0:0:0:0:
435,21,91032,2,0,B|467:55|467:55|448:126,1,100,0|0,3:0|3:0,0:0:0:0:
424,147,91505,1,10,0:0:0:0:
425,247,91821,6,0,L|367:235,1,50,0|0,3:0|0:0,0:0:0:0:
341,200,92137,2,0,L|292:210,1,50,8|0,0:0|0:0,0:0:0:0:
251,239,92453,1,0,3:0:0:0:
160,197,92768,1,8,0:0:0:0:
65,228,93084,2,0,L|80:130,1,100,8|8,0:0|3:2,0:0:0:0:
70,79,93558,1,0,3:0:0:0:
167,56,93874,2,0,L|159:108,2,50,8|8|8,0:0|0:0|0:0,0:0:0:0:
313,24,94663,5,4,3:2:0:0:
313,24,94821,2,0,P|363:29|413:36,1,100,0|0,3:0|3:0,0:0:0:0:
408,136,95453,2,0,P|347:174|283:141,1,150,4|10,0:3|0:0,0:0:0:0:
254,182,96084,2,0,L|271:284,1,100,0|0,3:0|3:0,0:0:0:0:
252,327,96558,1,10,0:0:0:0:
157,359,96874,6,0,L|170:259,1,100,0|10,3:0|0:0,0:0:0:0:
158,211,97347,1,0,3:0:0:0:
94,134,97663,2,0,L|106:76,1,50,8|8,0:0|0:0,0:0:0:0:
100,34,97979,2,0,L|206:51,1,100,12|8,0:0|0:0,0:0:0:0:
234,85,98453,1,8,0:0:0:0:
234,85,98611,2,0,L|332:69,1,100,10|10,0:3|0:3,0:0:0:0:
423,27,99242,6,0,P|488:58|485:128,1,150,14|0,0:0|3:0,0:0:0:0:
399,181,100032,2,0,B|412:205|437:218|437:218|427:263,1,100,10|0,0:0|0:0,0:0:0:0:
366,342,100663,2,0,P|333:305|331:256,1,100,0|0,3:0|3:0,0:0:0:0:
303,160,101295,2,0,B|259:192|206:165,1,100,10|10,0:0|0:0,0:0:0:0:
135,97,101926,6,0,B|98:132|98:132|117:229,1,150,4|0,3:2|3:0,0:0:0:0:
157,259,102558,2,0,L|139:359,1,100,10|0,0:0|3:0,0:0:0:0:
238,342,103189,6,0,L|255:243,1,100,14|10,0:0|0:0,0:0:0:0:
333,179,103821,1,10,0:0:0:0:
270,101,104136,1,4,0:3:0:0:
191,164,104452,1,10,0:3:0:0:
191,164,104611,2,0,P|143:178|97:161,1,100,10|10,0:3|0:3,0:0:0:0:
63,66,105242,1,10,0:3:0:0:
148,14,105558,1,14,0:3:0:0:
270,101,106032,6,0,P|318:87|364:104,2,100,0|0|0,0:0|0:0|0:0,0:0:0:0:
280,200,106979,1,4,0:0:0:0:
116,340,117084,6,0,P|48:353|24:289,1,150,6|2,0:0|0:0,0:0:0:0:
84,208,117874,2,0,P|125:220|179:241,1,100,2|0,0:0|0:0,0:0:0:0:
224,261,118347,2,0,B|260:225|260:225|244:111,1,150,2|2,0:0|0:0,0:0:0:0:
208,33,119137,2,0,L|139:23,2,50,2|0|0,0:0|0:0|0:0,0:0:0:0:
255,15,119611,6,0,P|323:26|340:101,1,150,2|2,0:0|0:0,0:0:0:0:
246,126,120400,2,0,P|199:119|142:111,1,100,2|0,0:0|0:0,0:0:0:0:
100,92,120874,2,0,P|68:129|73:178,1,100,2|2,0:0|0:0,0:0:0:0:
139,253,121505,2,0,P|186:246|243:238,1,100,2|2,0:0|0:0,0:0:0:0:
328,194,122137,6,0,P|374:261|277:313,1,200,2|0,0:0|0:0,0:0:0:0:
237,238,123084,1,0,0:0:0:0:
237,238,123242,2,0,P|243:188|259:87,1,150,2|0,0:0|0:0,0:0:0:0:
268,40,123874,2,0,B|314:62|314:62|362:50,2,100,2|2|0,0:0|0:0|0:0,0:0:0:0:
222,15,124663,6,0,P|174:13|141:48,1,100,2|2,0:0|0:0,0:0:0:0:
170,145,125295,2,0,L|159:210,2,50,2|2|0,0:0|0:0|0:0,0:0:0:0:
73,117,125926,2,0,L|49:265,1,150,2|0,0:0|0:0,0:0:0:0:
86,298,126558,2,0,L|100:362,2,50,2|2|0,0:0|0:0|0:0,0:0:0:0:
163,233,127189,6,0,P|211:225|252:251,1,100,4|2,3:2|0:3,0:0:0:0:
268,297,127663,2,0,P|316:307|354:277,1,100,0|0,0:0|0:0,0:0:0:0:
442,231,128295,2,0,P|428:156|414:83,1,150,0|2,3:0|0:3,0:0:0:0:
370,108,128926,2,0,B|324:126|324:126|276:107,1,100
184,63,129558,6,0,P|129:106|162:179,1,150,0|2,3:0|0:3,0:0:0:0:
190,204,130189,2,0,P|182:253|171:305,2,100,0|0|0,0:0|0:0|3:0,0:0:0:0:
234,181,130979,2,0,B|283:175|283:175|325:202,1,100,0|0,3:0|0:0,0:0:0:0:
348,246,131453,1,2,0:3:0:0:
442,214,131768,2,0,L|495:219,2,50,2|0|8,0:3|3:0|0:3,0:0:0:0:
407,176,132242,6,0,P|411:126|417:76,1,100,4|0,3:2|3:0,0:0:0:0:
388,34,132716,2,0,P|340:24|298:49,1,100,0|0,3:0|0:0,0:0:0:0:
276,94,133189,1,0,3:0:0:0:
191,41,133505,2,0,P|141:48|91:52,1,100,8|0,0:0|3:0,0:0:0:0:
41,48,133979,2,0,B|20:83|20:83|35:140,1,100,8|0,0:0|0:0,0:0:0:0:
75,170,134453,2,0,L|65:232,1,50,8|8,0:0|0:0,0:0:0:0:
56,268,134768,6,0,P|102:283|148:255,1,100,4|0,3:2|3:0,0:0:0:0:
189,170,135400,2,0,P|235:155|278:178,1,100,0|0,3:2|3:0,0:0:0:0:
304,275,136032,2,0,L|353:266,1,50,8|0,0:0|3:0,0:0:0:0:
387,230,136347,2,0,L|436:221,1,50,8|0,0:0|3:0,0:0:0:0:
483,238,136663,2,0,L|471:138,1,100,12|0,0:0|0:0,0:0:0:0:
450,40,137295,6,0,B|384:57|384:57|347:108|347:108|281:128,1,200,6|10,3:2|0:3,0:0:0:0:
210,58,138242,1,2,0:0:0:0:
130,118,138558,2,0,L|139:167,1,50,0|0,3:0|3:0,0:0:0:0:
181,194,138874,2,0,L|171:243,1,50,0|0,3:0|3:0,0:0:0:0:
140,282,139189,1,10,0:3:0:0:
216,347,139505,2,0,L|267:336,1,50,2|2,0:0|0:0,0:0:0:0:
314,340,139821,6,0,P|338:297|322:251,1,100,2|2,3:2|3:2,0:0:0:0:
278,224,140295,2,0,P|286:174|299:126,2,100,2|2|10,3:2|0:0|0:0,0:0:0:0:
235,251,141084,2,0,B|187:260|187:260|141:236,1,100,0|0,3:0|3:0,0:0:0:0:
102,143,141716,2,0,P|150:130|204:119,1,100,10|2,0:0|3:2,0:0:0:0:
297,125,142347,6,0,P|411:84|312:14,1,300,6|2,0:0|0:0,0:0:0:0:
270,44,143453,2,0,B|235:64|235:64|127:42,1,150,2|2,0:0|0:0,0:0:0:0:
44,98,144242,2,0,P|55:137|70:202,1,100,2|8,0:0|0:3,0:0:0:0:
73,295,144874,5,14,0:0:0:0:
172,283,145189,1,10,0:0:0:0:
167,182,145505,2,0,L|156:127,2,50,10|0|0,0:0|3:0|3:0,0:0:0:0:
213,204,145979,2,0,P|261:212|301:184,1,100,10|10,0:0|0:0,0:0:0:0:
303,134,146453,2,0,P|294:84|282:36,1,100,10|6,0:0|0:1,0:0:0:0:
183,54,147084,2,0,P|159:51|134:47,1,50,8|8,0:0|0:0,0:0:0:0:
85,32,147400,6,0,B|61:65|61:65|74:133,1,100,4|10,3:2|0:0,0:0:0:0:
112,150,147874,2,0,L|99:254,1,100,0|0,3:2|3:0,0:0:0:0:
152,334,148505,2,0,P|219:314|226:244,1,150,0|10,3:0|0:0,0:0:0:0:
191,207,149137,2,0,L|204:107,1,100,0|0,3:0|3:0,0:0:0:0:
189,59,149611,1,10,0:0:0:0:
279,16,149926,6,0,L|328:25,1,50,0|0,3:0|0:0,0:0:0:0:
377,16,150242,1,10,0:0:0:0:
377,15,150400,2,0,P|364:64|355:113,1,100,2|2,3:2|3:2,0:0:0:0:
324,208,151032,2,0,P|372:216|415:192,1,100,0|0,3:0|3:0,0:0:0:0:
465,194,151505,1,10,0:0:0:0:
465,194,151663,2,0,B|484:244|484:244|465:286,1,100,0|0,3:0|3:0,0:0:0:0:
424,316,152137,1,10,0:0:0:0:
325,292,152453,6,0,P|275:297|225:303,1,100,4|10,3:2|0:0,0:0:0:0:
187,335,152926,2,0,P|137:327|88:319,1,100,0|0,3:0|3:0,0:0:0:0:
39,307,153400,1,10,0:0:0:0:
39,307,153558,2,0,P|23:239|85:207,1,150,0|10,3:0|0:0,0:0:0:0:
134,219,154189,2,0,P|183:213|233:207,1,100,0|0,3:0|3:0,0:0:0:0:
272,175,154663,1,10,0:0:0:0:
337,250,154979,6,0,L|385:239,1,50,0|0,3:0|0:0,0:0:0:0:
410,195,155295,2,0,L|458:205,1,50,8|0,0:0|0:0,0:0:0:0:
497,237,155611,1,0,3:0:0:0:
500,137,155926,1,8,0:0:0:0:
503,37,156242,2,0,B|468:58|468:58|409:47,1,100,8|8,0:0|3:2,0:0:0:0:
363,28,156716,1,0,3:0:0:0:
284,90,157032,2,0,P|260:82|235:77,2,50,8|8|8,0:0|0:0|0:0,0:0:0:0:
354,222,157821,5,4,3:2:0:0:
354,222,157979,2,0,P|344:271|335:320,1,100,0|0,3:0|3:0,0:0:0:0:
242,359,158611,2,0,P|189:303|113:326,1,150,4|10,0:3|0:0,0:0:0:0:
76,336,159242,2,0,P|83:286|88:236,1,100,0|0,3:0|3:0,0:0:0:0:
80,187,159716,1,10,0:0:0:0:
127,98,160032,6,0,B|162:118|162:118|231:99,1,100,0|10,3:0|0:0,0:0:0:0:
256,69,160505,2,0,P|303:81|323:125,1,100,0|8,3:0|0:0,0:0:0:0:
297,168,160979,1,8,0:0:0:0:
297,168,161137,2,0,L|307:270,1,100,12|8,0:0|0:0,0:0:0:0:
215,309,161768,2,0,L|205:209,1,100,10|10,0:3|0:3,0:0:0:0:
209,109,162400,6,0,B|165:110|140:134|140:134|114:157|70:157,1,150,14|0,0:0|3:0,0:0:0:0:
0,229,163189,2,0,P|31:265|80:262,1,100,10|0,0:0|0:0,0:0:0:0:
176,235,163821,2,0,P|161:282|152:331,2,100,0|0|10,3:0|3:0|0:0,0:0:0:0:
241,160,164768,2,0,P|266:165|290:170,1,50,10|0,0:0|3:0,0:0:0:0:
330,200,165084,6,0,P|372:142|334:83,1,150,4|0,3:2|3:0,0:0:0:0:
285,69,165716,2,0,P|235:76|186:86,1,100,10|0,0:0|3:0,0:0:0:0:
101,140,166347,6,0,P|99:164|94:189,1,50,14|0,0:0|3:0,0:0:0:0:
52,217,166663,2,0,P|54:241|59:266,1,50,10|0,0:0|3:0,0:0:0:0:
92,304,166979,1,10,0:0:0:0:
185,268,167295,1,4,0:3:0:0:
271,318,167611,1,10,0:3:0:0:
271,318,167768,2,0,L|370:305,1,100,10|10,0:3|0:3,0:0:0:0:
425,221,168400,1,10,0:3:0:0:
370,137,168716,6,0,B|327:164|327:164|230:141,1,150,14|0,0:3|0:0,0:0:0:0:
164,66,169505,2,0,P|128:99|129:148,1,100,0|8,0:0|0:0,0:0:0:0:
154,190,169979,1,4,0:3:0:0:
154,190,170137,6,0,L|134:288,1,100,12|0,0:0|3:0,0:0:0:0:
147,336,170611,1,8,0:0:0:0:
295,352,171084,2,0,L|275:253,1,100,8|8,0:0|0:0,0:0:0:0:
247,211,171558,1,8,0:0:0:0:
268,62,172032,2,0,L|317:71,1,50,0|0,3:0|3:0,0:0:0:0:
351,107,172347,2,0,L|400:97,1,50,10|10,0:0|0:0,0:0:0:0:
443,72,172663,6,0,P|438:121|433:171,1,100,4|8,3:2|0:0,0:0:0:0:
370,249,173295,2,0,P|373:286|377:323,2,75,2|2|2,3:2|3:2|3:2,0:0:0:0:
343,205,173926,2,0,P|295:196|252:219,1,100,0|8,3:0|0:0,0:0:0:0:
182,291,174558,1,4,0:3:0:0:
109,220,174874,1,8,0:0:0:0:
180,147,175189,6,0,L|166:36,1,100,4|8,3:0|0:0,0:0:0:0:
192,4,175663,1,14,0:3:0:0:
282,46,175979,1,10,0:3:0:0:
376,15,176295,2,0,P|436:52|420:120,1,150,4|8,3:2|0:0,0:0:0:0:
339,180,177084,2,0,L|357:300,1,100,0|14,3:0|0:0,0:0:0:0:
278,345,177716,6,0,P|229:349|191:318,1,100,4|10,3:2|0:3,0:0:0:0:
176,271,178189,2,0,P|127:266|89:297,1,100,0|0,3:0|3:0,0:0:0:0:
46,322,178663,2,0,P|41:273|36:223,1,100,10|2,0:3|3:3,0:0:0:0:
0,180,179137,2,0,P|4:130|9:80,1,100,0|0,3:0|3:0,0:0:0:0:
15,30,179611,1,10,0:3:0:0:
102,77,179926,1,8,0:0:0:0:
194,38,180242,6,0,P|208:84|188:129,1,100,4|8,3:2|0:0,0:0:0:0:
149,160,180716,2,0,P|151:209|159:259,1,100,4|0,3:2|3:0,0:0:0:0:
199,350,181347,2,0,P|273:337|348:327,1,150,4|8,3:2|0:0,0:0:0:0:
445,307,182137,2,0,L|435:257,1,50,8|8,0:0|0:0,0:0:0:0:
395,227,182453,2,0,L|404:177,1,50,8|8,0:0|0:0,0:0:0:0:
417,129,182768,6,0,B|393:116|370:108|370:108|347:114|323:122,1,100,6|8,3:2|0:0,0:0:0:0:
297,164,183242,1,2,0:0:0:0:
297,164,183400,2,0,P|250:180|206:159,1,100,2|10,3:2|0:3,0:0:0:0:
117,113,184032,2,0,L|137:15,2,100,2|10|2,3:3|0:3|3:2,0:0:0:0:
53,190,184979,1,10,0:0:0:0:
108,273,185295,6,0,P|156:261|205:252,1,100,6|8,3:2|0:0,0:0:0:0:
253,269,185768,1,2,0:0:0:0:
253,269,185926,2,0,B|278:230|278:230|267:177,1,100,2|8,3:2|0:0,0:0:0:0:
246,79,186558,2,0,P|292:92|332:65,1,100,6|8,3:2|0:0,0:0:0:0:
430,45,187189,2,0,L|487:53,2,50,10|8|4,0:0|0:3|0:3,0:0:0:0:
396,139,187821,6,0,L|408:238,1,100,6|10,3:2|0:0,0:0:0:0:
319,285,188453,2,0,L|307:186,1,100,2|10,3:2|0:0,0:0:0:0:
210,158,189084,2,0,L|222:257,1,100,2|10,3:2|0:0,0:0:0:0:
133,304,189716,2,0,L|121:205,1,100,2|4,3:2|0:3,0:0:0:0:
77,114,190347,6,0,B|106:86|106:86|165:97,1,100,14|0,0:3|3:0,0:0:0:0:
208,122,190821,2,0,L|306:105,1,100,10|0,0:3|3:0,0:0:0:0:
343,70,191295,1,10,0:3:0:0:
423,129,191611,2,0,L|486:119,2,50,10|0|2,0:0|3:0|3:2,0:0:0:0:
353,201,192242,1,10,0:3:0:0:
401,288,192558,1,10,0:3:0:0:
471,216,192874,5,6,0:0:0:0:
256,192,200453,12,2,202347,0:0:0:0:
256,192,202979,6,0,P|240:282|327:313,1,200,6|10,3:2|0:3,0:0:0:0:
370,222,203926,2,0,L|425:213,1,50,2|10,0:0|0:0,0:0:0:0:
469,206,204242,2,0,B|491:237|491:237|475:297,2,100,0|0|10,3:0|3:0|0:3,0:0:0:0:
408,126,205189,2,0,L|418:62,1,50,2|2,0:0|0:0,0:0:0:0:
434,30,205505,6,0,P|385:33|335:38,1,100,2|2,3:2|3:2,0:0:0:0:
301,76,205979,1,2,3:2:0:0:
208,37,206295,1,2,0:0:0:0:
127,96,206611,2,0,L|144:194,1,100,10|8,0:0|0:0,0:0:0:0:
181,228,207084,2,0,L|172:277,1,50,0|0,3:0|3:0,0:0:0:0:
164,326,207400,2,0,P|208:344|252:323,1,100,10|2,0:0|3:2,0:0:0:0:
293,230,208032,6,0,B|322:240|347:264|352:307|352:307|449:241|405:115,1,300,6|2,0:0|0:0,0:0:0:0:
403,84,209137,2,0,P|332:94|298:32,1,150,2|2,0:0|0:0,0:0:0:0:
205,71,209926,2,0,L|106:54,1,100,2|8,0:0|0:3,0:0:0:0:
50,137,210558,5,14,0:0:0:0:
124,206,210874,1,10,0:0:0:0:
73,291,211189,2,0,L|16:279,2,50,10|0|0,0:0|3:0|3:0,0:0:0:0:
108,326,211663,2,0,P|157:318|206:310,1,100,10|10,0:0|0:0,0:0:0:0:
254,324,212137,1,10,0:0:0:0:
341,276,212453,2,0,L|389:286,2,50,8|8|0,0:0|0:0|3:0,0:0:0:0:
300,246,212926,6,0,P|305:196|313:146,1,100,14|10,0:0|0:0,0:0:0:0:
333,100,213400,1,10,0:0:0:0:
148,22,214032,2,0,L|159:70,1,50,8|8,0:0|0:0,0:0:0:0:
172,117,214347,6,0,P|124:110|84:138,1,100,4|10,3:2|0:0,0:0:0:0:
65,185,214821,1,0,3:2:0:0:
143,246,215137,2,0,L|134:296,1,50,0|10,3:0|0:0,0:0:0:0:
124,344,215453,2,0,B|182:363|182:363|268:326,1,150,0|10,3:0|0:0,0:0:0:0:
305,298,216084,2,0,P|301:249|295:199,1,100,0|0,3:0|3:0,0:0:0:0:
270,155,216558,1,10,0:0:0:0:
272,54,216874,6,0,L|321:61,1,50,0|0,3:0|0:0,0:0:0:0:
368,79,217189,1,10,0:0:0:0:
368,79,217347,2,0,P|395:119|388:168,1,100,2|2,3:2|3:2,0:0:0:0:
295,199,217979,2,0,P|245:192|195:187,1,100,0|0,3:0|0:0,0:0:0:0:
147,171,218453,1,10,0:0:0:0:
147,171,218611,2,0,P|97:179|48:187,1,100,0|0,3:0|3:0,0:0:0:0:
7,215,219084,1,10,0:0:0:0:
32,311,219400,6,0,P|79:322|120:296,1,100,4|10,3:2|0:0,0:0:0:0:
156,270,219874,2,0,L|146:169,1,100,0|0,3:0|3:0,0:0:0:0:
126,124,220347,1,10,0:0:0:0:
126,124,220505,2,0,P|195:138|239:81,1,150,0|10,3:0|0:0,0:0:0:0:
235,31,221137,2,0,P|284:39|332:51,1,100,0|0,3:0|3:0,0:0:0:0:
366,88,221611,1,10,0:0:0:0:
430,164,221926,6,0,L|419:216,1,50,0|0,3:0|0:0,0:0:0:0:
408,262,222242,2,0,L|397:314,1,50,8|0,0:0|0:0,0:0:0:0:
385,359,222558,1,0,3:0:0:0:
296,312,222874,1,8,0:0:0:0:
207,357,223189,2,0,P|159:366|125:332,1,100,8|8,0:0|3:2,0:0:0:0:
136,282,223663,1,0,3:0:0:0:
69,207,223979,2,0,L|11:218,2,50,8|8|8,0:0|0:0|0:0,0:0:0:0:
142,76,224768,5,4,3:2:0:0:
142,76,224926,2,0,P|183:102|229:89,1,100,0|0,3:0|3:0,0:0:0:0:
310,29,225558,2,0,P|368:20|409:96,1,150,4|10,0:3|0:0,0:0:0:0:
379,128,226189,2,0,P|371:177|370:236,1,100,0|0,3:0|3:0,0:0:0:0:
390,273,226663,1,10,0:0:0:0:
325,349,226979,6,0,P|275:339|226:331,1,100,0|10,3:0|0:0,0:0:0:0:
179,350,227453,1,0,3:0:0:0:
93,298,227768,2,0,L|105:247,1,50,8|8,0:0|0:0,0:0:0:0:
146,220,228084,2,0,L|130:121,1,100,12|8,0:0|0:0,0:0:0:0:
160,25,228716,1,10,0:3:0:0:
246,76,229032,1,10,0:3:0:0:
338,39,229347,6,0,B|383:72|383:72|361:163,1,150,14|0,0:0|3:0,0:0:0:0:
378,262,230137,1,14,0:0:0:0:
303,330,230453,2,0,P|279:328|255:319,1,50,0|0,0:0|3:0,0:0:0:0:
226,281,230768,2,0,P|178:269|138:297,1,100,0|0,3:0|3:0,0:0:0:0:
39,308,231400,2,0,L|51:260,1,50,10|8,0:0|0:3,0:0:0:0:
90,227,231716,2,0,L|78:179,1,50,4|0,0:3|0:0,0:0:0:0:
63,130,232032,6,0,B|119:140|162:149,1,100,4|0,3:2|3:0,0:0:0:0:
201,178,232505,1,0,3:0:0:0:
201,178,232663,2,0,B|244:169|300:159,1,100,10|0,0:0|3:0,0:0:0:0:
393,123,233295,6,0,B|405:171,1,50,14|0,0:0|3:0,0:0:0:0:
447,199,233611,2,0,B|435:247,1,50,10|0,0:0|3:0,0:0:0:0:
421,295,233926,1,10,0:0:0:0:
332,247,234242,1,8,0:0:0:0:
258,314,234558,1,10,3:2:0:0:
258,314,234716,2,0,P|209:303|159:295,1,100,8|10,0:3|3:2,0:0:0:0:
69,338,235347,1,10,3:2:0:0:
25,247,235663,6,0,P|33:196|47:129,1,100,14|10,0:0|0:0,0:0:0:0:
82,117,236137,2,0,L|72:58,1,50,0|10,3:0|0:0,0:0:0:0:
65,18,236453,1,10,0:0:0:0:
159,49,236768,1,8,0:0:0:0:
254,20,237084,1,6,0:3:0:0:
254,20,237242,2,0,P|288:56|286:104,1,100,10|10,0:3|0:3,0:0:0:0:
212,172,237874,1,10,0:3:0:0:
268,254,238189,1,14,0:3:0:0:
256,192,238979,12,6,240874,3:2:0:0:
268,254,241505,6,0,P|325:244|368:237,1,100,2|8,3:2|3:2,0:0:0:0:
426,157,242137,2,0,P|376:148|327:140,1,100,2|8,3:2|3:2,0:0:0:0:
272,55,242768,2,0,P|234:87|227:135,1,100,2|8,3:2|3:2,0:0:0:0:
165,214,243400,6,0,B|137:191|137:191|74:203,1,100,2|8,3:2|3:2,0:0:0:0:
30,293,244032,2,0,B|58:316|58:316|121:304,1,100,2|8,3:2|3:2,0:0:0:0:
221,292,244663,1,14,0:2:0:0:
313,329,244979,1,10,0:0:0:0:
366,244,245295,1,10,0:0:0:0:
458,281,245611,1,10,0:0:0:0:
488,186,245926,6,0,P|483:136|475:86,1,100,6|8,3:2|0:0,0:0:0:0:
411,9,246558,2,0,P|362:0|319:21,1,100,0|8,3:0|0:0,0:0:0:0:
338,119,247189,2,0,P|329:153|314:225,1,100,2|8,3:2|0:0,0:0:0:0:
225,260,247821,1,14,0:0:0:0:
202,162,248137,1,14,0:0:0:0:
144,80,248453,6,0,L|156:31,2,50,0|0|14,3:2|3:2|0:0,0:0:0:0:
67,144,249084,2,0,L|79:196,1,50,2|2,3:2|3:2,0:0:0:0:
118,222,249400,2,0,L|106:270,1,50,10|10,0:0|0:0,0:0:0:0:
94,319,249716,2,0,P|136:341|182:325,1,100,6|8,3:2|0:0,0:0:0:0:
211,284,250189,1,10,0:0:0:0:
211,284,250347,2,0,P|256:267|299:290,1,100,2|8,3:2|0:0,0:0:0:0:
377,353,250979,6,0,B|401:313|401:313|390:260,1,100,6|10,3:2|0:3,0:0:0:0:
448,178,251611,2,0,P|408:152|360:164,1,100,0|10,3:0|0:3,0:0:0:0:
344,64,252242,2,0,P|297:75|272:116,1,100,2|10,3:2|0:3,0:0:0:0:
274,217,252874,1,2,3:2:0:0:
177,190,253189,1,10,0:3:0:0:
86,232,253505,6,0,P|92:181|99:132,1,100,2|10,3:2|0:3,0:0:0:0:
112,33,254137,1,0,3:3:0:0:
198,84,254453,1,10,0:3:0:0:
286,37,254768,2,0,P|327:11|375:19,2,100,6|10|6,3:2|0:0|3:2,0:0:0:0:
275,137,255716,1,10,0:0:0:0:
315,228,256032,6,0,P|363:217|413:209,1,100,6|0,3:2|3:0,0:0:0:0:
449,303,256663,1,2,3:2:0:0:
350,320,256979,1,0,3:0:0:0:
254,350,257295,2,0,P|205:339|155:331,1,100,2|0,3:2|3:0,0:0:0:0:
141,232,257926,1,2,3:2:0:0:
239,250,258242,1,2,3:2:0:0:
310,178,258558,6,0,L|359:171,2,50,6|8|8,3:2|0:0|0:0,0:0:0:0:
221,131,259189,1,0,3:0:0:0:
250,35,259505,1,8,0:0:0:0:
154,6,259821,1,6,3:2:0:0:
125,102,260137,1,8,0:0:0:0:
96,198,260453,2,0,L|34:215,2,50,10|10|10,0:0|0:0|0:0,0:0:0:0:
144,211,260926,1,10,0:0:0:0:
256,192,261084,12,0,266137,0:0:0:0:
