osu file format v14

[General]
AudioFilename: audio.mp3
AudioLeadIn: 0
PreviewTime: 83729
Countdown: 0
SampleSet: Soft
StackLeniency: 0.3
Mode: 0
LetterboxInBreaks: 0
WidescreenStoryboard: 1

[Editor]
Bookmarks: 53886,202939,266097
DistanceSpacing: 1.2
BeatDivisor: 4
GridSize: 32
TimelineZoom: 2.3

[Metadata]
Title:Chikyuu Saigo no Kokuhaku o
TitleUnicode:地球最後の告白を
Artist:yuikonnu
ArtistUnicode:ゆいこんぬ
Creator:Toyosaki Aki
Version:Lukas' Insane
Source:
Tags:toooooon enjoy momochy reillia curi [c_u_r_i] lukas [_l_u_k_a_s_] nanashima asami narcissu hatsuko ke-sanβ suzumu kemu voxx vocaloid megpoid gumi nico douga sound voltex jrock japanese 歌ってみた
BeatmapID:2107120
BeatmapSetID:880938

[Difficulty]
HPDrainRate:5.5
CircleSize:3.5
OverallDifficulty:7
ApproachRate:9
SliderMultiplier:1.6
SliderTickRate:1

[Events]
//Background and Video events
0,0,"33703665_p0.png",0,0
//Break Periods
2,106983,116484
2,193074,202379
//Storyboard Layer 0 (Background)
//Storyboard Layer 1 (Fail)
//Storyboard Layer 2 (Pass)
//Storyboard Layer 3 (Foreground)
//Storyboard Layer 4 (Overlay)
//Storyboard Sound Samples

[TimingPoints]
19931,441.176470588235,4,2,4,60,1,0
23296,315.789473684211,4,2,4,60,1,0
23611,315.789473684211,4,2,4,60,1,0
23611,-100,4,2,4,60,0,0
25979,-100,4,2,5,60,0,0
26295,-100,4,2,4,60,0,0
28189,-100,4,2,5,60,0,0
28505,-100,4,2,4,60,0,0
28742,-100,4,2,4,5,0,0
28821,-100,4,2,4,60,0,0
30558,-100,4,2,5,60,0,0
31189,-100,4,2,4,60,0,0
33716,-125,4,2,4,40,0,0
42953,-125,4,2,4,5,0,0
43032,-125,4,2,4,40,0,0
48716,-125,4,2,5,40,0,0
48874,-125,4,2,4,40,0,0
52663,-111.111111111111,4,2,4,50,0,0
53926,-111.111111111111,4,2,4,45,0,0
72874,-111.111111111111,4,2,4,50,0,0
73979,-111.111111111111,4,2,5,50,0,0
74137,-111.111111111111,4,2,4,55,0,0
79189,-111.111111111111,4,2,4,40,0,0
80137,-111.111111111111,4,2,4,40,0,0
81084,-111.111111111111,4,2,4,50,0,0
81400,-111.111111111111,4,2,5,50,0,0
81558,-111.111111111111,4,2,4,60,0,0
81716,-100,4,2,4,60,0,0
83926,-142.857142857143,4,2,4,40,0,0
84242,-83.3333333333333,4,2,4,65,0,1
94426,-83.3333333333333,4,2,5,65,0,1
94663,-83.3333333333333,4,2,4,65,0,1
95374,-83.3333333333333,4,2,5,65,0,1
95611,-83.3333333333333,4,2,4,65,0,1
99242,-100,4,2,4,55,0,1
103032,-100,4,2,5,55,0,1
103189,-100,4,2,4,55,0,1
104137,-100,4,2,5,55,0,1
104453,-100,4,2,4,65,0,1
106979,-111.111111111111,4,2,4,65,0,0
116926,-111.111111111111,4,2,4,40,0,0
117084,-166.666666666667,4,2,4,40,0,0
127032,-166.666666666667,4,2,5,40,0,0
127189,-125,4,2,4,45,0,0
132084,-125,4,2,5,45,0,0
132242,-125,4,2,4,45,0,0
133505,-111.111111111111,4,2,4,45,0,0
136032,-111.111111111111,4,2,4,50,0,0
137295,-111.111111111111,4,2,4,55,0,0
142347,-111.111111111111,4,2,4,40,0,0
144242,-111.111111111111,4,2,4,50,0,0
144558,-100,4,2,5,50,0,0
144716,-100,4,2,4,50,0,0
144874,-100,4,2,4,60,0,0
147400,-83.3333333333333,4,2,4,65,0,1
152374,-83.3333333333333,4,2,4,5,0,1
152453,-83.3333333333333,4,2,4,65,0,1
157584,-83.3333333333333,4,2,5,65,0,1
157821,-83.3333333333333,4,2,4,65,0,1
158532,-83.3333333333333,4,2,5,65,0,1
158768,-83.3333333333333,4,2,4,65,0,1
162400,-100,4,2,4,55,0,1
166189,-100,4,2,5,55,0,1
166347,-100,4,2,4,55,0,1
167295,-100,4,2,5,55,0,1
167611,-100,4,2,4,55,0,1
167768,-100,4,2,4,65,0,1
168321,-100,4,2,4,5,0,1
168400,-100,4,2,4,65,0,1
169900,-100,4,2,5,65,0,1
170058,-100,4,2,4,65,0,1
171637,-100,4,2,5,65,0,1
172032,-100,4,2,4,65,0,1
172663,-100,4,2,4,65,0,0
172900,-100,4,2,4,5,0,0
172979,-100,4,2,4,60,0,0
174558,-100,4,2,5,60,0,0
174716,-100,4,2,4,60,0,0
180479,-100,4,2,4,5,0,0
180558,-100,4,2,4,60,0,0
181979,-100,4,2,5,60,0,0
182137,-100,4,2,4,60,0,0
187347,-100,4,2,5,60,0,0
187663,-100,4,2,4,60,0,0
189874,-100,4,2,5,60,0,0
190189,-100,4,2,4,60,0,0
192005,-100,4,2,5,60,0,0
192084,-100,4,2,4,60,0,0
192874,-100,4,2,4,40,0,0
202347,-100,4,2,4,40,0,0
202979,-111.111111111111,4,2,4,55,0,0
208032,-111.111111111111,4,2,4,45,0,0
209926,-111.111111111111,4,2,4,50,0,0
210242,-100,4,2,5,55,0,0
210400,-100,4,2,4,55,0,0
210558,-100,4,2,4,60,0,0
214032,-90.9090909090909,4,2,4,60,0,0
214347,-83.3333333333333,4,2,4,65,0,1
217111,-83.3333333333333,4,2,4,5,0,1
217189,-83.3333333333333,4,2,4,65,0,1
224532,-83.3333333333333,4,2,5,65,0,1
224768,-83.3333333333333,4,2,4,65,0,1
225479,-83.3333333333333,4,2,5,65,0,1
225716,-83.3333333333333,4,2,4,65,0,1
229347,-100,4,2,4,55,0,1
231479,-100,4,2,5,55,0,1
231926,-100,4,2,4,55,0,1
233137,-100,4,2,5,55,0,1
233295,-100,4,2,4,60,0,1
234321,-100,4,2,5,60,0,1
234558,-100,4,2,4,65,0,1
234716,-100,4,2,5,65,0,1
235032,-100,4,2,4,65,0,1
236926,-100,4,2,5,65,0,1
237084,-100,4,2,4,70,0,1
237795,-100,4,2,4,5,0,1
237874,-100,4,2,4,70,0,1
238189,-111.111111111111,4,2,4,60,0,0
240874,-83.3333333333333,4,2,5,60,0,1
244663,-83.3333333333333,4,2,4,60,0,1
260453,-83.3333333333333,4,2,4,70,0,1
261084,-100,4,2,4,70,0,0
266137,-100,4,2,4,5,0,0

[Colours]
Combo1 : 226,94,5
Combo2 : 66,66,134
SliderBorder : 255,235,255
SliderTrackOverride : 0,15,10

[HitObjects]
90,261,23453,5,8,0:0:0:0:
90,261,23532,1,8,0:0:0:0:
90,261,23611,2,0,B|147:268|181:232|181:232|223:224|260:254,2,160,4|0|0,3:2|3:2|3:0,0:0:0:0:
192,96,24558,1,0,3:0:0:0:
229,329,24874,6,0,P|296:321|336:216,1,160,0|0,3:0|3:0,0:0:0:0:
274,162,25347,2,0,P|255:204|254:253,1,80,8|0,0:0|3:0,0:0:0:0:
435,245,25663,2,0,P|430:205|413:169,1,80,8|8,0:0|0:0,0:0:0:0:
385,370,25979,5,8,0:3:0:0:
385,370,26058,1,8,0:3:0:0:
385,370,26137,2,0,B|237:373|305:294|159:302,1,240,4|0,0:3|3:0,0:0:0:0:
130,320,26689,5,0,3:0:0:0:
130,320,26768,2,0,L|116:260,1,40,8|8,3:2|0:0,0:0:0:0:
169,216,26926,2,0,L|183:156,1,40,8|8,0:0|0:0,0:0:0:0:
114,130,27084,2,0,L|100:70,1,40,8|8,0:0|0:0,0:0:0:0:
210,26,27242,5,10,0:0:0:0:
265,302,27558,1,10,0:0:0:0:
210,26,27874,1,10,0:0:0:0:
265,302,28189,2,0,P|324:281|342:195,1,120,8|0,0:3|0:0,0:0:0:0:
367,203,28505,6,0,P|380:319|409:373,1,160,6|0,3:2|3:0,0:0:0:0:
437,143,28979,2,0,P|387:106|348:112,1,80,10|0,0:0|0:0,0:0:0:0:
299,143,29295,2,0,P|249:180|210:174,1,80,2|0,3:2|3:0,0:0:0:0:
88,90,29611,2,0,P|126:98|153:127,1,80,10|0,0:0|3:0,0:0:0:0:
148,329,29926,6,0,L|140:249,1,80,2|0,3:2|3:0,0:0:0:0:
151,224,30163,1,0,3:0:0:0:
161,207,30242,2,0,L|153:127,1,80,10|0,0:0|0:0,0:0:0:0:
249,6,30558,2,0,L|310:-3,3,40,8|8|8|8,0:3|0:3|3:3|3:3,0:0:0:0:
336,77,30874,2,0,L|375:82,1,40,4|4,0:3|0:3,0:0:0:0:
471,16,31032,2,0,L|432:22,1,40,4|4,0:3|0:3,0:0:0:0:
428,144,31189,6,0,P|463:127|503:128,1,80,4|0,3:2|0:0,0:0:0:0:
341,206,31505,2,0,P|307:207|263:187,1,80,8|0,0:0|0:0,0:0:0:0:
85,45,31821,5,0,3:0:0:0:
119,202,31979,1,0,3:0:0:0:
158,104,32137,1,8,0:0:0:0:
109,233,32295,1,0,3:0:0:0:
85,45,32453,5,0,3:0:0:0:
217,182,32611,1,0,3:0:0:0:
49,136,32768,1,8,0:0:0:0:
109,233,32926,5,8,0:0:0:0:
111,226,33005,1,8,0:0:0:0:
112,218,33084,1,8,0:0:0:0:
158,0,33242,1,8,0:0:0:0:
158,0,33716,6,0,B|224:-3|195:61|291:48,1,128,4|2,0:0|0:3,0:0:0:0:
368,20,34189,2,0,P|359:55|363:100,1,64,0|2,0:0|0:3,0:0:0:0:
294,196,34505,2,0,P|293:164|285:133,2,64,0|2|0,0:0|0:3|0:0,0:0:0:0:
228,250,34979,6,0,P|294:251|369:282,1,128,2|2,0:3|0:3,0:0:0:0:
438,320,35453,2,0,P|453:278|416:201,1,128,0|0,0:0|0:0,0:0:0:0:
350,138,35926,1,2,0:3:0:0:
428,109,36084,1,0,3:2:0:0:
290,68,36242,6,0,B|249:59|249:59|154:83,1,128,0|2,3:0|0:3,0:0:0:0:
85,53,36716,2,0,P|81:97|92:122,1,64,0|2,0:0|0:3,0:0:0:0:
156,168,37032,2,0,P|160:212|149:237,1,64,0|2,0:0|0:3,0:0:0:0:
104,304,37347,1,0,0:0:0:0:
171,366,37505,2,0,P|221:338|312:321,1,128,2|2,0:3|0:3,0:0:0:0:
289,321,38137,5,2,0:3:0:0:
339,249,38295,1,2,3:2:0:0:
373,327,38453,1,2,0:3:0:0:
339,249,38611,1,0,3:2:0:0:
373,327,38768,6,0,P|446:335|492:279,2,128,4|2|2,3:3|0:3|0:3,0:0:0:0:
239,174,39716,1,2,0:3:0:0:
203,255,39874,2,0,P|165:275|86:255,1,128,0|0,0:0|0:0,0:0:0:0:
31,194,40347,1,2,0:3:0:0:
9,271,40505,2,0,P|5:318|14:348,1,64,0|2,0:0|0:3,0:0:0:0:
31,194,40821,2,0,P|35:147|26:117,1,64,0|2,0:0|0:3,0:0:0:0:
1,24,41137,1,0,3:2:0:0:
102,55,41295,6,0,L|247:42,1,128,0|2,3:3|0:3,0:0:0:0:
323,230,41926,2,0,L|195:241,1,128,2|2,0:3|0:3,0:0:0:0:
99,43,42558,6,0,L|244:30,1,128,2|0,0:3|0:0,0:0:0:0:
315,95,43032,1,0,3:2:0:0:
392,22,43189,1,2,0:3:0:0:
458,64,43347,2,0,P|448:109|447:150,2,64,0|2|0,3:0|0:3|3:2,0:0:0:0:
499,204,43821,6,0,P|459:179|366:175,1,128,4|2,3:3|0:3,0:0:0:0:
305,117,44295,2,0,P|265:142|172:146,1,128,0|0,0:0|0:0,0:0:0:0:
103,167,44768,2,0,P|132:226|135:247,1,64,2|0,0:3|3:0,0:0:0:0:
92,310,45084,6,0,P|140:278|225:283,1,128,0|2,3:3|0:3,0:0:0:0:
292,324,45558,2,0,P|304:301|277:206,1,128,0|0,0:0|0:0,0:0:0:0:
277,8,46189,5,0,3:0:0:0:
192,9,46347,2,0,L|55:24,1,128,0|2,3:3|0:3,0:0:0:0:
0,70,46821,2,0,L|137:85,2,128,0|0|0,0:0|3:0|3:0,0:0:0:0:
14,148,47611,6,0,P|47:207|44:284,1,128,0|2,3:3|0:3,0:0:0:0:
36,359,48084,2,0,P|72:341|109:332,1,64,2|2,0:0|0:3,0:0:0:0:
175,371,48400,2,0,L|183:292,1,64,2|2,3:2|0:3,0:0:0:0:
264,322,48716,5,8,0:3:0:0:
340,267,48874,2,0,L|324:128,1,128,4|2,3:2|3:2,0:0:0:0:
456,67,49505,1,2,3:2:0:0:
451,95,49821,1,2,3:2:0:0:
328,268,50137,6,0,L|312:129,1,128,0|2,3:2|3:2,0:0:0:0:
454,69,50768,1,2,3:2:0:0:
451,95,51084,1,2,3:2:0:0:
374,25,51242,1,8,0:0:0:0:
328,114,51400,6,0,L|342:241,1,128,0|2,3:2|3:2,0:0:0:0:
247,247,51874,1,8,0:0:0:0:
230,160,52032,1,2,3:2:0:0:
247,247,52189,2,0,L|261:319,1,64,8|2,0:0|3:2,0:0:0:0:
345,374,52505,1,8,0:0:0:0:
424,337,52663,6,0,P|435:282|446:258,1,71.9999978027344,2|8,3:2|0:0,0:0:0:0:
415,169,52979,2,0,P|404:114|393:90,1,71.9999978027344,2|8,3:2|0:0,0:0:0:0:
497,0,53295,5,10,0:2:0:0:
497,0,53453,2,0,L|446:4,4,35.9999989013672,0|0|10|8|8,3:0|3:0|0:2|0:0|0:0,0:0:0:0:
357,10,53926,6,0,P|375:53|387:101,1,71.9999978027344,4|0,3:0|0:0,0:0:0:0:
280,212,54242,2,0,P|290:177|305:144,1,71.9999978027344,8|0,0:0|0:0,0:0:0:0:
313,298,54558,2,0,P|283:324|232:323,1,71.9999978027344,0|0,3:0|0:0,0:0:0:0:
106,254,54874,2,0,P|143:266|168:311,1,71.9999978027344,8|0,0:0|0:0,0:0:0:0:
25,362,55189,6,0,P|25:297|13:211,1,143.999995605469,0|8,3:0|0:0,0:0:0:0:
116,111,55663,2,0,P|106:182|105:254,1,143.999995605469,0|0,0:0|0:0,0:0:0:0:
183,322,56137,2,0,P|215:285|236:272,1,71.9999978027344,8|0,0:0|0:0,0:0:0:0:
304,342,56453,6,0,P|283:287|313:201,1,143.999995605469,0|8,3:0|0:0,0:0:0:0:
396,213,56926,2,0,P|417:268|387:354,2,143.999995605469,0|0|0,0:0|0:0|0:0,0:0:0:0:
338,73,57716,6,0,L|352:147,1,71.9999978027344,0|0,3:0|0:0,0:0:0:0:
445,16,58032,1,8,0:0:0:0:
445,16,58347,2,0,L|457:110,1,71.9999978027344,0|0,3:0|0:0,0:0:0:0:
373,129,58663,2,0,L|362:58,1,71.9999978027344,8|0,0:0|3:0,0:0:0:0:
297,179,58979,6,0,P|358:223|434:192,2,143.999995605469,4|8|0,3:0|0:0|3:0,0:0:0:0:
297,179,59926,1,8,0:0:0:0:
287,279,60084,1,0,0:0:0:0:
199,305,60242,6,0,P|136:284|50:264,1,143.999995605469,0|8,3:0|0:0,0:0:0:0:
0,192,60716,2,0,P|70:175|138:152,2,143.999995605469,0|0|0,0:0|0:0|0:0,0:0:0:0:
128,54,61505,6,0,P|190:69|229:150,1,143.999995605469,0|8,3:0|0:0,0:0:0:0:
218,236,61979,2,0,P|251:174|318:155,1,143.999995605469,0|0,0:0|0:0,0:0:0:0:
400,97,62453,1,8,0:0:0:0:
396,188,62611,1,8,0:0:0:0:
468,246,62768,6,0,P|452:301|447:332,1,71.9999978027344,0|2,3:0|0:3,0:0:0:0:
376,383,63084,2,0,P|368:347|357:313,1,71.9999978027344,8|2,0:0|0:3,0:0:0:0:
265,255,63400,2,0,L|395:233,1,107.999996704102,0|8,3:0|0:0,0:0:0:0:
371,236,63716,2,0,P|378:200|389:166,1,71.9999978027344,8|10,0:0|0:3,0:0:0:0:
383,140,63953,1,8,0:0:0:0:
383,140,64032,1,4,3:0:0:0:
221,68,64347,5,8,0:0:0:0:
202,161,64505,2,0,P|212:107|216:70,1,71.9999978027344,0|0,0:0|3:0,0:0:0:0:
303,0,64821,2,0,P|313:54|317:91,1,71.9999978027344,0|8,0:0|0:0,0:0:0:0:
211,173,65137,1,0,0:0:0:0:
320,81,65295,2,0,P|373:80|458:137,1,143.999995605469,0|8,3:0|0:0,0:0:0:0:
462,135,65926,6,0,P|447:73|449:42,1,71.9999978027344,0|0,3:0|0:0,0:0:0:0:
412,204,66242,2,0,P|408:239|397:274,1,71.9999978027344,8|0,0:0|0:0,0:0:0:0:
286,356,66558,6,0,P|272:303|333:231,1,143.999995605469,0|8,3:0|0:0,0:0:0:0:
221,202,67032,2,0,P|224:243|221:272,1,71.9999978027344,0|0,0:0|3:0,0:0:0:0:
136,338,67347,2,0,P|132:302|136:266,1,71.9999978027344,0|8,0:0|0:0,0:0:0:0:
138,170,67663,1,0,0:0:0:0:
51,124,67821,6,0,L|226:107,2,143.999995605469,0|8|0,3:0|0:0|3:0,0:0:0:0:
5,62,68611,1,0,0:0:0:0:
46,148,68768,2,0,L|40:219,1,71.9999978027344,8|0,0:0|0:0,0:0:0:0:
90,342,69084,6,0,P|143:315|230:303,1,143.999995605469,0|8,3:0|0:0,0:0:0:0:
182,221,69558,2,0,P|235:248|322:260,2,143.999995605469,0|0|0,0:0|0:0|0:0,0:0:0:0:
107,102,70347,6,0,P|116:151|113:174,1,71.9999978027344,0|0,3:0|0:0,0:0:0:0:
197,90,70663,1,8,0:0:0:0:
78,20,70821,2,0,P|111:59|198:90,1,143.999995605469,0|0,0:0|0:0,0:0:0:0:
272,21,71295,1,8,0:0:0:0:
292,121,71453,1,0,0:0:0:0:
382,21,71611,6,0,B|366:58|366:58|387:168,1,143.999995605469,0|8,3:0|0:0,0:0:0:0:
363,251,72084,1,0,0:0:0:0:
281,260,72242,2,0,P|245:258|209:265,1,71.9999978027344,0|2,3:0|0:3,0:0:0:0:
134,164,72558,2,0,P|184:171|208:169,1,71.9999978027344,8|2,0:0|3:3,0:0:0:0:
110,88,72874,5,8,0:0:0:0:
117,257,73032,1,10,0:3:0:0:
117,257,73111,1,0,0:0:0:0:
117,257,73189,2,0,L|108:306,3,35.9999989013672,0|8|10|0,3:0|0:0|0:3|0:0,0:0:0:0:
114,342,73505,2,0,P|163:325|209:322,1,71.9999978027344,8|2,0:0|3:3,0:0:0:0:
269,236,73821,2,0,P|318:253|364:256,1,71.9999978027344,8|10,0:0|0:3,0:0:0:0:
378,247,74058,1,8,0:3:0:0:
378,247,74137,6,0,L|363:71,1,143.999995605469,6|0,3:2|3:0,0:0:0:0:
391,244,74768,2,0,L|376:68,1,143.999995605469,10|2,0:3|0:0,0:0:0:0:
378,100,75400,2,0,P|336:123|306:122,1,71.9999978027344,0|0,3:3|3:0,0:0:0:0:
253,55,75716,2,0,P|211:32|181:33,1,71.9999978027344,0|0,3:0|3:0,0:0:0:0:
84,180,76032,2,0,P|94:114|105:13,1,143.999995605469,10|2,0:3|0:0,0:0:0:0:
222,139,76505,5,2,0:0:0:0:
222,139,76584,1,0,0:0:0:0:
222,139,76663,2,0,P|203:192|266:266,1,143.999995605469,2|2,3:2|3:2,0:0:0:0:
211,142,77295,2,0,P|192:195|255:269,1,143.999995605469,10|0,0:3|0:0,0:0:0:0:
237,263,77926,1,0,3:0:0:0:
142,326,78084,2,0,P|91:304|53:303,2,71.9999978027344,8|0|0,0:0|3:0|3:0,0:0:0:0:
245,377,78558,2,0,P|258:308|268:289,1,71.9999978027344,10|0,0:0|3:0,0:0:0:0:
386,223,78874,2,0,P|373:154|363:135,1,71.9999978027344,2|0,3:2|3:0,0:0:0:0:
228,53,79189,5,6,0:0:0:0:
228,53,81084,2,0,P|166:48|102:102,1,143.999995605469,0|8,3:0|0:3,0:0:0:0:
176,178,81558,2,0,L|183:129,1,35.9999989013672,0|0,3:0|3:0,0:0:0:0:
90,198,81716,6,0,B|69:233|69:233|96:271,1,80,14|10,3:2|0:0,0:0:0:0:
188,344,82032,1,10,0:0:0:0:
176,178,82189,1,10,0:0:0:0:
164,38,82347,1,10,0:0:0:0:
164,38,82426,1,8,3:0:0:0:
164,38,82505,2,0,L|210:35,1,40,0|0,3:0|3:0,0:0:0:0:
281,33,82663,5,0,3:0:0:0:
117,113,82821,1,10,0:0:0:0:
117,113,83137,5,10,0:0:0:0:
281,33,83295,1,10,0:0:0:0:
281,33,83926,6,0,P|294:78|302:137,1,83.9999974365235
297,172,84242,6,0,P|360:110|476:106,1,191.999994140625,4|10,3:2|0:0,0:0:0:0:
333,271,84716,2,0,P|239:263|220:240,1,95.9999970703126,0|0,3:2|0:2,0:0:0:0:
163,186,85032,2,0,P|197:253|225:388,1,191.999994140625,0|8,3:0|0:0,0:0:0:0:
74,152,85505,6,0,P|110:108|161:95,1,95.9999970703126,0|0,3:0|0:0,0:0:0:0:
41,265,85821,1,10,0:0:0:0:
4,77,85979,2,0,P|28:172|43:293,1,191.999994140625,0|0,3:0|3:0,0:0:0:0:
161,368,86453,2,0,P|171:309|184:275,1,95.9999970703126,10|0,0:0|0:0,0:0:0:0:
357,350,86768,6,0,L|238:335,1,95.9999970703126,0|0,3:0|0:0,0:0:0:0:
385,201,87084,1,10,0:0:0:0:
461,367,87242,2,0,B|444:321|444:321|483:284,1,95.9999970703126,0|0,3:0|0:0,0:0:0:0:
371,105,87558,2,0,L|387:216,1,95.9999970703126,0|10,3:0|0:0,0:0:0:0:
357,350,87874,1,0,0:0:0:0:
268,146,88032,6,0,L|260:380,1,191.999994140625,0|10,3:0|0:0,0:0:0:0:
150,384,88505,2,0,L|143:192,1,191.999994140625,0|0,3:0|3:0,0:0:0:0:
90,115,88979,2,0,B|46:136|46:136|-4:120,1,95.9999970703126,10|0,0:0|0:0,0:0:0:0:
167,35,89295,6,0,L|384:26,1,191.999994140625,4|10,3:2|0:0,0:0:0:0:
512,136,89768,2,0,L|414:129,1,95.9999970703126,0|0,3:0|0:0,0:0:0:0:
272,192,90084,1,0,3:0:0:0:
375,241,90242,1,10,0:0:0:0:
246,212,90400,1,0,0:0:0:0:
331,342,90558,6,0,P|215:356|107:391,1,191.999994140625,0|10,3:0|0:0,0:0:0:0:
44,236,91032,1,0,3:0:0:0:
44,236,91111,1,2,3:2:0:0:
44,236,91189,2,0,P|136:260|157:247,1,95.9999970703126,0|0,3:0|0:0,0:0:0:0:
245,51,91505,2,0,P|197:75|181:104,1,47.9999985351563,10|8,0:0|0:0,0:0:0:0:
146,132,91663,2,0,P|142:185|159:213,1,47.9999985351563,8|8,0:0|0:0,0:0:0:0:
259,314,91821,6,0,L|241:138,1,143.999995605469,0|0,3:0|0:0,0:0:0:0:
259,167,92137,2,0,L|273:310,1,143.999995605469,8|0,0:0|0:0,0:0:0:0:
300,306,92453,2,0,L|290:188,1,95.9999970703126,0|0,3:0|3:0,0:0:0:0:
369,69,92768,2,0,L|377:164,1,95.9999970703126,8|8,0:0|0:0,0:0:0:0:
469,342,93084,5,8,0:0:0:0:
361,369,93242,1,0,3:0:0:0:
361,369,93321,1,0,3:0:0:0:
361,369,93400,1,8,3:2:0:0:
502,262,93558,1,0,3:0:0:0:
502,262,93637,1,0,3:0:0:0:
502,262,93716,2,0,L|444:252,1,47.9999985351563,8|8,0:0|0:0,0:0:0:0:
367,185,93874,2,0,L|319:193,1,47.9999985351563,8|8,0:0|0:0,0:0:0:0:
241,262,94032,2,0,L|193:253,3,47.9999985351563,8|8|8|8,0:0|0:0|0:0|0:0,0:0:0:0:
158,248,94347,5,0,3:0:0:0:
158,248,94426,1,8,0:3:0:0:
158,248,94505,2,0,L|110:257,1,47.9999985351563,4|4,0:3|0:3,0:0:0:0:
167,44,94663,2,0,B|192:78|192:78|172:147,1,95.9999970703126,4|0,3:2|3:0,0:0:0:0:
124,338,94979,1,8,0:0:0:0:
49,179,95137,2,0,L|113:172,1,47.9999985351563,0|0,3:0|3:0,0:0:0:0:
177,129,95295,2,0,L|224:134,2,47.9999985351563,0|8|4,3:0|0:3|0:3,0:0:0:0:
282,45,95611,6,0,P|331:125|291:218,1,191.999994140625,4|10,3:2|0:0,0:0:0:0:
221,314,96084,2,0,P|284:271|417:252,1,191.999994140625,0|0,3:0|3:0,0:0:0:0:
483,369,96558,1,10,0:0:0:0:
384,339,96716,1,0,0:0:0:0:
493,216,96874,6,0,P|502:161|492:111,1,95.9999970703126,0|0,3:0|0:0,0:0:0:0:
398,72,97189,1,10,0:0:0:0:
301,224,97347,2,0,P|294:176|303:129,1,95.9999970703126,0|0,3:0|0:0,0:0:0:0:
398,72,97663,2,0,L|402:16,2,47.9999985351563,8|8|8,0:0|0:0|0:0,0:0:0:0:
389,261,97979,5,12,0:0:0:0:
389,261,98295,2,0,L|320:258,1,47.9999985351563,8|8,0:0|0:0,0:0:0:0:
275,330,98453,2,0,L|206:327,1,47.9999985351563,8|8,0:0|0:0,0:0:0:0:
233,186,98611,5,10,0:3:0:0:
233,186,98926,1,10,0:3:0:0:
41,384,99242,6,0,B|69:341|69:341|53:145,1,240,14|0,0:0|3:0,0:0:0:0:
250,27,100032,2,0,L|237:216,1,160,10|0,0:0|0:0,0:0:0:0:
395,351,100663,6,0,L|383:258,1,80,0|10,3:0|0:0,0:0:0:0:
503,175,100979,2,0,L|492:254,1,80,0|0,3:0|3:0,0:0:0:0:
357,95,101295,1,10,0:0:0:0:
268,366,101611,1,10,0:0:0:0:
151,54,101926,6,0,B|247:43|211:130|320:127,1,160,4|0,3:2|3:0,0:0:0:0:
305,47,102400,1,0,3:0:0:0:
199,175,102558,2,0,B|103:164|139:251|30:248,1,160,10|0,0:0|3:0,0:0:0:0:
55,159,103032,1,8,0:3:0:0:
123,311,103189,1,14,0:0:0:0:
245,188,103347,6,0,P|254:139|245:97,1,80,0|10,3:0|0:0,0:0:0:0:
323,275,103663,2,0,P|314:324|323:366,1,80,0|10,3:0|0:0,0:0:0:0:
450,213,103979,1,0,3:0:0:0:
273,168,104137,5,4,0:3:0:0:
273,168,104216,1,8,0:3:0:0:
273,168,104295,2,0,L|211:161,1,40,4|4,0:3|0:3,0:0:0:0:
165,121,104453,5,10,0:3:0:0:
285,87,104611,1,10,0:3:0:0:
25,256,104926,5,10,0:3:0:0:
218,24,105242,1,10,0:3:0:0:
312,313,105558,1,14,0:3:0:0:
339,363,117084,6,0,P|402:337|497:328,2,143.999995605469,6|2|0,0:0|0:0|0:0,0:0:0:0:
130,347,118347,6,0,P|170:337|213:296,1,95.9999970703126,2|0,0:0|0:0,0:0:0:0:
201,206,118821,2,0,P|241:216|284:257,1,95.9999970703126,2|0,0:0|0:0,0:0:0:0:
287,334,119295,1,0,0:0:0:0:
490,217,119611,6,0,P|461:123|468:71,1,143.999995605469,2|2,0:0|0:0,0:0:0:0:
317,0,120400,2,0,P|319:71|292:137,1,143.999995605469,0|2,0:0|0:0,0:0:0:0:
291,137,121505,6,0,P|234:127|193:132,1,95.9999970703126,2|2,0:0|0:0,0:0:0:0:
56,100,122137,2,0,P|119:149|126:273,1,191.999994140625,2|0,0:0|0:0,0:0:0:0:
133,255,123084,2,0,L|198:244,1,47.9999985351563,0|0,0:0|0:0,0:0:0:0:
206,321,123400,6,0,L|49:307,2,143.999995605469,2|2|0,0:0|0:0|0:0,0:0:0:0:
317,281,124663,6,0,P|339:207|335:186,1,95.9999970703126,2|2,0:0|0:0,0:0:0:0:
263,100,125295,2,0,P|241:26|245:5,1,95.9999970703126,2|0,0:0|0:0,0:0:0:0:
414,122,125926,2,0,P|328:142|272:185,1,143.999995605469,2|0,0:0|0:0,0:0:0:0:
152,267,126716,2,0,L|144:209,2,47.9999985351563,0|2|8,0:0|0:0|0:3,0:0:0:0:
70,275,127189,6,0,P|124:303|168:352,1,128,4|2,3:2|0:3,0:0:0:0:
248,372,127663,2,0,P|292:365|313:347,1,64,0|2,0:0|0:3,0:0:0:0:
321,271,127979,2,0,P|381:278|446:324,1,128,0|0,0:0|3:0,0:0:0:0:
480,246,128453,2,0,L|457:95,1,128,0|2,3:0|0:3,0:0:0:0:
383,27,128926,2,0,L|363:153,1,128,0|0,0:0|0:0,0:0:0:0:
195,227,129558,5,0,3:0:0:0:
157,147,129716,2,0,B|121:137|121:137|18:149,1,128,0|2,3:0|0:3,0:0:0:0:
68,227,130189,2,0,B|104:237|104:237|207:225,2,128,0|0|0,0:0|0:0|3:0,0:0:0:0:
0,190,130979,6,0,P|31:257|27:334,1,128,0|0,3:0|0:0,0:0:0:0:
107,367,131453,2,0,P|117:341|146:306,1,64,2|0,0:3|0:0,0:0:0:0:
147,229,131768,2,0,P|170:235|219:328,1,128,2|8,0:3|0:3,0:0:0:0:
281,372,132163,5,8,0:3:0:0:
286,357,132242,1,4,3:2:0:0:
386,292,132558,2,0,P|390:252|373:157,1,128,0|0,3:0|3:0,0:0:0:0:
338,69,133032,6,0,P|371:83|424:90,1,64,0|0,0:0|3:0,0:0:0:0:
512,140,133347,2,0,P|480:146|451:159,1,64,0|0,0:0|3:0,0:0:0:0:
293,194,133663,5,8,0:0:0:0:
374,212,133821,1,0,3:0:0:0:
266,178,133979,1,8,0:0:0:0:
304,276,134137,2,0,P|341:254|399:241,1,71.9999978027344,0|8,3:0|0:0,0:0:0:0:
235,348,134453,2,0,P|201:336|170:317,1,71.9999978027344,8|8,0:0|0:0,0:0:0:0:
88,275,134689,5,8,0:0:0:0:
82,292,134768,2,0,P|78:220|42:159,1,143.999995605469,4|0,3:2|3:0,0:0:0:0:
23,37,135242,1,0,0:0:0:0:
103,91,135400,1,0,3:2:0:0:
15,131,135558,1,0,0:0:0:0:
156,175,135716,1,0,3:0:0:0:
0,142,135874,2,0,L|8:197,1,35.9999989013672,0|0,3:0|3:0,0:0:0:0:
71,269,136032,6,0,L|76:233,3,35.9999989013672,8|0|0|0,0:0|3:0|3:0|3:0,0:0:0:0:
156,175,136347,2,0,L|150:139,3,35.9999989013672,8|0|0|0,0:0|3:0|3:0|3:0,0:0:0:0:
226,79,136663,1,12,0:0:0:0:
377,334,137295,6,0,B|354:284|354:284|372:190,1,143.999995605469,6|0,3:2|3:0,0:0:0:0:
361,334,137926,2,0,B|338:284|338:284|356:190,1,143.999995605469,10|2,0:3|0:0,0:0:0:0:
354,196,138558,2,0,P|312:219|282:218,1,71.9999978027344,0|0,3:0|3:0,0:0:0:0:
358,96,138874,2,0,P|394:100|424:119,1,71.9999978027344,0|0,3:0|3:0,0:0:0:0:
243,143,139190,2,0,P|253:77|264:-24,1,143.999995605469,10|2,0:3|0:0,0:0:0:0:
162,107,139663,5,2,0:0:0:0:
162,107,139742,1,0,0:0:0:0:
162,107,139821,2,0,P|143:160|206:234,1,143.999995605469,2|2,3:2|3:2,0:0:0:0:
150,111,140453,2,0,P|131:164|194:238,1,143.999995605469,10|0,0:3|0:0,0:0:0:0:
177,233,141084,1,0,3:0:0:0:
273,196,141242,2,0,P|324:174|362:173,2,71.9999978027344,8|0|0,0:0|3:0|3:0,0:0:0:0:
264,363,141716,2,0,P|277:294|287:275,1,71.9999978027344,10|0,0:0|3:0,0:0:0:0:
339,172,142032,2,0,P|326:103|316:84,1,71.9999978027344,2|0,3:2|3:0,0:0:0:0:
195,0,142347,5,6,0:0:0:0:
195,0,144242,2,0,B|63:12,1,107.999996704102,2|0,0:0|0:0,0:0:0:0:
46,15,144558,2,0,L|54:65,1,40,8|8,0:3|0:3,0:0:0:0:
127,92,144716,2,0,L|135:142,1,40,0|0,3:0|3:0,0:0:0:0:
45,236,144874,5,14,0:0:0:0:
171,216,145032,1,10,0:0:0:0:
75,308,145190,1,10,0:0:0:0:
63,148,145347,1,10,0:0:0:0:
159,342,145505,2,0,L|161:303,1,40,10|8,0:0|0:0,0:0:0:0:
253,192,145663,2,0,L|255:135,1,40,0|0,3:0|3:0,0:0:0:0:
333,285,145821,5,0,3:0:0:0:
414,123,145979,1,10,0:0:0:0:
414,123,146295,5,10,0:0:0:0:
333,285,146453,1,10,0:0:0:0:
441,333,146611,1,0,3:0:0:0:
441,333,146689,1,0,3:0:0:0:
441,333,146768,6,0,L|374:317,3,40,6|0|0|8,0:1|0:0|3:0|0:0,0:0:0:0:
333,285,147084,2,0,L|294:294,1,40,8|8,0:0|0:0,0:0:0:0:
234,340,147242,2,0,L|195:331,1,40,8|8,0:0|0:0,0:0:0:0:
76,384,147400,6,0,L|75:180,1,191.999994140625,4|10,3:2|0:0,0:0:0:0:
17,75,147874,2,0,P|61:92|108:81,1,95.9999970703126,0|0,3:2|0:2,0:0:0:0:
193,177,148189,2,0,P|249:142|379:121,1,191.999994140625,0|8,3:0|0:0,0:0:0:0:
497,0,148663,6,0,L|482:118,1,95.9999970703126,0|0,3:0|0:0,0:0:0:0:
477,270,148979,1,10,0:0:0:0:
369,108,149137,2,0,P|274:119|190:164,1,191.999994140625,0|0,3:0|3:0,0:0:0:0:
76,182,149611,2,0,P|91:136|98:89,1,95.9999970703126,10|0,0:0|0:0,0:0:0:0:
126,296,149926,6,0,L|221:283,1,95.9999970703126,0|0,3:0|0:0,0:0:0:0:
319,216,150242,1,10,0:0:0:0:
409,367,150400,2,0,B|397:320|397:320|423:277,1,95.9999970703126,0|0,3:0|0:0,0:0:0:0:
305,120,150716,2,0,L|321:231,1,95.9999970703126,0|10,3:0|0:0,0:0:0:0:
404,75,151032,1,0,0:0:0:0:
212,68,151190,6,0,L|403:74,1,191.999994140625,0|10,3:0|0:0,0:0:0:0:
396,239,151663,2,0,L|204:232,1,191.999994140625,0|0,3:0|3:0,0:0:0:0:
62,92,152137,2,0,B|83:136|83:136|67:186,1,95.9999970703126,10|0,0:0|0:0,0:0:0:0:
57,289,152453,6,0,B|164:268|103:347|281:314,1,191.999994140625,4|10,3:2|0:0,0:0:0:0:
344,153,152926,2,0,P|331:197|337:251,1,95.9999970703126,0|0,3:0|0:0,0:0:0:0:
373,345,153242,1,0,3:0:0:0:
433,220,153400,1,10,0:0:0:0:
382,359,153558,1,0,0:0:0:0:
240,320,153716,6,0,P|226:204|191:96,1,191.999994140625,0|10,3:0|0:0,0:0:0:0:
42,197,154190,1,0,3:0:0:0:
42,197,154269,1,2,3:2:0:0:
42,197,154347,2,0,P|134:221|155:208,1,95.9999970703126,0|0,3:0|0:0,0:0:0:0:
191,8,154663,2,0,P|143:32|127:61,1,47.9999985351563,10|8,0:0|0:0,0:0:0:0:
69,0,154821,2,0,P|65:53|82:81,1,47.9999985351563,8|8,0:0|0:0,0:0:0:0:
118,115,154979,6,0,L|294:97,1,143.999995605469,0|0,3:0|0:0,0:0:0:0:
279,133,155295,2,0,L|422:119,1,143.999995605469,8|0,0:0|0:0,0:0:0:0:
452,133,155611,2,0,L|460:228,1,95.9999970703126,0|0,3:0|0:0,0:0:0:0:
345,101,155926,2,0,L|337:6,1,95.9999970703126,8|0,0:0|0:0,0:0:0:0:
237,188,156242,5,8,0:0:0:0:
185,83,156400,1,0,3:0:0:0:
185,83,156479,1,0,3:0:0:0:
185,83,156558,1,8,3:2:0:0:
98,182,156716,1,0,3:0:0:0:
98,182,156795,1,0,3:0:0:0:
98,182,156874,2,0,L|88:240,1,47.9999985351563,8|8,0:0|0:0,0:0:0:0:
11,283,157032,2,0,L|19:331,1,47.9999985351563,8|8,0:0|0:0,0:0:0:0:
95,382,157190,2,0,L|143:373,3,47.9999985351563,8|8|8|8,0:0|0:0|0:0|0:0,0:0:0:0:
196,302,157505,6,0,L|339:317,1,143.999995605469,0|4,3:0|0:3,0:0:0:0:
370,322,157821,2,0,B|345:288|345:288|365:219,1,95.9999970703126,4|0,3:2|3:0,0:0:0:0:
435,148,158137,1,8,0:0:0:0:
338,48,158295,2,0,L|290:53,5,47.9999985351563,0|0|0|8|4|4,3:0|3:0|3:0|0:3|0:3|0:3,0:0:0:0:
255,63,158768,6,0,P|167:31|89:80,1,191.999994140625,4|10,3:2|0:0,0:0:0:0:
100,210,159242,2,0,P|187:241|265:192,1,191.999994140625,0|0,3:0|3:0,0:0:0:0:
407,136,159716,2,0,P|392:210|389:241,1,95.9999970703126,10|0,0:0|0:0,0:0:0:0:
226,367,160032,6,0,P|219:319|208:272,1,95.9999970703126,0|0,3:0|0:0,0:0:0:0:
168,137,160347,1,10,0:0:0:0:
114,270,160505,2,0,P|162:263|209:272,1,95.9999970703126,0|0,3:0|0:0,0:0:0:0:
272,175,160821,2,0,L|276:119,2,47.9999985351563,8|8|8,0:0|0:0|0:0,0:0:0:0:
359,284,161137,5,12,0:0:0:0:
359,284,161453,2,0,L|406:281,1,47.9999985351563,8|8,0:0|0:0,0:0:0:0:
462,346,161611,2,0,L|509:343,1,47.9999985351563,8|8,0:0|0:0,0:0:0:0:
495,163,161769,5,10,0:3:0:0:
495,163,162084,1,10,0:3:0:0:
244,384,162400,6,0,B|272:341|272:341|256:145,1,240,14|0,0:0|3:0,0:0:0:0:
150,6,163190,2,0,L|137:195,1,160,10|0,0:0|0:0,0:0:0:0:
347,276,163821,6,0,L|335:183,1,80,0|10,3:0|0:0,0:0:0:0:
414,147,164137,2,0,L|425:68,1,80,0|0,3:0|3:0,0:0:0:0:
354,37,164453,1,10,0:0:0:0:
471,277,164769,1,10,0:0:0:0:
235,331,165084,6,0,B|138:333|180:278|88:277,1,160,4|0,3:2|3:0,0:0:0:0:
13,311,165558,1,0,3:0:0:0:
237,318,165716,2,0,B|140:320|182:265|90:264,1,160,10|0,0:0|3:0,0:0:0:0:
23,204,166190,1,8,0:3:0:0:
97,346,166347,1,14,0:0:0:0:
182,194,166505,6,0,P|191:145|182:103,1,80,0|10,3:0|0:0,0:0:0:0:
308,287,166821,2,0,P|299:336|308:378,1,80,0|10,3:0|0:0,0:0:0:0:
450,213,167137,1,0,3:0:0:0:
332,119,167295,5,4,0:3:0:0:
332,119,167374,1,8,0:3:0:0:
332,119,167453,2,0,L|270:112,1,40,4|4,0:3|0:3,0:0:0:0:
215,126,167611,5,10,0:3:0:0:
242,41,167769,1,10,0:3:0:0:
154,232,168084,5,10,0:3:0:0:
341,23,168400,1,10,0:3:0:0:
134,241,168716,1,14,0:3:0:0:
134,241,169663,6,0,L|194:242,5,40,0|0|8|8|4|0,3:0|3:0|0:0|0:3|0:3|3:0,0:0:0:0:
210,268,170137,6,0,L|390:251,1,160,12|0,0:0|3:0,0:0:0:0:
351,140,170611,2,0,L|191:155,1,160,8|0,0:0|3:0,0:0:0:0:
211,285,171084,6,0,L|391:268,1,160,8|8,0:0|0:0,0:0:0:0:
351,124,171558,2,0,L|344:70,2,40,8|8|8,0:0|0:3|0:3,0:0:0:0:
370,269,171874,1,4,0:3:0:0:
493,203,172032,2,0,L|500:153,3,40,0|0|0|0,3:0|3:0|3:0|3:0,0:0:0:0:
477,145,172347,2,0,L|470:95,3,40,10|10|10|10,0:0|0:0|0:0|0:0,0:0:0:0:
456,60,172663,6,0,P|392:87|333:72,1,120,4|0,3:2|0:0,0:0:0:0:
319,56,172979,2,0,P|279:35|220:48,1,80,8|0,0:0|0:0,0:0:0:0:
137,95,173295,2,0,P|165:156|175:216,1,120,2|2,3:2|3:2,0:0:0:0:
165,241,173611,2,0,P|139:302|141:314,1,80,0|2,0:0|3:2,0:0:0:0:
88,384,173926,6,0,L|-3:385,1,80,0|0,3:0|3:0,0:0:0:0:
216,300,174242,2,0,L|307:301,1,80,8|0,0:0|0:0,0:0:0:0:
45,260,174558,2,0,P|71:224|65:145,1,120,4|0,0:3|3:0,0:0:0:0:
44,130,174874,2,0,L|39:81,1,40,8|8,0:0|0:0,0:0:0:0:
108,40,175032,2,0,L|103:-9,1,40,8|8,0:0|0:0,0:0:0:0:
182,91,175189,6,0,L|328:74,1,120,4|0,3:0|0:0,0:0:0:0:
357,21,175505,1,8,0:0:0:0:
371,24,175584,1,8,0:0:0:0:
384,28,175663,1,14,0:3:0:0:
384,28,175979,1,10,0:3:0:0:
384,28,176295,6,0,B|397:82|397:82|388:198,1,160,4|0,3:2|3:0,0:0:0:0:
383,330,176768,2,0,L|430:324,3,40,8|8|8|8,0:0|0:0|0:0|0:0,0:0:0:0:
462,322,177084,2,0,L|469:230,1,80,0|0,3:0|3:0,0:0:0:0:
387,185,177400,2,0,L|380:93,1,80,14|2,0:0|3:2,0:0:0:0:
285,227,177716,6,0,P|246:217|206:211,1,80,4|0,3:2|0:0,0:0:0:0:
186,58,178032,2,0,P|147:68|108:74,1,80,10|0,0:3|0:0,0:0:0:0:
35,147,178347,1,2,3:3:0:0:
2,63,178505,1,0,3:0:0:0:
119,165,178663,6,0,L|131:261,2,80,10|0|2,0:3|0:0|3:3,0:0:0:0:
204,111,179137,1,0,3:0:0:0:
228,248,179295,2,0,L|307:238,1,80,10|0,0:3|0:0,0:0:0:0:
386,133,179611,1,10,0:3:0:0:
276,86,179768,2,0,L|275:39,1,40,0|0,3:0|3:0,0:0:0:0:
371,11,179926,2,0,L|372:51,3,40,8|8|8|8,0:0|0:0|0:0|0:0,0:0:0:0:
377,93,180242,6,0,P|428:57|526:69,1,160,4|8,3:2|0:0,0:0:0:0:
444,269,180716,2,0,P|399:251|354:248,1,80,4|0,3:2|0:0,0:0:0:0:
296,182,181032,2,0,P|251:200|206:203,1,80,0|8,3:0|0:0,0:0:0:0:
187,205,181268,1,8,0:0:0:0:
187,205,181347,6,0,L|172:116,1,80,4|0,3:2|0:0,0:0:0:0:
64,57,181663,1,8,0:0:0:0:
21,226,181821,2,0,P|68:206|96:204,1,80,8|8,0:0|0:3,0:0:0:0:
192,291,182137,2,0,L|239:285,2,40,8|8|8,0:0|0:0|0:0,0:0:0:0:
263,190,182453,2,0,L|302:195,3,40,8|8|8|8,0:0|0:0|0:0|0:0,0:0:0:0:
339,205,182768,6,0,P|308:127|348:37,1,160,6|8,3:2|0:0,0:0:0:0:
401,8,183242,1,2,0:0:0:0:
319,48,183400,2,0,P|274:38|240:29,1,80,2|0,3:2|3:0,0:0:0:0:
406,129,183716,2,0,P|451:120|491:114,1,80,10|0,0:3|0:0,0:0:0:0:
353,214,184032,5,2,3:3:0:0:
240,169,184189,1,0,3:0:0:0:
251,313,184347,1,10,0:3:0:0:
251,313,184663,2,0,P|206:307|161:302,1,80,2|0,3:2|0:0,0:0:0:0:
306,376,184979,2,0,P|350:369|394:364,1,80,10|0,0:0|0:0,0:0:0:0:
481,309,185295,6,0,L|466:145,1,160,6|8,3:2|0:0,0:0:0:0:
450,52,185768,1,2,0:0:0:0:
387,192,185926,2,0,P|351:217|313:218,1,80,2|0,3:2|3:0,0:0:0:0:
278,192,186163,1,0,3:0:0:0:
278,192,186242,2,0,P|240:167|203:167,1,80,8|0,0:0|0:0,0:0:0:0:
101,250,186558,6,0,L|114:84,1,160,6|0,3:2|3:0,0:0:0:0:
214,23,187032,1,10,0:0:0:0:
214,23,187111,1,8,0:0:0:0:
214,23,187189,2,0,L|220:86,3,40,10|8|8|8,0:0|0:0|0:3|0:3,0:0:0:0:
247,126,187505,2,0,L|241:189,3,40,4|4|0|0,0:3|0:3|3:0|3:0,0:0:0:0:
248,217,187821,6,0,L|332:204,1,80,6|0,3:2|0:0,0:0:0:0:
453,129,188137,2,0,L|373:116,1,80,10|0,0:0|0:0,0:0:0:0:
212,247,188453,2,0,L|391:219,1,160,2|10,3:2|0:0,0:0:0:0:
370,222,189084,6,0,P|348:160|386:79,2,160,2|10|2,3:2|0:0|3:2,0:0:0:0:
400,349,189874,2,0,L|444:346,5,40,8|8|4|4|0|0,0:3|0:3|0:3|0:3|3:0|3:0,0:0:0:0:
477,341,190347,5,14,0:3:0:0:
360,262,190505,1,0,3:0:0:0:
336,279,190663,1,0,3:0:0:0:
480,227,190821,5,10,0:3:0:0:
363,148,190979,1,0,3:0:0:0:
339,165,191137,1,0,3:0:0:0:
505,67,191295,6,0,P|465:73|420:109,1,80,10|0,0:3|3:0,0:0:0:0:
279,212,191611,2,0,P|283:136|265:75,1,120,10|0,0:0|0:0,0:0:0:0:
263,47,191926,2,0,P|296:68|335:74,1,80,2|0,3:2|3:0,0:0:0:0:
455,22,192242,5,10,0:3:0:0:
436,118,192400,1,8,0:0:0:0:
429,11,192558,5,10,0:3:0:0:
460,135,192716,1,8,0:0:0:0:
350,0,192874,5,6,0:0:0:0:
135,50,202979,6,0,B|158:100|158:100|140:194,1,143.999995605469,6|0,3:2|3:0,0:0:0:0:
151,50,203610,2,0,B|174:100|174:100|156:194,1,143.999995605469,10|2,0:3|0:0,0:0:0:0:
158,188,204242,2,0,P|200:165|230:166,1,71.9999978027344,0|0,3:0|3:0,0:0:0:0:
154,288,204558,2,0,P|118:284|88:265,1,71.9999978027344,0|0,3:0|3:0,0:0:0:0:
269,241,204874,2,0,P|259:307|248:408,1,143.999995605469,10|2,0:3|0:0,0:0:0:0:
350,277,205347,5,2,0:0:0:0:
350,277,205426,1,0,0:0:0:0:
350,277,205505,2,0,P|369:224|306:150,1,143.999995605469,2|2,3:2|3:2,0:0:0:0:
362,273,206137,2,0,P|381:220|318:146,1,143.999995605469,10|0,0:3|0:0,0:0:0:0:
335,151,206768,1,0,3:0:0:0:
239,188,206926,2,0,P|188:210|150:211,2,71.9999978027344,8|0|0,0:0|3:0|3:0,0:0:0:0:
248,21,207400,2,0,P|235:90|225:109,1,71.9999978027344,10|0,0:0|3:0,0:0:0:0:
173,212,207716,2,0,P|186:281|196:300,1,71.9999978027344,2|0,3:2|3:0,0:0:0:0:
317,384,208031,5,6,0:0:0:0:
317,384,209926,2,0,B|449:372,1,107.999996704102,2|0,0:0|0:0,0:0:0:0:
466,369,210242,2,0,L|458:319,1,40,8|8,0:3|0:3,0:0:0:0:
371,282,210400,2,0,L|363:232,1,40,0|0,3:0|3:0,0:0:0:0:
462,113,210558,5,14,0:0:0:0:
324,157,210716,1,10,0:0:0:0:
422,39,210874,1,10,0:0:0:0:
450,215,211031,1,10,0:0:0:0:
304,135,211189,2,0,L|306:96,1,40,10|8,0:0|0:0,0:0:0:0:
204,200,211347,2,0,L|202:257,1,40,0|0,3:0|3:0,0:0:0:0:
157,123,211505,5,0,3:0:0:0:
97,343,211663,1,10,0:0:0:0:
97,343,211979,5,10,0:0:0:0:
7,190,212137,2,0,L|16:151,3,40,8|8|8|8,0:0|0:0|0:0|0:0,0:0:0:0:
50,129,212453,2,0,L|59:90,4,40,8|8|8|8|0,0:0|0:0|0:0|0:0|3:0,0:0:0:0:
223,239,212926,5,14,0:0:0:0:
223,239,213242,1,10,0:0:0:0:
194,9,213400,1,10,0:0:0:0:
194,9,214032,6,0,L|191:79,1,44.0000013427735,8|8,0:0|0:0,0:0:0:0:
270,142,214189,2,0,L|271:98,1,44.0000013427735,8|8,0:0|0:0,0:0:0:0:
125,189,214347,6,0,B|232:171|186:273|333:232,1,191.999994140625,4|10,3:2|0:0,0:0:0:0:
445,201,214821,2,0,P|434:258|431:307,1,95.9999970703126,0|0,3:0|0:0,0:0:0:0:
287,144,215137,2,0,P|298:201|301:250,1,95.9999970703126,0|10,3:0|0:0,0:0:0:0:
441,58,215453,1,0,0:0:0:0:
212,65,215611,6,0,P|258:33|374:60,1,143.999995605469,0|0,3:0|0:0,0:0:0:0:
366,55,215926,1,10,0:0:0:0:
296,222,216084,2,0,B|184:220|237:156|103:173,1,191.999994140625,0|0,3:0|3:0,0:0:0:0:
77,355,216558,2,0,P|106:315|75:260,1,95.9999970703126,10|0,0:0|0:0,0:0:0:0:
42,68,216874,6,0,P|13:108|44:163,1,95.9999970703126,0|0,3:0|0:0,0:0:0:0:
166,36,217189,1,10,0:0:0:0:
222,207,217347,2,0,P|241:141|198:78,1,143.999995605469,2|0,3:2|0:0,0:0:0:0:
166,36,217663,2,0,P|232:55|295:12,1,143.999995605469,2|0,3:2|0:0,0:0:0:0:
315,0,217979,1,8,0:0:0:0:
405,196,218137,6,0,B|390:150|390:150|416:3,1,191.999994140625,0|10,3:2|0:0,0:0:0:0:
493,135,218611,2,0,B|508:181|508:181|482:328,1,191.999994140625,0|0,3:2|3:0,0:0:0:0:
397,362,219084,2,0,P|361:333|309:337,1,95.9999970703126,10|8,0:2|0:0,0:0:0:0:
292,351,219321,1,8,0:0:0:0:
290,353,219400,6,0,B|300:271|300:271|279:246|279:246|287:142,1,191.999994140625,0|10,3:0|0:0,0:0:0:0:
129,63,219874,2,0,L|143:198,1,95.9999970703126,0|0,3:0|0:0,0:0:0:0:
84,271,220189,1,0,3:0:0:0:
25,179,220347,1,10,0:0:0:0:
182,280,220505,6,0,P|181:182|255:79,1,191.999994140625,0|0,3:0|3:0,0:0:0:0:
365,72,220979,1,10,0:0:0:0:
195,0,221137,2,0,B|299:10|250:84|385:71,1,191.999994140625,0|0,3:0|3:0,0:0:0:0:
483,185,221611,2,0,P|450:174|411:176,1,47.9999985351563,10|8,0:0|0:0,0:0:0:0:
387,262,221768,2,0,P|354:273|315:271,1,47.9999985351563,8|8,0:0|0:0,0:0:0:0:
247,200,221926,6,0,P|213:285|241:348,1,143.999995605469,0|0,3:0|0:0,0:0:0:0:
254,364,222242,2,0,L|130:357,1,95.9999970703126,8|0,0:0|0:0,0:0:0:0:
21,260,222558,2,0,L|116:254,1,95.9999970703126,0|0,3:0|0:0,0:0:0:0:
220,154,222874,2,0,L|230:89,1,47.9999985351563,8|0,0:0|0:0,0:0:0:0:
152,28,223032,5,0,3:0:0:0:
152,28,223111,1,0,3:0:0:0:
152,28,223189,2,0,L|260:15,1,95.9999970703126,8|0,3:2|3:0,0:0:0:0:
276,33,223426,1,0,3:0:0:0:
276,33,223505,2,0,L|333:29,3,47.9999985351563,8|0|0|0,3:2|3:0|3:0|3:0,0:0:0:0:
363,60,223821,2,0,L|420:56,3,47.9999985351563,8|8|8|8,0:0|0:0|0:0|0:0,0:0:0:0:
449,53,224137,2,0,L|445:130,1,47.9999985351563,8|8,0:0|0:0,0:0:0:0:
503,192,224295,2,0,L|499:269,1,47.9999985351563,8|8,0:0|0:0,0:0:0:0:
401,300,224453,6,0,L|348:294,3,47.9999985351563,0|8|4|4,3:0|0:3|0:3|0:3,0:0:0:0:
319,326,224768,1,4,3:2:0:0:
319,326,225084,2,0,P|273:309|185:305,1,95.9999970703126,8|0,0:2|0:0,0:0:0:0:
182,186,225400,2,0,P|136:203|48:207,1,95.9999970703126,8|0,0:0|0:0,0:0:0:0:
112,37,225716,6,0,L|307:26,1,191.999994140625,4|10,3:2|0:0,0:0:0:0:
416,189,226189,2,0,P|355:140|243:174,1,191.999994140625,0|0,3:0|3:0,0:0:0:0:
178,338,226663,2,0,P|185:286|181:237,1,95.9999970703126,10|0,0:0|0:0,0:0:0:0:
61,60,226979,6,0,P|59:108|66:156,1,95.9999970703126,0|0,3:0|0:0,0:0:0:0:
181,242,227295,1,10,0:0:0:0:
47,369,227453,1,0,3:0:0:0:
56,353,227532,1,0,3:0:0:0:
65,340,227611,2,0,L|122:339,1,47.9999985351563,8|0,0:0|0:0,0:0:0:0:
202,365,227768,5,8,0:0:0:0:
248,375,227846,1,8,0:0:0:0:
291,358,227925,1,8,0:0:0:0:
317,318,228004,1,8,0:0:0:0:
316,271,228084,1,12,0:0:0:0:
316,271,228400,6,0,L|322:204,1,47.9999985351563,8|8,0:0|0:0,0:0:0:0:
414,167,228558,2,0,L|420:100,1,47.9999985351563,8|8,0:0|0:0,0:0:0:0:
327,12,228716,5,10,0:3:0:0:
472,275,229032,1,10,0:3:0:0:
183,316,229347,6,0,L|163:64,1,240,14|0,0:0|3:0,0:0:0:0:
174,75,230137,2,0,L|192:314,1,240,8|0,0:0|3:0,0:0:0:0:
202,358,230689,1,0,3:0:0:0:
202,358,230768,1,0,3:0:0:0:
285,294,230926,1,8,0:0:0:0:
386,368,231084,2,0,L|389:323,3,40,0|0|0|0,3:0|3:0|3:0|3:0,0:0:0:0:
423,299,231400,2,0,L|426:254,3,40,8|8|8|4,0:0|0:3|0:3|0:3,0:0:0:0:
459,217,231716,1,0,3:0:0:0:
288,93,232032,6,0,B|182:81|233:140|110:132,1,160,4|0,3:2|3:0,0:0:0:0:
75,66,232505,1,0,3:0:0:0:
137,139,232663,2,0,B|237:142|189:91|288:101,1,160,8|0,0:0|3:0,0:0:0:0:
304,108,233058,1,0,3:0:0:0:
321,113,233137,2,0,L|331:45,1,40,8|8,0:3|0:3,0:0:0:0:
433,16,233295,5,14,0:0:0:0:
412,165,233453,1,0,3:0:0:0:
355,0,233611,5,10,0:0:0:0:
414,196,233768,1,0,3:0:0:0:
512,2,233926,5,10,0:0:0:0:
412,231,234084,1,0,3:0:0:0:
252,13,234242,5,10,0:0:0:0:
269,48,234320,1,8,0:3:0:0:
282,86,234399,1,4,0:3:0:0:
288,126,234478,1,4,0:3:0:0:
286,160,234558,1,10,0:0:0:0:
151,285,234716,6,0,L|156:220,3,40,8|8|4|4,0:3|0:3|0:3|0:3,0:0:0:0:
129,319,235032,2,0,L|60:318,1,40,10|0,3:2|3:0,0:0:0:0:
33,244,235189,1,0,3:0:0:0:
35,204,235267,1,0,3:0:0:0:
38,164,235346,1,10,3:2:0:0:
41,124,235425,1,0,3:0:0:0:
44,84,235504,1,0,3:0:0:0:
193,32,235663,1,14,0:0:0:0:
313,351,235979,6,0,P|332:274|354:246,1,80,10|0,0:0|3:0,0:0:0:0:
411,222,236295,1,10,0:0:0:0:
314,141,236453,2,0,L|245:147,1,40,8|0,0:0|0:0,0:0:0:0:
212,208,236611,1,0,3:0:0:0:
208,218,236689,1,0,3:0:0:0:
203,226,236768,2,0,L|134:232,1,40,8|8,0:0|0:0,0:0:0:0:
100,178,236926,2,0,L|31:184,1,40,4|4,0:3|0:3,0:0:0:0:
58,355,237084,5,6,0:3:0:0:
214,305,237242,2,0,P|203:264|206:210,1,80,10|0,0:3|0:0,0:0:0:0:
319,366,237558,5,10,0:3:0:0:
338,62,237874,1,10,0:3:0:0:
65,198,238189,1,14,0:3:0:0:
256,192,238347,12,0,240558,0:0:0:0:
125,296,240874,6,0,P|179:276|232:270,1,95.9999970703126,6|0,3:2|0:0,0:0:0:0:
263,175,241189,2,0,P|317:195|370:201,1,95.9999970703126,8|0,3:2|0:0,0:0:0:0:
129,315,241505,6,0,P|183:295|236:289,1,95.9999970703126,2|0,3:2|0:2,0:0:0:0:
267,194,241821,2,0,P|321:214|374:220,1,95.9999970703126,8|2,3:2|3:2,0:0:0:0:
389,218,242058,1,0,3:0:0:0:
409,209,242137,6,2,L|402:104,1,95.9999970703126,2|2,3:2|0:2,0:0:0:0:
492,265,242453,2,0,L|498:360,1,95.9999970703126,8|0,3:2|0:0,0:0:0:0:
395,214,242768,6,0,L|388:109,1,95.9999970703126,2|0,3:2|0:2,0:0:0:0:
478,270,243084,2,0,L|484:365,1,95.9999970703126,8|0,3:2|0:2,0:0:0:0:
301,380,243400,6,0,B|275:333|275:333|291:240,1,143.999995605469,2|0,3:2|3:0,0:0:0:0:
279,224,243716,2,0,L|166:236,1,95.9999970703126,8|0,3:2|0:0,0:0:0:0:
98,320,244032,1,2,3:2:0:0:
58,194,244189,1,2,3:2:0:0:
101,338,244347,2,0,L|196:327,1,95.9999970703126,8|8,3:2|0:2,0:0:0:0:
217,330,244584,1,8,0:2:0:0:
245,334,244663,6,0,L|248:277,3,47.9999985351563,14|0|0|0,0:2|3:0|3:0|3:0,0:0:0:0:
285,253,244979,2,0,L|282:196,3,47.9999985351563,10|0|0|0,0:0|3:0|3:0|3:0,0:0:0:0:
280,166,245295,2,0,P|332:179|381:158,1,95.9999970703126,10|0,0:0|3:0,0:0:0:0:
366,37,245611,2,0,P|314:24|265:45,1,95.9999970703126,10|8,0:0|0:0,0:0:0:0:
258,64,245847,1,8,0:0:0:0:
258,64,245926,5,6,3:2:0:0:
159,53,246084,1,0,0:0:0:0:
60,47,246242,2,0,L|75:144,1,95.9999970703126,8|0,0:0|0:0,0:0:0:0:
164,239,246558,2,0,L|178:144,1,95.9999970703126,0|0,3:0|3:0,0:0:0:0:
59,238,246874,2,0,L|73:332,1,95.9999970703126,8|8,0:0|0:0,0:0:0:0:
78,348,247111,1,8,0:0:0:0:
83,362,247189,6,0,P|139:328|186:324,1,95.9999970703126,2|0,3:2|3:0,0:0:0:0:
218,251,247505,2,0,P|275:282|302:321,1,95.9999970703126,8|0,0:0|0:0,0:0:0:0:
405,360,247821,2,0,L|414:178,1,143.999995605469,14|0,0:0|0:0,0:0:0:0:
412,216,248137,2,0,P|463:229|505:208,1,95.9999970703126,14|0,0:0|0:0,0:0:0:0:
510,202,248374,1,0,0:0:0:0:
512,185,248453,1,0,3:2:0:0:
379,298,248611,5,0,3:2:0:0:
354,130,248768,1,14,0:0:0:0:
354,130,249084,2,0,L|298:120,3,47.9999985351563,2|2|2|2,3:2|3:2|3:2|3:2,0:0:0:0:
266,100,249400,2,0,L|218:108,3,47.9999985351563,10|10|10|10,0:0|0:0|0:0|0:0,0:0:0:0:
167,120,249716,6,0,L|177:9,1,95.9999970703126,6|0,3:2|3:0,0:0:0:0:
65,178,250032,2,0,L|70:250,3,47.9999985351563,8|8|10|8,0:0|0:0|0:0|0:0,0:0:0:0:
113,247,250347,2,0,L|108:319,3,47.9999985351563,2|0|0|0,3:2|3:0|3:0|3:0,0:0:0:0:
99,339,250663,2,0,L|146:332,1,47.9999985351563,8|8,0:0|0:0,0:0:0:0:
224,364,250821,2,0,L|271:357,1,47.9999985351563,8|8,0:0|0:0,0:0:0:0:
374,362,250980,6,0,P|354:308|348:255,1,95.9999970703126,6|0,3:2|0:0,0:0:0:0:
253,224,251296,2,0,P|273:170|279:117,1,95.9999970703126,10|0,0:3|0:0,0:0:0:0:
393,358,251611,6,0,P|373:304|367:251,1,95.9999970703126,0|0,3:0|3:0,0:0:0:0:
272,220,251927,2,0,P|292:166|298:113,1,95.9999970703126,10|8,0:3|0:0,0:0:0:0:
296,98,252164,1,8,0:0:0:0:
287,78,252243,6,0,L|182:85,1,95.9999970703126,2|0,3:2|0:0,0:0:0:0:
71,28,252559,2,0,L|77:123,1,95.9999970703126,10|0,0:3|0:0,0:0:0:0:
148,182,252875,6,0,L|155:287,1,95.9999970703126,2|0,3:2|3:0,0:0:0:0:
60,135,253190,2,0,L|53:39,1,95.9999970703126,10|0,0:3|0:0,0:0:0:0:
244,22,253506,6,0,B|270:69|270:69|254:162,1,143.999995605469,2|0,3:2|0:0,0:0:0:0:
274,184,253822,2,0,L|387:172,1,95.9999970703126,10|0,0:3|0:0,0:0:0:0:
414,64,254138,1,0,3:3:0:0:
454,190,254296,1,0,3:0:0:0:
411,46,254454,2,0,L|315:56,1,95.9999970703126,10|8,0:3|0:0,0:0:0:0:
295,54,254690,1,8,0:0:0:0:
274,56,254768,6,0,L|293:187,1,95.9999970703126,6|0,3:2|0:0,0:0:0:0:
365,195,255084,2,0,L|384:326,1,95.9999970703126,10|0,0:0|0:0,0:0:0:0:
317,358,255400,1,6,3:2:0:0:
214,355,255558,1,0,3:3:0:0:
116,350,255716,2,0,P|102:296|131:236,1,95.9999970703126,10|0,0:0|0:0,0:0:0:0:
183,147,256032,6,0,L|81:137,1,95.9999970703126,6|0,3:2|0:0,0:0:0:0:
185,138,256347,2,0,L|83:128,1,95.9999970703126,0|2,3:0|0:0,0:0:0:0:
184,129,256663,2,0,L|82:119,1,95.9999970703126,2|0,3:2|0:0,0:0:0:0:
188,120,256979,2,0,L|86:110,1,95.9999970703126,0|8,3:0|0:0,0:0:0:0:
284,143,257295,6,0,L|386:133,1,95.9999970703126,2|8,3:2|0:0,0:0:0:0:
282,134,257610,2,0,L|384:124,1,95.9999970703126,0|8,3:0|0:0,0:0:0:0:
283,125,257926,2,0,L|385:115,1,95.9999970703126,2|8,3:2|0:0,0:0:0:0:
279,116,258242,2,0,L|381:106,1,95.9999970703126,2|8,3:2|0:0,0:0:0:0:
477,58,258558,5,6,3:2:0:0:
474,160,258716,1,8,0:0:0:0:
469,269,258874,1,8,0:0:0:0:
463,368,259032,1,0,0:0:0:0:
334,248,259189,5,0,3:0:0:0:
469,269,259347,1,8,0:0:0:0:
383,329,259505,1,0,3:0:0:0:
416,192,259663,1,8,0:0:0:0:
264,351,259821,6,0,L|239:224,1,95.9999970703126,6|8,3:2|0:0,0:0:0:0:
102,219,260137,2,0,L|121:125,1,95.9999970703126,0|8,3:0|0:0,0:0:0:0:
69,341,260453,5,10,0:0:0:0:
21,164,260611,1,10,0:0:0:0:
83,337,260768,5,10,0:0:0:0:
35,160,260926,1,10,0:0:0:0:
256,192,261084,12,0,266137,0:0:0:0:
