osu file format v14

[General]
AudioFilename: audio.mp3
AudioLeadIn: 0
PreviewTime: 83729
Countdown: 0
SampleSet: Soft
StackLeniency: 0.7
Mode: 0
LetterboxInBreaks: 0
WidescreenStoryboard: 1

[Editor]
Bookmarks: 53886,202939
DistanceSpacing: 1.4
BeatDivisor: 4
GridSize: 32
TimelineZoom: 1.5

[Metadata]
Title:Chikyuu Saigo no Kokuhaku o
TitleUnicode:地球最後の告白を
Artist:yuikonnu
ArtistUnicode:ゆいこんぬ
Creator:Toyosaki Aki
Version:Asami's Hard
Source:
Tags:toooooon enjoy momochy reillia curi [c_u_r_i] lukas [_l_u_k_a_s_] nanashima asami narcissu hatsuko ke-sanβ suzumu kemu voxx vocaloid megpoid gumi nico douga sound voltex jrock japanese 歌ってみた
BeatmapID:1986300
BeatmapSetID:880938

[Difficulty]
HPDrainRate:4.5
CircleSize:4
OverallDifficulty:6
ApproachRate:8
SliderMultiplier:1.4
SliderTickRate:1

[Events]
//Background and Video events
0,0,"33703665_p0.png",0,0
//Break Periods
2,79389,80808
2,107179,116334
2,142547,143808
2,193074,202229
2,208232,209492
//Storyboard Layer 0 (Background)
//Storyboard Layer 1 (Fail)
//Storyboard Layer 2 (Pass)
//Storyboard Layer 3 (Foreground)
//Storyboard Layer 4 (Overlay)
//Storyboard Sound Samples

[TimingPoints]
19931,441.176470588235,4,2,1,60,1,0
23296,315.789473684211,4,2,1,60,1,0
23611,315.789473684211,4,2,1,60,1,0
23611,-100,4,2,1,60,0,0
33716,-125,4,2,1,40,0,0
52663,-111.111111111111,4,2,1,40,0,0
53926,-111.111111111111,4,2,1,60,0,0
81716,-100,4,2,1,60,0,0
83926,-111.111111111111,4,2,1,60,0,0
84242,-100,4,2,1,70,0,1
99242,-105.263157894737,4,2,1,60,0,1
106979,-105.263157894737,4,2,1,60,0,0
117084,-125,4,2,3,40,0,0
127189,-125,4,2,1,50,0,0
133505,-111.111111111111,4,2,1,55,0,0
144558,-100,4,2,1,60,0,0
147400,-100,4,2,1,70,0,1
162400,-111.111111111111,4,2,1,60,0,1
170137,-100,4,2,1,60,0,0
202979,-111.111111111111,4,2,1,60,0,0
210558,-99.9999999999999,4,2,1,60,0,0
214347,-99.9999999999999,4,2,1,70,0,1
229347,-111.111111111111,4,2,1,60,0,1
238189,-111.111111111111,4,2,1,60,0,0
240874,-100,4,2,1,60,0,1
261084,-100,4,2,1,20,0,0

[Colours]
Combo1 : 226,94,5
Combo2 : 66,66,134
SliderBorder : 255,235,255
SliderTrackOverride : 0,15,10

[HitObjects]
133,104,23453,5,8,2:0:0:0:
133,104,23532,1,8,2:0:0:0:
133,104,23611,2,0,P|202:87|286:70,1,140,6|2,2:0|2:0,2:0:0:0:
363,212,24242,2,0,P|316:171|237:181,1,140,2|2,2:0|2:0,2:0:0:0:
178,232,24716,1,0,2:0:0:0:
178,232,24795,1,0,2:0:0:0:
178,232,24874,6,0,P|190:304|201:384,1,140,2|2,2:0|2:0,2:0:0:0:
277,340,25347,2,0,B|319:341|359:358|359:358|384:340|357:293,1,140,8|8,2:0|2:3,2:0:0:0:
439,267,25821,1,4,2:3:0:0:
392,199,25979,1,8,2:0:0:0:
392,199,26058,1,8,2:0:0:0:
392,199,26137,6,0,P|396:125|405:47,1,140,14|0,2:0|2:0,2:0:0:0:
322,34,26611,2,0,L|309:-18,2,35,8|8|8,2:0|2:0|2:0,2:0:0:0:
249,76,26926,2,0,P|215:69|166:61,1,70,8|8,2:0|2:0,2:0:0:0:
170,61,27163,1,8,2:0:0:0:
160,60,27242,5,0,2:0:0:0:
37,174,27558,2,0,B|81:160|81:160|129:187|188:184,1,140,2|2,2:0|2:0,2:0:0:0:
330,226,28189,2,0,P|342:171|284:164,1,105,4|0,2:3|2:0,2:0:0:0:
307,157,28505,6,0,P|300:229|292:323,1,140,6|2,2:0|2:0,2:0:0:0:
238,359,28979,2,0,P|194:365|162:340,1,70,8|0,2:0|2:0,2:0:0:0:
122,285,29295,2,0,L|39:300,1,70,2|0,2:0|2:0,2:0:0:0:
1,235,29611,2,0,P|-17:190|18:131,1,105,8|0,2:0|2:0,2:0:0:0:
4,129,29926,6,0,L|154:150,1,140,2|8,2:0|2:0,2:0:0:0:
310,135,30558,2,0,P|326:102|311:63,1,70,4|0,2:3|2:0,2:0:0:0:
236,46,30874,2,0,L|240:5,3,35,8|8|8|8,2:0|2:0|2:0|2:0,2:0:0:0:
224,62,31189,6,0,P|235:122|245:222,1,140,6|2,2:0|2:0,2:0:0:0:
186,262,31663,2,0,B|226:249|247:229|247:229|278:243|316:243,1,140,0|8,2:0|2:0,2:0:0:0:
398,217,32137,1,8,2:0:0:0:
398,217,32295,1,8,2:0:0:0:
461,272,32453,6,0,P|452:314|448:353,1,70,2|2,2:0|2:0,2:0:0:0:
371,372,32768,2,0,P|336:377|303:357,1,70,8|10,2:0|2:0,2:0:0:0:
301,351,33005,1,8,2:0:0:0:
297,341,33084,1,8,2:0:0:0:
212,366,33242,1,10,2:0:0:0:
212,366,33716,6,0,P|216:306|227:238,1,112,6|0,3:2|3:0,2:0:0:0:
129,143,34347,2,0,P|111:192|158:244,1,112,0|0,3:0|3:0,2:0:0:0:
223,254,34821,1,0,2:0:0:0:
223,254,34979,2,0,P|268:242|344:235,2,112,0|0|0,3:0|3:0|3:0,2:0:0:0:
131,140,35926,2,0,P|127:106|119:63,1,56,0|2,3:0|2:0,2:0:0:0:
101,14,36242,6,0,B|164:0|146:36|228:23,1,112,2|0,3:2|3:0,2:0:0:0:
252,85,36716,2,0,P|288:118|362:94,1,112,0|0,2:0|2:0,2:0:0:0:
394,54,37189,2,0,L|463:63,1,56,0|0,3:0|2:0,2:0:0:0:
506,106,37505,2,0,P|496:149|486:229,1,112,0|0,3:0|3:0,2:0:0:0:
506,361,38137,1,0,3:0:0:0:
506,361,38295,2,0,P|464:326|392:336,1,112,2|2,3:2|2:0,2:0:0:0:
338,345,38768,6,0,P|294:338|207:331,2,112,2|0|0,3:2|3:0|3:0,2:0:0:0:
388,207,39716,2,0,P|395:166|400:145,1,56,0|0,3:0|2:0,2:0:0:0:
342,104,40032,2,0,B|304:103|283:113|283:113|267:97|236:90,1,112,0|0,3:0|3:0,2:0:0:0:
182,41,40505,2,0,P|191:94|201:168,1,112,0|0,2:0|2:0,2:0:0:0:
162,215,40979,2,0,P|125:203|90:205,1,56,0|2,3:0|2:0,2:0:0:0:
36,217,41295,6,0,P|29:272|25:349,1,112,2|0,3:2|3:0,2:0:0:0:
160,383,41926,2,0,P|179:338|132:284,1,112,0|0,3:0|3:0,2:0:0:0:
193,150,42558,1,0,3:0:0:0:
193,150,42716,2,0,B|229:141|229:141|261:159|316:160,1,112,0|2,2:0|2:0,2:0:0:0:
358,211,43189,2,0,P|362:153|372:95,1,112,0|4,3:0|3:2,2:0:0:0:
326,41,43663,1,2,2:0:0:0:
255,59,43821,6,0,P|195:49|147:94,1,112,4|0,3:2|3:0,2:0:0:0:
114,137,44295,2,0,B|102:213|102:213|136:259,1,112,0|0,2:0|2:0,2:0:0:0:
155,313,44768,1,0,3:0:0:0:
155,313,44926,1,2,2:0:0:0:
112,372,45084,2,0,P|144:347|225:353,1,112,2|0,3:2|3:0,2:0:0:0:
281,373,45558,2,0,P|335:362|411:354,2,112,0|0|2,2:0|2:0|2:0,2:0:0:0:
268,301,46347,6,0,L|279:184,1,112,2|0,3:2|3:0,2:0:0:0:
286,116,46821,1,0,2:0:0:0:
415,182,47137,2,0,P|461:184|491:132,1,112,2|2,2:0|2:0,2:0:0:0:
464,63,47611,2,0,B|399:51|415:82|343:71,1,112,2|0,3:2|3:0,2:0:0:0:
294,31,48084,2,0,B|266:37|247:52|247:52|223:42|167:42,1,112,2|2,2:3|2:2,2:0:0:0:
133,92,48558,1,0,3:0:0:0:
185,161,48716,1,4,2:3:0:0:
185,161,48795,1,4,2:3:0:0:
185,161,48874,6,0,P|177:223|174:284,1,112,2|2,3:2|3:2,2:0:0:0:
300,345,49505,2,0,P|316:306|256:261,1,112,2|2,3:2|3:2,2:0:0:0:
167,361,50137,2,0,B|137:355|112:364|112:364|92:349|41:345,1,112,0|0,3:2|3:2,2:0:0:0:
0,213,50768,2,0,P|26:180|99:190,1,112,2|2,3:2|3:2,2:0:0:0:
151,224,51242,1,8,2:0:0:0:
214,188,51400,6,0,P|259:179|338:167,1,112,2|2,3:2|2:0,2:0:0:0:
452,239,52032,2,0,P|447:273|445:304,2,56,8|8|8,3:2|2:0|3:2,2:0:0:0:
418,169,52505,1,2,0:2:0:0:
475,119,52663,6,0,P|489:86|476:52,1,62.9999980773926,6|8,3:2|2:0,2:0:0:0:
427,8,52979,2,0,P|392:14|347:24,1,62.9999980773926,8|8,3:2|2:0,2:0:0:0:
305,67,53295,1,10,3:2:0:0:
233,41,53453,2,0,L|219:4,2,31.4999990386963,8|8|8,2:0|2:0|3:2,2:0:0:0:
175,89,53768,1,8,2:0:0:0:
175,89,53847,1,8,2:0:0:0:
175,89,53926,6,0,P|141:134|171:206,1,125.999996154785,6|8,2:0|2:0,2:0:0:0:
229,226,54400,1,0,2:0:0:0:
229,226,54558,2,0,B|264:215|264:215|298:237|356:239,1,125.999996154785,2|8,2:0|2:0,2:0:0:0:
415,205,55032,1,0,2:0:0:0:
478,245,55189,6,0,P|470:294|464:377,1,125.999996154785,2|8,2:0|2:0,2:0:0:0:
388,384,55663,2,0,P|352:349|259:360,1,125.999996154785,0|0,2:0|2:0,2:0:0:0:
207,372,56137,2,0,P|168:365|137:364,1,62.9999980773926,8|0,2:0|2:0,2:0:0:0:
69,351,56453,6,0,B|54:274|54:274|92:227,1,125.999996154785,2|8,2:0|2:0,2:0:0:0:
38,176,56926,2,0,P|94:210|153:204,1,125.999996154785,0|0,2:0|2:0,2:0:0:0:
205,151,57400,2,0,P|198:114|190:77,1,62.9999980773926,8|0,2:0|2:0,2:0:0:0:
245,33,57716,6,0,B|278:30|323:49|323:49|351:30|318:2,1,125.999996154785,2|8,2:0|2:0,2:0:0:0:
280,154,58347,2,0,P|274:193|268:293,1,125.999996154785,2|8,2:0|2:0,2:0:0:0:
223,345,58821,1,0,2:0:0:0:
223,345,58900,1,0,2:0:0:0:
223,345,58979,6,0,P|280:309|356:332,1,125.999996154785,2|8,2:0|2:0,2:0:0:0:
402,353,59453,1,0,2:0:0:0:
402,353,59611,2,0,B|417:273|417:273|376:231,1,125.999996154785,2|8,2:0|2:0,2:0:0:0:
342,178,60084,1,0,2:0:0:0:
377,111,60242,6,0,B|419:106|442:117|442:117|463:100|510:94,1,125.999996154785,2|8,2:0|2:0,2:0:0:0:
511,21,60716,2,0,P|473:-9|388:16,1,125.999996154785,0|0,2:0|2:0,2:0:0:0:
334,39,61189,2,0,P|287:32|255:29,1,62.9999980773926,8|0,2:0|2:0,2:0:0:0:
196,19,61505,6,0,P|206:68|218:147,1,125.999996154785,2|8,2:0|2:0,2:0:0:0:
119,258,62137,2,0,P|100:220|144:148,1,125.999996154785,2|8,2:0|2:0,2:0:0:0:
217,143,62611,1,0,2:0:0:0:
217,143,62768,6,0,P|264:134|298:124,1,62.9999980773926,2|0,2:0|2:3,2:0:0:0:
333,77,63084,2,0,P|370:68|400:80,1,62.9999980773926,8|0,2:0|2:0,2:0:0:0:
457,116,63400,1,2,2:0:0:0:
419,181,63558,2,0,L|379:191,2,31.4999990386963,8|8|8,2:0|2:0|2:0,2:0:0:0:
473,251,63874,1,8,2:0:0:0:
473,251,63953,1,8,2:0:0:0:
473,251,64032,6,0,P|462:310|455:382,1,125.999996154785,6|8,2:0|2:0,2:0:0:0:
388,340,64505,1,0,2:0:0:0:
388,340,64663,2,0,P|355:320|259:337,1,125.999996154785,2|8,2:0|2:0,2:0:0:0:
205,367,65137,1,0,2:0:0:0:
133,342,65295,6,0,P|127:281|114:205,1,125.999996154785,2|8,2:0|2:0,2:0:0:0:
65,74,65926,2,0,P|30:113|63:194,1,125.999996154785,2|8,2:0|2:0,2:0:0:0:
116,217,66400,1,0,2:0:0:0:
116,217,66558,6,0,P|157:203|257:196,1,125.999996154785,2|8,2:0|2:0,2:0:0:0:
291,140,67032,2,0,P|281:185|272:275,1,125.999996154785,0|0,2:0|2:0,2:0:0:0:
311,328,67505,2,0,P|352:339|380:320,1,62.9999980773926,8|0,2:0|2:0,2:0:0:0:
415,268,67821,6,0,B|449:259|490:274|490:274|514:252|489:229,1,125.999996154785,2|8,2:0|2:0,2:0:0:0:
381,125,68453,1,2,2:0:0:0:
381,125,68611,2,0,P|383:86|389:43,1,62.9999980773926,0|8,2:0|2:0,2:0:0:0:
318,27,68926,1,0,2:0:0:0:
247,54,69084,6,0,B|212:47|212:47|169:70|105:71,1,125.999996154785,2|8,2:0|2:0,2:0:0:0:
68,19,69558,2,0,B|39:89|39:89|82:145,1,125.999996154785,0|0,2:0|2:0,2:0:0:0:
86,205,70032,1,8,2:0:0:0:
86,205,70189,1,0,2:0:0:0:
45,268,70347,6,0,P|83:234|177:242,1,125.999996154785,2|8,2:0|2:0,2:0:0:0:
224,262,70821,2,0,L|214:338,1,62.9999980773926,0|2,2:0|2:0,2:0:0:0:
274,373,71137,2,0,P|313:376|343:351,1,62.9999980773926,0|8,2:0|2:0,2:0:0:0:
382,306,71453,1,0,2:0:0:0:
382,306,71532,1,0,2:0:0:0:
382,306,71611,6,0,P|425:308|509:324,1,125.999996154785,2|8,2:0|2:0,2:0:0:0:
418,199,72242,2,0,P|395:164|431:88,1,125.999996154785,2|8,2:0|2:0,2:0:0:0:
494,50,72716,1,0,2:0:0:0:
494,50,72795,1,8,2:0:0:0:
494,50,72874,5,10,2:0:0:0:
420,12,73032,2,0,B|387:17|365:35|365:35|335:29|299:36,1,125.999996154785,8|8,2:0|2:0,2:0:0:0:
234,73,73505,2,0,P|192:75|159:44,1,62.9999980773926,8|0,2:0|2:0,2:0:0:0:
116,16,73821,1,8,2:3:0:0:
52,50,73979,1,4,2:3:0:0:
52,50,74058,1,4,2:3:0:0:
52,50,74137,6,0,P|64:107|74:196,1,125.999996154785,6|2,2:0|2:0,2:0:0:0:
31,244,74611,1,2,2:0:0:0:
31,244,74768,2,0,P|59:216|154:222,1,125.999996154785,8|0,2:0|2:0,2:0:0:0:
202,258,75242,6,0,L|198:303,2,31.4999990386963,8|8|2,2:0|2:0|2:0,2:0:0:0:
262,211,75558,2,0,P|294:203|331:197,1,62.9999980773926,8|2,2:0|2:0,2:0:0:0:
385,154,75874,1,2,2:0:0:0:
453,186,76032,2,0,B|447:236|447:236|456:261|456:261|448:329,1,125.999996154785,8|0,2:0|2:0,2:0:0:0:
384,355,76505,1,4,2:3:0:0:
384,355,76584,1,4,2:3:0:0:
384,355,76663,6,0,P|331:324|258:332,1,125.999996154785,2|2,2:0|2:0,2:0:0:0:
198,298,77137,1,2,2:0:0:0:
135,340,77295,2,0,B|92:333|92:333|68:363|11:374,1,125.999996154785,8|0,2:0|2:0,2:0:0:0:
70,228,77926,6,0,P|80:190|70:162,1,62.9999980773926,2|8,2:0|2:0,2:0:0:0:
30,105,78242,1,2,2:0:0:0:
30,105,78400,1,2,2:0:0:0:
69,40,78558,2,0,P|105:47|141:49,1,62.9999980773926,8|4,2:0|2:3,2:0:0:0:
190,96,78874,2,0,P|217:88|253:84,1,62.9999980773926,2|2,2:0|2:0,2:0:0:0:
313,41,79189,5,6,2:0:0:0:
240,346,81558,5,10,2:0:0:0:
240,346,81637,1,10,2:0:0:0:
240,346,81716,2,0,P|237:311|229:274,1,70,14|8,2:0|2:0,2:0:0:0:
307,242,82032,2,0,P|307:205|313:172,1,70,8|8,2:0|2:0,2:0:0:0:
245,122,82347,2,8,L|239:82,4,35,8|8|8|8|4,2:0|2:0|2:3|2:3|2:3,2:0:0:0:
320,160,82821,6,0,P|374:122|342:50,1,140,10|10,2:0|2:0,2:0:0:0:
294,7,83295,1,10,2:0:0:0:
294,7,83926,6,0,B|269:16|253:31|253:31|230:23|185:29,1,94.499997116089,0|0,2:0|2:0,2:0:0:0:
165,18,84242,6,0,P|176:75|187:161,1,140,6|8,2:0|2:0,2:0:0:0:
131,220,84716,2,0,P|121:256|138:292,1,70,0|2,2:0|2:0,2:0:0:0:
195,341,85032,2,0,P|243:328|276:323,1,70,0|8,2:0|2:0,2:0:0:0:
340,357,85347,1,0,2:0:0:0:
340,357,85426,1,0,2:0:0:0:
340,357,85505,6,0,P|344:293|353:207,1,140,2|8,2:0|2:0,2:0:0:0:
286,163,85979,2,0,B|240:165|208:190|208:190|176:169|196:126,1,140,0|0,2:0|2:0,2:0:0:0:
245,77,86453,2,0,P|247:39|255:0,1,70,8|0,2:0|2:0,2:0:0:0:
171,27,86768,6,0,P|142:46|105:43,1,70,2|0,2:0|2:0,2:0:0:0:
25,26,87084,1,8,2:0:0:0:
25,26,87242,2,0,P|37:76|39:112,1,70,0|2,2:0|2:0,2:0:0:0:
107,143,87558,2,0,P|101:185|98:241,1,70,0|8,2:0|2:0,2:0:0:0:
50,281,87874,1,0,2:0:0:0:
50,281,87953,1,0,2:0:0:0:
50,281,88032,6,0,P|83:251|188:258,1,140,2|8,2:0|2:0,2:0:0:0:
233,309,88505,2,0,B|275:298|275:298|318:326|376:320,1,140,0|0,2:0|2:0,2:0:0:0:
445,288,88979,2,0,P|448:251|456:211,1,70,8|0,2:0|2:0,2:0:0:0:
501,148,89295,6,0,B|468:156|446:182|446:182|419:169|372:173,1,140,6|8,2:0|2:0,2:0:0:0:
297,208,89768,2,0,P|265:201|220:195,1,70,0|2,2:0|2:0,2:0:0:0:
157,148,90084,1,0,2:0:0:0:
157,148,90242,2,0,P|140:106|158:73,1,70,8|0,2:0|2:0,2:0:0:0:
204,21,90558,6,0,B|282:3|261:53|359:37,1,140,2|8,2:0|2:0,2:0:0:0:
423,29,91032,1,0,2:0:0:0:
423,29,91111,1,8,2:0:0:0:
423,29,91189,2,0,P|414:87|413:119,1,70,2|0,2:0|2:0,2:0:0:0:
355,159,91505,2,0,L|362:199,2,35,8|8|8,2:0|2:0|2:0,2:0:0:0:
416,254,91821,6,0,P|338:214|254:221,1,140,6|8,2:0|2:0,2:0:0:0:
215,259,92295,1,0,2:0:0:0:
215,259,92453,2,0,P|153:249|119:246,1,70,2|2,2:0|2:0,2:0:0:0:
64,227,92768,2,0,P|47:192|66:153,1,70,8|0,2:0|2:0,2:0:0:0:
97,90,93084,5,10,2:0:0:0:
179,125,93242,1,2,2:0:0:0:
179,125,93321,1,2,2:0:0:0:
179,125,93400,2,0,P|231:111|299:101,1,105,8|2,2:0|2:0,2:0:0:0:
297,110,93716,1,8,2:0:0:0:
366,156,93874,2,4,L|359:202,2,35,4|0|12,2:3|2:3|2:3,2:3:0:0:
428,99,94189,2,0,L|421:58,2,35,8|8|8,2:0|2:0|2:3,2:0:0:0:
503,154,94505,5,4,2:3:0:0:
503,154,94584,1,4,2:3:0:0:
503,154,94663,2,0,P|516:185|508:218,1,70,14|0,2:0|2:0,2:0:0:0:
457,286,94979,2,0,P|411:275|324:266,1,105,8|8,2:0|2:0,2:0:0:0:
333,277,95295,2,0,P|294:295|265:288,1,70,8|4,2:3|2:3,2:0:0:0:
189,260,95611,6,0,B|209:354|209:354|200:386|152:378,1,140,6|8,2:0|2:0,2:0:0:0:
107,332,96084,1,0,2:0:0:0:
107,332,96242,2,0,P|74:340|41:323,1,70,2|0,2:0|2:0,2:0:0:0:
2,250,96558,1,8,2:0:0:0:
65,195,96716,1,8,2:0:0:0:
65,195,96795,1,8,2:0:0:0:
65,195,96874,6,0,P|59:132|46:51,1,140,2|8,2:0|2:0,2:0:0:0:
119,12,97347,2,0,P|146:27|202:18,1,70,8|2,2:0|2:0,2:0:0:0:
269,11,97663,6,0,L|264:52,4,35,10|8|8|8|6,2:0|2:0|2:0|2:0|2:0,2:0:0:0:
178,153,98295,1,8,2:0:0:0:
178,153,98374,1,8,2:0:0:0:
178,153,98453,2,0,L|182:187,2,35,8|8|6,2:0|2:0|2:0,2:0:0:0:
289,278,98926,2,0,P|329:275|363:303,1,70,6|0,2:0|2:0,2:0:0:0:
354,291,99242,6,0,B|278:273|295:313|209:297,1,132.999996448517,6|2,2:0|2:0,2:0:0:0:
145,324,99716,2,0,P|149:289|153:251,1,66.4999982242585,2|2,2:0|2:0,2:0:0:0:
95,201,100032,2,0,P|64:157|93:88,1,132.999996448517,8|0,2:0|2:0,2:0:0:0:
157,44,100505,2,0,L|154:7,2,33.2499991121292,0|0|2,2:0|2:0|2:0,2:0:0:0:
226,84,100821,6,0,P|277:89|374:108,1,132.999996448517,8|2,2:0|2:0,2:0:0:0:
424,59,101295,2,0,B|449:144|449:144|443:175|409:174,1,132.999996448517,8|2,2:0|2:0,2:0:0:0:
375,239,101768,1,2,2:0:0:0:
427,298,101926,6,0,P|391:275|280:268,1,132.999996448517,6|2,2:0|2:0,2:0:0:0:
236,307,102400,1,2,2:0:0:0:
236,307,102558,2,0,B|166:287|178:332|97:319,1,132.999996448517,8|0,2:0|2:0,2:0:0:0:
29,312,103032,1,4,2:3:0:0:
29,312,103111,1,4,2:3:0:0:
29,312,103189,6,0,P|39:356|43:385,2,66.4999982242585,2|8|8,2:0|2:0|2:0,2:0:0:0:
58,237,103663,1,8,2:0:0:0:
11,172,103821,2,0,P|-1:134|16:96,1,66.4999982242585,10|8,2:0|2:0,2:0:0:0:
68,59,104137,2,0,L|73:18,2,33.2499991121292,8|8|4,2:0|2:3|2:3,2:0:0:0:
131,112,104453,5,10,2:0:0:0:
131,112,104611,2,0,B|155:118|177:134|177:134|200:127|249:130,1,99.7499973363877,4|0,2:3|2:0,2:0:0:0:
259,109,104926,2,0,P|250:165|245:257,1,132.999996448517,10|8,2:0|2:0,2:0:0:0:
242,321,105400,1,2,2:0:0:0:
242,321,105479,1,2,2:0:0:0:
242,321,105558,1,12,2:0:0:0:
259,109,106979,5,6,2:0:0:0:
133,80,117084,6,0,P|144:141|152:212,1,112,6|0,2:0|2:0,2:0:0:0:
71,313,117716,2,0,P|49:264|98:205,1,112,0|0,2:0|2:0,2:0:0:0:
150,190,118189,1,0,2:0:0:0:
150,190,118347,2,0,B|183:192|201:207|201:207|221:197|274:200,1,112,2|0,2:0|2:0,2:0:0:0:
318,240,118821,2,0,P|369:225|437:224,1,112,2|0,2:0|2:0,2:0:0:0:
470,163,119295,2,0,P|474:125|477:96,1,56,0|0,2:0|2:0,2:0:0:0:
507,41,119611,6,0,P|444:77|402:67,1,112,2|0,2:0|2:0,2:0:0:0:
351,23,120084,2,0,P|302:16|213:11,1,112,0|0,2:0|2:0,2:0:0:0:
180,54,120558,2,0,P|156:69|118:65,1,56,0|0,2:0|2:0,2:0:0:0:
63,35,120874,6,0,L|85:172,1,112,2|0,2:0|2:0,2:0:0:0:
48,287,121505,2,0,B|83:274|83:274|114:294|161:295,1,112,2|0,2:0|2:0,2:0:0:0:
287,236,122137,6,0,P|277:280|272:360,1,112,2|0,2:0|2:0,2:0:0:0:
338,376,122611,2,0,P|367:355|443:367,1,112,0|0,2:0|2:0,2:0:0:0:
500,325,123084,2,0,P|494:294|490:262,1,56,0|0,2:0|2:0,2:0:0:0:
443,213,123400,6,0,P|446:171|453:100,1,112,2|0,2:0|2:0,2:0:0:0:
464,29,123874,1,2,2:0:0:0:
328,92,124189,2,0,B|301:99|282:118|282:118|254:108|208:114,1,112,0|0,2:0|2:0,2:0:0:0:
182,51,124663,6,0,P|177:107|171:162,1,112,2|0,2:0|2:0,2:0:0:0:
295,239,125295,2,0,L|358:222,2,56,0|0|0,2:0|2:0|2:0,2:0:0:0:
204,353,125926,6,0,P|161:310|90:320,1,112,6|0,2:0|2:0,2:0:0:0:
40,297,126400,2,0,P|47:342|47:367,2,56,0|0|0,2:0|2:0|2:0,2:0:0:0:
80,236,126874,2,0,P|93:201|81:172,1,56,0|4,2:0|2:3,2:0:0:0:
40,129,127189,6,0,B|97:111|90:146|154:133,1,112,4|0,3:2|0:2,2:2:0:0:
218,108,127663,2,0,P|220:68|237:-7,2,112,0|0|0,2:2|2:2|2:2,2:2:0:0:
266,163,128453,6,0,P|298:143|378:143,1,112,0|0,3:2|0:2,2:2:0:0:
436,108,128926,1,0,2:2:0:0:
501,237,129242,2,0,B|483:311|483:311|502:325|510:348,1,112,0|0,2:2|2:2,2:2:0:0:
440,372,129716,6,0,P|394:362|308:350,1,112,0|0,3:2|0:2,2:2:0:0:
258,367,130189,2,0,P|239:335|275:262,1,112,0|0,2:2|2:2,2:2:0:0:
324,229,130663,2,0,P|321:191|319:166,1,56,0|2,2:2|2:3,2:2:0:0:
366,116,130979,6,0,B|335:125|317:139|317:139|297:129|259:126,1,112,0|0,3:2|2:2,2:2:0:0:
197,162,131453,2,0,P|167:131|89:137,1,112,2|2,2:3|2:3,2:2:0:0:
31,108,131926,1,2,2:2:0:0:
49,184,132084,1,8,2:3:0:0:
49,184,132163,1,8,2:3:0:0:
49,184,132242,6,0,P|38:232|38:309,1,112,2|2,2:0|2:0,2:0:0:0:
91,343,132716,2,0,P|121:322|197:330,1,112,0|0,2:0|2:0,2:0:0:0:
259,369,133189,1,2,2:0:0:0:
259,369,133347,1,8,2:0:0:0:
320,329,133505,6,0,P|318:301|311:258,1,62.9999980773926,10|8,2:0|2:0,2:0:0:0:
254,217,133821,2,0,P|248:183|263:154,1,62.9999980773926,8|8,2:0|2:0,2:0:0:0:
324,117,134137,2,0,P|362:120|389:123,2,62.9999980773926,10|8|8,2:0|2:0|2:0,2:0:0:0:
252,76,134611,1,8,2:0:0:0:
252,76,134689,1,8,2:0:0:0:
252,76,134768,6,0,B|216:83|199:99|199:99|175:90|114:94,1,125.999996154785,6|10,2:0|2:0,2:0:0:0:
60,119,135242,2,0,P|58:90|48:57,2,62.9999980773926,8|8|8,2:0|2:0|2:0,2:0:0:0:
100,183,135716,1,8,2:0:0:0:
68,259,135874,1,8,2:0:0:0:
68,259,135953,1,8,2:0:0:0:
68,259,136032,6,0,P|113:233|176:249,1,94.499997116089,8|2,2:0|2:0,2:0:0:0:
168,230,136347,1,8,2:0:0:0:
246,280,136505,1,2,2:2:0:0:
246,280,136584,1,2,2:0:0:0:
246,280,136663,2,0,P|284:267|374:254,1,125.999996154785,12|0,2:0|2:0,2:0:0:0:
496,150,137295,6,0,B|516:233|516:233|510:265|469:268,1,125.999996154785,6|2,2:0|2:0,2:0:0:0:
426,300,137768,1,2,2:0:0:0:
369,255,137926,2,0,P|373:194|380:127,1,125.999996154785,8|0,2:0|2:0,2:0:0:0:
322,79,138400,6,0,L|315:33,2,31.4999990386963,0|8|2,2:0|2:0|2:0,2:0:0:0:
254,113,138716,2,0,P|217:119|186:92,1,62.9999980773926,8|2,2:0|2:0,2:0:0:0:
131,66,139032,1,2,2:0:0:0:
131,66,139189,2,0,P|141:122|149:198,1,125.999996154785,8|2,2:0|2:0,2:0:0:0:
110,264,139663,1,8,2:0:0:0:
110,264,139742,1,8,2:0:0:0:
110,264,139821,6,0,P|166:224|238:239,1,125.999996154785,2|2,2:0|2:0,2:0:0:0:
282,272,140295,1,2,2:0:0:0:
344,229,140453,2,0,P|391:221|479:206,1,125.999996154785,8|0,2:0|2:0,2:0:0:0:
404,345,141084,5,2,2:0:0:0:
404,345,141242,2,0,P|370:337|333:331,1,62.9999980773926,8|2,2:0|2:0,2:0:0:0:
269,354,141558,1,2,2:0:0:0:
269,354,141637,1,2,2:0:0:0:
269,354,141716,2,0,P|240:368|206:364,1,62.9999980773926,8|8,2:0|2:3,2:0:0:0:
146,322,142032,2,0,P|107:327|75:329,1,62.9999980773926,4|2,2:3|2:0,2:0:0:0:
12,302,142347,5,6,2:0:0:0:
117,74,144558,6,0,L|121:28,3,35,8|8|4|4,2:3|2:3|2:3|2:3,2:0:0:0:
140,92,144874,6,0,P|190:57|283:77,1,140,6|2,2:0|2:0,2:0:0:0:
329,119,145347,1,8,2:0:0:0:
280,187,145505,2,0,L|232:201,2,35,8|8|2,2:0|2:0|2:0,2:0:0:0:
345,251,145821,1,8,2:0:0:0:
345,251,145900,1,8,2:0:0:0:
345,251,145979,6,0,B|327:339|327:339|344:369|384:351,1,140,14|8,2:0|2:0,2:0:0:0:
449,383,146453,2,0,P|463:339|432:280,1,105,10|2,2:0|2:0,2:0:0:0:
447,273,146768,1,8,2:0:0:0:
484,198,146926,1,8,2:0:0:0:
484,198,147005,1,8,2:0:0:0:
484,198,147084,2,0,L|492:143,2,35,8|8|8,2:0|2:0|2:0,2:0:0:0:
399,202,147400,6,0,B|314:182|348:224|258:212,1,140,6|8,2:0|2:0,2:0:0:0:
183,183,147874,2,0,P|192:230|197:281,1,70,0|2,2:0|2:0,2:0:0:0:
163,329,148189,2,0,P|125:336|96:312,1,70,0|8,2:0|2:0,2:0:0:0:
35,373,148505,1,0,2:0:0:0:
35,373,148584,1,0,2:0:0:0:
35,373,148663,6,0,P|41:320|58:217,1,140,2|8,2:0|2:0,2:0:0:0:
15,159,149137,2,0,B|54:179|72:199|72:199|96:190|146:191,1,140,0|0,2:0|2:0,2:0:0:0:
206,141,149611,2,0,P|203:102|196:63,1,70,8|0,2:0|2:0,2:0:0:0:
249,5,149926,6,0,P|284:1|318:20,1,70,2|0,2:0|2:0,2:0:0:0:
368,81,150242,1,8,2:0:0:0:
368,81,150400,2,0,P|405:73|443:68,1,70,0|2,2:0|2:0,2:0:0:0:
508,113,150716,2,0,P|500:150|495:188,1,70,0|8,2:0|2:0,2:0:0:0:
441,246,151032,1,0,2:0:0:0:
441,246,151111,1,0,2:0:0:0:
441,246,151189,6,0,P|384:206|316:210,1,140,2|8,2:0|2:0,2:0:0:0:
239,245,151663,2,0,L|244:296,2,35,0|0|2,2:0|2:0|2:0,2:0:0:0:
171,193,151979,1,0,2:0:0:0:
171,193,152137,2,0,B|147:192|120:202|120:202|97:182|50:172,1,105,8|0,2:0|2:0,2:0:0:0:
53,167,152453,6,0,B|30:255|30:255|31:283|70:288,1,140,6|8,2:0|2:0,2:0:0:0:
120,347,152926,2,0,P|161:337|203:336,1,70,0|2,2:0|2:0,2:0:0:0:
264,373,153242,1,0,2:0:0:0:
264,373,153400,2,0,P|295:387|339:381,1,70,8|0,2:0|2:0,2:0:0:0:
408,352,153716,6,0,P|404:287|393:191,1,140,2|8,2:0|2:0,2:0:0:0:
454,152,154189,1,0,2:0:0:0:
454,152,154268,1,8,2:0:0:0:
454,152,154347,2,0,P|468:120|460:87,1,70,2|0,2:0|2:0,2:0:0:0:
393,33,154663,2,0,L|398:-5,2,35,8|8|8,2:0|2:0|2:0,2:0:0:0:
320,76,154979,6,0,B|240:56|256:107|176:94,1,140,14|8,2:0|2:0,2:0:0:0:
116,45,155453,1,8,2:0:0:0:
116,45,155611,2,0,P|79:37|43:59,1,70,2|2,2:0|2:0,2:0:0:0:
1,111,155926,2,0,P|13:155|18:192,1,70,8|2,2:0|2:0,2:0:0:0:
0,255,156242,5,8,2:0:0:0:
37,337,156400,1,2,2:0:0:0:
37,337,156479,1,2,2:0:0:0:
37,337,156558,2,0,B|70:333|89:340|89:340|106:327|154:319,1,105,2|2,2:0|2:0,2:0:0:0:
148,310,156874,1,8,2:0:0:0:
222,348,157032,2,0,L|216:389,2,35,2|2|8,2:0|2:0|2:0,2:0:0:0:
281,289,157347,2,0,L|275:254,2,35,8|8|8,2:0|2:0|2:3,2:0:0:0:
352,346,157663,5,4,2:3:0:0:
352,346,157742,1,4,2:3:0:0:
352,346,157821,2,0,P|398:334|426:331,1,70,14|2,2:0|2:0,2:0:0:0:
493,374,158137,2,0,B|511:290|511:290|505:258|461:262,1,140,8|8,2:0|2:3,2:0:0:0:
415,206,158611,1,4,2:3:0:0:
415,206,158689,1,4,2:3:0:0:
415,206,158768,6,0,P|416:171|427:60,1,140,6|8,2:0|2:0,2:0:0:0:
360,12,159242,1,0,2:0:0:0:
360,12,159400,2,0,P|326:4|293:18,1,70,2|0,2:0|2:0,2:0:0:0:
217,60,159716,2,0,B|189:56|166:64|166:64|151:51|112:42,1,105,8|8,2:0|2:0,2:0:0:0:
92,29,160032,6,0,P|98:81|108:187,1,140,2|8,2:0|2:0,2:0:0:0:
54,234,160505,2,0,P|42:273|64:308,1,70,0|10,2:0|2:0,2:0:0:0:
112,358,160821,6,0,L|152:350,4,35,8|8|8|8|14,2:0|2:0|2:0|2:0|2:0,2:0:0:0:
247,256,161453,1,8,2:0:0:0:
247,256,161532,1,8,2:0:0:0:
247,256,161611,2,0,L|281:262,2,35,8|8|10,2:0|2:0|2:0,2:0:0:0:
399,368,162084,2,0,P|416:344|471:339,1,70,2|0,2:0|2:0,2:0:0:0:
453,333,162400,6,0,B|386:310|405:357|312:336,1,125.999996154785,6|2,2:0|2:0,2:0:0:0:
266,379,162874,2,0,P|234:384|192:356,1,62.9999980773926,2|2,2:0|2:0,2:0:0:0:
151,318,163189,2,0,P|216:312|281:290,1,125.999996154785,8|0,2:0|2:0,2:0:0:0:
345,262,163663,1,0,2:0:0:0:
345,262,163742,1,0,2:0:0:0:
345,262,163821,5,2,2:0:0:0:
289,202,163979,2,0,P|294:142|302:74,1,125.999996154785,8|2,2:0|2:0,2:0:0:0:
246,24,164453,2,0,B|216:34|193:48|193:48|162:37|126:40,1,125.999996154785,8|2,2:0|2:0,2:0:0:0:
81,101,164926,1,2,2:0:0:0:
126,161,165084,6,0,B|104:247|104:247|112:274|151:275,1,125.999996154785,6|2,2:0|2:0,2:0:0:0:
194,322,165558,1,2,2:0:0:0:
194,322,165716,2,0,P|231:298|327:308,1,125.999996154785,8|0,2:0|2:0,2:0:0:0:
374,357,166189,1,4,2:3:0:0:
374,357,166268,1,4,2:3:0:0:
374,357,166347,6,0,P|419:347|460:344,1,62.9999980773926,2|8,2:0|2:0,2:0:0:0:
488,287,166663,2,0,P|501:252|483:215,1,62.9999980773926,10|8,2:0|2:0,2:0:0:0:
439,175,166979,2,0,P|437:143|429:102,1,62.9999980773926,8|8,2:0|2:0,2:0:0:0:
461,42,167295,2,0,L|467:3,2,31.4999990386963,8|8|4,2:0|2:3|2:3,2:0:0:0:
387,49,167611,5,6,3:2:0:0:
387,49,167768,2,0,P|345:58|285:22,1,94.499997116089,8|4,2:3|2:3,2:0:0:0:
280,23,168084,2,0,P|290:90|297:155,1,125.999996154785,10|8,2:0|2:0,2:0:0:0:
310,228,168558,1,2,2:0:0:0:
310,228,168637,1,2,2:0:0:0:
310,228,168716,5,8,2:0:0:0:
95,346,169663,1,2,2:0:0:0:
95,346,169742,1,2,2:0:0:0:
95,346,169821,2,0,L|102:294,2,31.4999990386963,8|8|4,2:0|2:3|2:3,2:0:0:0:
22,306,170137,6,0,L|11:162,1,140,14|2,2:0|2:0,2:0:0:0:
52,92,170611,2,0,B|122:70|119:117|195:101,1,140,8|2,2:0|2:0,2:0:0:0:
261,60,171084,2,0,P|296:56|333:74,1,70,8|4,2:0|2:3,2:0:0:0:
392,123,171400,5,2,2:0:0:0:
472,97,171558,1,8,2:0:0:0:
472,97,171637,1,8,2:0:0:0:
472,97,171716,2,0,L|480:49,2,35,8|8|4,2:0|2:3|2:3,2:0:0:0:
460,180,172032,2,0,P|485:220|462:298,1,105,2|2,2:0|2:0,2:0:0:0:
468,294,172347,1,8,2:0:0:0:
409,353,172505,1,8,2:0:0:0:
409,353,172584,1,8,2:0:0:0:
409,353,172663,6,0,P|339:334|261:323,1,140,6|8,2:0|2:0,2:0:0:0:
113,266,173295,2,0,P|58:256|13:297,2,105,2|0|0,2:0|2:0|2:0,2:0:0:0:
192,293,173926,6,0,P|196:239|206:146,1,140,2|8,2:0|2:0,2:0:0:0:
172,85,174400,1,0,2:0:0:0:
172,85,174558,2,0,P|134:93|89:96,1,70,2|0,2:0|2:0,2:0:0:0:
22,71,174874,2,0,L|30:25,3,35,8|8|8|8,2:0|2:0|2:0|2:0,2:0:0:0:
28,89,175189,6,0,B|44:182|44:182|19:192|0:217,1,140,2|8,2:0|2:0,2:0:0:0:
72,261,175663,2,0,P|113:248|152:248,1,70,6|0,2:0|2:0,2:0:0:0:
167,167,175979,2,0,P|200:177|237:177,1,70,6|0,2:0|2:0,2:0:0:0:
296,236,176295,6,0,P|288:293|280:382,1,140,6|2,2:0|2:0,2:0:0:0:
202,343,176768,2,0,L|199:298,2,35,8|8|8,2:0|2:0|2:0,2:0:0:0:
119,359,177084,2,0,B|72:354|32:374|32:374|13:340|42:311,1,140,2|6,2:0|2:0,2:0:0:0:
76,254,177558,1,0,2:0:0:0:
14,197,177716,6,0,P|9:144|2:105,1,70,6|0,2:0|2:0,2:0:0:0:
56,59,178032,1,8,2:0:0:0:
56,59,178189,2,0,B|95:57|124:67|124:67|148:48|196:37,1,140,0|2,2:0|2:0,2:0:0:0:
261,82,178663,2,0,P|299:96|339:87,1,70,8|0,2:0|2:0,2:0:0:0:
402,52,178979,5,2,2:0:0:0:
402,52,179137,2,0,P|387:119|381:202,1,140,0|0,2:0|2:0,2:0:0:0:
435,254,179611,2,0,P|452:289|438:329,1,70,8|8,2:0|2:0,2:0:0:0:
367,348,179926,2,0,L|362:389,2,35,8|8|8,2:0|2:0|2:0,2:0:0:0:
291,309,180242,6,0,P|243:299|207:297,1,70,2|2,2:0|2:0,2:0:0:0:
141,324,180558,1,8,2:0:0:0:
141,324,180716,2,0,L|155:178,1,140,6|2,2:0|2:0,2:0:0:0:
92,127,181189,1,8,2:0:0:0:
92,127,181268,1,8,2:0:0:0:
92,127,181347,6,0,B|160:106|140:164|246:143,1,140,6|8,2:0|2:0,2:0:0:0:
283,208,181821,2,0,P|313:224|350:218,1,70,8|4,2:0|2:3,2:0:0:0:
424,185,182137,2,0,L|428:219,2,35,2|8|8,2:0|2:0|2:0,2:0:0:0:
376,117,182453,2,0,P|379:67|387:7,1,105,8|8,2:0|2:0,2:0:0:0:
366,0,182768,6,8,B|322:12|304:28|304:28|279:21|233:25,1,140,6|8,2:0|2:0,2:0:0:0:
150,8,183242,1,0,2:0:0:0:
150,8,183400,2,0,P|158:53|170:161,1,140,2|8,2:0|2:0,2:0:0:0:
286,267,184032,6,0,P|327:231|421:234,1,140,2|8,2:0|2:0,2:0:0:0:
464,164,184505,1,0,2:0:0:0:
464,164,184663,2,0,P|457:225|448:313,1,140,2|8,2:0|2:0,2:0:0:0:
380,353,185137,1,0,2:0:0:0:
380,353,185216,1,0,2:0:0:0:
380,353,185295,6,0,B|291:325|291:325|262:337|283:382,1,140,6|8,2:0|2:0,2:0:0:0:
193,380,185768,1,0,2:0:0:0:
193,380,185926,2,0,P|146:354|87:363,1,105,2|0,2:0|2:0,2:0:0:0:
80,364,186242,1,8,2:0:0:0:
23,301,186400,1,4,2:3:0:0:
23,301,186479,1,4,2:3:0:0:
23,301,186558,6,0,P|29:248|37:152,1,140,6|2,2:0|2:0,2:0:0:0:
102,109,187032,2,0,L|97:63,2,35,8|8|10,2:0|2:0|2:0,2:0:0:0:
175,150,187347,2,0,L|171:184,2,35,8|8|4,2:3|2:3|2:3,2:0:0:0:
249,109,187663,1,4,2:3:0:0:
249,109,187742,1,4,2:3:0:0:
249,109,187821,6,0,P|295:115|339:88,1,93.3333333333333,6|0,2:0|2:0,2:0:0:0:
366,63,188137,2,0,P|411:57|455:84,1,93.3333333333333,8|0,2:0|2:0,2:0:0:0:
479,112,188453,2,0,P|468:165|464:233,1,93.3333333333333,2|0,2:0|2:0,2:0:0:0:
429,227,188768,2,0,P|440:280|444:348,1,93.3333333333333,8|0,2:0|2:0,2:0:0:0:
459,358,189084,6,0,B|381:337|403:386|297:374,1,140,2|8,2:0|2:0,2:0:0:0:
233,232,189716,2,0,P|222:192|248:157,1,70,2|0,2:0|2:0,2:0:0:0:
281,97,190032,2,0,L|276:44,2,35,8|8|2,2:0|2:0|2:0,2:0:0:0:
197,92,190347,6,0,B|125:83|142:127|41:119,1,140,14|2,2:0|2:0,2:0:0:0:
3,59,190821,2,0,P|19:138|26:225,1,140,8|2,2:0|2:0,2:0:0:0:
87,253,191295,2,0,P|122:265|160:253,1,70,8|2,2:0|2:0,2:0:0:0:
219,204,191611,6,0,L|215:155,4,35,10|8|8|4|2,2:0|2:0|2:3|2:3|2:0,2:0:0:0:
288,262,192084,1,2,2:0:0:0:
288,262,192163,1,2,2:0:0:0:
288,262,192242,2,0,P|330:266|370:278,1,70,8|8,2:0|2:0,2:0:0:0:
379,191,192558,2,0,P|421:187|461:175,1,70,8|8,2:0|2:0,2:0:0:0:
507,239,192874,5,6,2:0:0:0:
102,83,202979,6,0,P|110:137|119:225,1,125.999996154785,6|2,2:0|2:0,2:0:0:0:
73,277,203453,1,2,2:0:0:0:
73,277,203611,2,0,P|112:248|201:262,1,125.999996154785,8|0,2:0|2:0,2:0:0:0:
258,290,204084,6,0,L|254:338,2,31.4999990386963,8|8|2,2:0|2:0|2:0,2:0:0:0:
335,262,204400,2,0,P|364:260|410:241,1,62.9999980773926,8|2,2:0|2:0,2:0:0:0:
474,281,204716,1,2,2:0:0:0:
474,281,204874,2,0,L|453:133,1,125.999996154785,8|0,2:0|2:0,2:0:0:0:
396,99,205347,1,2,2:0:0:0:
324,138,205505,6,0,B|278:131|278:131|246:154|185:163,1,125.999996154785,2|2,2:0|2:0,2:0:0:0:
138,110,205979,2,0,P|117:96|69:103,1,62.9999980773926,0|8,2:0|2:0,2:0:0:0:
13,145,206295,2,0,B|0:225|0:225|20:257|59:250,1,125.999996154785,0|8,2:0|2:0,2:0:0:0:
109,284,206768,6,0,P|110:255|115:221,2,62.9999980773926,2|8|2,2:0|2:0|2:0,2:0:0:0:
188,260,207242,1,2,2:0:0:0:
188,260,207321,1,2,2:0:0:0:
188,260,207400,2,0,P|225:254|254:242,1,62.9999980773926,8|8,2:0|2:3,2:0:0:0:
295,312,207716,2,0,P|332:316|361:326,1,62.9999980773926,4|4,2:3|2:3,2:0:0:0:
425,275,208032,5,6,2:0:0:0:
183,334,210242,6,0,L|188:368,3,31.4999990386963,8|8|4|4,2:3|2:3|2:3|2:3,2:0:0:0:
199,317,210558,6,0,P|220:279|187:191,1,140,6|8,2:0|2:0,2:0:0:0:
114,154,211032,1,8,2:0:0:0:
40,193,211189,2,0,L|47:241,4,35,10|8|4|4|2,2:0|2:0|2:3|2:3|2:0,2:0:0:0:
35,108,211663,6,0,B|77:106|108:121|108:121|131:99|187:82,1,140,10|2,2:0|2:0,2:0:0:0:
247,75,212137,2,0,L|252:32,2,35,8|8|2,2:0|2:0|2:2,2:0:0:0:
320,127,212453,1,8,2:0:0:0:
320,127,212532,1,8,2:0:0:0:
320,127,212611,2,0,L|324:161,2,35,8|8|10,2:0|2:0|2:0,2:0:0:0:
393,85,212926,6,0,B|471:61|471:61|514:81|483:129,1,140,6|2,2:0|0:0,2:0:0:0:
467,194,213400,1,10,2:0:0:0:
251,40,214032,2,0,L|206:31,3,35,8|8|8|8,2:0|2:0|2:0|2:0,2:0:0:0:
252,54,214347,6,0,B|240:134|240:134|266:149|278:182,1,140,6|8,2:0|2:0,2:0:0:0:
198,210,214821,2,0,P|160:203|120:199,1,70,0|2,2:0|2:0,2:0:0:0:
49,228,215137,2,0,P|32:270|52:306,1,70,0|8,2:0|2:0,2:0:0:0:
94,363,215453,1,0,2:0:0:0:
94,363,215532,1,0,2:0:0:0:
94,363,215611,6,0,B|133:359|166:370|166:370|186:350|245:343,1,140,2|8,2:0|2:0,2:0:0:0:
306,374,216084,2,0,L|287:224,1,140,0|0,2:0|2:0,2:0:0:0:
336,165,216558,2,0,P|349:125|327:89,1,70,8|0,2:0|2:0,2:0:0:0:
280,39,216874,6,0,P|237:51|198:55,1,70,2|0,2:0|2:0,2:0:0:0:
150,111,217189,1,8,2:0:0:0:
150,111,217347,2,0,P|115:117|79:101,1,70,0|2,2:0|2:0,2:0:0:0:
4,77,217663,2,0,P|11:118|14:167,1,70,0|8,2:0|2:0,2:0:0:0:
59,222,217979,1,0,2:0:0:0:
59,222,218058,1,0,2:0:0:0:
59,222,218137,6,0,B|37:309|37:309|51:343|91:328,1,140,2|8,2:0|2:0,2:0:0:0:
154,297,218611,2,0,B|196:284|196:284|241:316|300:313,1,140,0|0,2:0|2:0,2:0:0:0:
335,245,219084,2,0,L|328:166,1,70,8|0,2:0|2:0,2:0:0:0:
360,96,219400,6,0,B|443:75|443:75|481:100|448:141,1,140,2|8,2:0|2:0,2:0:0:0:
439,203,219874,2,0,P|433:245|432:285,1,70,0|2,2:0|2:0,2:0:0:0:
385,342,220189,1,0,2:0:0:0:
385,342,220347,2,0,P|341:348|312:329,1,70,8|0,2:0|2:0,2:0:0:0:
250,287,220663,6,0,P|193:291|107:306,1,140,2|8,2:0|2:0,2:0:0:0:
44,252,221137,2,0,L|6:244,2,35,0|8|2,2:0|2:0|2:0,2:0:0:0:
119,214,221453,1,0,2:0:0:0:
119,214,221611,2,0,L|104:96,1,105,8|8,2:0|2:0,2:0:0:0:
103,95,221926,6,0,B|143:94|176:106|176:106|204:85|260:76,1,140,6|8,2:0|2:0,2:0:0:0:
310,39,222400,1,0,2:0:0:0:
310,39,222558,2,0,P|346:33|384:56,1,70,2|0,2:0|2:0,2:0:0:0:
446,93,222874,2,0,P|435:144|433:178,1,70,8|0,2:0|2:0,2:0:0:0:
387,231,223189,5,2,2:0:0:0:
423,314,223347,1,4,2:3:0:0:
423,314,223426,1,4,2:3:0:0:
423,314,223505,2,0,P|389:290|316:291,1,105,8|2,2:0|2:0,2:0:0:0:
314,299,223821,2,0,P|268:289|231:285,1,70,8|2,2:0|2:0,2:0:0:0:
167,319,224137,6,0,L|175:367,4,35,8|8|8|8|8,2:0|2:0|2:0|2:0|2:0,2:0:0:0:
93,277,224611,1,4,2:3:0:0:
93,277,224689,1,4,2:3:0:0:
93,277,224768,6,0,P|61:231|101:154,1,140,14|2,2:0|2:0,2:0:0:0:
162,113,225242,2,0,L|165:70,2,35,8|8|8,2:0|2:0|2:0,2:0:0:0:
238,158,225558,1,4,2:3:0:0:
238,158,225637,1,4,2:3:0:0:
238,158,225716,6,0,B|314:138|307:182|382:158,1,140,6|8,2:0|2:0,2:0:0:0:
441,107,226189,2,0,B|464:203|464:203|453:230|410:237,1,140,0|0,2:0|2:0,2:0:0:0:
371,287,226663,2,0,P|338:271|294:271,1,70,8|0,2:0|2:0,2:0:0:0:
238,217,226979,6,0,B|210:224|178:245|178:245|149:235|93:239,1,140,2|8,2:0|2:0,2:0:0:0:
23,216,227453,2,0,P|32:253|40:300,1,70,0|2,2:0|2:0,2:0:0:0:
112,324,227768,6,0,L|110:362,4,35,8|8|8|8|14,2:0|2:0|2:0|2:0|2:0,2:0:0:0:
238,217,228400,1,8,2:0:0:0:
238,217,228479,1,8,2:0:0:0:
238,217,228558,2,0,L|233:179,2,35,8|8|6,2:0|2:0|2:0,2:0:0:0:
379,308,229032,2,0,P|412:303|450:326,1,70,6|0,2:0|2:0,2:0:0:0:
444,321,229347,6,0,L|459:170,1,125.999996154785,6|2,2:0|2:0,2:0:0:0:
492,128,229821,2,0,P|505:89|499:66,1,62.9999980773926,2|2,2:0|2:0,2:0:0:0:
441,22,230137,2,0,P|411:34|309:38,1,125.999996154785,8|0,2:0|2:0,2:0:0:0:
249,72,230611,6,0,L|214:64,2,31.4999990386963,8|8|2,2:0|2:0|2:0,2:0:0:0:
312,113,230926,2,0,B|294:183|294:183|319:205|330:240,1,125.999996154785,8|2,2:0|2:0,2:0:0:0:
270,284,231400,6,0,L|219:274,2,41.9999987182618,8|8|8,2:0|2:0|2:3,2:0:0:0:
335,333,231716,2,0,L|376:324,2,41.9999987182618,8|0|4,2:3|2:3|2:3,2:0:0:0:
268,374,232032,6,0,P|219:346|128:357,1,125.999996154785,6|2,2:0|2:0,2:0:0:0:
83,313,232505,1,2,2:0:0:0:
83,313,232663,2,0,P|78:250|68:175,1,125.999996154785,8|0,2:0|2:0,2:0:0:0:
25,121,233137,1,4,2:3:0:0:
25,121,233216,1,4,2:3:0:0:
25,121,233295,6,0,P|15:84|38:52,1,62.9999980773926,6|8,2:0|2:0,2:0:0:0:
92,28,233611,2,0,P|136:23|165:15,1,62.9999980773926,8|8,2:0|2:0,2:0:0:0:
205,73,233926,2,0,P|249:78|278:86,1,62.9999980773926,10|8,2:0|2:0,2:0:0:0:
335,48,234242,2,0,L|340:4,2,31.4999990386963,2|8|4,2:0|2:3|2:3,2:0:0:0:
405,86,234558,5,14,2:0:0:0:
405,86,234716,2,0,P|428:114|403:183,1,94.499997116089,8|2,2:3|2:0,2:0:0:0:
401,176,235032,2,0,B|382:256|382:256|392:285|422:291,1,125.999996154785,2|8,2:0|2:0,2:0:0:0:
461,359,235505,1,4,2:3:0:0:
461,359,235584,1,2,2:0:0:0:
461,359,235663,6,0,P|406:334|319:323,1,125.999996154785,6|8,2:0|2:0,2:0:0:0:
270,350,236137,2,0,P|219:359|173:324,1,94.499997116089,0|0,2:0|2:0,2:0:0:0:
168,323,236453,2,0,P|172:282|175:233,1,62.9999980773926,8|8,2:0|2:3,2:0:0:0:
135,194,236768,2,0,L|130:155,2,31.4999990386963,4|0|2,2:3|2:0|2:0,2:0:0:0:
209,180,237084,5,12,0:0:0:0:
209,180,237242,2,0,P|245:185|272:195,1,62.9999980773926,2|2,2:0|2:0,2:0:0:0:
291,121,237558,2,0,P|327:116|354:106,1,62.9999980773926,12|0,2:0|2:0,2:0:0:0:
411,153,237874,2,0,L|401:269,1,94.499997116089,12|0,2:0|2:0,2:0:0:0:
402,267,238189,5,14,2:0:0:0:
256,192,238979,12,0,240400,2:0:0:0:
43,309,240874,6,0,B|133:281|133:281|156:302|137:327,1,140,6|8,2:0|2:0,2:0:0:0:
229,358,241347,1,0,2:0:0:0:
229,358,241426,1,0,2:0:0:0:
229,358,241505,2,0,P|221:301|212:206,1,140,2|8,2:0|2:0,2:0:0:0:
173,143,241979,1,0,2:0:0:0:
225,77,242137,6,0,B|261:76|293:100|293:100|325:87|364:91,1,140,2|8,2:0|2:0,2:0:0:0:
434,52,242611,2,0,L|438:10,2,35,0|0|2,2:0|2:0|2:0,2:0:0:0:
491,113,242926,1,2,2:0:0:0:
491,113,243084,2,0,P|507:144|491:193,1,70,8|0,2:0|2:0,2:0:0:0:
452,247,243400,6,0,B|400:235|400:235|374:248|374:248|308:235,1,140,2|8,2:0|2:0,2:0:0:0:
249,185,243874,1,0,2:0:0:0:
249,185,243953,1,0,2:0:0:0:
249,185,244032,2,0,B|274:274|274:274|267:304|229:314,1,140,2|8,2:0|2:0,2:0:0:0:
164,282,244505,1,8,2:0:0:0:
164,282,244584,1,8,2:0:0:0:
164,282,244663,6,0,P|115:268|73:263,1,70,2|2,2:0|2:0,2:0:0:0:
49,194,244979,2,0,P|47:146|36:84,1,105,8|8,2:0|2:0,2:0:0:0:
54,67,245295,2,0,P|98:60|130:49,1,70,2|2,2:0|2:0,2:0:0:0:
204,33,245611,2,0,L|211:-7,3,35,8|8|8|8,2:0|2:0|2:0|2:0,2:0:0:0:
222,54,245926,6,0,B|205:128|205:128|231:151|240:194,1,140,6|8,2:0|2:0,2:0:0:0:
206,261,246400,1,0,2:0:0:0:
206,261,246558,2,0,P|157:250|120:248,2,70,2|2|8,2:0|2:0|2:0,2:0:0:0:
278,325,247032,1,4,2:3:0:0:
278,325,247111,1,4,2:3:0:0:
278,325,247189,6,0,B|316:311|369:321|369:321|391:290|345:264,1,140,2|8,2:0|2:0,2:0:0:0:
462,140,247821,2,0,P|465:101|474:62,1,70,6|2,2:0|2:0,2:0:0:0:
408,13,248137,2,0,B|380:19|361:37|361:37|336:24|291:25,1,105,8|0,2:0|2:0,2:0:0:0:
286,38,248453,6,0,L|280:3,4,35,10|8|8|8|14,2:0|2:0|2:0|2:0|2:0,2:0:0:0:
334,113,248926,1,2,2:0:0:0:
334,113,249005,1,2,2:0:0:0:
334,113,249084,2,0,P|328:156|327:188,1,70,8|2,2:0|2:0,2:0:0:0:
288,257,249400,2,0,L|243:250,3,35,8|8|8|8,2:0|2:0|2:0|2:0,2:0:0:0:
302,277,249716,6,0,B|396:254|396:254|415:279|389:320,1,140,6|8,2:0|2:0,2:0:0:0:
354,373,250189,1,8,2:0:0:0:
354,373,250268,1,8,2:0:0:0:
354,373,250347,2,0,P|304:338|213:342,1,140,8|8,2:0|2:0,2:0:0:0:
151,375,250821,1,8,2:0:0:0:
151,375,250900,1,8,2:0:0:0:
151,375,250979,6,0,P|156:316|167:224,1,140,6|8,2:0|2:0,2:0:0:0:
86,205,251453,1,0,2:0:0:0:
86,205,251611,2,0,P|80:154|73:127,1,70,2|2,2:0|2:0,2:0:0:0:
11,81,251926,1,8,2:0:0:0:
64,16,252084,1,0,2:0:0:0:
64,16,252163,1,0,2:0:0:0:
62,16,252242,6,0,B|100:29|122:47|122:47|158:36|206:38,1,140,2|8,2:0|2:0,2:0:0:0:
273,4,252716,1,0,2:0:0:0:
273,4,252874,2,0,P|264:56|262:85,2,70,2|2|8,2:0|2:0|2:0,2:0:0:0:
348,54,253347,1,0,2:0:0:0:
348,54,253426,1,0,2:0:0:0:
348,54,253505,6,0,B|432:30|432:30|464:65|432:102,1,140,2|8,2:0|2:0,2:0:0:0:
433,161,253979,1,0,2:0:0:0:
433,161,254137,2,0,P|440:208|443:245,1,70,2|2,2:0|2:0,2:0:0:0:
413,309,254453,1,8,2:0:0:0:
471,376,254611,1,8,2:0:0:0:
471,376,254689,1,8,2:0:0:0:
471,376,254768,6,0,P|417:339|342:340,1,140,2|2,2:0|2:0,2:0:0:0:
178,367,255400,2,0,P|139:359|82:353,1,70,2|8,2:0|2:0,2:0:0:0:
29,327,255716,2,0,L|36:375,3,35,8|8|8|8,2:0|2:0|2:0|2:0,2:0:0:0:
42,301,256032,6,0,P|46:250|58:150,1,140,6|2,2:0|2:0,2:0:0:0:
7,92,256505,1,8,2:0:0:0:
7,92,256663,2,0,P|-6:55|8:24,1,70,10|8,2:0|2:3,2:0:0:0:
82,0,256979,1,4,2:3:0:0:
157,49,257137,1,8,2:0:0:0:
157,49,257216,1,0,2:0:0:0:
157,49,257295,6,0,P|204:40|253:35,2,70,10|8|10,2:0|2:0|2:0,2:0:0:0:
115,121,257768,1,8,2:0:0:0:
160,191,257926,2,0,P|154:232|152:270,1,70,10|8,2:0|2:0,2:0:0:0:
198,331,258242,2,0,P|233:340|266:320,1,70,10|8,2:0|2:0,2:0:0:0:
321,264,258558,6,0,B|365:268|389:286|389:286|414:277|466:279,1,140,6|8,2:0|2:0,2:0:0:0:
504,209,259032,1,8,2:0:0:0:
504,209,259189,2,0,P|501:174|493:126,1,70,2|8,2:0|2:0,2:0:0:0:
429,87,259505,2,0,P|434:55|438:10,1,70,8|8,2:0|2:0,2:0:0:0:
356,42,259821,6,0,P|327:61|293:58,1,70,6|8,2:0|2:0,2:0:0:0:
216,24,260137,2,0,P|180:31|133:36,1,70,10|8,2:0|2:0,2:0:0:0:
63,19,260453,5,10,2:0:0:0:
87,99,260611,1,10,2:0:0:0:
41,169,260768,1,10,2:0:0:0:
65,249,260926,1,14,2:0:0:0:
256,192,261084,12,0,266137,2:0:0:0:
