osu file format v14

[General]
AudioFilename: audio.mp3
AudioLeadIn: 1500
PreviewTime:40970
Countdown: 0
SampleSet: Soft
StackLeniency: 0.4
Mode: 0
LetterboxInBreaks: 0
WidescreenStoryboard: 1

[Editor]
DistanceSpacing: 1.4
BeatDivisor: 4
GridSize: 4
TimelineZoom: 1

[Metadata]
Title:AOI-IRO STEP
TitleUnicode:葵色ステップ
Artist:yuikonnu
ArtistUnicode:ゆいこんぬ
Creator:captin1
Version:Vincent's Insane
Source:
Tags:Hatsune Miku Aoiiro ゆいこんぬ Silve ねじまきと置き手紙 Nejimaki to Okitegami 魔法のための少女クラブ Mahou no tame Shoujo Club 初音ミク めいこ meiko meis clauson ヘンズル プリムヴィ-ラ Hensel Primavera Kibbleru Kinshara [Vincent] pop japanese
BeatmapID:2911638
BeatmapSetID:1412455

[Difficulty]
HPDrainRate:6
CircleSize:4
OverallDifficulty:8
ApproachRate:9.1
SliderMultiplier:1.9
SliderTickRate:2

[Events]
//Background and Video events
0,0,"nejimaki.jpg",0,0
//Break Periods
2,69591,76386
//Storyboard Layer 0 (Background)
//Storyboard Layer 1 (Fail)
//Storyboard Layer 2 (Pass)
//Storyboard Layer 3 (Foreground)
//Storyboard Layer 4 (Overlay)
//Storyboard Sound Samples

[TimingPoints]
549,315.789473684211,4,2,2,70,1,0
1181,315.789473684211,4,2,2,70,1,0
11286,-142.857142857143,4,2,2,60,0,0
21391,-100,4,2,2,70,0,0
31496,-100,4,2,2,60,0,0
31654,-142.857142857143,4,2,2,60,0,0
39075,-100,4,2,2,70,0,0
40970,-100,4,2,2,50,0,0
41602,-90.9090909090909,4,2,2,80,0,1
51075,-90.9090909090909,4,2,2,80,0,0
51707,-90.9090909090909,4,2,2,80,0,1
61812,-100,4,2,2,80,0,0
65444,-90.9090909090909,4,2,2,80,0,0
66232,-90.9090909090909,4,2,2,70,0,0
76970,-90.9090909090909,4,2,2,60,0,0
82023,-125,4,2,2,60,0,0
87075,-100,4,2,2,70,0,0
97181,-100,4,2,2,60,0,0
97338,-142.857142857143,4,2,2,60,0,0
104759,-100,4,2,2,70,0,0
106654,-100,4,2,2,50,0,0
107286,-90.9090909090909,4,2,2,80,0,1
116759,-90.9090909090909,4,2,2,80,0,0
117391,-90.9090909090909,4,2,2,80,0,1
127496,-100,4,2,2,80,0,0
130023,-90.9090909090909,4,2,2,80,0,0
131916,-90.9090909090909,4,2,2,70,0,0
132549,-142.857142857143,4,2,2,50,0,0
142654,-125,4,2,2,60,0,0
154023,-200,4,2,2,50,0,0
161286,-200,4,2,2,60,0,0
161602,-86.9565217391304,4,2,2,80,0,1
163496,-86.9565217391304,4,2,2,80,0,0
164128,-86.9565217391304,4,2,2,80,0,1
174233,-95.2380952380952,4,2,2,80,0,0
176759,-86.9565217391304,4,2,2,80,0,0
178653,-86.9565217391304,4,2,2,70,0,0
179286,-90.9090909090909,4,2,2,70,0,0
191759,-90.9090909090909,4,2,2,30,0,0

[Colours]
Combo1 : 60,157,255
Combo2 : 255,85,85
Combo3 : 179,102,255
Combo4 : 255,179,102

[HitObjects]
95,226,549,6,0,P|58:210|30:202,3,47.5,2|0|0|0,2:0|2:0|2:0|2:0,2:0:0:0:
128,156,864,2,0,P|96:131|86:125,5,31.6666666666667,2|0|0|0|0|0,2:0|2:0|2:0|2:0|2:0|2:0,2:0:0:0:
187,111,1181,6,0,P|267:67|347:111,1,190,4|8,3:1|2:0,2:0:0:0:
376,296,1654,1,0,2:0:0:0:
376,296,1733,1,8,2:0:0:0:
376,296,1812,1,0,3:0:0:0:
222,247,1970,2,0,L|268:164,1,95,2|8,3:2|2:0,2:0:0:0:
472,204,2286,6,0,B|400:224|332:204|332:204|308:248,1,190,2|0,3:2|3:0,2:0:0:0:
168,328,2759,2,0,P|116:336|48:304,1,95,8|0,2:0|2:0,2:0:0:0:
128,152,3075,2,0,P|164:88|168:44,1,95,2|0,3:2|3:0,2:0:0:0:
222,247,3391,2,0,P|238:291|268:327,1,95,10|0,2:0|2:0,2:0:0:0:
280,116,3707,5,2,3:2:0:0:
288,124,4023,2,0,P|340:132|408:100,1,95,8|0,2:0|2:0,2:0:0:0:
448,192,4259,1,8,2:0:0:0:
448,192,4338,1,0,3:0:0:0:
332,36,4496,1,2,3:2:0:0:
244,224,4654,1,10,2:0:0:0:
379,120,4812,6,0,P|424:152|436:296,1,190,2|0,3:2|3:0,2:0:0:0:
304,312,5286,2,0,L|184:300,1,95,8|0,2:0|2:0,2:0:0:0:
91,163,5602,2,0,P|92:211|76:255,1,95,2|0,3:2|3:0,2:0:0:0:
192,63,5917,2,0,P|191:111|207:155,1,95,10|0,2:0|2:0,2:0:0:0:
380,120,6233,6,0,P|392:176|368:260,1,142.5,2|0,3:2|2:0,2:0:0:0:
304,312,6549,1,10,2:0:0:0:
207,155,6707,2,0,P|168:148|152:152,2,47.5,2|8|0,2:0|2:0|3:0,2:0:0:0:
116,224,7023,2,0,P|80:168|84:112,1,95,2|8,3:2|2:0,2:0:0:0:
200,240,7338,6,0,L|184:340,1,95,2|0,3:2|2:0,2:0:0:0:
161,149,7654,1,0,3:0:0:0:
336,196,7812,1,10,2:0:0:0:
116,224,7970,2,0,P|80:168|84:112,1,95,2|0,2:0|3:0,2:0:0:0:
200,240,8286,1,0,3:0:0:0:
260,60,8444,1,10,2:0:0:0:
336,196,8602,2,0,L|288:192,1,47.5,0|0,2:0|2:0,2:0:0:0:
161,149,8759,6,0,L|144:40,1,95,4|0,3:1|3:0,2:0:0:0:
322,290,9075,1,8,2:0:0:0:
322,290,9154,1,0,2:0:0:0:
322,290,9233,6,0,L|339:180,1,95,6|0,3:2|2:0,2:0:0:0:
161,149,9549,1,0,3:0:0:0:
161,149,9707,1,8,2:0:0:0:
440,232,9865,6,0,L|457:122,1,95,6|0,3:2|2:0,2:0:0:0:
322,290,10181,1,0,3:0:0:0:
208,220,10338,1,12,2:0:0:0:
104,304,10496,2,0,L|40:288,2,47.5,8|8|0,2:3|2:3|2:0,2:0:0:0:
220,376,10812,1,8,2:3:0:0:
272,168,10970,2,0,P|276:108|268:48,1,95,4|0,2:3|2:0,2:0:0:0:
348,112,11207,1,0,2:0:0:0:
348,112,11286,6,0,B|344:160|368:196|368:196|352:248,1,133,6|0,2:0|2:0,2:0:0:0:
288,288,11759,2,0,L|220:280,1,66.4999999999999,2|0,2:0|2:0,2:0:0:0:
105,227,12075,2,0,L|172:220,1,66.4999999999999,2|0,2:0|2:0,2:0:0:0:
286,163,12391,6,0,L|220:156,1,66.4999999999999,2|0,2:0|2:0,2:0:0:0:
105,227,12707,1,0,2:0:0:0:
288,288,12865,1,0,2:0:0:0:
286,163,13023,2,0,L|220:156,1,66.4999999999999,2|0,2:0|2:0,2:0:0:0:
105,227,13338,2,0,L|172:220,1,66.4999999999999,0|2,2:0|2:0,2:0:0:0:
288,288,13654,1,0,2:0:0:0:
384,112,13812,6,0,P|328:120|248:88,1,133,2|0,2:0|2:0,2:0:0:0:
184,128,14286,2,0,L|176:196,1,66.4999999999999,2|0,2:0|2:0,2:0:0:0:
288,221,14602,2,0,L|288:288,1,66.4999999999999,0|0,2:0|2:0,2:0:0:0:
384,112,14917,6,0,L|392:180,2,66.4999999999999,2|0|0,2:0|2:0|2:0,2:0:0:0:
184,128,15391,1,0,2:0:0:0:
288,221,15549,2,0,L|288:288,1,66.4999999999999,2|0,2:0|2:0,2:0:0:0:
376,120,15865,1,0,2:0:0:0:
192,136,16023,1,2,2:0:0:0:
312,316,16181,1,0,2:0:0:0:
288,220,16338,6,0,P|212:208|140:232,1,133,2|0,2:0|2:0,2:0:0:0:
117,122,16812,2,0,L|184:128,1,66.4999999999999,2|0,2:0|2:0,2:0:0:0:
232,64,17128,2,0,L|298:69,1,66.4999999999999,0|0,2:0|2:0,2:0:0:0:
450,106,17444,6,0,L|384:112,1,66.4999999999999,2|0,2:0|2:0,2:0:0:0:
288,220,17759,1,0,2:0:0:0:
232,64,17917,1,0,2:0:0:0:
118,122,18075,2,0,L|51:127,1,66.4999999999999,2|0,2:0|2:0,2:0:0:0:
156,232,18391,1,0,2:0:0:0:
232,64,18549,1,2,2:0:0:0:
156,232,18707,1,0,2:0:0:0:
288,220,18865,6,0,P|335:237|360:263,2,66.4999999999999,2|0|0,2:0|2:0|2:0,2:0:0:0:
156,232,19338,2,0,L|89:237,1,66.4999999999999,2|0,2:0|2:0,2:0:0:0:
118,122,19654,2,0,L|51:127,1,66.4999999999999,2|0,2:0|2:0,2:0:0:0:
232,64,19970,6,0,P|272:88|300:96,1,66.4999999999999,2|0,2:0|2:0,2:0:0:0:
415,100,20286,2,0,P|385:114|360:136,1,66.4999999999999,0|0,2:0|2:0,2:0:0:0:
294,238,20602,2,0,L|287:151,1,66.4999999999999,2|0,2:0|3:0,2:0:0:0:
356,40,20917,1,8,2:0:0:0:
429,183,21075,1,8,2:0:0:0:
395,197,21154,1,8,2:0:0:0:
361,211,21233,1,8,2:0:0:0:
328,225,21312,1,8,2:0:0:0:
294,238,21391,6,0,P|234:199|160:200,1,142.5,4|0,3:1|2:0,2:0:0:0:
96,232,21707,2,0,L|80:332,1,95,10|2,2:0|2:0,2:0:0:0:
172,124,22023,1,0,3:0:0:0:
172,124,22181,1,2,3:2:0:0:
204,288,22338,1,8,2:0:0:0:
328,224,22496,6,0,L|343:130,1,95,2|0,3:2|2:0,2:0:0:0:
292,28,22812,1,0,3:0:0:0:
172,124,22970,2,0,L|156:217,1,95,10|2,2:0|2:0,2:0:0:0:
240,296,23286,1,0,3:0:0:0:
328,224,23444,1,2,3:2:0:0:
172,124,23602,2,0,P|128:145|72:145,1,95,8|2,2:0|2:0,2:0:0:0:
328,224,23917,5,0,3:0:0:0:
336,216,24233,2,0,P|356:160|360:120,1,95,10|2,2:0|2:0,2:0:0:0:
308,20,24549,1,0,3:0:0:0:
216,88,24707,1,2,3:2:0:0:
336,216,24865,1,8,2:0:0:0:
240,324,25023,6,0,P|172:336|120:320,1,95,2|0,3:2|2:0,2:0:0:0:
88,232,25338,1,0,3:0:0:0:
216,88,25496,2,0,L|320:108,1,95,10|2,2:0|2:0,2:0:0:0:
388,192,25812,1,0,3:0:0:0:
240,324,25970,1,0,3:0:0:0:
216,88,26128,1,10,2:0:0:0:
272,208,26286,1,0,2:0:0:0:
272,208,26365,1,0,2:0:0:0:
272,207,26444,6,0,P|203:224|116:196,1,142.5,4|0,3:2|2:0,2:0:0:0:
84,152,26759,2,0,L|68:58,1,95,10|2,2:0|2:0,2:0:0:0:
140,296,27075,1,0,3:0:0:0:
140,296,27233,1,2,3:2:0:0:
204,96,27391,1,8,2:0:0:0:
272,208,27549,6,0,L|288:302,1,95,2|0,3:2|2:0,2:0:0:0:
140,296,27865,1,0,3:0:0:0:
204,96,28023,2,0,P|252:80|312:76,1,95,8|2,2:0|2:0,2:0:0:0:
404,112,28338,1,0,3:0:0:0:
360,216,28496,1,0,3:0:0:0:
204,96,28654,2,0,P|156:112|96:116,1,95,10|2,2:0|2:0,2:0:0:0:
260,292,28970,5,0,3:0:0:0:
264,280,29286,2,0,P|276:228|272:172,1,95,10|0,2:0|2:0,2:0:0:0:
204,96,29602,1,0,3:0:0:0:
148,196,29759,1,0,3:0:0:0:
360,216,29917,1,8,2:0:0:0:
148,196,30075,6,0,P|88:236|112:312,1,142.5,6|0,3:2|2:0,2:0:0:0:
164,340,30391,1,8,2:0:0:0:
272,184,30549,1,2,3:2:0:0:
92,120,30707,1,8,2:3:0:0:
256,288,30865,1,8,2:0:0:0:
204,96,31023,1,8,2:0:0:0:
256,288,31181,1,8,2:3:0:0:
396,148,31338,1,4,2:3:0:0:
272,184,31496,5,4,3:1:0:0:
272,184,31654,2,0,B|284:104|284:104|296:76|324:56,1,133,0|0,3:0|3:0,2:0:0:0:
396,148,32128,2,0,L|384:232,1,66.4999999999999,10|0,2:0|2:0,2:0:0:0:
256,288,32444,1,2,3:2:0:0:
256,288,32602,6,0,P|180:268|136:272,1,99.7499999999999,2|0,3:2|2:0,2:0:0:0:
84,256,32917,2,0,L|74:190,1,66.4999999999999,10|2,2:0|2:0,2:0:0:0:
140,124,33233,1,0,3:0:0:0:
256,288,33391,2,0,L|265:222,1,66.4999999999999,8|0,2:0|2:0,2:0:0:0:
352,188,33707,2,0,L|361:122,1,66.4999999999999,2|0,3:2|2:0,2:0:0:0:
448,256,34023,5,2,3:2:0:0:
448,256,34181,2,0,P|412:288|320:304,1,133,0|2,3:0|3:2,2:0:0:0:
224,232,34654,2,0,P|184:224|140:232,1,66.4999999999999,8|2,2:0|2:0,2:0:0:0:
352,188,34970,1,0,3:0:0:0:
352,188,35128,6,0,L|364:64,1,99.7499999999999,2|0,3:2|2:0,2:0:0:0:
296,40,35444,2,0,P|256:32|212:40,1,66.4999999999999,10|2,2:0|2:0,2:0:0:0:
160,92,35759,1,2,3:2:0:0:
224,232,35917,5,10,2:0:0:0:
361,88,36075,1,0,3:0:0:0:
144,184,36233,1,8,2:3:0:0:
352,188,36391,1,8,2:3:0:0:
224,232,36549,5,4,3:1:0:0:
224,232,36707,2,0,B|208:316|208:316|216:340|248:356,1,133,0|0,3:0|3:0,2:0:0:0:
312,240,37181,2,0,L|304:160,1,66.4999999999999,10|0,2:0|2:0,2:0:0:0:
220,64,37496,1,2,3:2:0:0:
220,64,37654,6,0,P|152:80|96:68,1,99.7499999999999,2|0,3:2|2:0,2:0:0:0:
56,124,37970,2,0,L|49:190,1,66.4999999999999,10|2,2:0|2:0,2:0:0:0:
128,288,38286,1,0,3:0:0:0:
284,140,38444,1,8,2:0:0:0:
312,240,38602,2,0,L|248:236,1,33.25,0|0,3:0|3:0,2:0:0:0:
168,136,38759,1,8,2:0:0:0:
156,152,39075,6,0,P|144:220|176:292,1,142.5,6|0,3:2|2:0,2:0:0:0:
240,332,39391,2,0,L|352:328,1,95,8|2,2:0|2:0,2:0:0:0:
432,268,39707,1,0,3:0:0:0:
432,268,39865,1,2,3:2:0:0:
284,140,40023,1,8,2:0:0:0:
240,332,40181,5,8,1:3:0:0:
240,324,40496,5,8,1:3:0:0:
272,60,40654,1,8,1:3:0:0:
272,68,40970,6,0,L|324:64,3,47.5,2|0|0|0,2:3|2:0|2:0|2:0,2:0:0:0:
364,128,41286,2,0,L|411:131,3,47.5,2|0|0|0,2:3|2:0|2:0|2:0,2:0:0:0:
416,216,41602,6,0,B|424:312|424:312|400:348|356:356,1,156.75,4|0,3:1|2:0,2:0:0:0:
296,328,41917,1,10,2:0:0:0:
204,188,42075,1,2,2:0:0:0:
204,188,42154,1,8,2:0:0:0:
204,188,42233,1,0,3:0:0:0:
68,284,42391,2,0,L|188:280,1,104.5,2|8,3:2|2:0,2:0:0:0:
416,216,42707,6,0,L|296:212,2,104.5,2|0|0,3:2|2:0|3:0,2:0:0:0:
204,188,43181,2,0,P|157:168|113:128,1,104.5,10|0,2:0|2:0,2:0:0:0:
320,120,43496,1,2,3:2:0:0:
348,332,43654,1,2,3:2:0:0:
204,188,43812,1,10,2:0:0:0:
416,216,43970,1,0,2:0:0:0:
212,324,44128,6,0,P|136:312|80:240,1,156.75,2|0,3:2|2:0,2:0:0:0:
76,172,44444,1,10,2:0:0:0:
248,36,44602,1,2,2:0:0:0:
248,36,44681,1,8,2:0:0:0:
248,36,44759,1,0,3:0:0:0:
352,108,44917,2,0,L|361:219,1,104.5,2|8,3:2|2:0,2:0:0:0:
127,254,45233,6,0,B|120:160|120:160|176:124|176:64,1,209,2|0,3:2|3:0,2:0:0:0:
208,208,45707,2,0,P|240:256|292:292,1,104.5,8|0,2:0|2:0,2:0:0:0:
352,108,46023,2,0,P|376:40|404:20,1,104.5,2|0,3:2|3:0,2:0:0:0:
160,108,46338,2,0,P|136:40|108:20,1,104.5,10|0,2:0|2:0,2:0:0:0:
304,208,46654,6,0,P|364:216|444:168,1,156.75,2|0,3:2|2:0,2:0:0:0:
444,84,46970,1,10,2:0:0:0:
404,288,47128,1,2,2:0:0:0:
404,288,47207,1,8,2:0:0:0:
404,288,47286,1,0,3:0:0:0:
351,107,47444,2,0,P|302:91|252:108,1,104.5,2|8,3:2|2:0,2:0:0:0:
116,204,47759,6,0,P|66:218|17:202,2,104.5,2|0|0,3:2|2:0|3:0,2:0:0:0:
304,208,48233,2,0,L|324:320,1,104.5,10|0,2:0|2:0,2:0:0:0:
208,176,48549,1,2,3:2:0:0:
432,136,48707,1,2,3:2:0:0:
284,88,48865,1,10,2:0:0:0:
322,310,49023,1,0,2:0:0:0:
157,209,49181,6,0,B|132:188|121:149|121:149|128:104|168:92|200:104|214:148,1,209,4|8,3:1|2:0,2:0:0:0:
304,264,49654,2,0,B|272:312|256:358|256:358|240:312|208:264,1,209,4|0,3:2|3:0,2:0:0:0:
297,148,50128,2,0,B|312:104|344:92|384:104|391:149|391:149|380:188|355:209,1,209,12|0,2:0|2:0,2:0:0:0:
256,356,50602,5,2,3:2:0:0:
128,136,50759,1,10,2:0:0:0:
384,136,50917,1,2,3:2:0:0:
256,352,51075,6,0,B|268:328|244:280|256:248,1,104.5,10|8,2:0|2:0,2:0:0:0:
380,140,51391,2,0,L|320:148,1,52.25,8|8,2:0|2:0,2:0:0:0:
132,140,51549,2,0,L|183:146,1,52.25,8|8,2:3|2:3,2:0:0:0:
328,272,51707,6,0,P|392:276|488:224,1,156.75,4|0,3:1|2:0,2:0:0:0:
500,156,52023,1,10,2:0:0:0:
376,40,52181,1,2,2:0:0:0:
376,40,52259,1,8,2:0:0:0:
376,40,52338,1,0,3:0:0:0:
252,152,52496,2,0,L|244:268,1,104.5,2|8,3:2|2:0,2:0:0:0:
492,260,52812,6,0,L|500:156,2,104.5,2|0|0,3:2|2:0|3:0,2:0:0:0:
339,328,53286,2,0,P|289:340|237:335,1,104.5,10|0,2:0|2:0,2:0:0:0:
132,140,53602,1,2,3:2:0:0:
316,44,53759,1,2,3:2:0:0:
284,252,53917,1,10,2:0:0:0:
200,48,54075,1,0,2:0:0:0:
420,76,54233,6,0,P|452:136|420:240,1,156.75,2|0,3:2|2:0,2:0:0:0:
368,272,54549,1,10,2:0:0:0:
256,148,54707,1,2,2:0:0:0:
256,148,54786,1,8,2:0:0:0:
256,148,54865,1,0,3:0:0:0:
140,252,55023,2,0,P|144:312|180:372,1,104.5,2|8,3:2|2:0,2:0:0:0:
332,208,55338,6,0,B|372:144|332:92|332:92|380:80|404:51,1,209,2|0,3:2|3:0,2:0:0:0:
256,148,55812,2,0,P|192:160|128:140,1,104.5,8|0,2:0|2:0,2:0:0:0:
20,256,56128,2,0,P|80:248|128:268,1,104.5,2|0,3:2|3:0,2:0:0:0:
356,141,56444,2,0,P|305:132|256:148,1,104.5,10|0,2:0|2:0,2:0:0:0:
68,48,56759,6,0,B|104:64|112:88|112:88|104:144|144:188,1,156.75,2|0,3:2|2:0,2:0:0:0:
208,220,57075,1,10,2:0:0:0:
264,56,57233,1,2,2:0:0:0:
264,56,57312,1,8,2:0:0:0:
264,56,57391,1,0,3:0:0:0:
356,140,57549,2,0,P|402:161|454:162,1,104.5,2|8,3:2|2:0,2:0:0:0:
208,220,57865,6,0,P|161:198|100:200,2,104.5,2|0|0,3:2|2:0|3:0,2:0:0:0:
376,300,58338,2,0,P|407:258|412:196,1,104.5,10|0,2:0|2:0,2:0:0:0:
264,56,58654,1,2,3:2:0:0:
113,215,58812,1,2,3:2:0:0:
316,220,58970,1,10,2:0:0:0:
112,112,59128,1,0,2:0:0:0:
272,302,59286,6,0,P|324:307|376:300,1,104.5,4|0,3:1|2:0,2:0:0:0:
192,368,59602,1,8,2:0:0:0:
113,215,59759,6,0,P|104:152|116:104,1,104.5,4|0,3:2|2:0,2:0:0:0:
324,57,60075,2,0,P|333:108|324:160,1,104.5,0|8,3:0|2:0,2:0:0:0:
165,311,60391,6,0,P|168:219|252:271,1,209,4|0,3:1|3:0,2:0:0:0:
40,160,60865,2,0,P|80:112|148:92,1,104.5,8|0,2:0|3:0,2:0:0:0:
212,92,61102,1,0,3:0:0:0:
212,92,61181,1,8,2:0:0:0:
376,236,61338,1,8,2:3:0:0:
168,168,61496,1,0,3:0:0:0:
336,28,61654,1,8,1:3:0:0:
293,175,61812,6,0,B|240:268|240:268|200:296|161:289,1,190,4|2,3:2|3:2,2:0:0:0:
68,228,62286,2,0,L|64:120,1,95,2|8,3:2|2:0,2:0:0:0:
164,73,62602,2,0,L|168:168,1,95,2|0,2:0|3:0,2:0:0:0:
296,316,62917,6,0,B|368:340|420:272|420:272|484:288,1,190,2|8,3:2|2:0,2:0:0:0:
327,214,63391,2,0,P|287:190|260:152,1,95,0|0,2:0|3:0,2:0:0:0:
424,200,63707,1,10,2:0:0:0:
296,316,63865,1,0,2:0:0:0:
260,152,64023,1,2,3:2:0:0:
392,292,64181,1,2,2:0:0:0:
260,152,64338,6,0,P|246:106|245:59,1,95,4|0,3:1|2:0,2:0:0:0:
327,214,64654,1,2,3:2:0:0:
327,214,64812,2,0,P|288:240|241:242,1,95,2|8,3:2|2:0,2:0:0:0:
62,256,65128,2,0,P|109:258|152:280,1,95,10|0,2:0|3:0,2:0:0:0:
392,292,65444,6,0,P|424:244|424:192,1,104.5,6|0,3:2|2:0,2:0:0:0:
120,92,65759,2,0,P|88:140|88:192,1,104.5,10|0,2:0|2:0,2:0:0:0:
327,214,66075,2,0,L|339:98,1,104.5,2|8,3:2|2:0,2:0:0:0:
276,56,66312,1,8,2:0:0:0:
276,56,66391,2,0,L|272:0,1,52.25,10|8,2:0|2:0,2:0:0:0:
207,111,66549,2,0,L|210:163,1,52.25,8|8,2:0|2:0,2:0:0:0:
241,242,66707,1,10,2:0:0:0:
241,242,66786,1,8,2:0:0:0:
241,242,66865,5,4,3:1:0:0:
256,192,66944,12,0,69391,2:0:0:0:
92,112,76970,5,4,3:2:0:0:
153,216,77286,1,2,3:2:0:0:
256,155,77602,1,0,3:0:0:0:
196,52,77917,1,0,3:0:0:0:
153,216,78233,5,0,3:0:0:0:
214,320,78549,1,0,3:0:0:0:
317,259,78865,1,0,3:0:0:0:
196,52,79181,1,8,2:0:0:0:
420,112,79496,5,0,3:0:0:0:
359,216,79812,1,2,3:2:0:0:
256,155,80128,1,0,3:0:0:0:
316,52,80444,1,0,3:0:0:0:
359,216,80759,5,0,3:0:0:0:
298,320,81075,1,0,3:0:0:0:
195,259,81391,1,0,3:0:0:0:
316,52,81707,1,8,2:0:0:0:
194,258,82023,6,0,P|158:272|121:267,1,76,0|0,3:0|2:0,2:0:0:0:
317,258,82338,2,0,P|353:272|390:267,1,76,2|2,3:2|2:0,2:0:0:0:
151,191,82654,2,0,P|117:176|94:147,1,76,0|2,3:0|2:0,2:0:0:0:
360,191,82970,2,0,P|394:176|417:147,1,76,0|2,3:0|2:0,2:0:0:0:
167,111,83286,6,0,P|154:76|157:39,1,76,0|0,3:0|2:0,2:0:0:0:
344,111,83602,2,0,P|357:76|354:39,1,76,0|2,3:0|2:0,2:0:0:0:
256,68,83917,2,0,L|256:152,1,76,0|2,3:0|2:0,2:0:0:0:
256,316,84233,2,0,L|256:232,1,76,8|2,2:0|2:0,2:0:0:0:
344,112,84549,6,0,P|376:152|404:164,1,76,0|2,3:0|2:0,2:0:0:0:
168,112,84865,2,0,P|136:152|108:164,1,76,2|0,3:2|2:0,2:0:0:0:
256,316,85181,2,0,L|256:232,1,76,0|2,3:0|2:0,2:0:0:0:
397,162,85496,1,0,3:0:0:0:
114,162,85654,5,8,2:0:0:0:
114,162,86602,5,12,2:0:0:0:
176,264,86759,2,0,L|228:260,1,38,8|8,2:0|2:0,2:0:0:0:
312,312,86917,2,0,L|361:294,1,38,8|8,2:0|2:0,2:0:0:0:
397,162,87075,6,0,P|400:96|340:40,1,142.5,4|0,3:1|2:0,2:0:0:0:
272,40,87391,2,0,L|156:52,1,95,10|2,2:0|2:0,2:0:0:0:
114,162,87707,1,0,3:0:0:0:
114,162,87865,1,2,3:2:0:0:
264,244,88023,1,8,2:0:0:0:
308,128,88181,6,0,L|192:140,1,95,2|0,3:2|2:0,2:0:0:0:
160,260,88496,1,0,3:0:0:0:
352,208,88654,2,0,P|384:172|392:120,1,95,10|2,2:0|2:0,2:0:0:0:
348,20,88970,1,0,3:0:0:0:
308,128,89128,1,2,3:2:0:0:
420,264,89286,2,0,P|464:280|508:264,1,95,8|2,2:0|2:0,2:0:0:0:
264,244,89602,5,0,3:0:0:0:
252,232,89917,2,0,P|228:180|232:128,1,95,10|2,2:0|2:0,2:0:0:0:
320,44,90233,1,0,3:0:0:0:
408,144,90391,1,2,3:2:0:0:
228,60,90549,1,8,2:0:0:0:
124,160,90707,6,0,P|112:216|120:280,1,95,2|0,3:2|2:0,2:0:0:0:
208,360,91023,1,0,3:0:0:0:
239,154,91181,2,0,L|228:60,1,95,10|2,2:0|2:0,2:0:0:0:
124,160,91496,1,0,3:0:0:0:
352,184,91654,1,0,3:0:0:0:
208,360,91812,1,10,2:0:0:0:
232,228,91970,1,0,2:0:0:0:
232,228,92049,1,0,2:0:0:0:
232,228,92128,6,0,B|296:240|327:295|327:295|334:274,1,142.5,4|0,3:2|2:0,2:0:0:0:
352,184,92444,2,0,L|344:56,1,95,10|2,2:0|2:0,2:0:0:0:
428,252,92759,1,0,3:0:0:0:
428,252,92917,1,2,3:2:0:0:
264,148,93075,1,8,2:0:0:0:
140,216,93233,6,0,P|156:277|197:320,1,95,2|0,3:2|2:0,2:0:0:0:
312,260,93549,1,0,3:0:0:0:
188,120,93707,2,0,P|140:108|94:119,1,95,8|2,2:0|2:0,2:0:0:0:
232,192,94023,1,0,3:0:0:0:
260,80,94181,1,0,3:0:0:0:
140,216,94338,2,0,P|156:277|197:320,1,95,10|2,2:0|2:0,2:0:0:0:
360,160,94654,5,0,3:0:0:0:
364,140,94970,2,0,P|368:80|364:44,1,95,10|0,2:0|2:0,2:0:0:0:
272,168,95286,1,0,3:0:0:0:
344,300,95444,1,0,3:0:0:0:
444,96,95602,1,8,2:0:0:0:
344,300,95759,6,0,P|284:304|244:224,1,142.5,6|0,3:2|2:0,2:0:0:0:
272,168,96075,1,8,2:0:0:0:
440,256,96233,1,2,3:2:0:0:
280,356,96391,1,8,2:3:0:0:
384,152,96549,1,8,2:0:0:0:
192,96,96707,1,8,2:0:0:0:
384,152,96865,1,8,2:3:0:0:
232,280,97023,1,4,2:3:0:0:
272,168,97181,5,4,3:1:0:0:
272,168,97338,2,0,B|312:92|312:92|336:64|364:64,1,133,0|0,3:0|3:0,2:0:0:0:
372,184,97812,2,0,L|341:242,1,66.4999999999999,10|0,2:0|2:0,2:0:0:0:
180,220,98128,1,2,3:2:0:0:
180,220,98286,6,0,P|172:156|188:108,1,99.7499999999999,2|0,3:2|2:0,2:0:0:0:
228,60,98602,2,0,L|304:52,1,66.4999999999999,10|2,2:0|2:0,2:0:0:0:
388,92,98917,1,0,3:0:0:0:
180,220,99075,2,0,L|246:226,1,66.4999999999999,8|0,2:0|2:0,2:0:0:0:
370,277,99391,2,0,L|304:284,1,66.4999999999999,2|0,3:2|2:0,2:0:0:0:
132,280,99707,5,2,3:2:0:0:
132,280,99865,2,0,P|100:224|112:128,1,133,0|2,3:0|3:2,2:0:0:0:
256,104,100338,2,0,P|276:92|304:52,1,66.4999999999999,8|2,2:0|2:0,2:0:0:0:
288,216,100654,1,0,3:0:0:0:
288,216,100812,6,0,P|280:264|288:328,1,99.7499999999999,2|0,3:2|2:0,2:0:0:0:
204,268,101128,2,0,L|192:202,1,66.4999999999999,10|2,2:0|2:0,2:0:0:0:
256,104,101444,1,2,3:2:0:0:
376,272,101602,1,10,2:0:0:0:
193,203,101759,1,0,3:0:0:0:
344,76,101917,1,8,2:3:0:0:
272,268,102075,1,8,2:3:0:0:
260,128,102233,5,4,3:1:0:0:
260,128,102391,2,0,B|200:108|200:108|160:108|136:135,1,133,0|0,3:0|3:0,2:0:0:0:
332,180,102865,2,0,L|340:112,1,66.4999999999999,10|0,2:0|2:0,2:0:0:0:
193,203,103181,1,2,3:2:0:0:
193,203,103338,6,0,P|220:264|256:296,1,99.7499999999999,2|0,3:2|2:0,2:0:0:0:
324,312,103654,2,0,L|396:304,1,66.4999999999999,10|2,2:0|2:0,2:0:0:0:
472,204,103970,1,0,3:0:0:0:
260,128,104128,1,8,2:0:0:0:
384,232,104286,2,0,L|388:176,1,33.25,0|0,3:0|3:0,2:0:0:0:
324,48,104444,1,8,2:0:0:0:
328,64,104759,6,0,B|336:136|336:136|324:184|288:196,1,142.5,6|0,3:2|2:0,2:0:0:0:
220,196,105075,2,0,L|100:172,1,95,8|2,2:0|2:0,2:0:0:0:
88,48,105391,1,0,3:0:0:0:
88,48,105549,1,2,3:2:0:0:
260,128,105707,1,8,2:0:0:0:
116,252,105865,5,8,1:3:0:0:
124,248,106181,5,8,1:3:0:0:
388,136,106338,1,8,1:3:0:0:
396,132,106654,5,2,2:3:0:0:
406,145,106733,1,0,2:0:0:0:
414,159,106812,1,0,2:0:0:0:
421,174,106891,1,0,2:0:0:0:
425,190,106970,1,2,2:3:0:0:
427,207,107049,1,0,2:0:0:0:
427,223,107128,1,0,2:0:0:0:
425,240,107207,1,0,2:0:0:0:
400,284,107286,6,0,B|319:322|319:322|283:327|249:307,1,156.75,4|0,3:1|2:0,2:0:0:0:
192,252,107602,1,10,2:0:0:0:
236,92,107759,1,2,2:0:0:0:
236,92,107838,1,8,2:0:0:0:
236,92,107917,1,0,3:0:0:0:
368,196,108075,2,0,P|420:199|471:188,1,104.5,2|8,3:2|2:0,2:0:0:0:
192,252,108391,6,0,P|140:255|89:243,2,104.5,2|0|0,3:2|2:0|3:0,2:0:0:0:
368,196,108865,2,0,P|376:136|356:68,1,104.5,10|0,2:0|2:0,2:0:0:0:
192,252,109181,1,2,3:2:0:0:
400,328,109338,1,2,3:2:0:0:
276,144,109496,1,10,2:0:0:0:
268,364,109654,1,0,2:0:0:0:
404,192,109812,6,0,P|408:124|360:40,1,156.75,2|0,3:2|2:0,2:0:0:0:
284,28,110128,1,10,2:0:0:0:
152,160,110286,1,2,2:0:0:0:
152,160,110365,1,8,2:0:0:0:
152,160,110444,1,0,3:0:0:0:
56,76,110602,2,0,P|32:124|32:196,1,104.5,2|8,3:2|2:0,2:0:0:0:
248,216,110917,6,0,B|274:156|250:109|250:109|270:42|343:46,1,209,2|0,3:2|3:0,2:0:0:0:
152,160,111391,2,0,P|101:161|60:120,1,104.5,8|0,2:0|2:0,2:0:0:0:
332,128,111707,2,0,P|352:176|360:248,1,104.5,2|0,3:2|3:0,2:0:0:0:
136,339,112023,2,0,P|116:291|108:240,1,104.5,10|0,2:0|2:0,2:0:0:0:
308,296,112338,6,0,P|380:320|448:256,1,156.75,2|0,3:2|2:0,2:0:0:0:
460,192,112654,1,10,2:0:0:0:
396,36,112812,1,2,2:0:0:0:
396,36,112891,1,8,2:0:0:0:
396,36,112970,1,0,3:0:0:0:
256,76,113128,2,0,P|230:121|218:172,1,104.5,2|8,3:2|2:0,2:0:0:0:
368,240,113444,6,0,P|393:194|405:143,2,104.5,2|0|0,3:2|2:0|3:0,2:0:0:0:
164,240,113917,2,0,L|28:232,1,104.5,10|0,2:0|2:0,2:0:0:0:
219,143,114233,1,2,3:2:0:0:
264,356,114391,1,2,3:2:0:0:
128,152,114549,1,10,2:0:0:0:
368,240,114707,1,0,2:0:0:0:
164,240,114865,6,0,B|72:212|72:212|32:152|65:106,1,209,4|8,3:1|2:0,2:0:0:0:
312,176,115338,2,0,P|256:248|199:177,1,209,4|0,3:2|3:0,2:0:0:0:
446,106,115812,2,0,B|480:152|440:212|440:212|348:240,1,209,12|0,2:0|2:0,2:0:0:0:
128,152,116286,5,2,3:2:0:0:
384,152,116444,1,10,2:0:0:0:
256,360,116602,1,2,3:2:0:0:
195,179,116759,5,10,2:0:0:0:
220,148,116838,1,0,2:0:0:0:
256,136,116917,1,8,2:0:0:0:
292,148,116996,1,0,2:0:0:0:
316,179,117075,2,0,L|328:236,1,52.25,8|8,2:0|2:0,2:0:0:0:
128,152,117233,2,0,L|117:100,1,52.25,8|8,2:3|2:3,2:0:0:0:
384,152,117391,6,0,B|404:252|404:252|384:288|367:291,1,156.75,4|0,3:1|2:0,2:0:0:0:
284,288,117707,1,10,2:0:0:0:
204,140,117865,1,2,2:0:0:0:
204,140,117944,1,8,2:0:0:0:
204,140,118023,1,0,3:0:0:0:
140,248,118181,2,0,P|145:299|160:349,1,104.5,2|8,3:2|2:0,2:0:0:0:
276,208,118496,6,0,P|290:157|296:106,2,104.5,2|0|0,3:2|2:0|3:0,2:0:0:0:
396,324,118970,2,0,P|469:284|503:244,1,104.5,10|0,2:0|2:0,2:0:0:0:
416,68,119286,1,2,3:2:0:0:
336,268,119444,1,2,3:2:0:0:
416,68,119602,1,10,2:0:0:0:
483,270,119759,1,0,2:0:0:0:
316,144,119917,6,0,P|248:120|164:140,1,156.75,2|0,3:2|2:0,2:0:0:0:
112,204,120233,1,10,2:0:0:0:
336,268,120391,2,0,P|391:243|427:204,1,104.5,2|0,2:0|3:0,2:0:0:0:
224,340,120707,2,0,P|175:320|137:285,1,104.5,2|8,3:2|2:0,2:0:0:0:
232,148,121023,6,0,B|250:103|250:43|250:43|298:79|346:63,1,209,2|0,3:2|3:0,2:0:0:0:
262,239,121496,2,0,P|215:243|159:211,1,104.5,8|0,2:0|2:0,2:0:0:0:
392,216,121812,2,0,L|384:324,1,104.5,2|0,3:2|3:0,2:0:0:0:
232,148,122128,2,0,L|239:43,1,104.5,10|0,2:0|2:0,2:0:0:0:
280,272,122444,6,0,P|240:308|116:300,1,156.75,2|0,3:2|2:0,2:0:0:0:
68,276,122759,1,10,2:0:0:0:
132,96,122917,1,2,2:0:0:0:
132,96,122996,1,8,2:0:0:0:
132,96,123075,1,0,3:0:0:0:
188,212,123233,2,0,P|240:168|256:120,1,104.5,2|8,3:2|2:0,2:0:0:0:
360,264,123549,6,0,P|393:301|443:314,2,104.5,2|0|0,3:2|2:0|3:0,2:0:0:0:
188,212,124023,2,0,P|153:251|147:302,1,104.5,10|0,2:0|2:0,2:0:0:0:
328,164,124338,1,2,3:2:0:0:
132,96,124496,1,2,3:2:0:0:
228,284,124654,1,10,2:0:0:0:
296,84,124812,1,0,2:0:0:0:
436,244,124970,6,0,L|426:351,1,104.5,4|0,3:1|2:0,2:0:0:0:
328,164,125286,1,8,2:0:0:0:
76,244,125444,6,0,L|85:351,1,104.5,4|0,3:2|2:0,2:0:0:0:
184,164,125759,2,0,L|174:56,1,104.5,0|8,3:0|2:0,2:0:0:0:
160,268,126075,6,0,B|196:316|252:308|252:308|272:244|332:236,1,209,4|0,3:1|3:0,2:0:0:0:
512,320,126549,2,0,P|464:352|400:344,1,104.5,8|0,2:0|3:0,2:0:0:0:
340,324,126786,1,0,3:0:0:0:
340,324,126865,1,8,2:0:0:0:
256,144,127023,1,8,2:3:0:0:
440,260,127181,1,0,3:0:0:0:
240,260,127338,1,8,1:3:0:0:
424,144,127496,6,0,P|416:72|304:28,1,190,4|2,3:2|3:2,2:0:0:0:
256,144,127970,2,0,L|244:248,1,95,2|8,3:2|2:0,2:0:0:0:
340,324,128286,2,0,L|350:229,1,95,2|0,2:0|3:0,2:0:0:0:
160,180,128602,6,0,B|128:216|72:200|72:200|56:316,1,190,2|8,3:2|2:0,2:0:0:0:
104,128,129075,2,0,L|114:33,1,95,0|0,2:0|3:0,2:0:0:0:
224,132,129391,1,10,2:0:0:0:
184,252,129549,1,0,2:0:0:0:
192,48,129707,1,2,3:2:0:0:
264,212,129865,1,2,2:0:0:0:
103,291,130023,6,0,P|63:259|44:211,1,104.5,4|0,3:1|2:0,2:0:0:0:
192,48,130338,1,2,3:2:0:0:
192,48,130496,2,0,P|232:80|251:128,1,104.5,2|8,3:2|2:0,2:0:0:0:
224,328,130812,2,0,P|231:276|264:236,1,104.5,10|0,2:0|3:0,2:0:0:0:
496,308,131128,6,0,P|447:326|396:318,1,104.5,6|0,3:2|2:0,2:0:0:0:
396,65,131444,2,0,P|447:57|496:76,1,104.5,10|0,2:0|2:0,2:0:0:0:
276,248,131759,2,0,L|152:232,1,104.5,2|8,3:2|2:0,2:0:0:0:
128,209,131996,1,8,2:0:0:0:
103,163,132075,1,10,2:0:0:0:
100,112,132154,1,8,2:0:0:0:
111,61,132233,5,8,2:0:0:0:
93,81,132312,1,8,2:0:0:0:
77,100,132391,1,10,2:0:0:0:
59,120,132470,1,8,2:0:0:0:
44,142,132549,6,0,B|32:208|32:208|48:276,2,133,4|2|0,3:1|2:0|2:0,2:0:0:0:
144,208,133338,1,2,2:0:0:0:
156,216,133654,6,0,P|218:235|282:220,1,133,2|0,2:0|2:0,2:0:0:0:
344,168,134128,2,0,P|407:152|470:172,2,133,2|0|2,2:0|2:0|2:0,2:0:0:0:
190,344,135075,6,0,L|156:216,1,133,2|0,2:0|2:0,2:0:0:0:
144,136,135549,2,0,P|164:80|244:44,1,133,2|0,2:0|2:0,2:0:0:0:
320,80,136023,1,2,2:0:0:0:
274,268,136181,6,0,L|240:140,1,133,2|0,2:0|2:0,2:0:0:0:
320,80,136654,2,0,P|380:55|442:76,2,133,2|0|0,2:0|2:0|2:0,2:0:0:0:
384,156,137444,1,2,2:0:0:0:
384,156,137523,1,2,2:0:0:0:
384,156,137602,6,0,B|396:221|396:221|380:289,2,133,2|0|2,2:0|2:0|2:0,2:0:0:0:
320,80,138391,1,0,2:0:0:0:
308,96,138707,6,0,P|269:122|169:120,1,133,2|0,2:0|2:0,2:0:0:0:
104,132,139181,2,0,P|69:191|69:257,1,133,2|0,2:0|2:0,2:0:0:0:
256,336,139812,1,2,2:0:0:0:
257,323,140128,6,0,B|273:291|241:219|256:192,1,133,2|0,2:0|2:0,2:0:0:0:
352,124,140602,2,0,P|374:185|360:249,1,133,2|0,2:0|2:0,2:0:0:0:
256,192,141075,1,2,2:0:0:0:
151,249,141233,6,0,P|137:185|160:124,1,133,2|0,2:0|2:0,2:0:0:0:
256,192,141707,1,0,2:0:0:0:
256,32,141865,5,2,2:0:0:0:
256,32,141944,1,2,2:0:0:0:
256,32,142023,1,2,2:0:0:0:
160,124,142181,1,2,2:0:0:0:
352,124,142338,1,2,2:0:0:0:
356,140,142654,6,0,B|380:236,1,76,4|0,3:1|2:0,2:0:0:0:
360,303,142970,2,0,P|328:328|291:335,1,76,2|0,3:2|2:0,2:0:0:0:
141,197,143286,2,0,B|160:124,1,76,10|0,2:0|2:0,2:0:0:0:
208,252,143602,2,0,P|175:276|139:283,1,76,2|2,3:2|2:0,2:0:0:0:
224,168,143917,6,0,P|258:182|284:210,1,76,0|2,3:0|2:0,2:0:0:0:
364,256,144233,2,0,P|398:241|424:213,1,76,2|0,3:2|2:0,2:0:0:0:
242,94,144549,2,0,B|224:168,1,76,8|0,2:0|2:0,2:0:0:0:
332,76,144865,2,0,P|317:41|289:15,1,76,2|0,3:2|2:0,2:0:0:0:
300,160,145181,6,0,P|337:165|373:153,1,76,2|0,3:2|2:0,2:0:0:0:
243,94,145496,2,0,P|219:123|211:160,1,76,2|2,3:2|2:0,2:0:0:0:
346,330,145812,2,0,B|364:256,1,76,8|2,2:0|2:0,2:0:0:0:
308,188,146128,2,0,P|284:217|276:254,1,76,2|2,3:2|2:0,2:0:0:0:
392,176,146444,6,0,P|378:140|350:115,1,76,0|0,3:0|2:0,2:0:0:0:
264,108,146759,2,0,P|249:73|252:35,1,76,2|0,3:2|2:0,2:0:0:0:
392,176,147075,2,0,B|374:250,1,76,8|0,2:0|2:0,2:0:0:0:
296,296,147391,1,0,3:0:0:0:
264,108,147549,1,0,2:0:0:0:
264,108,147628,1,0,2:0:0:0:
264,108,147707,6,0,B|190:90,1,76,4|0,3:2|2:0,2:0:0:0:
100,88,148023,2,0,P|76:117|67:154,1,76,2|0,3:2|2:0,2:0:0:0:
188,296,148338,2,0,B|262:278,1,76,10|0,2:0|2:0,2:0:0:0:
136,228,148654,2,0,P|112:257|103:294,1,76,2|2,3:2|2:0,2:0:0:0:
220,216,148970,6,0,P|206:180|178:155,1,76,0|2,3:0|2:0,2:0:0:0:
88,136,149286,2,0,P|102:100|131:76,1,76,2|0,3:2|2:0,2:0:0:0:
332,96,149602,2,0,B|406:114,1,76,8|0,2:0|2:0,2:0:0:0:
272,156,149917,2,0,P|251:124|247:86,1,76,2|0,3:2|2:0,2:0:0:0:
355,180,150233,6,0,P|337:213|307:234,1,76,2|0,3:2|2:0,2:0:0:0:
204,234,150549,2,0,P|174:213|156:180,1,76,0|2,3:0|2:0,2:0:0:0:
332,96,150865,1,10,2:0:0:0:
256,284,151023,1,8,2:3:0:0:
180,96,151181,1,0,3:0:0:0:
256,184,151338,5,4,3:1:0:0:
256,192,151417,12,0,152759,2:0:0:0:
328,120,153391,5,0,2:0:0:0:
184,120,153707,1,0,2:0:0:0:
296,216,154023,6,0,L|388:180,1,95,2|0,2:0|2:0,2:0:0:0:
296,296,154496,2,0,L|251:278,1,47.5,2|0,2:0|2:0,2:0:0:0:
172,296,154812,2,0,L|127:278,1,47.5,0|0,2:0|2:0,2:0:0:0:
296,216,155128,6,0,L|388:180,1,95,2|0,2:0|2:0,2:0:0:0:
251,278,155602,2,0,P|232:256|220:232,1,47.5,2|0,2:0|2:0,2:0:0:0:
252,124,155917,2,0,P|241:152|227:174,1,47.5,2|0,2:0|2:0,2:0:0:0:
156,196,156233,1,2,2:0:0:0:
156,196,156391,1,0,2:0:0:0:
349,91,156549,6,0,L|384:180,1,95,2|0,2:0|2:0,2:0:0:0:
296,296,157023,2,0,L|251:278,1,47.5,2|0,2:0|2:0,2:0:0:0:
296,216,157338,2,0,L|251:198,1,47.5,2|0,2:0|2:0,2:0:0:0:
349,91,157654,6,0,L|384:180,1,95,2|0,2:0|2:0,2:0:0:0:
266,73,158128,2,0,P|273:50|288:32,1,47.5,0|0,2:0|2:0,2:0:0:0:
288,152,158444,2,0,L|228:146,1,47.5,2|0,2:0|2:0,2:0:0:0:
140,92,158759,2,0,L|199:86,1,47.5,2|0,2:0|2:0,2:0:0:0:
184,208,159075,6,0,L|149:296,1,95,2|0,2:0|2:0,2:0:0:0:
136,140,159549,2,0,L|181:122,1,47.5,2|0,2:0|2:0,2:0:0:0:
124,60,159865,2,0,L|169:42,1,47.5,0|0,2:0|2:0,2:0:0:0:
184,208,160181,6,0,L|149:296,1,95,2|0,2:0|2:0,2:0:0:0:
180,122,160654,2,0,P|203:122|225:131,1,47.5,2|0,2:0|2:0,2:0:0:0:
322,265,160970,5,2,2:0:0:0:
343,257,161049,1,0,2:0:0:0:
359,240,161128,1,0,2:0:0:0:
366,217,161207,1,0,2:0:0:0:
362,194,161286,1,2,2:0:0:0:
348,176,161365,1,0,2:0:0:0:
327,164,161444,1,2,2:0:0:0:
304,164,161523,1,0,2:0:0:0:
256,192,161602,6,0,B|237:288|237:288|281:372|361:340,1,218.5,4|8,3:1|2:0,2:0:0:0:
256,192,162075,2,0,B|182:127|182:127|87:123|75:208,1,218.5,4|0,3:2|3:0,2:0:0:0:
256,192,162549,2,0,B|348:160|348:160|399:80|331:27,1,218.5,12|0,2:0|2:0,2:0:0:0:
120,256,163023,5,2,3:2:0:0:
379,277,163181,1,10,2:0:0:0:
268,42,163338,1,2,3:2:0:0:
164,180,163496,5,10,2:0:0:0:
178,202,163575,1,0,2:0:0:0:
198,221,163654,1,8,2:0:0:0:
223,233,163733,1,0,2:0:0:0:
249,239,163812,1,8,2:0:0:0:
276,238,163891,1,8,2:0:0:0:
302,230,163970,1,8,2:3:0:0:
326,215,164049,1,8,2:3:0:0:
345,192,164128,6,0,B|368:88|368:88|356:56|328:40,1,163.875,4|0,3:1|2:0,2:0:0:0:
248,24,164444,1,10,2:0:0:0:
164,180,164602,2,0,L|168:240,1,54.625,2|8,2:0|2:0,2:0:0:0:
224,300,164759,1,0,3:0:0:0:
260,131,164917,2,0,P|259:77|247:23,1,109.25,2|8,3:2|2:0,2:0:0:0:
344,192,165233,6,0,P|363:252|399:308,2,109.25,2|0|0,3:2|2:0|3:0,2:0:0:0:
164,84,165707,2,0,P|100:108|68:148,1,109.25,10|0,2:0|2:0,2:0:0:0:
224,300,166023,1,2,3:2:0:0:
384,144,166181,1,2,3:2:0:0:
164,180,166338,1,10,2:0:0:0:
368,272,166496,1,0,2:0:0:0:
268,72,166654,6,0,B|232:32|232:32|168:28|144:91,1,163.875,2|0,3:2|2:0,2:0:0:0:
164,180,166970,1,10,2:0:0:0:
264,324,167128,2,0,L|292:268,1,54.625,2|8,2:0|2:0,2:0:0:0:
288,188,167286,1,0,3:0:0:0:
92,244,167444,2,0,P|137:273|190:270,1,109.25,2|8,3:2|2:0,2:0:0:0:
385,162,167759,6,0,B|344:208|288:188|288:188|284:112|240:86,1,218.5,2|0,3:2|3:0,2:0:0:0:
72,92,168233,2,0,P|40:135|31:189,1,109.25,8|0,2:0|2:0,2:0:0:0:
228,368,168549,2,0,L|337:362,1,109.25,2|0,3:2|3:0,2:0:0:0:
249,174,168865,2,0,L|140:180,1,109.25,10|0,2:0|2:0,2:0:0:0:
360,272,169181,6,0,P|410:229|416:132,1,163.875,2|0,3:2|2:0,2:0:0:0:
352,80,169496,1,10,2:0:0:0:
150,126,169654,2,0,L|140:180,1,54.625,2|8,2:0|2:0,2:0:0:0:
176,260,169812,1,0,3:0:0:0:
252,96,169970,2,0,P|220:40|168:20,1,109.25,2|8,3:2|2:0,2:0:0:0:
44,152,170286,6,0,P|40:216|24:272,2,109.25,2|0|0,3:2|2:0|3:0,2:0:0:0:
252,96,170759,2,0,P|304:116|336:160,1,109.25,10|0,2:0|2:0,2:0:0:0:
128,352,171075,1,2,3:2:0:0:
150,126,171233,1,2,3:2:0:0:
229,321,171391,1,10,2:0:0:0:
252,96,171549,1,0,2:0:0:0:
328,292,171707,6,0,P|380:332|468:312,1,109.25,4|0,3:1|2:0,2:0:0:0:
364,168,172023,1,8,2:0:0:0:
151,126,172181,6,0,P|101:146|44:200,1,109.25,4|0,3:2|2:0,2:0:0:0:
160,368,172496,2,0,P|209:345|251:310,1,109.25,0|8,3:0|2:0,2:0:0:0:
366,131,172812,6,0,P|300:60|240:136,1,218.5,4|0,3:1|3:0,2:0:0:0:
364,260,173286,2,0,L|487:249,1,109.25,8|0,2:0|3:0,2:0:0:0:
472,250,173523,1,0,3:0:0:0:
472,250,173602,1,8,2:0:0:0:
304,125,173759,1,8,2:3:0:0:
256,340,173917,1,0,3:0:0:0:
392,168,174075,1,8,1:3:0:0:
216,68,174233,6,0,P|208:144|256:264,1,199.5,4|2,3:2|3:2,2:0:0:0:
304,125,174707,2,0,L|295:24,1,99.7500000000001,2|8,3:2|2:0,2:0:0:0:
120,84,175023,2,0,L|128:184,1,99.7500000000001,2|0,2:0|3:0,2:0:0:0:
316,204,175338,6,0,B|412:176|404:280|504:240,1,199.5,2|8,3:2|2:0,2:0:0:0:
344,284,175812,2,0,P|317:325|318:374,1,99.7500000000001,0|0,2:0|3:0,2:0:0:0:
464,164,176128,1,10,2:0:0:0:
256,60,176286,1,0,2:0:0:0:
256,264,176444,1,2,3:2:0:0:
360,88,176602,1,2,2:0:0:0:
256,263,176759,6,0,P|206:285|152:284,1,109.25,4|0,3:1|2:0,2:0:0:0:
300,160,177075,1,2,3:2:0:0:
300,160,177233,2,0,P|343:192|369:239,1,109.25,2|8,3:2|2:0,2:0:0:0:
184,176,177549,2,0,L|173:60,1,109.25,10|0,2:0|3:0,2:0:0:0:
379,131,177865,6,0,L|369:240,1,109.25,6|0,3:2|2:0,2:0:0:0:
177,274,178181,2,0,P|110:242|91:201,1,109.25,10|0,2:0|2:0,2:0:0:0:
295,16,178496,2,0,P|361:47|380:88,1,109.25,2|8,3:2|2:0,2:0:0:0:
379,131,178733,1,8,2:0:0:0:
374,185,178812,1,10,2:0:0:0:
369,239,178891,1,8,2:0:0:0:
364,294,178970,5,8,2:0:0:0:
351,275,179049,1,8,2:0:0:0:
337,259,179128,1,10,2:0:0:0:
319,246,179207,1,8,2:0:0:0:
300,235,179286,6,0,P|240:228|280:320,1,209,4|8,3:1|2:0,2:0:0:0:
379,131,179759,1,0,2:0:0:0:
379,131,179838,1,8,2:0:0:0:
379,131,179917,1,0,3:0:0:0:
228,60,180075,2,0,P|200:116|200:168,1,104.5,2|8,3:2|2:0,2:0:0:0:
352,232,180391,6,0,B|268:212|200:252|200:252|152:231,1,209,2|0,3:2|3:0,2:0:0:0:
126,54,180865,2,0,P|178:46|228:60,1,104.5,8|0,2:0|2:0,2:0:0:0:
352,232,181181,2,0,P|352:304|368:348,1,104.5,2|0,3:2|3:0,2:0:0:0:
181,270,181496,2,0,P|184:218|172:168,1,104.5,10|0,2:0|2:0,2:0:0:0:
380,132,181812,5,2,3:2:0:0:
368,136,182128,2,0,P|312:152|252:136,1,104.5,8|0,2:0|2:0,2:0:0:0:
200,92,182365,1,8,2:0:0:0:
200,92,182444,1,0,3:0:0:0:
352,232,182602,1,2,3:2:0:0:
360,32,182759,1,10,2:0:0:0:
192,172,182917,6,0,P|172:224|240:376,1,209,2|0,3:2|3:0,2:0:0:0:
352,232,183391,2,0,L|368:120,1,104.5,8|0,2:0|2:0,2:0:0:0:
160,84,183707,2,0,P|216:84|268:115,1,104.5,2|0,3:2|3:0,2:0:0:0:
288,296,184023,1,10,2:0:0:0:
192,172,184181,1,0,2:0:0:0:
192,172,184259,1,0,2:0:0:0:
192,172,184338,6,0,L|87:169,1,104.5,2|0,3:2|2:0,2:0:0:0:
204,296,184654,1,10,2:0:0:0:
257,106,184812,2,0,L|264:40,2,52.25,2|8|0,2:0|2:0|3:0,2:0:0:0:
288,296,185128,2,0,P|334:319|385:318,1,104.5,2|8,3:2|2:0,2:0:0:0:
424,152,185444,6,0,L|434:32,1,104.5,2|0,3:2|2:0,2:0:0:0:
352,232,185759,1,0,3:0:0:0:
263,54,185917,1,10,2:0:0:0:
176,208,186075,2,0,P|124:224|44:224,1,104.5,2|0,2:0|3:0,2:0:0:0:
288,296,186391,1,0,3:0:0:0:
332,116,186549,1,10,2:0:0:0:
352,232,186707,2,0,L|272:208,1,52.25,0|0,2:0|2:0,2:0:0:0:
188,140,186865,6,0,L|180:32,1,104.5,4|0,3:1|3:0,2:0:0:0:
412,60,187181,1,8,2:0:0:0:
412,60,187259,1,0,2:0:0:0:
412,60,187338,6,0,L|404:164,1,104.5,6|0,3:2|2:0,2:0:0:0:
188,140,187654,1,0,3:0:0:0:
188,140,187812,1,8,2:0:0:0:
440,244,187970,6,0,L|432:348,1,104.5,6|0,3:2|2:0,2:0:0:0:
252,256,188286,1,0,3:0:0:0:
404,164,188444,1,12,2:0:0:0:
320,308,188602,2,0,L|315:363,2,52.25,8|8|0,2:3|2:3|2:0,2:0:0:0:
404,164,188917,1,8,2:3:0:0:
252,256,189075,1,4,2:3:0:0:
412,332,189233,1,0,2:0:0:0:
312,184,189391,5,6,2:0:0:0:
256,192,189470,12,2,191759,2:3:0:0:
