osu file format v14

[General]
AudioFilename: ddd.mp3
AudioLeadIn: 0
PreviewTime: 49654
Countdown: 0
SampleSet: Normal
StackLeniency: 0.3
Mode: 0
LetterboxInBreaks: 0
WidescreenStoryboard: 0

[Editor]
Bookmarks: 6972,12454,23425,34397,72797,78283,127654,161944
DistanceSpacing: 0.9
BeatDivisor: 4
GridSize: 32
TimelineZoom: 2.5

[Metadata]
Title:Okochama Sensou
TitleUnicode:おこちゃま戦争
Artist:yuikonnu & ayaponzu*
ArtistUnicode:ゆいこんぬ&あやぽんず*
Creator:Len
Version:Normal
Source:
Tags:ギガ Giga Giga-P ギガP children war vocaloid kagamine len rin Frobe RLC Fast HelloSCV
BeatmapID:990437
BeatmapSetID:394674

[Difficulty]
HPDrainRate:3.8
CircleSize:3
OverallDifficulty:4
ApproachRate:5.3
SliderMultiplier:1.14
SliderTickRate:1

[Events]
//Background and Video events
0,0,"BG.jpg",0,0
//Break Periods
2,12654,19529
2,72996,77129
2,127854,137471
2,161797,171757
//Storyboard Layer 0 (Background)
//Storyboard Layer 1 (Fail)
//Storyboard Layer 2 (Pass)
//Storyboard Layer 3 (Foreground)
//Storyboard Sound Samples

[TimingPoints]
1483,342.857142857143,4,1,53,70,1,0
45368,-100,4,2,53,70,0,0
49483,-100,4,1,53,70,0,0
50854,-100,4,1,53,70,0,1
53597,-100,4,1,53,70,0,0
56340,-100,4,1,53,70,0,1
59083,-100,4,1,53,70,0,0
61825,-100,4,1,53,70,0,1
71425,-100,4,1,53,70,0,0
72797,-100,4,1,53,70,0,1
72883,-100,4,1,53,70,0,0
100225,-100,4,2,53,70,0,0
104340,-100,4,1,53,70,0,0
105711,-100,4,1,53,70,0,1
108454,-100,4,1,53,70,0,0
111197,-100,4,1,53,70,0,1
113940,-100,4,1,53,70,0,0
116683,-100,4,1,53,70,0,1
126283,-100,4,1,53,70,0,0
127654,-100,4,1,53,70,0,1
127740,-100,4,1,53,70,0,0
175654,-100,4,1,53,70,0,1
178397,-100,4,1,54,60,0,0
178483,-100,4,1,53,70,0,0
181140,-100,4,1,53,70,0,1
183883,-100,4,1,53,70,0,0
186625,-100,4,1,53,70,0,1
194854,-100,4,1,54,60,0,0
194940,-100,4,1,53,70,0,0
198625,-100,4,2,53,70,0,0
198968,-100,4,1,53,70,0,1
199054,-100,4,1,53,70,0,0

[Colours]
Combo1 : 255,255,21
Combo2 : 255,147,147
Combo3 : 155,205,255
Combo4 : 255,255,140
Combo5 : 255,0,0
Combo6 : 0,128,255

[HitObjects]
256,192,4225,12,2,5597,0:0:0:0:
192,208,6968,6,0,B|240:180|240:180|354:199,1,171,6|0,0:0|0:0,0:0:0:0:
438,258,7825,2,0,P|455:202|441:144,1,114,0|0,0:0|0:0,0:0:0:0:
353,98,8511,2,0,L|286:85,1,57,0|8,0:0|0:0,0:0:0:0:
228,10,9025,1,2,0:0:0:0:
148,75,9368,1,8,0:0:0:0:
52,37,9711,6,0,P|43:100|25:219,1,171,2|0,0:0|0:0,0:0:0:0:
80,293,10568,2,0,P|133:275|213:282,1,114,0|0,0:0|0:0,0:0:0:0:
258,353,11254,2,0,L|321:365,1,57,0|8,0:0|0:0,0:0:0:0:
412,334,11768,2,0,P|399:268|391:211,1,114,2|8,0:0|0:0,0:0:0:0:
452,138,12454,5,4,0:0:0:0:
256,192,20683,12,4,22054,0:0:0:0:
385,258,23425,6,0,P|314:237|215:213,1,171,6|2,0:0|0:0,0:0:0:0:
142,281,24283,2,0,P|120:230|134:157,1,114,0|0,0:0|0:0,0:0:0:0:
205,108,24968,2,0,L|276:129,2,57,0|8|2,0:0|0:0|0:0,0:0:0:0:
134,33,25654,2,0,L|74:44,1,57,0|8,0:0|0:0,0:0:0:0:
7,118,26168,6,0,P|17:185|27:245,1,114,2|8,0:0|0:0,0:0:0:0:
84,314,26854,2,0,P|146:295|212:275,1,114,0|8,0:0|0:0,0:0:0:0:
292,254,27540,1,0,0:0:0:0:
377,197,27883,2,0,P|394:251|380:305,2,114,8|0|8,0:0|0:0|0:0,0:0:0:0:
286,149,28911,6,0,B|263:99|263:99|268:26|338:15,1,171,2|2,0:0|0:0,0:0:0:0:
397,94,29768,2,0,P|456:88|516:82,2,114,0|0|0,0:0|0:0|0:0,0:0:0:0:
340,180,30797,2,0,P|283:166|265:160,1,57,2|0,0:0|0:0,0:0:0:0:
206,100,31311,1,8,0:0:0:0:
126,164,31654,6,0,P|114:243|108:282,2,114,2|8|0,0:0|0:0|0:0,0:0:0:0:
67,79,32683,1,8,0:0:0:0:
158,33,33025,2,0,B|238:21|238:21|297:42|297:42|384:28,1,228,2|0,0:0|0:0,0:0:0:0:
478,60,34054,1,8,0:0:0:0:
401,128,34397,6,0,B|425:240|425:240|303:209,1,228,6|0,0:0|0:0,0:0:0:0:
249,132,35425,1,8,0:0:0:0:
157,183,35768,2,0,B|169:298|169:298|289:331,1,228,2|0,0:0|0:0,0:0:0:0:
369,374,36797,1,8,0:0:0:0:
450,312,37140,6,0,B|453:252|424:199|424:199|446:143|423:84,1,228,2|0,0:0|0:0,0:0:0:0:
341,31,38168,1,8,0:0:0:0:
273,107,38511,2,0,P|217:99|153:93,1,114,0|8,0:0|0:0,0:0:0:0:
58,73,39197,2,0,P|75:160|81:193,1,114,0|8,0:0|0:0,0:0:0:0:
27,273,39883,6,0,P|66:221|218:269,1,228,2|0,0:0|0:0,0:0:0:0:
245,345,40911,1,8,0:0:0:0:
341,309,41254,2,0,P|348:233|359:124,2,171,2|2|8,0:0|0:0|0:0,0:0:0:0:
441,285,42625,6,0,L|457:105,1,171,2|2,0:0|0:0,0:0:0:0:
380,44,43483,2,0,P|326:44|264:142,1,171,0|2,0:0|0:0,0:0:0:0:
199,212,44340,1,8,0:0:0:0:
118,148,44683,2,0,P|114:87|109:14,1,114,0|8,0:0|0:0,0:0:0:0:
11,61,45368,6,0,L|28:311,1,228,0|0,0:0|0:0,0:0:0:0:
211,377,46740,2,0,P|243:317|401:330,2,228,2|2|2,0:0|0:0|1:0,0:0:0:0:
26,288,48797,5,2,0:0:0:0:
256,192,49483,12,6,50854,0:0:0:0:
370,357,51540,6,0,P|379:291|385:233,1,114,2|8,0:0|0:0,0:0:0:0:
479,205,52225,2,0,P|441:160|287:208,1,228,0|2,0:0|0:0,0:0:0:0:
272,294,53254,1,8,0:0:0:0:
189,354,53597,6,0,P|130:340|61:330,1,114,6|8,0:0|0:3,0:0:0:0:
36,237,54283,2,0,P|23:186|20:166,2,57,8|8|0,0:0|0:3|0:0,0:0:0:0:
129,193,54968,2,0,P|185:201|240:215,1,114,6|8,0:0|0:3,0:0:0:0:
334,173,55654,2,0,P|346:128|317:47,1,114,8|0,0:0|0:0,0:0:0:0:
234,25,56340,6,0,P|166:43|104:63,1,114,6|8,0:0|0:0,0:0:0:0:
28,18,57025,1,2,0:0:0:0:
43,119,57368,1,0,0:0:0:0:
1,212,57711,2,0,P|55:223|121:188,1,114,2|8,0:0|0:0,0:0:0:0:
145,105,58397,2,0,P|199:94|265:129,1,114,2|8,0:0|0:0,0:0:0:0:
304,204,59083,6,0,P|290:280|280:342,1,114,6|8,0:0|0:3,0:0:0:0:
366,376,59768,1,8,0:0:0:0:
461,339,60111,1,0,0:0:0:0:
494,241,60454,2,0,P|484:184|468:115,1,114,6|8,0:0|0:3,0:0:0:0:
396,59,61140,2,0,P|344:81|288:100,1,114,8|8,0:0|0:0,0:0:0:0:
195,59,61825,6,0,P|126:48|50:179,1,228,6|2,0:0|0:0,0:0:0:0:
125,231,62854,1,8,0:0:0:0:
81,323,63197,2,0,P|141:319|199:314,1,114,2|8,0:0|0:0,0:0:0:0:
275,250,63883,2,0,L|289:191,2,57,2|0|8,0:0|0:0|0:0,0:0:0:0:
316,343,64568,5,0,0:0:0:0:
412,377,64911,1,8,0:0:0:0:
474,296,65254,2,0,P|485:230|497:173,1,114,2|8,0:0|0:0,0:0:0:0:
469,138,65768,2,0,B|330:71|339:191|186:110,1,285,0|2,0:0|0:0,0:0:0:0:
97,81,66968,2,0,L|86:15,2,57,8|0|6,0:0|0:0|0:0,0:0:0:0:
30,159,67654,6,0,P|19:235|15:277,1,114,8|2,0:0|0:0,0:0:0:0:
76,354,68340,1,8,0:0:0:0:
156,290,68683,2,0,P|214:276|279:304,1,114,0|8,0:0|0:0,0:0:0:0:
343,358,69368,2,0,P|396:374|451:360,1,114,2|8,0:0|0:0,0:0:0:0:
508,274,70054,5,6,0:0:0:0:
421,218,70397,1,0,0:0:0:0:
478,132,70740,2,0,P|470:94|455:20,1,114,8|0,0:0|0:0,0:0:0:0:
356,50,71425,5,2,0:0:0:0:
259,15,71768,1,2,0:0:0:0:
272,116,72111,2,0,P|251:183|235:236,2,114,2|8|6,0:0|0:0|0:0,0:0:0:0:
37,122,78283,6,0,P|102:112|162:104,1,114,6|8,0:0|0:0,0:0:0:0:
235,48,78968,2,0,P|252:101|240:156,1,114,0|8,0:0|0:0,0:0:0:0:
150,208,79654,2,0,P|137:262|154:316,1,114,2|8,0:0|0:0,0:0:0:0:
250,353,80340,2,0,P|315:343|375:335,1,114,0|8,0:0|0:0,0:0:0:0:
431,259,81025,6,0,L|494:275,2,57,2|0|8,0:0|0:0|0:0,0:0:0:0:
390,164,81711,2,0,L|445:149,2,57,0|0|8,0:0|0:0|0:0,0:0:0:0:
305,105,82397,2,0,P|243:88|179:69,1,114,2|8,0:0|0:0,0:0:0:0:
94,95,83083,1,0,0:0:0:0:
162,170,83425,1,8,0:0:0:0:
93,246,83768,6,0,P|79:316|70:360,1,114,2|8,0:0|0:0,0:0:0:0:
170,334,84454,2,0,P|225:348|286:360,1,114,0|8,0:0|0:0,0:0:0:0:
345,278,85140,2,0,P|400:266|456:252,1,114,2|8,0:0|0:0,0:0:0:0:
502,160,85825,1,0,0:0:0:0:
439,78,86168,1,8,0:0:0:0:
345,120,86511,6,0,P|279:108|112:80,1,228,2|0,0:0|0:0,0:0:0:0:
38,143,87540,1,8,0:0:0:0:
129,190,87883,2,0,P|111:264|99:311,2,114,2|8|0,0:0|0:0|0:0,0:0:0:0:
212,130,88911,1,8,0:0:0:0:
264,217,89254,6,0,P|314:205|395:186,1,114,6|8,0:0|0:0,0:0:0:0:
462,245,89940,2,0,P|474:185|448:124,1,114,0|8,0:0|0:0,0:0:0:0:
364,91,90625,2,0,P|308:104|253:117,1,114,2|8,0:0|0:0,0:0:0:0:
178,46,91311,2,0,P|122:32|67:19,1,114,0|8,0:0|0:0,0:0:0:0:
7,103,91997,6,0,B|4:220|4:220|89:317,1,228,2|0,0:0|0:0,0:0:0:0:
173,266,93025,1,8,0:0:0:0:
231,350,93368,2,0,P|296:371|457:311,1,228,2|0,0:0|0:0,0:0:0:0:
482,229,94397,1,8,0:0:0:0:
414,151,94740,6,0,L|296:180,1,114,2|8,0:0|0:0,0:0:0:0:
232,252,95425,1,0,0:0:0:0:
198,154,95768,1,8,0:0:0:0:
267,78,96111,2,0,L|394:51,2,114,2|8|0,0:0|0:0|0:0,0:0:0:0:
184,16,97140,1,8,0:0:0:0:
100,76,97483,6,0,L|76:206,1,114,2|8,0:0|0:0,0:0:0:0:
59,288,98168,2,0,P|136:272|192:258,1,114,0|8,0:0|0:0,0:0:0:0:
255,321,98854,2,0,P|330:341|390:358,2,114,2|8|0,0:0|0:0|0:0,0:0:0:0:
266,218,99883,1,8,0:0:0:0:
177,165,100225,6,0,P|236:120|365:186,2,228,0|0|2,0:0|0:0|0:0,0:0:0:0:
257,354,102283,1,2,0:0:0:0:
362,178,102968,5,2,1:0:0:0:
166,115,103654,2,0,P|97:125|36:146,1,114,2|2,0:1|0:0,0:0:0:0:
256,192,104340,12,6,105711,0:0:0:0:
362,263,106397,6,0,L|379:141,1,114,2|8,0:0|0:0,0:0:0:0:
306,75,107083,2,0,P|262:53|137:156,1,228,2|2,0:0|0:0,0:0:0:0:
219,208,108111,1,8,0:0:0:0:
169,297,108454,6,0,P|95:282|43:275,2,114,6|8|8,0:0|0:3|0:0,0:0:0:0:
228,381,109483,1,0,0:0:0:0:
321,338,109825,2,0,P|328:272|337:199,1,114,6|8,0:0|0:3,0:0:0:0:
255,157,110511,2,0,L|243:89,2,57,8|8|0,0:0|0:3|0:0,0:0:0:0:
178,225,111197,6,0,P|116:208|60:198,1,114,6|8,0:0|0:0,0:0:0:0:
14,110,111883,1,2,0:0:0:0:
55,16,112225,1,0,0:0:0:0:
142,70,112568,2,0,P|205:61|272:50,1,114,0|8,0:0|0:0,0:0:0:0:
351,18,113254,2,0,P|335:111|328:146,1,114,2|8,0:0|0:0,0:0:0:0:
413,192,113940,6,0,B|455:247|448:298|448:298|403:361|331:344,1,228,6|8,0:0|0:0,0:0:0:0:
280,273,114968,1,0,0:0:0:0:
200,338,115311,2,0,P|134:343|73:350,1,114,4|8,0:0|0:3,0:0:0:0:
126,253,115997,2,0,L|145:197,2,57,8|8|0,0:0|0:3|0:0,0:0:0:0:
43,190,116683,6,0,P|36:131|28:78,1,114,6|8,0:0|0:0,0:0:0:0:
118,29,117368,2,0,P|155:53|228:73,1,114,2|0,0:0|0:0,0:0:0:0:
274,160,118054,1,0,0:0:0:0:
365,114,118397,2,0,L|379:52,2,57,8|0|2,0:0|0:0|0:0,0:0:0:0:
431,192,119083,1,8,0:0:0:0:
370,274,119425,6,0,P|287:289|223:164,1,228,0|2,0:0|0:0,0:0:0:0:
286,102,120454,1,8,0:0:0:0:
213,28,120797,2,0,P|144:40|95:52,1,114,2|8,0:0|0:0,0:0:0:0:
19,113,121483,1,2,0:0:0:0:
109,161,121825,2,0,L|173:148,2,57,8|0|6,0:0|0:0|0:0,0:0:0:0:
47,243,122511,6,0,P|37:291|25:359,1,114,8|2,0:0|0:0,0:0:0:0:
122,319,123197,1,8,0:0:0:0:
211,368,123540,2,0,B|269:364|269:364|316:333|316:333|372:349|372:349|430:338,1,228,0|2,0:0|0:0,0:0:0:0:
504,272,124568,1,8,0:0:0:0:
425,205,124911,6,0,P|416:162|401:78,1,114,6|0,0:0|0:0,0:0:0:0:
306,58,125597,2,0,P|295:114|284:169,1,114,8|0,0:0|0:0,0:0:0:0:
209,240,126283,6,0,P|162:258|87:290,1,114,2|2,0:0|0:0,0:0:0:0:
8,243,126968,1,2,0:0:0:0:
90,181,127311,1,0,0:0:0:0:
47,87,127654,1,6,0:0:0:0:
212,204,138625,6,0,P|286:168|384:264,2,228,6|2|2,0:0|0:0|0:0,0:0:0:0:
156,290,140340,2,0,L|173:357,2,57,8|0|2,0:0|0:0|0:0,0:0:0:0:
62,248,141025,1,8,0:0:0:0:
101,153,141368,6,0,P|85:96|71:42,2,114,2|8|2,0:0|0:0|0:0,0:0:0:0:
189,205,142397,1,0,0:0:0:0:
285,169,142740,2,0,P|301:112|315:58,2,114,2|8|2,0:0|0:0|0:0,0:0:0:0:
310,268,143768,1,8,0:0:0:0:
240,343,144111,6,0,P|311:370|414:268,1,228,2|2,0:0|0:0,0:0:0:0:
368,185,145140,1,8,0:0:0:0:
310,268,145483,2,0,P|246:253|176:235,1,114,2|8,0:0|0:0,0:0:0:0:
100,268,146168,2,0,P|90:213|77:155,1,114,2|8,0:0|0:0,0:0:0:0:
135,71,146854,5,2,0:0:0:0:
219,129,147197,2,0,P|288:111|338:96,2,114,8|2|8,0:0|0:0|0:0,0:0:0:0:
164,215,148225,2,0,P|95:197|45:182,2,114,2|8|2,0:0|0:0|0:0,0:0:0:0:
199,311,149254,1,8,0:0:0:0:
289,263,149597,6,0,P|335:261|399:323,1,114,6|8,0:0|0:0,0:0:0:0:
478,348,150283,2,0,P|488:275|497:224,1,114,2|8,0:0|0:0,0:0:0:0:
434,152,150968,1,2,0:0:0:0:
352,214,151311,2,0,L|361:283,2,57,8|0|2,0:0|0:0|0:0,0:0:0:0:
297,127,151997,1,8,0:0:0:0:
216,191,152340,6,0,P|140:175|84:160,1,114,2|8,0:0|0:0,0:0:0:0:
18,221,153025,2,0,P|30:287|47:356,1,114,2|8,0:0|0:0,0:0:0:0:
140,358,153711,2,0,P|189:335|257:304,1,114,2|8,0:0|0:0,0:0:0:0:
332,259,154397,1,2,0:0:0:0:
243,206,154740,1,8,0:0:0:0:
332,155,155083,6,0,B|394:150|446:162|446:162|422:35,1,228,2|2,0:0|0:0,0:0:0:0:
331,8,156111,1,8,0:0:0:0:
258,81,156454,2,0,P|211:111|137:100,1,114,2|8,0:0|0:0,0:0:0:0:
67,56,157140,2,0,L|51:175,1,114,2|8,0:0|0:0,0:0:0:0:
38,270,157825,5,2,0:0:0:0:
133,233,158168,1,8,0:0:0:0:
188,319,158511,2,0,P|248:335|309:351,1,114,2|8,0:0|0:0,0:0:0:0:
398,323,159197,5,2,0:0:0:0:
324,251,159540,1,8,0:0:0:0:
421,219,159883,2,0,P|425:174|439:97,1,114,2|8,0:0|0:0,0:0:0:0:
401,9,160568,6,0,P|327:35|269:53,2,114,2|2|2,2:0|2:0|2:0,0:0:0:0:
501,32,161597,1,2,0:2:0:0:
256,192,172911,12,0,174283,0:0:0:0:
418,306,175654,6,0,P|350:291|299:280,1,114,6|8,0:0|0:0,0:0:0:0:
243,199,176340,2,0,L|121:222,1,114,2|8,0:0|0:0,0:0:0:0:
82,203,176854,2,0,B|70:173|70:173|83:86,1,114,0|0,0:0|0:0,0:0:0:0:
121,58,177368,1,8,0:0:0:0:
209,110,177711,2,0,L|281:96,1,57,2|0,0:0|0:0,0:0:0:0:
355,50,178225,6,0,P|348:132|341:190,1,114,0|0,0:0|0:0,0:0:0:0:
377,203,178740,1,8,0:3:0:0:
306,277,179083,2,0,P|256:264|189:248,1,114,8|0,0:0|0:0,0:0:0:0:
183,299,179597,2,0,P|127:312|72:326,1,114,8|8,0:3|0:3,0:0:0:0:
27,300,180111,1,8,0:3:0:0:
77,210,180454,2,0,P|69:166|56:96,1,114,8|0,0:0|0:0,0:0:0:0:
142,41,181140,6,0,P|200:53|265:66,1,114,6|8,0:0|0:0,0:0:0:0:
346,20,181825,1,2,0:0:0:0:
430,78,182168,1,8,0:0:0:0:
361,154,182511,2,0,P|370:213|379:280,1,114,2|8,0:0|0:0,0:0:0:0:
287,316,183197,2,0,L|277:381,1,57,2|0,0:0|0:0,0:0:0:0:
177,351,183711,6,0,P|125:358|48:379,1,114,0|8,0:0|0:3,0:0:0:0:
22,344,184225,1,8,0:3:0:0:
83,261,184568,2,0,P|74:213|63:139,1,114,8|0,0:0|0:0,0:0:0:0:
96,108,185083,2,0,P|154:122|222:133,1,114,8|8,0:3|0:3,0:0:0:0:
252,105,185597,1,8,0:3:0:0:
318,182,185940,2,0,P|310:234|301:308,1,114,8|0,0:0|0:0,0:0:0:0:
387,351,186625,6,0,P|445:360|507:329,2,114,6|8|2,0:0|0:0|0:0,0:0:0:0:
433,259,187654,1,8,0:0:0:0:
351,197,187997,2,0,P|293:188|231:219,1,114,2|8,0:0|0:0,0:0:0:0:
173,284,188683,2,0,L|162:356,1,57,2|0,0:0|0:0,0:0:0:0:
61,345,189197,6,0,L|81:222,1,114,0|0,0:0|0:0,0:0:0:0:
44,194,189711,1,8,0:0:0:0:
103,110,190054,2,0,P|155:109|210:152,1,114,2|8,0:0|0:0,0:0:0:0:
239,180,190568,2,0,L|214:298,1,114,0|0,0:0|0:0,0:0:0:0:
294,357,191254,2,0,L|354:338,1,57,0|2,0:0|0:0,0:0:0:0:
403,253,191768,2,0,L|457:270,2,57,8|0|6,0:0|0:0|0:0,0:0:0:0:
334,176,192454,6,0,P|324:117|310:38,1,114,8|2,0:0|0:0,0:0:0:0:
218,26,193140,1,8,0:0:0:0:
146,99,193483,2,0,P|91:90|29:80,1,114,0|8,0:0|0:0,0:0:0:0:
23,182,194168,2,0,P|79:191|135:200,1,114,2|8,0:0|0:0,0:0:0:0:
167,241,194683,6,0,P|222:232|284:222,1,114,0|0,0:0|0:0,0:0:0:0:
307,179,195197,1,0,0:0:0:0:
384,246,195540,2,0,P|370:315|362:370,1,114,8|0,0:0|0:0,0:0:0:0:
268,319,196225,6,0,L|203:333,1,57,0|2,0:0|0:0,0:0:0:0:
168,357,196568,2,0,L|150:227,1,114,2|2,0:0|0:0,0:0:0:0:
123,145,197254,2,0,L|155:16,1,114,2|2,0:0|0:0,0:0:0:0:
256,37,197940,2,0,L|318:55,1,57,2|2,0:0|0:0,0:0:0:0:
338,96,198283,2,0,P|395:81|458:66,1,114,2|0,0:0|0:0,0:0:0:0:
500,156,198968,5,6,0:0:0:0:
433,234,199311,2,0,P|375:248|314:219,1,114,8|2,0:0|0:0,0:0:0:0:
259,150,199997,1,8,0:0:0:0:
166,194,200340,2,0,L|145:309,2,114,2|8|2,0:0|0:0|0:0,0:0:0:0:
95,119,201368,1,8,0:0:0:0:
162,41,201711,6,0,B|285:25|246:98|403:65,1,228,2|2,0:0|0:0,0:0:0:0:
469,11,202740,1,8,0:0:0:0:
479,113,203083,2,0,P|490:193|496:238,1,114,2|8,0:0|0:0,0:0:0:0:
415,291,203768,2,0,L|404:369,2,57,2|2|10,0:0|0:0|0:0,0:0:0:0:
327,236,204454,6,0,P|268:221|177:291,1,171,6|0,0:0|0:0,0:0:0:0:
139,372,205311,2,0,P|82:363|19:355,1,114,0|0,0:0|0:0,0:0:0:0:
13,253,205997,2,0,L|83:262,1,57,0|8,0:0|0:0,0:0:0:0:
150,197,206511,2,0,L|169:123,2,57,2|0|8,0:0|0:0|0:0,0:0:0:0:
206,283,207197,6,0,P|258:299|345:224,1,171,2|0,0:0|0:0,0:0:0:0:
287,146,208054,2,0,P|304:94|328:24,1,114,0|0,0:0|0:0,0:0:0:0:
424,57,208740,2,0,L|441:173,1,114,0|0,0:0|0:0,0:0:0:0:
475,207,209254,6,0,L|459:271,2,57,2|0|6,0:0|0:0|2:1,0:0:0:0:
